osu file format v14

[General]
AudioFilename: audio.mp3
AudioLeadIn: 0
PreviewTime: 53999
Countdown: 0
SampleSet: Soft
StackLeniency: 0.0
Mode: 0
LetterboxInBreaks: 0
WidescreenStoryboard: 1

[Editor]
DistanceSpacing: 0.1
BeatDivisor: 4
GridSize: 32
TimelineZoom: 1.5

[Metadata]
Title:Euphoria
TitleUnicode:Euphoria
Artist:Panda Eyes
ArtistUnicode:Panda Eyes
Creator:YokesPai
Version:Unsatisfying (AR9.5)
Source:
Tags:
BeatmapID:1895488
BeatmapSetID:908329

[Difficulty]
HPDrainRate:5
CircleSize:5
OverallDifficulty:9
ApproachRate:9.5
SliderMultiplier:2
SliderTickRate:1

[Events]
//Background and Video events
0,0,"euphoria_by_brukhar.jpg",0,0
//Break Periods
//Storyboard Layer 0 (Background)
//Storyboard Layer 1 (Fail)
//Storyboard Layer 2 (Pass)
//Storyboard Layer 3 (Foreground)
//Storyboard Sound Samples

[TimingPoints]
379,344.827586206897,4,2,0,50,1,0
379,-200,4,2,0,50,0,0
3137,-215.05376344086,4,2,0,50,0,0
33482,-200,4,2,0,50,0,0
38999,-133.333333333333,4,2,0,50,0,0
55551,-66.6666666666667,4,2,0,50,0,1
58310,-66.6666666666667,4,2,0,50,0,0
58654,-66.6666666666667,4,2,0,50,0,1
61068,-66.6666666666667,4,2,0,50,0,0
61413,-66.6666666666667,4,2,0,50,0,1
63827,-66.6666666666667,4,2,0,50,0,0
64172,-66.6666666666667,4,2,0,50,0,1
66585,-66.6666666666667,4,2,0,50,0,0
66930,-66.6666666666667,4,2,0,50,0,1
69344,-66.6666666666667,4,2,0,50,0,0
69689,-66.6666666666667,4,2,0,50,0,1
72103,-66.6666666666667,4,2,0,50,0,0
72447,-66.6666666666667,4,2,0,50,0,1
74861,-66.6666666666667,4,2,0,50,0,0
75206,-66.6666666666667,4,2,0,50,0,1
76241,-66.6666666666667,4,2,0,50,0,0
77965,-66.6666666666667,4,2,0,50,0,1
80379,-66.6666666666667,4,2,0,50,0,0
80723,-66.6666666666667,4,2,0,50,0,1
83137,-66.6666666666667,4,2,0,50,0,0
83482,-66.6666666666667,4,2,0,50,0,1
85896,-66.6666666666667,4,2,0,50,0,0
86241,-66.6666666666667,4,2,0,50,0,1
87275,-133.333333333333,4,2,0,50,0,0
89344,-66.6666666666667,4,2,0,50,0,1
97275,-100,4,2,0,50,0,1
98310,-200,4,2,0,50,0,0
99689,-100,4,2,0,50,0,0
113482,-111.111111111111,4,2,0,50,0,0
116241,-125,4,2,0,50,0,0
118999,-142.857142857143,4,2,0,50,0,0
121844,-142.857142857143,4,2,0,40,0,0
122447,-142.857142857143,4,2,0,25,0,0
123137,-142.857142857143,4,2,0,10,0,0
123827,-142.857142857143,4,2,0,5,0,0

[Colours]
Combo1 : 230,0,0
Combo2 : 74,165,255
Combo3 : 255,154,53
Combo4 : 30,142,255
Combo5 : 230,111,13
Combo6 : 192,192,192
Combo7 : 128,128,128
Combo8 : 255,96,96

[HitObjects]
59,32,379,70,0,B|43:108|71:177|71:177|51:204|57:246|57:246|105:247|124:207|124:207|218:231|272:190|272:190|216:145|122:151|122:151|124:114|102:47,1,700
492,98,3137,6,0,B|505:148|481:182|481:182|511:217|501:264|501:264|450:276|416:252|416:252|381:282|334:272|334:272|321:222|345:188|345:188|315:153|325:106|325:106|375:93|409:117|409:117|424:96|444:87,1,651.000020363618
85,358,5896,102,0,B|162:340|229:360|229:360|264:360|289:344|289:344|272:312|236:296|236:296|171:297|127:271|127:271|191:210|271:194|271:194|219:173|190:153,1,651.000020363618
498,367,8654,6,0,B|455:298|463:192|463:192|426:291|356:346|356:346|325:270|345:157|345:157|291:134|264:121,1,651.000020363618
44,153,11413,102,0,B|85:203|164:216|164:216|218:221|272:194|272:194|236:179|236:179|203:164|167:107|223:40|287:62|287:62|369:98|369:98|403:114|410:143|408:158,1,651.000020363618
384,25,14172,6,0,B|547:92|488:242|453:258|352:252|337:178|337:178|377:217|386:297|386:297|299:258|299:258|286:264|272:268,1,651.000020363618
96,348,16930,102,0,B|171:365|239:328|239:328|201:303|204:256|204:256|208:210|191:173|191:173|172:130|139:97|4:88|18:260|69:282|163:257|127:193,1,651.000020363618
256,192,19689,12,0,22103,0:0:0:0:
509,383,22447,53,0,0:0:0:0:
476,382,22619,1,0,0:0:0:0:
444,377,22791,1,0,0:0:0:0:
414,366,22964,1,0,0:0:0:0:
385,351,23136,1,0,0:0:0:0:
360,331,23309,1,0,0:0:0:0:
338,307,23481,1,0,0:0:0:0:
321,280,23653,1,0,0:0:0:0:
3,383,23827,5,0,0:0:0:0:
35,382,23999,1,0,0:0:0:0:
67,377,24171,1,0,0:0:0:0:
97,366,24344,1,0,0:0:0:0:
126,351,24516,1,0,0:0:0:0:
151,331,24689,1,0,0:0:0:0:
173,307,24861,1,0,0:0:0:0:
190,280,25033,1,0,0:0:0:0:
321,280,25206,5,0,0:0:0:0:
350,257,25379,1,0,0:0:0:0:
380,234,25551,1,0,0:0:0:0:
350,211,25723,1,0,0:0:0:0:
321,188,25896,1,0,0:0:0:0:
350,165,26069,1,0,0:0:0:0:
380,142,26241,1,0,0:0:0:0:
350,119,26413,1,0,0:0:0:0:
190,280,26585,5,0,0:0:0:0:
161,257,26758,1,0,0:0:0:0:
131,234,26930,1,0,0:0:0:0:
161,211,27102,1,0,0:0:0:0:
190,188,27275,1,0,0:0:0:0:
161,165,27448,1,0,0:0:0:0:
131,142,27620,1,0,0:0:0:0:
161,119,27792,1,0,0:0:0:0:
399,312,27965,69,0,0:0:0:0:
434,246,28137,1,0,0:0:0:0:
395,184,28310,1,0,0:0:0:0:
430,118,28482,1,0,0:0:0:0:
360,250,28654,1,0,0:0:0:0:
321,188,28827,1,0,0:0:0:0:
356,122,28999,1,0,0:0:0:0:
317,60,29172,1,0,0:0:0:0:
112,312,29344,5,0,0:0:0:0:
77,246,29516,1,0,0:0:0:0:
116,184,29689,1,0,0:0:0:0:
81,118,29861,1,0,0:0:0:0:
151,250,30033,1,0,0:0:0:0:
190,188,30206,1,0,0:0:0:0:
155,122,30378,1,0,0:0:0:0:
194,60,30551,1,0,0:0:0:0:
256,384,30723,5,0,0:0:0:0:
283,354,30896,1,0,0:0:0:0:
230,327,31068,1,0,0:0:0:0:
305,295,31241,1,0,0:0:0:0:
207,260,31413,1,0,0:0:0:0:
320,212,31585,1,0,0:0:0:0:
190,188,31758,1,0,0:0:0:0:
327,125,31930,1,0,0:0:0:0:
256,192,32103,12,0,33137,0:0:0:0:
12,288,33482,85,0,0:0:0:0:
4,264,33568,1,0,0:0:0:0:
0,239,33654,1,0,0:0:0:0:
0,214,33740,1,0,0:0:0:0:
5,190,33827,2,0,L|12:166,3,25
62,94,34172,5,0,0:0:0:0:
69,117,34258,1,0,0:0:0:0:
73,142,34344,1,0,0:0:0:0:
73,167,34430,1,0,0:0:0:0:
68,191,34517,2,0,L|60:214,3,25
132,320,34861,5,0,0:0:0:0:
124,296,34947,1,0,0:0:0:0:
120,271,35033,1,0,0:0:0:0:
120,246,35119,1,0,0:0:0:0:
125,222,35206,2,0,L|132:198,3,25
199,83,35551,5,0,0:0:0:0:
206,106,35637,1,0,0:0:0:0:
210,131,35723,1,0,0:0:0:0:
210,156,35809,1,0,0:0:0:0:
205,180,35896,2,0,L|197:203,3,25
274,289,36241,69,0,0:0:0:0:
266,265,36327,1,0,0:0:0:0:
262,240,36413,1,0,0:0:0:0:
262,215,36499,1,0,0:0:0:0:
267,191,36586,2,0,L|274:167,1,25
287,106,36758,2,0,L|279:82,1,25
345,69,36930,5,0,0:0:0:0:
353,93,37016,1,0,0:0:0:0:
357,118,37102,1,0,0:0:0:0:
357,143,37188,1,0,0:0:0:0:
352,167,37275,2,0,L|344:190,1,25
332,252,37447,2,0,L|339:275,1,25
423,341,37620,5,0,0:0:0:0:
415,317,37706,1,0,0:0:0:0:
411,292,37792,1,0,0:0:0:0:
411,267,37878,1,0,0:0:0:0:
416,243,37965,2,0,L|423:219,1,25
436,158,38137,2,0,L|428:134,1,25
500,19,38309,5,0,0:0:0:0:
508,43,38395,1,0,0:0:0:0:
512,68,38481,1,0,0:0:0:0:
512,93,38567,1,0,0:0:0:0:
507,117,38654,2,0,L|499:140,1,25
487,202,38827,2,0,L|494:225,1,25
474,362,38999,69,0,0:0:0:0:
451,352,39085,1,0,0:0:0:0:
423,341,39172,1,0,0:0:0:0:
389,331,39258,1,0,0:0:0:0:
350,323,39344,1,0,0:0:0:0:
305,318,39430,1,0,0:0:0:0:
255,318,39516,2,0,L|217:323,1,37.5000014305115
48,299,39689,5,0,0:0:0:0:
71,289,39775,1,0,0:0:0:0:
99,278,39862,1,0,0:0:0:0:
133,268,39948,1,0,0:0:0:0:
172,260,40034,1,0,0:0:0:0:
217,255,40120,1,0,0:0:0:0:
267,255,40206,2,0,L|304:260,1,37.5000014305115
490,231,40379,5,0,0:0:0:0:
467,221,40465,1,0,0:0:0:0:
439,210,40552,1,0,0:0:0:0:
405,200,40638,1,0,0:0:0:0:
366,192,40724,1,0,0:0:0:0:
321,187,40810,1,0,0:0:0:0:
271,187,40896,2,0,L|233:192,1,37.5000014305115
29,154,41069,5,0,0:0:0:0:
52,144,41155,1,0,0:0:0:0:
80,133,41242,1,0,0:0:0:0:
114,123,41328,1,0,0:0:0:0:
153,115,41414,1,0,0:0:0:0:
198,110,41500,1,0,0:0:0:0:
248,110,41586,2,0,L|285:115,1,37.5000014305115
384,79,41758,5,0,0:0:0:0:
355,65,41844,1,0,0:0:0:0:
325,50,41930,1,0,0:0:0:0:
295,35,42016,1,0,0:0:0:0:
266,21,42103,1,0,0:0:0:0:
236,32,42189,1,0,0:0:0:0:
204,42,42275,1,0,0:0:0:0:
172,53,42361,1,0,0:0:0:0:
143,64,42447,1,0,0:0:0:0:
129,93,42533,1,0,0:0:0:0:
114,123,42619,1,0,0:0:0:0:
99,153,42705,1,0,0:0:0:0:
85,181,42792,1,0,0:0:0:0:
96,211,42878,1,0,0:0:0:0:
106,243,42964,1,0,0:0:0:0:
117,275,43050,1,0,0:0:0:0:
128,305,43137,5,0,0:0:0:0:
157,319,43223,1,0,0:0:0:0:
187,334,43309,1,0,0:0:0:0:
217,349,43395,1,0,0:0:0:0:
245,362,43482,1,0,0:0:0:0:
275,351,43568,1,0,0:0:0:0:
307,341,43654,1,0,0:0:0:0:
339,330,43740,1,0,0:0:0:0:
369,320,43826,1,0,0:0:0:0:
383,291,43912,1,0,0:0:0:0:
398,261,43998,1,0,0:0:0:0:
413,231,44084,1,0,0:0:0:0:
426,202,44171,1,0,0:0:0:0:
415,172,44257,1,0,0:0:0:0:
405,140,44343,1,0,0:0:0:0:
394,108,44429,1,0,0:0:0:0:
384,79,44516,101,0,0:0:0:0:
381,76,44861,21,0,0:0:0:0:
364,152,45034,1,0,0:0:0:0:
437,134,45206,1,0,0:0:0:0:
311,97,45379,1,0,0:0:0:0:
417,207,45551,1,0,0:0:0:0:
457,61,45723,1,0,0:0:0:0:
291,170,45896,5,0,0:0:0:0:
417,207,46068,1,0,0:0:0:0:
218,188,46241,1,0,0:0:0:0:
364,152,46414,1,0,0:0:0:0:
165,133,46585,1,0,0:0:0:0:
271,243,46758,1,0,0:0:0:0:
72,224,46930,1,0,0:0:0:0:
238,115,47103,1,0,0:0:0:0:
251,316,47275,69,0,0:0:0:0:
248,313,47620,21,0,0:0:0:0:
271,243,47792,1,0,0:0:0:0:
198,263,47965,1,0,0:0:0:0:
325,297,48137,1,0,0:0:0:0:
218,188,48310,1,0,0:0:0:0:
178,336,48482,1,0,0:0:0:0:
291,170,48654,5,0,0:0:0:0:
325,297,48827,1,0,0:0:0:0:
238,115,48999,1,0,0:0:0:0:
198,263,49172,1,0,0:0:0:0:
364,152,49344,1,0,0:0:0:0:
251,316,49516,1,0,0:0:0:0:
311,97,49689,1,0,0:0:0:0:
379,351,49861,1,0,0:0:0:0:
125,283,50034,5,0,0:0:0:0:
122,280,50379,5,0,0:0:0:0:
198,263,50551,1,0,0:0:0:0:
92,157,50723,5,0,0:0:0:0:
145,210,50896,1,0,0:0:0:0:
185,64,51068,5,0,0:0:0:0:
218,188,51240,1,0,0:0:0:0:
112,84,51413,69,0,0:0:0:0:
238,115,51585,1,0,0:0:0:0:
165,137,51758,5,0,0:0:0:0:
311,93,51930,1,0,0:0:0:0:
258,44,52103,5,0,0:0:0:0:
344,219,52275,1,0,0:0:0:0:
384,71,52447,5,0,0:0:0:0:
324,292,52620,1,0,0:0:0:0:
397,272,52792,5,0,0:0:0:0:
198,263,52965,1,0,0:0:0:0:
417,199,53137,21,0,0:0:0:0:
145,210,53310,1,0,0:0:0:0:
437,126,53482,101,0,0:0:0:0:
92,157,53654,1,0,0:0:0:0:
457,53,53827,21,0,0:0:0:0:
39,104,53999,1,0,0:0:0:0:
344,219,54172,5,0,0:0:0:0:
198,263,54344,1,0,0:0:0:0:
338,277,54516,5,0,0:0:0:0:
203,204,54688,1,0,0:0:0:0:
293,314,54861,5,0,0:0:0:0:
249,168,55033,1,0,0:0:0:0:
234,308,55205,5,0,0:0:0:0:
307,173,55379,1,0,0:0:0:0:
270,240,55551,6,0,B|258:222|258:222|257:259|257:259|266:246,1,75.0000028610231
267,237,55896,85,0,0:0:0:0:
203,204,56068,1,0,0:0:0:0:
200,127,56241,1,0,0:0:0:0:
333,120,56413,5,0,0:0:0:0:
203,204,56585,1,0,0:0:0:0:
341,275,56758,1,0,0:0:0:0:
200,127,56930,37,0,0:0:0:0:
400,156,57103,1,0,0:0:0:0:
203,204,57275,1,0,0:0:0:0:
403,233,57448,1,0,0:0:0:0:
206,281,57620,1,0,0:0:0:0:
406,310,57792,1,0,0:0:0:0:
266,84,57965,5,0,0:0:0:0:
344,352,58136,1,0,0:0:0:0:
72,285,58310,86,0,B|85:301|85:301|83:264|83:264|75:278,1,75.0000028610231
69,282,58654,69,0,0:0:0:0:
137,245,58827,1,0,0:0:0:0:
206,281,58999,1,0,0:0:0:0:
67,132,59172,5,0,0:0:0:0:
137,245,59344,1,0,0:0:0:0:
200,127,59516,1,0,0:0:0:0:
141,321,59689,37,0,0:0:0:0:
344,352,59861,1,0,0:0:0:0:
137,245,60034,1,0,0:0:0:0:
340,276,60206,1,0,0:0:0:0:
133,169,60379,1,0,0:0:0:0:
336,200,60551,1,0,0:0:0:0:
72,285,60723,5,0,0:0:0:0:
266,84,60896,1,0,0:0:0:0:
344,352,61068,86,0,B|351:332|351:332|320:352|320:352|336:352,1,75.0000028610231
341,349,61413,69,0,0:0:0:0:
403,234,61585,1,0,0:0:0:0:
472,346,61758,1,0,0:0:0:0:
340,276,61930,5,0,0:0:0:0:
466,192,62103,1,0,0:0:0:0:
334,122,62275,1,0,0:0:0:0:
398,85,62447,37,0,0:0:0:0:
399,159,62620,1,0,0:0:0:0:
340,276,62792,1,0,0:0:0:0:
336,200,62965,1,0,0:0:0:0:
265,10,63137,1,0,0:0:0:0:
266,84,63310,1,0,0:0:0:0:
210,282,63482,5,0,0:0:0:0:
202,48,63654,1,0,0:0:0:0:
399,159,63827,86,0,B|385:142|385:142|387:179|387:179|395:165,1,75.0000028610231
396,156,64172,69,0,0:0:0:0:
210,282,64344,1,0,0:0:0:0:
336,200,64516,1,0,0:0:0:0:
266,84,64689,5,0,0:0:0:0:
334,122,64861,1,0,0:0:0:0:
268,162,65034,1,0,0:0:0:0:
75,51,65206,5,0,0:0:0:0:
266,84,65379,1,0,0:0:0:0:
457,117,65551,5,0,0:0:0:0:
266,84,65724,1,0,0:0:0:0:
76,125,65896,5,0,0:0:0:0:
266,84,66068,1,0,0:0:0:0:
456,43,66241,5,0,0:0:0:0:
266,84,66413,1,0,0:0:0:0:
397,229,66585,86,0,B|408:211|408:211|373:222|373:222|389:226,1,75.0000028610231
394,226,66930,69,0,0:0:0:0:
302,249,67103,1,0,0:0:0:0:
368,318,67275,1,0,0:0:0:0:
331,160,67447,5,0,0:0:0:0:
273,338,67620,1,0,0:0:0:0:
463,298,67792,1,0,0:0:0:0:
302,249,67965,37,0,0:0:0:0:
463,298,68137,1,0,0:0:0:0:
331,160,68310,1,0,0:0:0:0:
273,338,68482,1,0,0:0:0:0:
268,90,68654,1,0,0:0:0:0:
492,209,68827,1,0,0:0:0:0:
178,358,68999,5,0,0:0:0:0:
205,11,69172,1,0,0:0:0:0:
492,209,69344,86,0,B|482:189|482:189|472:224|472:224|484:212,1,75.0000028610231
489,206,69689,69,0,0:0:0:0:
463,298,69861,1,0,0:0:0:0:
397,229,70034,1,0,0:0:0:0:
273,338,70206,5,0,0:0:0:0:
239,179,70379,1,0,0:0:0:0:
397,229,70551,1,0,0:0:0:0:
207,269,70723,37,0,0:0:0:0:
368,318,70896,1,0,0:0:0:0:
239,179,71068,1,0,0:0:0:0:
178,358,71241,1,0,0:0:0:0:
173,110,71413,1,0,0:0:0:0:
397,229,71585,1,0,0:0:0:0:
80,132,71758,5,0,0:0:0:0:
359,66,71930,1,0,0:0:0:0:
273,338,72102,86,0,B|285:320|285:320|250:328|250:328|265:333,1,75.0000028610231
270,335,72447,69,0,0:0:0:0:
207,269,72620,1,0,0:0:0:0:
145,200,72792,1,0,0:0:0:0:
302,249,72965,5,0,0:0:0:0:
178,358,73137,1,0,0:0:0:0:
145,200,73310,1,0,0:0:0:0:
273,338,73482,37,0,0:0:0:0:
302,249,73654,1,0,0:0:0:0:
173,110,73827,1,0,0:0:0:0:
145,200,73999,1,0,0:0:0:0:
397,229,74172,1,0,0:0:0:0:
331,160,74344,1,0,0:0:0:0:
83,378,74516,5,0,0:0:0:0:
463,298,74689,1,0,0:0:0:0:
201,6,74861,86,0,B|189:24|189:24|224:16|224:16|209:11,1,75.0000028610231
204,9,75206,69,0,0:0:0:0:
145,200,75379,1,0,0:0:0:0:
331,160,75551,1,0,0:0:0:0:
173,110,75723,5,0,0:0:0:0:
239,179,75896,1,0,0:0:0:0:
268,90,76068,1,0,0:0:0:0:
114,289,76241,5,0,0:0:0:0:
463,298,76414,1,0,0:0:0:0:
397,229,76586,5,0,0:0:0:0:
83,378,76758,1,0,0:0:0:0:
114,289,76930,5,0,0:0:0:0:
463,298,77103,1,0,0:0:0:0:
397,229,77275,5,0,0:0:0:0:
83,378,77447,1,0,0:0:0:0:
110,31,77620,85,0,0:0:0:0:
107,28,77965,38,0,B|103:65|131:96|131:96|92:103|71:138,2,150.000005722046
146,180,78482,1,0,0:0:0:0:
193,36,78654,2,0,B|213:74|251:80|251:80|291:86|311:120,1,150.000005722046
239,162,78999,5,0,0:0:0:0:
265,2,79172,1,0,0:0:0:0:
377,232,79344,2,0,B|340:225|316:193|316:193|329:156|311:120,1,150.000005722046
401,120,79689,5,0,0:0:0:0:
209,252,79861,1,0,0:0:0:0:
356,43,80034,1,0,0:0:0:0:
116,270,80206,1,0,0:0:0:0:
53,198,80379,5,0,0:0:0:0:
446,197,80551,1,0,0:0:0:0:
377,232,80723,70,0,B|312:269|312:269|278:290|265:325,1,150.000005722046
470,344,81068,2,0,B|433:279|433:279|412:245|376:232|376:232|340:219|319:185|319:185|282:120,1,300.000011444092
379,375,81585,1,0,0:0:0:0:
428,114,81758,6,0,B|373:112|342:58|342:58|322:20,1,150.000005722046
177,98,82103,2,0,B|213:162|213:162|233:197|214:235,1,150.000005722046
444,0,82447,5,0,0:0:0:0:
150,199,82620,1,0,0:0:0:0:
322,20,82792,1,0,0:0:0:0:
214,235,82965,1,0,0:0:0:0:
151,273,83137,5,0,0:0:0:0:
200,40,83310,1,0,0:0:0:0:
279,136,83482,70,0,P|207:116|139:143,1,150.000005722046
214,235,83827,2,0,P|157:346|82:245,1,300.000011444092
139,143,84344,1,0,0:0:0:0:
277,355,84516,6,0,P|300:285|287:212,1,150.000005722046
75,45,84861,2,0,P|28:102|26:176,1,150.000005722046
214,235,85206,5,0,0:0:0:0:
26,176,85379,1,0,0:0:0:0:
287,212,85551,1,0,0:0:0:0:
75,45,85723,1,0,0:0:0:0:
29,103,85896,5,0,0:0:0:0:
301,285,86068,1,0,0:0:0:0:
358,237,86241,70,0,B|353:208|341:184|341:184|326:156|294:142|260:157,1,150.000005722046
392,140,86585,2,0,B|339:63|248:75|213:108|213:108|188:133|186:166|204:198,1,300.000011444092
460,218,87103,1,0,0:0:0:0:
260,156,87275,53,0,0:0:0:0:
287,212,87447,1,0,0:0:0:0:
290,218,87620,1,0,0:0:0:0:
293,224,87792,1,0,0:0:0:0:
296,230,87965,2,0,B|309:261|298:299|298:299|306:304|306:304|297:342|305:373,1,150.000005722046
435,340,88654,5,0,0:0:0:0:
435,340,89344,22,0,B|493:205|416:69|416:69|393:143|363:207|363:207|351:173|320:157|290:158,1,525.000020027161
296,229,90034,6,0,P|232:198|228:126,1,150.000005722046
359,22,90379,2,0,B|333:95|333:95|295:82|262:94,1,150.000005722046
126,199,90723,5,0,0:0:0:0:
261,94,90896,1,0,0:0:0:0:
69,159,91068,1,0,0:0:0:0:
290,158,91241,1,0,0:0:0:0:
120,269,91413,5,0,0:0:0:0:
331,101,91585,1,0,0:0:0:0:
401,108,91758,5,0,0:0:0:0:
114,339,91930,1,0,0:0:0:0:
373,44,92103,54,0,B|428:24|479:62|469:122|469:122|460:178|464:235|464:235|421:190|367:163|367:163|325:183|291:158|291:158|272:182|245:188,1,525.000020027161
331,101,92792,5,0,0:0:0:0:
227,111,92965,2,0,P|172:158|178:230,2,150.000005722046
401,108,93482,5,0,0:0:0:0:
178,230,93654,1,0,0:0:0:0:
466,144,93827,1,0,0:0:0:0:
227,111,93999,1,0,0:0:0:0:
257,332,94172,5,0,0:0:0:0:
173,157,94344,1,0,0:0:0:0:
160,87,94516,5,0,0:0:0:0:
367,164,94689,1,0,0:0:0:0:
83,326,94861,54,0,B|20:254|42:168|97:125|97:125|134:182|214:164|227:111|227:111|243:63|286:38|334:52,1,525.000020027161
309,131,95551,5,0,0:0:0:0:
32,85,95723,2,0,B|55:56|101:50|101:50|140:58|160:87,2,150.000005722046
178,230,96241,5,0,0:0:0:0:
96,126,96413,1,0,0:0:0:0:
83,326,96585,1,0,0:0:0:0:
331,51,96758,1,0,0:0:0:0:
226,116,96930,5,0,0:0:0:0:
178,230,97103,1,0,0:0:0:0:
301,215,97275,2,0,L|303:315,1,100
331,51,97620,2,0,L|337:350,1,300
366,70,98310,21,0,0:0:0:0:
369,213,98482,1,0,0:0:0:0:
369,221,98654,1,0,0:0:0:0:
369,229,98827,1,0,0:0:0:0:
369,237,98999,2,0,L|370:336,1,100
398,353,99430,2,0,L|398:377,2,25
420,337,99689,53,0,0:0:0:0:
442,245,99861,2,0,L|440:145,1,100
342,22,100206,5,0,0:0:0:0:
367,113,100378,2,0,P|369:168|368:212,1,100
275,337,100723,5,0,0:0:0:0:
297,243,100895,2,0,P|299:194|299:144,1,100
204,41,101241,5,0,0:0:0:0:
228,132,101413,2,0,P|231:181|229:231,1,100
137,339,101758,5,0,0:0:0:0:
158,245,101930,2,0,P|163:195|162:145,1,100
102,50,102275,1,0,0:0:0:0:
99,47,102447,53,0,0:0:0:0:
46,133,102620,2,0,P|44:182|49:232,1,100
183,334,102965,5,0,0:0:0:0:
126,250,103138,2,0,P|117:200|116:151,1,100
244,48,103482,5,0,0:0:0:0:
192,131,103655,2,0,P|189:180|196:230,1,100
334,327,103999,5,0,0:0:0:0:
276,234,104172,2,0,P|262:187|265:137,1,100
410,39,104516,5,0,0:0:0:0:
353,121,104689,2,0,P|335:164|353:221,1,100
431,318,105034,1,0,0:0:0:0:
428,315,105206,53,0,0:0:0:0:
415,171,105379,2,0,L|434:269,1,100
361,70,105723,5,0,0:0:0:0:
348,214,105896,2,0,L|367:115,1,100
303,317,106241,5,0,0:0:0:0:
290,173,106414,2,0,L|309:271,1,100
236,72,106758,5,0,0:0:0:0:
223,216,106931,2,0,L|242:117,1,100
179,315,107275,5,0,0:0:0:0:
166,171,107448,2,0,L|185:269,1,100
35,53,107792,1,0,0:0:0:0:
32,50,107965,53,0,0:0:0:0:
30,182,108137,2,0,L|57:85,1,100
100,335,108482,5,0,0:0:0:0:
98,203,108654,2,0,L|125:299,1,100
169,52,108999,5,0,0:0:0:0:
167,184,109171,2,0,L|194:87,1,100
237,337,109516,5,0,0:0:0:0:
167,184,109689,1,0,0:0:0:0:
290,70,109861,1,0,0:0:0:0:
436,152,110034,6,0,L|439:201,2,50
404,317,110379,2,0,L|400:267,2,50
307,212,110723,53,0,0:0:0:0:
237,337,110896,2,0,P|231:288|254:244,1,100
307,212,111241,5,0,0:0:0:0:
163,213,111414,2,0,P|202:183|251:182,1,100
307,212,111758,5,0,0:0:0:0:
233,88,111931,2,0,P|278:107|304:149,1,100
307,212,112276,5,0,0:0:0:0:
378,86,112449,2,0,P|383:134|360:178,1,100
307,212,112792,5,0,0:0:0:0:
451,209,112965,2,0,P|411:238|362:239,1,100
380,336,113310,1,0,0:0:0:0:
163,213,113482,53,0,0:0:0:0:
106,338,113654,2,0,B|109:315|103:293|103:293|104:269|114:250,1,89.9999972534181
163,213,113999,5,0,0:0:0:0:
25,198,114171,2,0,B|48:192|67:179|67:179|90:173|111:178,1,89.9999972534181
163,213,114516,5,0,0:0:0:0:
134,78,114688,2,0,B|146:98|164:112|164:112|177:132|179:154,1,89.9999972534181
163,213,115033,5,0,0:0:0:0:
283,144,115205,2,0,B|267:162|259:183|259:183|244:202|224:210,1,89.9999972534181
163,213,115551,5,0,0:0:0:0:
265,305,115723,2,0,B|242:295|220:294|220:294|197:286|183:270,1,89.9999972534181
163,213,116068,1,0,0:0:0:0:
403,75,116241,53,0,0:0:0:0:
471,193,116413,2,0,B|445:162|445:162|446:122,1,80
471,193,116758,5,0,0:0:0:0:
353,261,116930,2,0,B|384:235|384:235|423:236,1,80
353,261,117275,5,0,0:0:0:0:
285,143,117447,2,0,B|311:174|311:174|309:213,1,80
285,143,117792,5,0,0:0:0:0:
403,75,117964,2,0,B|372:101|372:101|332:99,1,80
167,211,118310,5,0,0:0:0:0:
285,143,118482,2,0,B|254:169|254:169|214:167,1,80
49,279,118827,1,0,0:0:0:0:
167,211,118999,5,0,0:0:0:0:
144,112,119172,2,0,B|141:138|141:138|144:163|144:163|139:181,1,69.9999978637696
172,84,119516,5,0,0:0:0:0:
269,113,119689,2,0,B|247:97|247:97|224:87|224:87|211:74,1,69.9999978637696
279,151,120033,5,0,0:0:0:0:
205,221,120206,2,0,B|229:210|229:210|249:195|249:195|267:190,1,69.9999978637696
378,168,120551,69,0,0:0:0:0:
379,174,120723,1,0,0:0:0:0:
380,180,120896,1,0,0:0:0:0:
391,244,121068,2,0,L|396:278,2,34.9999989318848
414,378,121413,2,0,L|408:343,2,34.9999989318848
512,384,121758,5,0,0:0:0:0:
256,192,121844,12,0,124516,0:0:0:0:
