osu file format v14

[General]
AudioFilename: audio.mp3
AudioLeadIn: 0
PreviewTime: 53999
Countdown: 0
SampleSet: None
StackLeniency: 0.0
Mode: 0
LetterboxInBreaks: 0
WidescreenStoryboard: 1

[Editor]
DistanceSpacing: 0.1
BeatDivisor: 4
GridSize: 32
TimelineZoom: 1.5

[Metadata]
Title:Euphoria
TitleUnicode:Euphoria
Artist:Panda Eyes
ArtistUnicode:Panda Eyes
Creator:YokesPai
Version:50% Satisfaction (buildup + kiais)
Source:
Tags:
BeatmapID:1895492
BeatmapSetID:908329

[Difficulty]
HPDrainRate:5
CircleSize:5
OverallDifficulty:9
ApproachRate:0
SliderMultiplier:2
SliderTickRate:1

[Events]
//Background and Video events
0,0,"euphoria_by_brukhar.jpg",0,0
//Break Periods
//Storyboard Layer 0 (Background)
//Storyboard Layer 1 (Fail)
//Storyboard Layer 2 (Pass)
//Storyboard Layer 3 (Foreground)
//Storyboard Sound Samples

[TimingPoints]
379,344.827586206897,4,2,0,50,1,0
379,-200,4,2,0,50,0,0
3137,-215.05376344086,4,2,0,50,0,0
33482,-200,4,2,0,50,0,0
38999,-133.333333333333,4,2,0,50,0,0
55551,-66.6666666666667,4,2,0,50,0,1
58310,-66.6666666666667,4,2,0,50,0,0
58654,-66.6666666666667,4,2,0,50,0,1
61068,-66.6666666666667,4,2,0,50,0,0
61413,-66.6666666666667,4,2,0,50,0,1
63827,-66.6666666666667,4,2,0,50,0,0
64172,-66.6666666666667,4,2,0,50,0,1
66585,-66.6666666666667,4,2,0,50,0,0
66930,-66.6666666666667,4,2,0,50,0,1
69344,-66.6666666666667,4,2,0,50,0,0
69689,-66.6666666666667,4,2,0,50,0,1
72103,-66.6666666666667,4,2,0,50,0,0
72447,-66.6666666666667,4,2,0,50,0,1
74861,-66.6666666666667,4,2,0,50,0,0
75206,-66.6666666666667,4,2,0,50,0,1
76241,-66.6666666666667,4,2,0,50,0,0
77965,-66.6666666666667,4,2,0,50,0,1
80379,-66.6666666666667,4,2,0,50,0,0
80723,-66.6666666666667,4,2,0,50,0,1
83137,-66.6666666666667,4,2,0,50,0,0
83482,-66.6666666666667,4,2,0,50,0,1
85896,-66.6666666666667,4,2,0,50,0,0
86241,-66.6666666666667,4,2,0,50,0,1
87275,-133.333333333333,4,2,0,50,0,0
89344,-66.6666666666667,4,2,0,50,0,1
97275,-100,4,2,0,50,0,1
98310,-200,4,2,0,50,0,0
99689,-100,4,2,0,50,0,0
113482,-111.111111111111,4,2,0,50,0,0
116241,-125,4,2,0,50,0,0
118999,-142.857142857143,4,2,0,50,0,0
121844,-142.857142857143,4,2,0,40,0,0
122447,-142.857142857143,4,2,0,25,0,0
123137,-142.857142857143,4,2,0,10,0,0
123827,-142.857142857143,4,2,0,5,0,0

[Colours]
Combo1 : 230,0,0
Combo2 : 74,165,255
Combo3 : 255,154,53
Combo4 : 30,142,255
Combo5 : 230,111,13
Combo6 : 192,192,192
Combo7 : 128,128,128
Combo8 : 255,96,96

[HitObjects]
381,77,44861,101,0,0:0:0:0:
364,153,45034,1,0,0:0:0:0:
437,135,45206,1,0,0:0:0:0:
311,98,45379,1,0,0:0:0:0:
417,208,45551,1,0,0:0:0:0:
457,62,45723,1,0,0:0:0:0:
291,171,45896,5,0,0:0:0:0:
417,208,46068,1,0,0:0:0:0:
218,189,46241,1,0,0:0:0:0:
364,153,46414,1,0,0:0:0:0:
165,134,46585,1,0,0:0:0:0:
271,244,46758,1,0,0:0:0:0:
72,225,46930,1,0,0:0:0:0:
238,116,47103,1,0,0:0:0:0:
251,317,47275,69,0,0:0:0:0:
248,314,47620,21,0,0:0:0:0:
271,244,47792,1,0,0:0:0:0:
198,264,47965,1,0,0:0:0:0:
325,298,48137,1,0,0:0:0:0:
218,189,48310,1,0,0:0:0:0:
178,337,48482,1,0,0:0:0:0:
291,171,48654,5,0,0:0:0:0:
325,298,48827,1,0,0:0:0:0:
238,116,48999,1,0,0:0:0:0:
198,264,49172,1,0,0:0:0:0:
364,153,49344,1,0,0:0:0:0:
251,317,49516,1,0,0:0:0:0:
311,98,49689,1,0,0:0:0:0:
379,352,49861,1,0,0:0:0:0:
125,284,50034,5,0,0:0:0:0:
122,281,50379,5,0,0:0:0:0:
198,264,50551,1,0,0:0:0:0:
92,158,50723,5,0,0:0:0:0:
145,211,50896,1,0,0:0:0:0:
185,65,51068,5,0,0:0:0:0:
218,189,51240,1,0,0:0:0:0:
112,85,51413,69,0,0:0:0:0:
238,116,51585,1,0,0:0:0:0:
165,138,51758,5,0,0:0:0:0:
311,94,51930,1,0,0:0:0:0:
258,45,52103,5,0,0:0:0:0:
344,220,52275,1,0,0:0:0:0:
384,72,52447,5,0,0:0:0:0:
324,293,52620,1,0,0:0:0:0:
397,273,52792,5,0,0:0:0:0:
198,264,52965,1,0,0:0:0:0:
417,200,53137,21,0,0:0:0:0:
145,211,53310,1,0,0:0:0:0:
437,127,53482,101,0,0:0:0:0:
92,158,53654,1,0,0:0:0:0:
457,54,53827,21,0,0:0:0:0:
39,105,53999,1,0,0:0:0:0:
344,220,54172,5,0,0:0:0:0:
198,264,54344,1,0,0:0:0:0:
338,278,54516,5,0,0:0:0:0:
203,205,54688,1,0,0:0:0:0:
293,315,54861,5,0,0:0:0:0:
249,169,55033,1,0,0:0:0:0:
234,309,55205,5,0,0:0:0:0:
307,174,55379,1,0,0:0:0:0:
270,241,55551,6,0,B|258:223|258:223|257:260|257:260|266:247,1,75.0000028610231
267,238,55896,85,0,0:0:0:0:
203,205,56068,1,0,0:0:0:0:
200,128,56241,1,0,0:0:0:0:
333,121,56413,5,0,0:0:0:0:
203,205,56585,1,0,0:0:0:0:
341,276,56758,1,0,0:0:0:0:
200,128,56930,37,0,0:0:0:0:
400,157,57103,1,0,0:0:0:0:
203,205,57275,1,0,0:0:0:0:
403,234,57448,1,0,0:0:0:0:
206,282,57620,1,0,0:0:0:0:
406,311,57792,1,0,0:0:0:0:
266,85,57965,5,0,0:0:0:0:
344,353,58136,1,0,0:0:0:0:
72,286,58310,86,0,B|85:302|85:302|83:265|83:265|75:279,1,75.0000028610231
69,283,58654,69,0,0:0:0:0:
137,246,58827,1,0,0:0:0:0:
206,282,58999,1,0,0:0:0:0:
67,133,59172,5,0,0:0:0:0:
137,246,59344,1,0,0:0:0:0:
200,128,59516,1,0,0:0:0:0:
141,322,59689,37,0,0:0:0:0:
344,353,59861,1,0,0:0:0:0:
137,246,60034,1,0,0:0:0:0:
340,277,60206,1,0,0:0:0:0:
133,170,60379,1,0,0:0:0:0:
336,201,60551,1,0,0:0:0:0:
72,286,60723,5,0,0:0:0:0:
266,85,60896,1,0,0:0:0:0:
344,353,61068,86,0,B|351:333|351:333|320:353|320:353|336:353,1,75.0000028610231
341,350,61413,69,0,0:0:0:0:
403,235,61585,1,0,0:0:0:0:
472,347,61758,1,0,0:0:0:0:
340,277,61930,5,0,0:0:0:0:
466,193,62103,1,0,0:0:0:0:
334,123,62275,1,0,0:0:0:0:
398,86,62447,37,0,0:0:0:0:
399,160,62620,1,0,0:0:0:0:
340,277,62792,1,0,0:0:0:0:
336,201,62965,1,0,0:0:0:0:
265,11,63137,1,0,0:0:0:0:
266,85,63310,1,0,0:0:0:0:
210,283,63482,5,0,0:0:0:0:
202,49,63654,1,0,0:0:0:0:
399,160,63827,86,0,B|385:143|385:143|387:180|387:180|395:166,1,75.0000028610231
396,157,64172,69,0,0:0:0:0:
210,283,64344,1,0,0:0:0:0:
336,201,64516,1,0,0:0:0:0:
266,85,64689,5,0,0:0:0:0:
334,123,64861,1,0,0:0:0:0:
268,163,65034,1,0,0:0:0:0:
75,52,65206,5,0,0:0:0:0:
266,85,65379,1,0,0:0:0:0:
457,118,65551,5,0,0:0:0:0:
266,85,65724,1,0,0:0:0:0:
76,126,65896,5,0,0:0:0:0:
266,85,66068,1,0,0:0:0:0:
456,44,66241,5,0,0:0:0:0:
266,85,66413,1,0,0:0:0:0:
397,230,66585,86,0,B|408:212|408:212|373:223|373:223|389:227,1,75.0000028610231
394,227,66930,69,0,0:0:0:0:
302,250,67103,1,0,0:0:0:0:
368,319,67275,1,0,0:0:0:0:
331,161,67447,5,0,0:0:0:0:
273,339,67620,1,0,0:0:0:0:
463,299,67792,1,0,0:0:0:0:
302,250,67965,37,0,0:0:0:0:
463,299,68137,1,0,0:0:0:0:
331,161,68310,1,0,0:0:0:0:
273,339,68482,1,0,0:0:0:0:
268,91,68654,1,0,0:0:0:0:
492,210,68827,1,0,0:0:0:0:
178,359,68999,5,0,0:0:0:0:
205,12,69172,1,0,0:0:0:0:
492,210,69344,86,0,B|482:190|482:190|472:225|472:225|484:213,1,75.0000028610231
489,207,69689,69,0,0:0:0:0:
463,299,69861,1,0,0:0:0:0:
397,230,70034,1,0,0:0:0:0:
273,339,70206,5,0,0:0:0:0:
239,180,70379,1,0,0:0:0:0:
397,230,70551,1,0,0:0:0:0:
207,270,70723,37,0,0:0:0:0:
368,319,70896,1,0,0:0:0:0:
239,180,71068,1,0,0:0:0:0:
178,359,71241,1,0,0:0:0:0:
173,111,71413,1,0,0:0:0:0:
397,230,71585,1,0,0:0:0:0:
80,133,71758,5,0,0:0:0:0:
359,67,71930,1,0,0:0:0:0:
273,339,72102,86,0,B|285:321|285:321|250:329|250:329|265:334,1,75.0000028610231
270,336,72447,69,0,0:0:0:0:
207,270,72620,1,0,0:0:0:0:
145,201,72792,1,0,0:0:0:0:
302,250,72965,5,0,0:0:0:0:
178,359,73137,1,0,0:0:0:0:
145,201,73310,1,0,0:0:0:0:
273,339,73482,37,0,0:0:0:0:
302,250,73654,1,0,0:0:0:0:
173,111,73827,1,0,0:0:0:0:
145,201,73999,1,0,0:0:0:0:
397,230,74172,1,0,0:0:0:0:
331,161,74344,1,0,0:0:0:0:
83,379,74516,5,0,0:0:0:0:
463,299,74689,1,0,0:0:0:0:
201,7,74861,86,0,B|189:25|189:25|224:17|224:17|209:12,1,75.0000028610231
204,10,75206,69,0,0:0:0:0:
145,201,75379,1,0,0:0:0:0:
331,161,75551,1,0,0:0:0:0:
173,111,75723,5,0,0:0:0:0:
239,180,75896,1,0,0:0:0:0:
268,91,76068,1,0,0:0:0:0:
114,290,76241,5,0,0:0:0:0:
463,299,76414,1,0,0:0:0:0:
397,230,76586,5,0,0:0:0:0:
83,379,76758,1,0,0:0:0:0:
114,290,76930,5,0,0:0:0:0:
463,299,77103,1,0,0:0:0:0:
397,230,77275,5,0,0:0:0:0:
83,379,77447,1,0,0:0:0:0:
110,32,77620,85,0,0:0:0:0:
107,29,77965,38,0,B|103:66|131:97|131:97|92:104|71:139,2,150.000005722046
146,181,78482,1,0,0:0:0:0:
193,37,78654,2,0,B|213:75|251:81|251:81|291:87|311:121,1,150.000005722046
239,163,78999,5,0,0:0:0:0:
265,3,79172,1,0,0:0:0:0:
377,233,79344,2,0,B|340:226|316:194|316:194|329:157|311:121,1,150.000005722046
401,121,79689,5,0,0:0:0:0:
209,253,79861,1,0,0:0:0:0:
356,44,80034,1,0,0:0:0:0:
116,271,80206,1,0,0:0:0:0:
53,199,80379,5,0,0:0:0:0:
446,198,80551,1,0,0:0:0:0:
377,233,80723,70,0,B|312:270|312:270|278:291|265:326,1,150.000005722046
470,345,81068,2,0,B|433:280|433:280|412:246|376:233|376:233|340:220|319:186|319:186|282:121,1,300.000011444092
379,376,81585,1,0,0:0:0:0:
428,115,81758,6,0,B|373:113|342:59|342:59|322:21,1,150.000005722046
177,99,82103,2,0,B|213:163|213:163|233:198|214:236,1,150.000005722046
444,1,82447,5,0,0:0:0:0:
150,200,82620,1,0,0:0:0:0:
322,21,82792,1,0,0:0:0:0:
214,236,82965,1,0,0:0:0:0:
151,274,83137,5,0,0:0:0:0:
200,41,83310,1,0,0:0:0:0:
279,137,83482,70,0,P|207:117|139:144,1,150.000005722046
214,236,83827,2,0,P|157:347|82:246,1,300.000011444092
139,144,84344,1,0,0:0:0:0:
277,356,84516,6,0,P|300:286|287:213,1,150.000005722046
75,46,84861,2,0,P|28:103|26:177,1,150.000005722046
214,236,85206,5,0,0:0:0:0:
26,177,85379,1,0,0:0:0:0:
287,213,85551,1,0,0:0:0:0:
75,46,85723,1,0,0:0:0:0:
29,104,85896,5,0,0:0:0:0:
301,286,86068,1,0,0:0:0:0:
358,238,86241,70,0,B|353:209|341:185|341:185|326:157|294:143|260:158,1,150.000005722046
392,141,86585,2,0,B|339:64|248:76|213:109|213:109|188:134|186:167|204:199,1,300.000011444092
460,219,87103,1,0,0:0:0:0:
260,157,87275,53,0,0:0:0:0:
287,213,87447,1,0,0:0:0:0:
290,219,87620,1,0,0:0:0:0:
293,225,87792,1,0,0:0:0:0:
296,231,87965,2,0,B|309:262|298:300|298:300|306:305|306:305|297:343|305:374,1,150.000005722046
435,341,88654,5,0,0:0:0:0:
435,341,89344,22,0,B|493:206|416:70|416:70|393:144|363:208|363:208|351:174|320:158|290:159,1,525.000020027161
296,230,90034,6,0,P|232:199|228:127,1,150.000005722046
359,23,90379,2,0,B|333:96|333:96|295:83|262:95,1,150.000005722046
126,200,90723,5,0,0:0:0:0:
261,95,90896,1,0,0:0:0:0:
69,160,91068,1,0,0:0:0:0:
290,159,91241,1,0,0:0:0:0:
120,270,91413,5,0,0:0:0:0:
331,102,91585,1,0,0:0:0:0:
401,109,91758,5,0,0:0:0:0:
114,340,91930,1,0,0:0:0:0:
373,45,92103,54,0,B|428:25|479:63|469:123|469:123|460:179|464:236|464:236|421:191|367:164|367:164|325:184|291:159|291:159|272:183|245:189,1,525.000020027161
331,102,92792,5,0,0:0:0:0:
227,112,92965,2,0,P|172:159|178:231,2,150.000005722046
401,109,93482,5,0,0:0:0:0:
178,231,93654,1,0,0:0:0:0:
466,145,93827,1,0,0:0:0:0:
227,112,93999,1,0,0:0:0:0:
257,333,94172,5,0,0:0:0:0:
173,158,94344,1,0,0:0:0:0:
160,88,94516,5,0,0:0:0:0:
367,165,94689,1,0,0:0:0:0:
83,327,94861,54,0,B|20:255|42:169|97:126|97:126|134:183|214:165|227:112|227:112|243:64|286:39|334:53,1,525.000020027161
309,132,95551,5,0,0:0:0:0:
32,86,95723,2,0,B|55:57|101:51|101:51|140:59|160:88,2,150.000005722046
178,231,96241,5,0,0:0:0:0:
96,127,96413,1,0,0:0:0:0:
83,327,96585,1,0,0:0:0:0:
331,52,96758,1,0,0:0:0:0:
226,117,96930,5,0,0:0:0:0:
178,231,97103,1,0,0:0:0:0:
301,216,97275,2,0,L|303:316,1,100
331,52,97620,2,0,L|337:351,1,300
366,71,98310,21,0,0:0:0:0:
369,214,98482,1,0,0:0:0:0:
369,222,98654,1,0,0:0:0:0:
369,230,98827,1,0,0:0:0:0:
369,238,98999,2,0,L|370:337,1,100
398,354,99430,2,0,L|398:378,2,25
420,338,99689,53,0,0:0:0:0:
