osu file format v14

[General]
AudioFilename: audio.mp3
AudioLeadIn: 0
PreviewTime: 52844
Countdown: 1
SampleSet: Soft
StackLeniency: 0.7
Mode: 0
LetterboxInBreaks: 0
WidescreenStoryboard: 1

[Editor]
DistanceSpacing: 1
BeatDivisor: 4
GridSize: 4
TimelineZoom: 1

[Metadata]
Title:Euphoria
TitleUnicode:Euphoria
Artist:Panda Eyes
ArtistUnicode:Panda Eyes
Creator:Bunnz
Version:Extacy
Source:
Tags:
BeatmapID:2168532
BeatmapSetID:1005779

[Difficulty]
HPDrainRate:6
CircleSize:4
OverallDifficulty:8
ApproachRate:9.2
SliderMultiplier:2
SliderTickRate:1

[Events]
//Background and Video events
0,0,"pandaeyes.jpg",0,0
//Break Periods
//Storyboard Layer 0 (Background)
//Storyboard Layer 1 (Fail)
//Storyboard Layer 2 (Pass)
//Storyboard Layer 3 (Foreground)
//Storyboard Layer 4 (Overlay)
//Storyboard Sound Samples

[TimingPoints]
22499,344.827586206897,4,2,0,60,1,0
22500,344.827586206897,4,2,0,60,1,0
22500,-100,4,2,0,60,0,1
22844,-100,4,2,0,60,0,0
25258,344.827586206897,4,2,0,60,1,0
25258,-100,4,2,0,60,0,1
25602,-100,4,2,0,60,0,0
28016,-100,4,2,0,60,0,1
28361,-100,4,2,0,60,0,0
30775,-100,4,2,0,60,0,1
31120,-100,4,2,0,60,0,0
33533,-100,4,2,0,50,0,1
33878,-100,4,2,0,50,0,0
36292,-100,4,2,0,50,0,1
36637,-100,4,2,0,50,0,0
39051,-100,4,2,0,50,0,1
39395,-100,4,2,0,50,0,0
41809,-100,4,2,0,50,0,1
42154,-100,4,2,0,60,0,0
54224,-100,4,2,0,50,0,0
55603,-200,4,2,0,75,0,1
55775,-200,4,2,0,75,0,0
55948,-83.3333333333333,4,2,0,75,0,1
56120,-83.3333333333333,4,2,0,75,0,0
56982,-83.3333333333333,4,2,0,75,0,1
57155,-83.3333333333333,4,2,0,75,0,0
57327,-83.3333333333333,4,2,0,75,0,1
57500,-83.3333333333333,4,2,0,75,0,0
57672,-83.3333333333333,4,2,0,75,0,1
57844,-83.3333333333333,4,2,0,75,0,0
58017,-83.3333333333333,4,2,0,75,0,1
58189,-83.3333333333333,4,2,0,75,0,0
58362,-200,4,2,0,75,0,1
58534,-200,4,2,0,75,0,0
58706,-83.3333333333333,4,2,0,75,0,1
58878,-83.3333333333333,4,2,0,75,0,0
59741,-83.3333333333333,4,2,0,75,0,1
59913,-83.3333333333333,4,2,0,75,0,0
60086,-83.3333333333333,4,2,0,75,0,1
60258,-83.3333333333333,4,2,0,75,0,0
60431,-83.3333333333333,4,2,0,75,0,1
60603,-83.3333333333333,4,2,0,75,0,0
60775,-83.3333333333333,4,2,0,75,0,1
60948,-83.3333333333333,4,2,0,75,0,0
61120,-200,4,2,0,75,0,1
61293,-200,4,2,0,75,0,0
61465,-83.3333333333333,4,2,0,75,0,1
61637,-83.3333333333333,4,2,0,75,0,0
62500,-83.3333333333333,4,2,0,75,0,1
62672,-83.3333333333333,4,2,0,75,0,0
62844,-83.3333333333333,4,2,0,75,0,1
63017,-83.3333333333333,4,2,0,75,0,0
63189,-83.3333333333333,4,2,0,75,0,1
63362,-83.3333333333333,4,2,0,75,0,0
63534,-83.3333333333333,4,2,0,75,0,1
63706,-200,4,2,0,75,0,0
63879,-200,4,2,0,75,0,1
64051,-200,4,2,0,75,0,0
64224,-83.3333333333333,4,2,0,75,0,1
64395,-83.3333333333333,4,2,0,75,0,0
65258,-83.3333333333333,4,2,0,75,0,1
65344,-83.3333333333333,4,2,0,5,0,1
65431,-83.3333333333333,4,2,0,75,0,0
65517,-83.3333333333333,4,2,0,5,0,0
65603,-83.3333333333333,4,2,0,75,0,1
65689,-83.3333333333333,4,2,0,5,0,1
65775,-83.3333333333333,4,2,0,75,0,0
65862,-83.3333333333333,4,2,0,5,0,0
65948,-83.3333333333333,4,2,0,75,0,1
66034,-83.3333333333333,4,2,0,5,0,1
66120,-83.3333333333333,4,2,0,75,0,0
66206,-83.3333333333333,4,2,0,5,0,0
66293,-83.3333333333333,4,2,0,75,0,1
66379,-83.3333333333333,4,2,0,5,0,1
66465,-83.3333333333333,4,2,0,75,0,0
66551,-83.3333333333333,4,2,0,5,0,0
66637,-200,4,2,0,75,0,1
66810,-200,4,2,0,75,0,0
66982,-83.3333333333333,4,2,0,75,0,1
67154,-83.3333333333333,4,2,0,75,0,0
68016,-83.3333333333333,4,2,0,75,0,1
68189,-83.3333333333333,4,2,0,75,0,0
68361,-83.3333333333333,4,2,0,75,0,1
68533,-83.3333333333333,4,2,0,75,0,0
68706,-83.3333333333333,4,2,0,75,0,1
68878,-83.3333333333333,4,2,0,75,0,0
69051,-83.3333333333333,4,2,0,75,0,1
69223,-83.3333333333333,4,2,0,75,0,0
69395,-200,4,2,0,75,0,1
69568,-83.3333333333333,4,2,0,75,0,0
69740,-83.3333333333333,4,2,0,75,0,1
69913,-83.3333333333333,4,2,0,75,0,0
70775,-83.3333333333333,4,2,0,75,0,1
70947,-83.3333333333333,4,2,0,75,0,0
71120,-83.3333333333333,4,2,0,75,0,1
71292,-83.3333333333333,4,2,0,75,0,0
71464,-83.3333333333333,4,2,0,75,0,1
71637,-83.3333333333333,4,2,0,75,0,0
71809,-83.3333333333333,4,2,0,75,0,1
71982,-83.3333333333333,4,2,0,75,0,0
72154,-200,4,2,0,75,0,1
72326,-83.3333333333333,4,2,0,75,0,0
72499,-83.3333333333333,4,2,0,75,0,1
72671,-83.3333333333333,4,2,0,75,0,0
73533,-83.3333333333333,4,2,0,75,0,1
73706,-83.3333333333333,4,2,0,75,0,0
73878,-83.3333333333333,4,2,0,75,0,1
74051,-83.3333333333333,4,2,0,75,0,0
74223,-83.3333333333333,4,2,0,75,0,1
74395,-83.3333333333333,4,2,0,75,0,0
74568,-83.3333333333333,4,2,0,75,0,1
74740,-83.3333333333333,4,2,0,75,0,0
74913,-200,4,2,0,75,0,1
75085,-83.3333333333333,4,2,0,75,0,0
75258,-83.3333333333333,4,2,0,75,0,1
75430,-83.3333333333333,4,2,0,75,0,0
76292,-83.3333333333333,4,2,0,75,0,1
76464,-83.3333333333333,4,2,0,75,0,0
76637,-83.3333333333333,4,2,0,75,0,1
76809,-83.3333333333333,4,2,0,75,0,0
76982,-83.3333333333333,4,2,0,75,0,1
77154,-83.3333333333333,4,2,0,75,0,0
77326,-83.3333333333333,4,2,0,75,0,1
77499,-83.3333333333333,4,2,0,75,0,0
77671,-200,4,2,0,75,0,1
77844,-83.3333333333333,4,2,0,75,0,0
78016,-83.3333333333333,4,2,0,75,0,1
78189,-83.3333333333333,4,2,0,75,0,0
79740,-83.3333333333333,4,2,0,75,0,1
79913,-83.3333333333333,4,2,0,75,0,0
80085,-83.3333333333333,4,2,0,75,0,1
80258,-83.3333333333333,4,2,0,75,0,0
80430,-83.3333333333333,4,2,0,75,0,1
80602,-83.3333333333333,4,2,0,75,0,0
80775,-83.3333333333333,4,2,0,75,0,1
80947,-83.3333333333333,4,2,0,75,0,0
82499,-83.3333333333333,4,2,0,75,0,1
82671,-83.3333333333333,4,2,0,75,0,0
82844,-83.3333333333333,4,2,0,75,0,1
83016,-83.3333333333333,4,2,0,75,0,0
83189,-83.3333333333333,4,2,0,75,0,1
83361,-83.3333333333333,4,2,0,75,0,0
83533,-83.3333333333333,4,2,0,75,0,1
83706,-83.3333333333333,4,2,0,75,0,0
85258,-83.3333333333333,4,2,0,75,0,1
85430,-83.3333333333333,4,2,0,75,0,0
85602,-83.3333333333333,4,2,0,75,0,1
85775,-83.3333333333333,4,2,0,75,0,0
85947,-83.3333333333333,4,2,0,75,0,1
86120,-83.3333333333333,4,2,0,75,0,0
86292,-83.3333333333333,4,2,0,75,0,1
86464,-83.3333333333333,4,2,0,75,0,0
87326,-83.3333333333333,4,2,0,75,0,1
87499,-83.3333333333333,4,2,0,75,0,0
87671,-83.3333333333333,4,2,0,75,0,1
87844,-83.3333333333333,4,2,0,75,0,0
88016,-83.3333333333333,4,2,0,75,0,1
88189,-83.3333333333333,4,2,0,75,0,0
88361,-83.3333333333333,4,2,0,75,0,1
88533,-83.3333333333333,4,2,0,75,0,0
89395,-76.9230769230769,4,2,0,80,0,1
89740,-76.9230769230769,4,2,0,80,0,0
90775,-76.9230769230769,4,2,0,80,0,1
90947,-76.9230769230769,4,2,0,80,0,0
91120,-76.9230769230769,4,2,0,80,0,1
91292,-76.9230769230769,4,2,0,80,0,0
91464,-76.9230769230769,4,2,0,80,0,1
91637,-76.9230769230769,4,2,0,80,0,0
91809,-76.9230769230769,4,2,0,80,0,1
91982,-76.9230769230769,4,2,0,80,0,0
92154,-76.9230769230769,4,2,0,80,0,1
92499,-76.9230769230769,4,2,0,80,0,0
93533,-76.9230769230769,4,2,0,80,0,1
93706,-76.9230769230769,4,2,0,80,0,0
93878,-76.9230769230769,4,2,0,80,0,1
94051,-76.9230769230769,4,2,0,80,0,0
94223,-76.9230769230769,4,2,0,80,0,1
94395,-76.9230769230769,4,2,0,80,0,0
94568,-76.9230769230769,4,2,0,80,0,1
94740,-76.9230769230769,4,2,0,80,0,0
94913,-76.9230769230769,4,2,0,80,0,1
95258,-76.9230769230769,4,2,0,80,0,0
96292,-76.9230769230769,4,2,0,80,0,1
96464,-76.9230769230769,4,2,0,80,0,0
96637,-76.9230769230769,4,2,0,80,0,1
96809,-76.9230769230769,4,2,0,80,0,0
96982,-76.9230769230769,4,2,0,80,0,1
97154,-76.9230769230769,4,2,0,80,0,0
97326,-76.9230769230769,4,2,0,80,0,1
97499,-76.9230769230769,4,2,0,80,0,0
97671,-76.9230769230769,4,2,0,80,0,1
98016,-76.9230769230769,4,2,0,80,0,0
98361,-76.9230769230769,4,2,0,80,0,1
98533,-76.9230769230769,4,2,0,80,0,0
98706,-76.9230769230769,4,2,0,80,0,1
98878,-76.9230769230769,4,2,0,80,0,0
99051,-76.9230769230769,4,2,0,80,0,1
99223,-76.9230769230769,4,2,0,80,0,0
99395,-76.9230769230769,4,2,0,80,0,1
99568,-76.9230769230769,4,2,0,80,0,0
99740,-76.9230769230769,4,2,0,80,0,1
99913,-76.9230769230769,4,2,0,80,0,0

[HitObjects]
172,280,22499,5,0,0:0:0:0:
146,254,22672,1,0,0:0:0:0:
172,229,22844,1,0,0:0:0:0:
197,254,23017,1,0,0:0:0:0:
147,305,23189,1,0,0:0:0:0:
96,254,23362,1,0,0:0:0:0:
147,203,23534,1,0,0:0:0:0:
197,254,23706,1,0,0:0:0:0:
340,104,23879,5,0,0:0:0:0:
366,130,24051,1,0,0:0:0:0:
340,155,24224,1,0,0:0:0:0:
315,130,24396,1,0,0:0:0:0:
365,79,24568,1,0,0:0:0:0:
416,130,24741,1,0,0:0:0:0:
365,181,24913,1,0,0:0:0:0:
315,130,25086,1,0,0:0:0:0:
172,104,25258,5,0,0:0:0:0:
146,130,25431,1,0,0:0:0:0:
172,155,25603,1,0,0:0:0:0:
197,130,25775,1,0,0:0:0:0:
147,79,25948,1,0,0:0:0:0:
96,130,26120,1,0,0:0:0:0:
147,181,26293,1,0,0:0:0:0:
197,130,26465,1,0,0:0:0:0:
340,280,26637,5,0,0:0:0:0:
366,254,26810,1,0,0:0:0:0:
340,229,26982,1,0,0:0:0:0:
315,254,27155,1,0,0:0:0:0:
365,305,27327,1,0,0:0:0:0:
416,254,27500,1,0,0:0:0:0:
365,203,27672,1,0,0:0:0:0:
315,254,27844,1,0,0:0:0:0:
477,115,28017,5,0,0:0:0:0:
363,115,28189,1,0,0:0:0:0:
476,40,28362,1,0,0:0:0:0:
362,40,28534,1,0,0:0:0:0:
477,115,28706,1,0,0:0:0:0:
289,115,28879,1,0,0:0:0:0:
476,40,29051,1,0,0:0:0:0:
288,40,29224,1,0,0:0:0:0:
174,204,29396,5,0,0:0:0:0:
288,204,29568,1,0,0:0:0:0:
175,279,29741,1,0,0:0:0:0:
289,279,29913,1,0,0:0:0:0:
174,204,30086,1,0,0:0:0:0:
362,204,30258,1,0,0:0:0:0:
175,279,30431,1,0,0:0:0:0:
363,279,30603,1,0,0:0:0:0:
93,44,30775,5,0,0:0:0:0:
93,158,30948,1,0,0:0:0:0:
18,45,31120,1,0,0:0:0:0:
18,159,31293,1,0,0:0:0:0:
93,44,31465,1,0,0:0:0:0:
93,232,31637,1,0,0:0:0:0:
18,45,31810,1,0,0:0:0:0:
18,233,31982,1,0,0:0:0:0:
249,89,32155,5,0,0:0:0:0:
249,203,32327,1,0,0:0:0:0:
174,90,32500,1,0,0:0:0:0:
174,204,32672,1,0,0:0:0:0:
249,89,32844,1,0,0:0:0:0:
249,277,33017,1,0,0:0:0:0:
174,90,33189,1,0,0:0:0:0:
174,278,33362,1,0,0:0:0:0:
373,214,33534,6,0,L|372:156,3,50
372,97,33879,2,0,L|372:34,3,50
299,155,34224,2,0,L|238:155,3,50
300,232,34568,2,0,L|241:232,3,50
372,253,34913,6,0,L|371:188,3,50
373,366,35258,2,0,L|372:306,3,50
293,320,35603,2,0,L|293:385,3,50
292,207,35948,2,0,L|292:280,3,50
215,165,36293,6,0,L|161:165,1,50
214,176,36465,2,0,L|188:118,1,50
222,180,36637,2,0,L|247:127,1,50
227,172,36809,2,0,L|287:171,1,50
345,257,36982,6,0,L|399:257,1,50
346,246,37154,2,0,L|372:304,1,50
338,242,37326,2,0,L|313:295,1,50
333,250,37498,2,0,L|273:251,1,50
136,307,37671,6,0,L|136:361,1,50
147,308,37843,2,0,L|89:334,1,50
151,300,38015,2,0,L|98:275,1,50
143,295,38187,2,0,L|142:235,1,50
50,166,38361,6,0,L|-4:166,1,50
49,177,38533,2,0,L|23:119,1,50
57,181,38705,2,0,L|82:128,1,50
62,173,38877,2,0,L|122:172,1,50
66,323,39050,6,0,L|66:381,1,50
67,316,39223,2,0,L|67:255,1,50
60,320,39395,2,0,L|5:320,1,50
72,320,39568,2,0,L|129:319,1,50
253,261,39741,6,0,L|253:203,1,50
252,268,39913,2,0,L|252:329,1,50
259,264,40086,2,0,L|314:264,1,50
247,264,40258,2,0,L|190:265,1,50
294,94,40430,6,0,L|294:36,1,50
293,101,40602,2,0,L|293:162,1,50
300,97,40775,2,0,L|355:97,1,50
288,97,40947,2,0,L|231:98,1,50
429,214,41120,6,0,L|429:156,1,50
428,221,41292,2,0,L|428:282,1,50
435,217,41465,2,0,L|490:217,1,50
423,217,41637,2,0,L|366:218,1,50
256,192,41810,12,0,44224,0:0:0:0:
171,117,44568,6,0,B|223:139|223:139|286:129,1,100,12|0,1:1|0:0,0:0:0:0:
430,89,44913,1,8,1:1:0:0:
363,190,45086,1,8,1:1:0:0:
345,72,45258,1,8,1:1:0:0:
439,165,45431,1,8,1:1:0:0:
306,137,45603,1,8,1:1:0:0:
430,89,45775,1,8,1:1:0:0:
289,214,45948,5,8,1:1:0:0:
265,41,46120,1,8,1:1:0:0:
182,232,46293,1,8,1:1:0:0:
162,55,46465,1,8,1:1:0:0:
75,240,46637,1,8,1:1:0:0:
58,61,46810,1,8,1:1:0:0:
126,175,46982,1,8,1:1:0:0:
20,130,47155,1,8,1:1:0:0:
2,218,47327,6,0,B|6:275|6:275|44:309|44:309,1,100,10|0,1:1|0:0,0:0:0:0:
155,364,47672,1,8,1:1:0:0:
225,261,47844,1,8,1:1:0:0:
247,378,48017,1,8,1:1:0:0:
147,285,48189,1,8,1:1:0:0:
285,309,48362,1,8,1:1:0:0:
155,364,48534,1,8,1:1:0:0:
83,217,48706,5,8,1:1:0:0:
285,309,48879,1,8,1:1:0:0:
140,122,49051,1,8,1:1:0:0:
347,218,49224,1,8,1:1:0:0:
199,29,49396,1,8,1:1:0:0:
410,126,49568,1,8,1:1:0:0:
279,12,49741,1,8,1:1:0:0:
328,124,49913,1,8,1:1:0:0:
396,51,50086,6,0,B|450:62|450:62|485:104,1,100,12|0,1:1|0:0,0:0:0:0:
512,191,50431,1,8,1:1:0:0:
389,201,50603,1,8,1:1:0:0:
396,51,50775,2,0,B|349:81|349:81|304:80,1,100,12|0,1:1|0:0,0:0:0:0:
195,66,51120,1,8,1:1:0:0:
244,182,51293,1,8,1:1:0:0:
111,196,51465,6,0,B|121:142|121:142|97:99,1,100,12|0,1:1|0:0,0:0:0:0:
35,13,51810,1,8,1:1:0:0:
24,221,51982,1,8,1:1:0:0:
229,88,52155,2,0,B|222:143|222:143|245:184,1,100,12|0,1:1|0:0,0:0:0:0:
328,264,52500,1,8,1:1:0:0:
327,165,52672,1,8,1:1:0:0:
169,334,52844,6,0,L|169:233,1,100,8|0,2:2|0:0,0:0:0:0:
327,264,53189,2,0,L|326:164,1,100,8|0,2:2|0:0,0:0:0:0:
169,234,53534,2,0,L|170:133|170:133,1,100,8|0,2:2|0:0,0:0:0:0:
326,164,53879,2,0,L|326:62,1,100,8|0,2:2|0:0,0:0:0:0:
109,38,54224,5,0,0:0:0:0:
67,96,54396,1,2,0:0:0:0:
95,161,54568,1,2,0:0:0:0:
61,223,54741,1,2,0:0:0:0:
137,225,54913,1,2,0:0:0:0:
134,297,55086,1,2,0:0:0:0:
58,295,55258,1,2,0:0:0:0:
45,222,55431,1,2,0:0:0:0:
206,357,55603,6,0,B|224:345|224:345|237:339|237:339|246:328|246:328,1,50,12|0,2:3|0:0,0:0:0:0:
303,255,55948,2,2,P|349:207|407:186,1,119.999996337891,10|2,0:2|0:0,0:0:0:0:
501,317,56293,2,2,P|455:365|397:386,1,119.999996337891,2|10,0:0|0:3,0:0:0:0:
303,255,56637,2,2,P|287:190|299:139,1,119.999996337891,8|2,0:2|0:0,0:0:0:0:
355,0,56982,5,10,1:3:0:0:
454,177,57155,1,2,1:1:0:0:
472,0,57327,1,10,1:2:0:0:
298,139,57500,1,2,1:1:0:0:
512,85,57672,1,2,1:1:0:0:
259,28,57844,1,10,1:3:0:0:
407,248,58017,1,10,1:2:0:0:
355,0,58189,1,10,1:1:0:0:
298,139,58362,6,0,B|277:137|277:137|258:144|258:144|248:139|248:139,1,50,12|0,2:3|0:0,0:0:0:0:
141,142,58706,2,2,P|78:153|26:184,1,119.999996337891,10|2,0:2|0:0,0:0:0:0:
77,368,59051,2,2,P|140:357|192:326,1,119.999996337891,2|10,0:0|0:3,0:0:0:0:
29,180,59396,2,2,P|30:246|57:303,1,119.999996337891,10|2,0:2|0:0,0:0:0:0:
270,248,59741,5,10,0:3:0:0:
141,142,59913,1,2,0:0:0:0:
51,294,60086,1,10,0:2:0:0:
294,110,60258,1,2,0:0:0:0:
49,88,60431,1,2,0:0:0:0:
175,267,60603,1,10,0:3:0:0:
293,30,60775,1,10,1:2:0:0:
29,180,60948,1,10,1:1:0:0:
175,267,61120,6,0,B|195:264|195:264|209:272|209:272|227:270|227:270,1,50,12|0,2:3|0:0,0:0:0:0:
331,270,61465,2,2,P|394:254|439:212,1,119.999996337891,10|2,0:2|0:0,0:0:0:0:
397,58,61810,2,2,P|334:74|289:116,1,119.999996337891,2|10,0:0|0:3,0:0:0:0:
331,270,62155,2,2,P|373:332|425:354,1,119.999996337891,10|2,0:2|0:0,0:0:0:0:
512,198,62500,5,10,0:3:0:0:
304,199,62672,1,2,0:0:0:0:
463,80,62844,1,10,0:2:0:0:
331,270,63017,1,2,0:0:0:0:
367,46,63189,1,2,0:0:0:0:
449,285,63362,1,10,0:3:0:0:
226,117,63534,1,10,1:2:0:0:
512,198,63706,1,10,1:1:0:0:
331,270,63879,6,0,B|311:266|311:266|292:271|292:271|280:266|280:266,1,50,12|0,2:3|0:0,0:0:0:0:
178,242,64224,2,2,P|123:207|96:151,1,119.999996337891,10|2,0:2|0:0,0:0:0:0:
261,35,64568,2,2,P|316:70|343:126,1,119.999996337891,2|10,0:0|0:3,0:0:0:0:
97,159,64913,2,0,P|121:101|179:63,1,119.999996337891,8|0,0:2|0:0,0:0:0:0:
119,214,65258,6,10,L|95:155,1,59.9999981689454,10|10,0:0|0:0,0:0:0:0:
244,298,65431,2,10,L|267:356,1,59.9999981689454,10|10,0:0|0:0,0:0:0:0:
244,92,65603,2,10,L|260:35,1,59.9999981689454,10|10,0:0|0:0,0:0:0:0:
125,302,65775,2,10,L|105:364,1,59.9999981689454,10|10,0:0|0:0,0:0:0:0:
128,98,65948,2,10,L|105:36,1,59.9999981689454
244,298,66120,2,10,L|295:335,1,59.9999981689454,10|10,0:0|0:0,0:0:0:0:
244,92,66293,2,10,L|298:67,1,59.9999981689454,10|10,0:0|0:0,0:0:0:0:
125,302,66465,2,10,L|64:327,1,59.9999981689454,10|10,0:0|0:0,0:0:0:0:
249,203,66637,6,0,B|271:196|271:196|288:203|288:203|302:196|302:196,1,50,12|0,2:3|2:3,0:0:0:0:
394,191,66982,2,2,P|459:182|510:151,1,119.999996337891,10|2,1:2|0:0,0:0:0:0:
475,0,67326,2,2,P|410:9|359:40,1,119.999996337891,2|10,0:0|1:3,0:0:0:0:
394,191,67671,2,2,P|426:250|484:274,1,119.999996337891,10|2,1:2|0:0,0:0:0:0:
497,85,68016,5,10,1:3:0:0:
294,124,68189,1,2,0:0:0:0:
477,192,68361,1,10,1:2:0:0:
363,35,68533,1,2,0:0:0:0:
306,246,68706,1,2,0:0:0:0:
497,85,68878,1,10,0:3:0:0:
223,68,69051,1,10,0:2:0:0:
477,192,69223,1,10,1:1:0:0:
390,123,69395,6,0,B|367:122|367:122|345:128|345:128|320:125,1,50,12|0,1:3|0:0,0:0:0:0:
241,147,69740,2,2,P|174:176|141:220,1,119.999996337891,10|2,1:2|0:0,0:0:0:0:
262,349,70085,2,2,P|329:320|362:276,1,119.999996337891,2|10,0:0|0:3,0:0:0:0:
145,211,70430,2,2,P|152:276|193:317,1,119.999996337891,10|2,0:2|0:0,0:0:0:0:
390,177,70775,5,10,0:3:0:0:
426,378,70947,1,2,0:0:0:0:
221,245,71120,1,10,0:2:0:0:
468,268,71292,1,2,0:0:0:0:
281,374,71464,1,2,0:0:0:0:
289,146,71637,1,10,0:3:0:0:
495,382,71809,1,10,1:2:0:0:
221,245,71982,1,10,1:1:0:0:
289,146,72154,6,0,B|268:155|268:155|251:154|251:154|233:161|233:161,1,50,12|0,1:3|0:0,0:0:0:0:
146,182,72499,2,2,P|87:200|24:190,1,119.999996337891,10|2,0:2|0:0,0:0:0:0:
7,14,72844,2,2,P|66:-4|129:6,1,119.999996337891,2|10,0:0|0:3,0:0:0:0:
146,182,73189,2,2,P|125:258|96:297,1,119.999996337891,10|2,0:2|0:0,0:0:0:0:
0,383,73533,5,10,0:3:0:0:
45,210,73706,1,2,0:0:0:0:
175,342,73878,1,10,0:2:0:0:
0,289,74051,1,2,0:0:0:0:
230,191,74223,1,2,0:0:0:0:
91,384,74395,1,10,0:3:0:0:
79,137,74568,1,10,0:2:0:0:
274,353,74740,1,10,1:1:0:0:
181,281,74913,6,0,B|173:266|173:266|175:247|175:247|166:220|166:220,1,50,12|0,1:3|0:0,0:0:0:0:
154,130,75258,2,0,P|149:64|170:11,1,119.999996337891,8|0,0:2|0:0,0:0:0:0:
373,41,75602,2,0,P|378:107|357:160,1,119.999996337891,0|8,0:0|0:3,0:0:0:0:
167,14,75947,2,0,P|228:6|288:19,1,119.999996337891,8|0,0:2|0:0,0:0:0:0:
168,73,76292,6,0,L|166:6,1,59.9999981689454,0|0,0:0|3:3,0:0:0:0:
335,254,76464,2,0,L|337:321,1,59.9999981689454,8|0,0:0|0:0,0:0:0:0:
328,74,76637,2,0,L|330:7,1,59.9999981689454,8|0,0:0|3:3,0:0:0:0:
169,257,76809,2,0,L|167:324,1,59.9999981689454,8|0,0:0|0:0,0:0:0:0:
168,73,76982,2,0,L|131:25,1,59.9999981689454,8|0,0:0|3:3,0:0:0:0:
335,254,77154,2,0,L|372:302,1,59.9999981689454,8|0,0:0|0:0,0:0:0:0:
328,74,77326,2,0,L|346:16,1,59.9999981689454,8|0,0:0|3:3,0:0:0:0:
169,257,77498,2,0,L|147:319,1,59.9999981689454,8|0,0:0|3:3,0:0:0:0:
66,200,77671,6,0,B|70:181|70:181|66:163|66:163|71:147,1,50,12|0,1:3|0:0,0:0:0:0:
70,53,78016,2,0,P|106:1|160:13,1,119.999996337891,8|0,0:2|0:0,0:0:0:0:
291,166,78361,2,0,P|334:216|395:219,1,119.999996337891,0|8,0:0|0:3,0:0:0:0:
480,55,78706,2,0,P|437:5|376:2,1,119.999996337891,8|0,0:2|0:0,0:0:0:0:
169,93,79051,2,0,L|171:217,1,119.999996337891,8|0,0:3|0:0,0:0:0:0:
476,146,79395,2,0,L|478:266,1,119.999996337891,8|0,0:2|0:0,0:0:0:0:
317,91,79740,5,2,0:0:0:0:
365,296,79913,1,10,0:3:0:0:
317,57,80085,1,10,0:2:0:0:
231,261,80258,1,2,0:0:0:0:
404,162,80430,1,10,0:3:0:0:
210,144,80602,1,2,0:0:0:0:
365,296,80775,1,10,0:2:0:0:
365,296,81120,6,0,P|294:276|247:297,1,119.999996337891,0|8,0:0|0:3,0:0:0:0:
83,373,81464,2,0,P|25:342|16:281,1,119.999996337891,8|0,0:2|0:0,0:0:0:0:
26,110,81809,2,0,P|57:51|122:36,1,119.999996337891,8|0,0:3|0:0,0:0:0:0:
250,174,82154,2,0,P|219:233|154:248,1,119.999996337891,8|0,0:2|0:0,0:0:0:0:
33,237,82499,5,2,0:0:0:0:
193,123,82671,1,10,0:3:0:0:
0,236,82844,1,10,0:2:0:0:
210,313,83016,1,2,0:0:0:0:
84,125,83189,1,10,0:3:0:0:
76,326,83361,1,2,0:0:0:0:
193,123,83533,1,10,0:2:0:0:
193,123,83878,6,0,P|257:140|309:114,1,119.999996337891,0|8,0:0|0:3,0:0:0:0:
432,1,84223,2,0,P|497:17|511:74,1,119.999996337891,8|0,0:2|0:0,0:0:0:0:
508,241,84568,2,0,P|467:299|417:307,1,119.999996337891,8|0,0:3|0:0,0:0:0:0:
294,148,84913,2,0,P|335:90|385:82,1,119.999996337891,8|0,0:2|0:0,0:0:0:0:
511,150,85258,5,2,0:0:0:0:
338,247,85430,1,10,0:3:0:0:
509,103,85602,1,10,0:2:0:0:
422,307,85775,1,2,0:0:0:0:
345,128,85947,1,10,0:3:0:0:
512,231,86120,1,2,0:0:0:0:
282,167,86292,1,10,0:2:0:0:
282,167,86637,6,0,P|210:172|158:226,1,119.999996337891,0|8,0:0|0:3,0:0:0:0:
221,384,86982,2,0,P|293:379|342:326,1,119.999996337891,8|0,0:2|0:0,0:0:0:0:
441,107,87326,6,0,L|502:108,1,59.9999981689454,10|0,0:0|3:3,0:0:0:0:
189,110,87499,2,0,L|128:111,1,59.9999981689454,10|0,0:0|3:3,0:0:0:0:
442,198,87671,2,0,L|503:199,1,59.9999981689454,10|8,0:0|3:3,0:0:0:0:
190,201,87844,2,0,L|129:202,1,59.9999981689454,10|0,0:0|3:3,0:0:0:0:
442,290,88016,2,0,L|503:291,1,59.9999981689454,10|0,0:0|3:3,0:0:0:0:
190,293,88189,2,0,L|129:294,1,59.9999981689454,10|0,0:0|3:3,0:0:0:0:
443,381,88361,2,0,L|504:382,1,59.9999981689454,10|0,0:0|3:3,0:0:0:0:
191,384,88534,2,0,L|130:385,1,59.9999981689454,10|0,0:0|3:3,0:0:0:0:
256,192,88706,12,14,89395,0:2:0:0:
220,359,89740,6,0,P|299:335|348:345,1,129.999994049073
328,106,90085,2,0,P|249:130|200:120,1,129.999994049073,8|0,0:3|0:0,0:0:0:0:
344,343,90430,2,0,B|322:274|333:210,1,129.999994049073
361,39,90775,5,10,0:2:0:0:
422,218,90947,1,2,0:0:0:0:
359,0,91120,1,2,0:0:0:0:
266,198,91292,1,2,0:0:0:0:
474,69,91464,5,10,0:3:0:0:
422,218,91637,1,2,0:0:0:0:
266,198,91809,1,2,0:0:0:0:
188,331,91982,1,2,0:0:0:0:
287,274,92154,6,0,P|218:253|189:199,1,129.999994049073,14|0,0:2|0:0,0:0:0:0:
301,45,92499,2,0,P|370:66|399:120,1,129.999994049073
401,323,92844,2,0,P|342:280|281:274,1,129.999994049073,8|0,0:3|0:0,0:0:0:0:
398,114,93189,2,0,P|457:157|518:163,1,129.999994049073
242,198,93533,5,10,0:2:0:0:
457,228,93706,1,2,0:0:0:0:
206,184,93878,1,2,0:0:0:0:
322,353,94051,1,2,0:0:0:0:
393,75,94223,5,10,0:3:0:0:
457,228,94395,1,2,0:0:0:0:
322,353,94568,1,2,0:0:0:0:
145,327,94740,1,2,0:0:0:0:
206,184,94913,6,0,P|249:126|327:94,1,129.999994049073,14|0,0:2|0:0,0:0:0:0:
140,0,95258,2,0,P|97:58|19:90,1,129.999994049073
399,169,95602,2,0,P|333:145|298:98,1,129.999994049073,8|0,0:3|0:0,0:0:0:0:
46,84,95947,2,0,P|112:108|147:155,1,129.999994049073
204,321,96292,5,8,0:2:0:0:
33,241,96464,1,2,0:0:0:0:
245,321,96637,1,2,0:0:0:0:
31,373,96809,1,2,0:0:0:0:
190,239,96982,5,10,0:3:0:0:
33,241,97154,1,2,0:0:0:0:
31,373,97326,2,2,L|167:372,1,129.999994049073
318,371,97671,6,0,P|393:356|454:372,1,129.999994049073,14|0,0:2|0:0,0:0:0:0:
427,166,98016,2,0,P|352:181|291:165,1,129.999994049073
117,84,98361,6,0,L|117:18,1,64.9999970245363,10|0,0:0|3:3,0:0:0:0:
118,273,98533,2,0,L|118:339,1,64.9999970245363,2|0,0:0|3:3,0:0:0:0:
216,83,98706,2,0,L|216:17,1,64.9999970245363,10|0,0:0|3:3,0:0:0:0:
217,272,98878,2,0,L|217:338,1,64.9999970245363,10|0,0:0|3:3,0:0:0:0:
314,82,99051,2,0,L|314:16,1,64.9999970245363,10|0,0:0|3:3,0:0:0:0:
315,271,99223,2,0,L|315:337,1,64.9999970245363,10|0,0:0|3:3,0:0:0:0:
413,81,99396,2,0,L|413:15,1,64.9999970245363,10|0,0:0|3:3,0:0:0:0:
414,270,99568,2,0,L|414:336,1,64.9999970245363,10|0,0:0|3:3,0:0:0:0:
331,176,99740,5,14,0:0:0:0:
