osu file format v14

[General]
AudioFilename: audio.mp3
AudioLeadIn: 0
PreviewTime: -1
Countdown: 1
SampleSet: Soft
StackLeniency: 0.7
Mode: 0
LetterboxInBreaks: 0
WidescreenStoryboard: 0

[Editor]
DistanceSpacing: 1
BeatDivisor: 4
GridSize: 4
TimelineZoom: 1

[Metadata]
Title:Euphoria
TitleUnicode:Euphoria
Artist:Panda Eyes
ArtistUnicode:Panda Eyes
Creator:Bunnz
Version:Bunny Jump
Source:
Tags:
BeatmapID:2104951
BeatmapSetID:1005779

[Difficulty]
HPDrainRate:6
CircleSize:4
OverallDifficulty:9
ApproachRate:9.3
SliderMultiplier:1.6
SliderTickRate:1

[Events]
//Background and Video events
0,0,"Euphoria.jpg",0,0
//Break Periods
//Storyboard Layer 0 (Background)
//Storyboard Layer 1 (Fail)
//Storyboard Layer 2 (Pass)
//Storyboard Layer 3 (Foreground)
//Storyboard Sound Samples

[TimingPoints]
22500,344.827586206897,4,2,0,50,1,0
33534,-83.3333333333333,4,2,0,60,0,0
40431,-133.333333333333,4,2,0,60,0,0
44568,-76.9230769230769,4,2,0,60,0,0
52844,-66.6666666666667,4,2,0,60,0,0
55603,-133.333333333333,4,2,0,70,0,0
55948,-58.8235294117647,4,2,0,70,0,0
58362,-133.333333333333,4,2,0,70,0,0
58706,-58.8235294117647,4,2,0,70,0,0
61120,-133.333333333333,4,2,0,70,0,0
61465,-58.8235294117647,4,2,0,70,0,0
63879,-133.333333333333,4,2,0,70,0,0
64224,-58.8235294117647,4,2,0,70,0,0
66637,-133.333333333333,4,2,0,85,0,0
66982,-55.5555555555556,4,2,0,85,0,0
69396,-133.333333333333,4,2,0,85,0,0
69741,-55.5555555555556,4,2,0,85,0,0
72155,-133.333333333333,4,2,0,85,0,0
72500,-55.5555555555556,4,2,0,85,0,0
74913,-133.333333333333,4,2,0,85,0,0
75258,-55.5555555555556,4,2,0,85,0,0
78017,-52.6315789473684,4,2,0,90,0,1
99741,-83.3333333333333,4,2,0,60,0,0
102672,344.827586206897,4,2,0,60,1,0
124568,344.827586206897,4,2,0,60,1,0
135602,-66.6666666666667,4,2,0,70,0,0
146636,-133.333333333333,4,2,0,70,0,0
146981,-58.8235294117647,4,2,0,70,0,0
149395,-133.333333333333,4,2,0,70,0,0
149740,-58.8235294117647,4,2,0,70,0,0
152154,-133.333333333333,4,2,0,70,0,0
152499,-58.8235294117647,4,2,0,70,0,0
154912,-133.333333333333,4,2,0,70,0,0
155257,-100,4,2,0,85,0,0
156292,-55.5555555555556,4,2,0,85,0,0
157671,-55.5555555555556,4,2,0,85,0,0
179740,-50,4,2,0,85,0,1
201809,-50,4,2,0,85,0,0

[HitObjects]
341,253,22500,5,0,0:0:0:0:
367,209,22673,1,0,0:0:0:0:
329,189,22845,1,0,0:0:0:0:
308,231,23017,1,0,0:0:0:0:
352,277,23189,1,0,0:0:0:0:
399,204,23362,1,0,0:0:0:0:
322,168,23534,1,0,0:0:0:0:
281,237,23707,1,0,0:0:0:0:
193,180,23879,5,0,0:0:0:0:
149,154,24052,1,0,0:0:0:0:
129,192,24224,1,0,0:0:0:0:
171,213,24396,1,0,0:0:0:0:
217,169,24568,1,0,0:0:0:0:
144,122,24741,1,0,0:0:0:0:
108,199,24913,1,0,0:0:0:0:
177,240,25086,1,0,0:0:0:0:
318,141,25258,5,0,0:0:0:0:
365,237,25431,1,0,0:0:0:0:
252,274,25603,1,0,0:0:0:0:
302,368,25775,1,0,0:0:0:0:
383,287,25948,1,0,0:0:0:0:
262,243,26120,1,0,0:0:0:0:
338,153,26293,1,0,0:0:0:0:
216,321,26465,1,0,0:0:0:0:
103,248,26637,5,0,0:0:0:0:
56,152,26810,1,0,0:0:0:0:
169,115,26982,1,0,0:0:0:0:
119,21,27154,1,0,0:0:0:0:
38,102,27327,1,0,0:0:0:0:
159,146,27499,1,0,0:0:0:0:
83,236,27672,1,0,0:0:0:0:
205,68,27844,1,0,0:0:0:0:
306,114,28017,5,0,0:0:0:0:
286,157,28189,1,0,0:0:0:0:
428,117,28362,1,0,0:0:0:0:
412,160,28534,1,0,0:0:0:0:
193,239,28706,1,0,0:0:0:0:
346,248,28879,1,0,0:0:0:0:
221,87,29051,1,0,0:0:0:0:
373,92,29224,1,0,0:0:0:0:
272,207,29396,5,0,0:0:0:0:
206,178,29568,1,0,0:0:0:0:
269,329,29741,1,0,0:0:0:0:
202,305,29913,1,0,0:0:0:0:
145,74,30085,1,0,0:0:0:0:
141,195,30258,1,0,0:0:0:0:
303,94,30430,1,0,0:0:0:0:
293,212,30603,1,0,0:0:0:0:
181,295,30775,6,0,B|219:330|272:324|272:324,1,80
330,88,31120,2,0,B|292:53|239:59|239:59,1,80
105,222,31465,2,0,L|99:313|99:313,1,80
407,162,31810,2,0,L|413:71|413:71,1,80
174,119,32155,6,0,L|235:182|235:182,1,80
259,283,32499,2,0,L|320:346|320:346,1,80
444,354,32844,2,0,L|491:276|491:276,1,80
367,125,33189,2,0,L|394:248|394:248,1,80
276,332,33534,6,0,B|230:355|224:337|224:337,1,47.9999985351563
157,330,33706,2,0,B|122:319|118:297|118:297,1,47.9999985351563
81,240,33879,2,0,B|60:208|65:188|65:188,1,47.9999985351563
63,124,34051,2,0,B|68:85|91:76|91:76,1,47.9999985351563
256,85,34224,6,0,B|302:62|308:80|308:80,1,47.9999985351563
375,87,34396,2,0,B|410:98|414:120|414:120,1,47.9999985351563
451,177,34569,2,0,B|472:209|467:229|467:229,1,47.9999985351563
469,293,34741,2,0,B|464:332|441:341|441:341,1,47.9999985351563
236,332,34913,6,0,L|177:319|177:319,1,47.9999985351563
180,276,35086,2,0,L|128:265|128:265,1,47.9999985351563
130,217,35258,2,0,L|71:204|71:204,1,47.9999985351563
74,161,35431,2,0,L|22:150|22:150,1,47.9999985351563
276,52,35603,6,0,L|335:65|335:65,1,47.9999985351563
332,108,35776,2,0,L|384:119|384:119,1,47.9999985351563
382,167,35948,2,0,L|441:180|441:180,1,47.9999985351563
438,223,36121,2,0,L|490:234|490:234,1,47.9999985351563
316,353,36293,6,0,L|297:304|297:304,1,47.9999985351563
252,281,36465,2,0,L|203:296|203:296,1,47.9999985351563
91,237,36637,2,0,L|65:187|65:187,1,47.9999985351563
78,141,36810,2,0,L|126:124|126:124,1,47.9999985351563
196,31,36982,6,0,L|215:80|215:80,1,47.9999985351563
260,103,37154,2,0,L|309:88|309:88,1,47.9999985351563
421,147,37326,2,0,L|447:197|447:197,1,47.9999985351563
434,243,37499,2,0,L|386:260|386:260,1,47.9999985351563
169,348,37672,6,0,L|177:297|177:297,1,47.9999985351563
68,261,37844,2,0,L|124:258|124:258,1,47.9999985351563
172,159,38017,2,0,L|164:210|164:210,1,47.9999985351563
273,246,38189,2,0,L|217:249|217:249,1,47.9999985351563
343,36,38362,6,0,L|335:87|335:87,1,47.9999985351563
444,123,38534,2,0,L|388:126|388:126,1,47.9999985351563
340,225,38707,2,0,L|348:174|348:174,1,47.9999985351563
239,138,38879,2,0,L|295:135|295:135,1,47.9999985351563
371,137,39051,5,0,0:0:0:0:
412,160,39137,1,0,0:0:0:0:
438,200,39223,1,0,0:0:0:0:
444,247,39309,1,0,0:0:0:0:
428,292,39395,1,0,0:0:0:0:
394,326,39482,1,0,0:0:0:0:
348,322,39568,2,0,L|294:310,1,47.9999985351563
141,247,39741,5,0,0:0:0:0:
99,223,39827,1,0,0:0:0:0:
73,183,39913,1,0,0:0:0:0:
67,136,39999,1,0,0:0:0:0:
83,91,40085,1,0,0:0:0:0:
117,57,40172,1,0,0:0:0:0:
164,62,40258,2,0,L|218:74,1,47.9999985351563
363,94,40431,5,0,0:0:0:0:
369,123,40517,1,0,0:0:0:0:
375,152,40603,1,0,0:0:0:0:
382,181,40689,1,0,0:0:0:0:
388,211,40775,1,0,0:0:0:0:
394,239,40862,1,0,0:0:0:0:
400,266,40948,2,0,L|408:302|408:302,1,30.0000011444092
339,336,41120,6,0,L|306:338|306:338,1,30.0000011444092
262,338,41293,2,0,L|228:340|228:340,1,30.0000011444092
189,339,41465,2,0,L|160:340|160:340,1,30.0000011444092
114,339,41637,2,0,L|76:340|76:340,1,30.0000011444092
151,271,41810,5,0,0:0:0:0:
144,241,41896,1,0,0:0:0:0:
138,212,41982,1,0,0:0:0:0:
131,183,42068,1,0,0:0:0:0:
125,153,42154,1,0,0:0:0:0:
120,126,42241,1,0,0:0:0:0:
114,99,42327,2,0,L|106:63|106:63,1,30.0000011444092
225,83,42500,6,0,L|261:80|261:80,3,30.0000011444092
385,83,42844,2,0,L|370:110|370:110,3,30.0000011444092
388,214,43189,2,0,L|353:219|353:219,3,30.0000011444092
269,214,43534,2,0,L|278:245|278:245,3,30.0000011444092
198,280,43879,2,0,L|200:248|200:248,3,30.0000011444092
130,242,44224,2,0,L|130:275|130:275,3,30.0000011444092
139,141,44568,6,0,L|256:117|256:117,1,103.999995239258
382,89,44913,1,0,0:0:0:0:
332,158,45086,1,0,0:0:0:0:
412,191,45258,1,0,0:0:0:0:
302,83,45431,1,0,0:0:0:0:
262,182,45603,1,0,0:0:0:0:
347,239,45775,1,0,0:0:0:0:
338,158,45948,5,0,0:0:0:0:
217,117,46120,1,0,0:0:0:0:
361,178,46293,5,0,0:0:0:0:
234,92,46465,1,0,0:0:0:0:
382,208,46637,5,0,0:0:0:0:
261,70,46809,1,0,0:0:0:0:
235,248,46982,5,0,0:0:0:0:
356,109,47154,1,0,0:0:0:0:
150,147,47327,6,0,L|103:259|103:259,1,103.999995239258
52,369,47672,5,0,0:0:0:0:
124,316,47844,1,0,0:0:0:0:
192,265,48017,1,0,0:0:0:0:
47,294,48189,1,0,0:0:0:0:
157,194,48362,1,0,0:0:0:0:
199,344,48534,1,0,0:0:0:0:
113,256,48706,5,0,0:0:0:0:
218,147,48879,1,0,0:0:0:0:
68,205,49051,5,0,0:0:0:0:
231,125,49224,1,0,0:0:0:0:
39,130,49396,5,0,0:0:0:0:
255,107,49569,1,0,0:0:0:0:
404,234,49741,5,0,0:0:0:0:
187,211,49914,1,0,0:0:0:0:
266,361,50086,6,0,L|313:253|313:253,1,103.999995239258
370,127,50431,5,0,0:0:0:0:
318,68,50603,1,0,0:0:0:0:
451,146,50775,1,0,0:0:0:0:
293,140,50948,1,0,0:0:0:0:
396,58,51120,1,0,0:0:0:0:
379,199,51293,1,0,0:0:0:0:
368,124,51465,5,0,0:0:0:0:
447,234,51637,1,0,0:0:0:0:
412,174,51810,5,0,0:0:0:0:
442,334,51982,1,0,0:0:0:0:
487,106,52155,5,0,0:0:0:0:
438,295,52327,1,0,0:0:0:0:
512,190,52500,5,0,0:0:0:0:
323,240,52672,1,0,0:0:0:0:
378,346,52844,6,0,L|236:335|236:335,1,120.000004577637
345,113,53189,2,0,L|217:137|217:137,1,120.000004577637
173,337,53534,2,0,L|67:276|67:276,1,120.000004577637
230,45,53879,2,0,L|126:119|126:119,1,120.000004577637
24,213,54224,5,0,0:0:0:0:
36,222,54396,1,0,0:0:0:0:
54,216,54568,1,0,0:0:0:0:
67,207,54741,1,0,0:0:0:0:
78,210,54913,1,0,0:0:0:0:
86,219,55086,1,0,0:0:0:0:
102,236,55258,1,0,0:0:0:0:
49,127,55431,1,0,0:0:0:0:
243,66,55603,6,0,L|258:135|258:135,1,60.0000022888184
291,284,55948,5,0,0:0:0:0:
231,198,56120,1,0,0:0:0:0:
187,269,56293,1,0,0:0:0:0:
308,158,56465,1,0,0:0:0:0:
61,114,56637,2,0,B|75:197|108:240|108:240,1,136.000002593994
221,378,56982,5,0,0:0:0:0:
382,260,57155,1,0,0:0:0:0:
242,107,57327,1,0,0:0:0:0:
346,369,57500,1,0,0:0:0:0:
418,147,57672,1,0,0:0:0:0:
127,186,57844,1,0,0:0:0:0:
487,18,58017,5,0,0:0:0:0:
157,278,58189,1,0,0:0:0:0:
330,277,58362,6,0,L|368:213|368:213,1,60.0000022888184
424,125,58706,5,0,0:0:0:0:
357,68,58879,1,0,0:0:0:0:
378,200,59051,1,0,0:0:0:0:
435,25,59224,1,0,0:0:0:0:
512,183,59396,2,0,B|458:248|403:284|403:284,1,136.000002593994
272,382,59741,5,0,0:0:0:0:
88,219,59913,1,0,0:0:0:0:
304,140,60086,1,0,0:0:0:0:
100,340,60258,1,0,0:0:0:0:
152,75,60431,1,0,0:0:0:0:
377,229,60603,1,0,0:0:0:0:
30,108,60775,5,0,0:0:0:0:
442,36,60948,1,0,0:0:0:0:
230,139,61120,6,0,L|258:215|258:215,1,60.0000022888184
299,308,61465,5,0,0:0:0:0:
359,232,61637,1,0,0:0:0:0:
432,291,61810,1,0,0:0:0:0:
369,362,61982,1,0,0:0:0:0:
489,143,62155,6,0,B|413:113|344:112|344:112,1,136.000002593994
179,100,62500,5,0,0:0:0:0:
96,308,62672,1,0,0:0:0:0:
293,66,62844,5,0,0:0:0:0:
210,274,63016,1,0,0:0:0:0:
411,43,63189,5,0,0:0:0:0:
328,251,63361,1,0,0:0:0:0:
502,124,63534,5,0,0:0:0:0:
69,127,63706,1,0,0:0:0:0:
158,308,63879,6,0,L|212:248|212:248,1,60.0000022888184
280,173,64224,5,0,0:0:0:0:
240,99,64396,1,0,0:0:0:0:
318,61,64568,1,0,0:0:0:0:
357,137,64741,1,0,0:0:0:0:
197,166,64913,5,0,0:0:0:0:
401,67,65086,1,0,0:0:0:0:
157,69,65258,5,0,0:0:0:0:
424,189,65431,1,0,0:0:0:0:
218,6,65603,5,0,0:0:0:0:
425,270,65776,1,0,0:0:0:0:
299,54,65948,5,0,0:0:0:0:
179,321,66121,1,0,0:0:0:0:
409,113,66293,5,0,0:0:0:0:
74,293,66466,1,0,0:0:0:0:
81,300,66637,6,0,L|136:265|136:265,1,60.0000022888184
226,213,66982,5,0,0:0:0:0:
191,117,67155,1,0,0:0:0:0:
175,312,67327,1,0,0:0:0:0:
296,256,67500,1,0,0:0:0:0:
133,172,67672,6,0,B|134:356|134:354,1,143.999995605469
239,58,68017,5,0,0:0:0:0:
237,288,68189,1,0,0:0:0:0:
473,201,68362,5,0,0:0:0:0:
243,199,68534,1,0,0:0:0:0:
431,124,68706,1,0,0:0:0:0:
376,330,68878,5,0,0:0:0:0:
487,25,69051,1,0,0:0:0:0:
183,347,69224,1,0,0:0:0:0:
332,313,69396,6,0,L|255:279|255:279,1,60.0000022888184
149,238,69741,5,0,0:0:0:0:
246,100,69913,1,0,0:0:0:0:
17,197,70086,1,0,0:0:0:0:
243,297,70258,1,0,0:0:0:0:
113,81,70431,6,0,L|275:191|275:191,1,143.999995605469
433,263,70775,5,0,0:0:0:0:
258,21,70948,1,0,0:0:0:0:
485,157,71120,5,0,0:0:0:0:
196,138,71293,1,0,0:0:0:0:
444,30,71465,1,0,0:0:0:0:
180,21,71637,5,0,0:0:0:0:
512,90,71810,1,0,0:0:0:0:
87,265,71982,1,0,0:0:0:0:
150,153,72155,6,0,L|154:217|154:217,1,60.0000022888184
158,338,72500,5,0,0:0:0:0:
246,238,72672,1,0,0:0:0:0:
133,335,72844,5,0,0:0:0:0:
288,217,73016,1,0,0:0:0:0:
158,67,73189,6,0,L|56:204|56:204,1,143.999995605469
286,65,73534,5,0,0:0:0:0:
435,222,73706,1,0,0:0:0:0:
365,3,73879,5,0,0:0:0:0:
426,229,74051,1,0,0:0:0:0:
155,94,74224,1,0,0:0:0:0:
439,237,74396,5,0,0:0:0:0:
205,21,74568,1,0,0:0:0:0:
157,352,74741,1,0,0:0:0:0:
247,293,74913,6,0,L|259:250|259:250,2,30.0000011444092
364,157,75258,6,0,L|195:165|195:165,1,143.999995605469
444,222,75603,1,0,0:0:0:0:
157,236,75775,1,0,0:0:0:0:
430,82,75948,1,0,0:0:0:0:
279,341,76120,1,0,0:0:0:0:
123,118,76293,6,0,L|202:137|202:137,1,71.9999978027344
415,270,76465,2,0,P|331:256|330:256,1,71.9999978027344
337,45,76637,6,0,L|316:132|316:132,1,71.9999978027344
170,366,76809,2,0,P|185:274|185:273,1,71.9999978027344
174,45,76982,6,0,L|195:132|195:132,1,71.9999978027344
341,366,77154,2,0,P|326:274|326:273,1,71.9999978027344
385,25,77327,6,0,L|286:71|286:71,1,71.9999978027344
203,379,77499,2,0,L|296:323,2,71.9999978027344
305,127,78017,6,0,B|217:100|134:112|134:112,1,151.999995941162
492,286,78362,2,0,B|395:297|319:276|319:276,1,151.999995941162
51,208,78706,2,0,L|126:235|126:235,1,75.9999979705811
263,284,78879,5,0,0:0:0:0:
239,167,79051,1,0,0:0:0:0:
112,306,79224,1,0,0:0:0:0:
341,338,79396,1,0,0:0:0:0:
177,88,79568,1,0,0:0:0:0:
195,369,79741,1,0,0:0:0:0:
430,101,79913,5,0,0:0:0:0:
223,17,80086,1,0,0:0:0:0:
374,238,80258,1,0,0:0:0:0:
412,21,80431,2,0,L|341:64|341:64,2,75.9999979705811
438,106,80775,6,0,L|229:59,1,151.999995941162
341,235,81120,1,0,0:0:0:0:
378,18,81293,1,0,0:0:0:0:
201,165,81465,1,0,0:0:0:0:
495,45,81637,5,0,0:0:0:0:
480,211,81810,1,0,0:0:0:0:
336,23,81982,1,0,0:0:0:0:
309,238,82155,1,0,0:0:0:0:
477,31,82327,5,0,0:0:0:0:
444,267,82500,1,0,0:0:0:0:
315,17,82672,5,0,0:0:0:0:
502,359,82845,1,0,0:0:0:0:
36,232,83017,1,0,0:0:0:0:
170,154,83189,6,0,L|81:207|81:207,2,75.9999979705811
173,309,83534,2,0,B|259:324|346:284|346:284,1,151.999995941162
508,228,83879,6,0,L|434:176|434:176,1,75.9999979705811
260,182,84051,2,0,L|326:228,1,75.9999979705811
437,104,84224,6,0,L|363:156|363:156,1,75.9999979705811
182,149,84396,2,0,L|256:97|256:97,1,75.9999979705811
494,134,84568,6,0,L|408:165|408:165,1,75.9999979705811
131,242,84740,2,0,L|216:210|216:210,1,75.9999979705811
501,207,84913,6,0,L|415:238|415:238,1,75.9999979705811
154,308,85085,2,0,L|239:276|239:276,1,75.9999979705811
462,341,85258,6,0,L|379:302|379:302,1,75.9999979705811
182,149,85430,2,0,L|264:186|264:186,1,75.9999979705811
361,354,85603,6,0,L|389:258|389:258,1,75.9999979705811
457,23,85775,2,0,L|434:103|434:103,1,75.9999979705811
416,41,85948,6,0,L|393:114|393:114,2,75.9999979705811
137,40,86293,6,0,L|150:118|150:118,1,75.9999979705811
120,250,86465,2,0,L|132:328|132:328,1,75.9999979705811
426,45,86637,6,0,L|439:123|439:123,1,75.9999979705811
403,245,86809,2,0,L|415:323|415:323,1,75.9999979705811
109,11,86982,6,0,L|122:89|122:89,1,75.9999979705811
330,175,87154,2,0,L|342:253|342:253,1,75.9999979705811
51,178,87327,5,0,0:0:0:0:
182,132,87500,1,0,0:0:0:0:
269,208,87672,1,0,0:0:0:0:
386,154,87844,1,0,0:0:0:0:
169,220,88017,6,0,B|94:252|94:252|174:258|174:258,1,151.999995941162
343,164,88362,2,0,B|418:132|418:132|338:126|338:126,1,151.999995941162
256,192,88706,12,0,89396,0:0:0:0:
357,170,89741,5,0,0:0:0:0:
296,132,89913,1,0,0:0:0:0:
353,280,90086,1,0,0:0:0:0:
208,197,90258,1,0,0:0:0:0:
441,61,90431,5,0,0:0:0:0:
214,348,90603,1,0,0:0:0:0:
214,59,90775,5,0,0:0:0:0:
441,346,90947,1,0,0:0:0:0:
506,21,91120,5,0,0:0:0:0:
12,219,91293,1,0,0:0:0:0:
174,279,91465,6,0,L|215:199|215:199,1,75.9999979705811
316,117,91637,2,0,L|281:185,1,75.9999979705811
133,103,91810,2,0,L|205:139|205:139,1,75.9999979705811
299,298,91982,2,0,L|380:257|380:257,1,75.9999979705811
13,72,92155,2,0,L|66:149,1,75.9999979705811
324,283,92327,2,0,L|392:222|392:222,1,75.9999979705811
0,138,92500,2,0,L|61:199,1,75.9999979705811
352,254,92672,2,0,L|394:174|394:174,1,75.9999979705811
0,233,92845,2,0,L|75:265,1,75.9999979705811
399,122,93017,2,0,L|403:31|403:31,1,75.9999979705811
30,342,93190,2,0,L|123:335,1,75.9999979705811
344,59,93362,2,0,L|303:-21|303:-21,1,75.9999979705811
152,384,93535,2,0,L|228:331,1,75.9999979705811
213,75,93706,2,0,L|264:135,1,75.9999979705811
481,349,93879,5,0,0:0:0:0:
0,59,94051,1,0,0:0:0:0:
24,107,94224,1,0,0:0:0:0:
36,129,94396,1,0,0:1:0:0:
273,20,94568,5,0,0:1:0:0:
187,313,94741,1,0,0:1:0:0:
460,47,94913,1,0,0:1:0:0:
98,281,95086,5,0,0:1:0:0:
272,30,95258,1,0,0:1:0:0:
297,370,95431,1,0,0:1:0:0:
384,17,95603,5,0,0:1:0:0:
135,379,95775,1,0,0:1:0:0:
128,17,95948,1,0,0:1:0:0:
377,379,96120,1,0,0:1:0:0:
37,95,96293,5,0,0:1:0:0:
512,328,96465,1,0,0:1:0:0:
37,95,96637,1,0,0:1:0:0:
512,328,96809,1,0,0:1:0:0:
204,45,96982,5,0,0:0:0:0:
404,135,97155,1,0,0:0:0:0:
168,237,97327,2,0,L|136:164|136:164,1,75.9999979705811
484,29,97500,2,0,L|520:104|520:104,1,75.9999979705811
141,157,97672,2,0,L|135:77|135:77,1,75.9999979705811
512,116,97845,2,0,L|534:199|534:199,1,75.9999979705811
145,72,98017,2,0,L|167:-4|167:-4,1,75.9999979705811
512,213,98190,2,0,L|514:294|514:294,2,75.9999979705811
369,136,98534,5,0,0:0:0:0:
220,226,98706,1,0,0:0:0:0:
461,242,98879,1,0,0:0:0:0:
379,56,99051,2,0,L|302:198|302:198,1,151.999995941162
203,285,99396,2,0,L|280:143|280:143,1,151.999995941162
256,192,99741,12,0,102500,0:0:0:0:
289,194,102672,5,0,0:0:0:0:
349,146,102844,1,0,0:0:0:0:
295,270,103016,1,0,0:0:0:0:
222,234,103189,2,0,B|201:194|226:141,1,80
151,280,103534,5,0,0:0:0:0:
289,194,103706,1,0,0:0:0:0:
151,280,103878,2,0,L|225:234|225:234,1,80
170,108,104223,5,0,0:0:0:0:
207,201,104396,1,0,0:0:0:0:
252,295,104568,2,0,L|291:377|291:377,1,80
322,170,104913,5,0,0:0:0:0:
118,187,105085,1,0,0:0:0:0:
118,187,105258,1,0,0:0:0:0:
163,78,105430,6,0,L|207:71|207:71,1,40
315,59,105603,5,0,0:0:0:0:
272,205,105775,1,0,0:0:0:0:
315,59,105947,2,0,L|291:146|291:146,1,80
333,281,106292,5,0,0:0:0:0:
376,135,106464,1,0,0:0:0:0:
333,281,106636,2,0,L|357:194|357:194,1,80
272,205,106982,5,0,0:0:0:0:
210,73,107154,1,0,0:0:0:0:
363,80,107327,2,0,B|398:106|404:143|404:143,1,80
313,23,107672,5,0,0:0:0:0:
185,162,107844,1,0,0:0:0:0:
185,162,108016,1,0,0:0:0:0:
293,183,108189,6,0,L|316:220|316:220,1,40
376,293,108361,5,0,0:0:0:0:
456,199,108534,1,0,0:0:0:0:
492,355,108706,2,0,L|471:268|471:268,1,80
372,213,109051,5,0,0:0:0:0:
278,281,109223,1,0,0:0:0:0:
290,133,109396,2,0,L|375:113|375:113,1,80
453,177,109740,5,0,0:0:0:0:
289,208,109913,1,0,0:0:0:0:
349,39,110085,2,0,L|399:109|399:109,1,80
261,33,110430,5,0,0:0:0:0:
340,151,110603,1,0,0:0:0:0:
340,151,110775,1,0,0:0:0:0:
450,82,110947,6,0,L|442:124|442:124,1,40
415,224,111120,5,0,0:0:0:0:
329,284,111292,1,0,0:0:0:0:
230,283,111465,1,0,0:0:0:0:
148,225,111637,1,0,0:0:0:0:
185,349,111809,1,0,0:0:0:0:
207,170,111982,1,0,0:0:0:0:
314,85,112154,5,0,0:0:0:0:
348,218,112327,1,0,0:0:0:0:
393,83,112499,1,0,0:0:0:0:
270,217,112672,1,0,0:0:0:0:
306,85,112844,5,0,0:0:0:0:
340,218,113017,1,0,0:0:0:0:
385,83,113189,1,0,0:0:0:0:
443,255,113362,1,0,0:0:0:0:
225,208,113706,5,0,0:0:0:0:
154,238,113878,1,0,0:0:0:0:
238,133,114050,1,0,0:0:0:0:
300,186,114223,2,0,B|309:230|272:274,1,80
380,160,114568,5,0,0:0:0:0:
225,208,114740,1,0,0:0:0:0:
380,160,114912,2,0,L|296:185|296:185,1,80
317,321,115257,5,0,0:0:0:0:
306,222,115430,1,0,0:0:0:0:
286,120,115602,2,0,L|269:30|269:30,1,80
186,222,115947,5,0,0:0:0:0:
388,259,116119,1,0,0:0:0:0:
388,259,116292,1,0,0:0:0:0:
316,352,116464,6,0,L|271:347|271:347,1,40
164,331,116637,5,0,0:0:0:0:
244,201,116809,1,0,0:0:0:0:
164,331,116981,2,0,L|209:253|209:253,1,80
205,112,117326,5,0,0:0:0:0:
125,242,117498,1,0,0:0:0:0:
205,112,117670,2,0,L|159:189|159:189,1,80
244,201,118016,5,0,0:0:0:0:
269,345,118188,1,0,0:0:0:0:
124,298,118361,2,0,B|96:263|100:226|100:226,1,80
157,366,118706,5,0,0:0:0:0:
317,265,118878,1,0,0:0:0:0:
317,265,119050,1,0,0:0:0:0:
218,217,119223,6,0,L|205:175|205:175,1,40
166,89,119395,5,0,0:0:0:0:
64,159,119568,1,0,0:0:0:0:
70,0,119740,2,0,L|67:89|67:89,1,80
149,168,120085,5,0,0:0:0:0:
258,126,120257,1,0,0:0:0:0:
208,266,120430,2,0,L|120:263|120:263,1,80
62,181,120774,5,0,0:0:0:0:
228,194,120947,1,0,0:0:0:0:
126,342,121119,2,0,L|95:261|95:261,1,80
210,370,121464,5,0,0:0:0:0:
164,236,121637,1,0,0:0:0:0:
164,236,121809,1,0,0:0:0:0:
40,274,121981,6,0,L|58:235|58:235,1,40
111,146,122154,5,0,0:0:0:0:
209,110,122326,1,0,0:0:0:0:
305,137,122499,1,0,0:0:0:0:
369,214,122671,1,0,0:0:0:0:
365,85,122843,1,0,0:0:0:0:
297,252,123016,1,0,0:0:0:0:
172,306,123188,5,0,0:0:0:0:
174,169,123361,1,0,0:0:0:0:
95,288,123533,1,0,0:0:0:0:
249,190,123706,1,0,0:0:0:0:
180,308,123878,5,0,0:0:0:0:
181,171,124051,1,0,0:0:0:0:
103,290,124223,1,0,0:0:0:0:
92,109,124396,1,0,0:0:0:0:
256,222,124568,6,0,L|330:175|330:175,1,80
430,112,124912,2,0,L|451:154|451:154,1,40
494,271,125085,2,0,L|455:280|455:280,1,40
335,301,125257,2,0,B|292:316|292:316|230:298|230:298,1,80
141,265,125602,6,0,L|116:233|116:233,1,40
45,147,125774,2,0,L|75:105|75:105,1,40
130,17,125947,2,0,B|173:35|173:35|179:72|179:72,1,80
193,182,126292,6,0,L|237:165|237:165,1,40
369,105,126464,2,0,L|337:141|337:141,1,40
240,257,126636,2,0,B|272:221|272:221|279:168|279:168,1,80
283,12,126981,6,0,L|355:91|355:91,2,80
82,272,127671,2,0,L|61:230|61:230,1,40
18,113,127844,2,0,L|57:104|57:104,1,40
177,83,128016,2,0,B|219:67|219:67|281:85|281:85,1,80
371,119,128361,6,0,L|396:151|396:151,1,40
467,237,128533,2,0,L|437:279|437:279,1,40
379,359,128706,2,0,B|336:341|336:341|318:214|318:214,1,160
300,102,129223,6,0,L|268:125|268:125,1,40
125,229,129395,2,0,B|162:205|162:205|170:160|170:160,1,80
171,35,129740,2,0,L|196:68|196:68,1,40
296,219,129912,2,0,L|266:178|266:178,2,40
391,37,130430,6,0,L|391:86|391:86,1,40
389,179,130602,2,0,L|362:265|362:265,2,80
435,92,131119,6,0,L|419:138|419:138,1,40
385,225,131291,2,0,L|330:296|330:296,2,80
459,160,131809,6,0,L|427:197|427:197,1,40
366,267,131981,2,0,L|290:316|290:316,2,80
186,271,132499,2,0,L|226:247|226:247,1,40
360,164,132671,2,0,L|325:189|325:189,1,40
179,191,132843,5,0,0:0:0:0:
311,88,133016,2,0,L|296:131|296:131,1,40
255,245,133188,1,0,0:0:0:0:
203,107,133361,2,0,L|244:122|244:122,1,40
395,165,133533,1,0,0:0:0:0:
173,240,133705,2,0,L|199:202|199:202,1,40
281,43,133878,2,0,L|240:125|240:125,1,80
134,313,134223,5,0,0:0:0:0:
303,209,134395,1,0,0:0:0:0:
91,285,134568,5,0,0:0:0:0:
301,223,134740,1,0,0:0:0:0:
54,244,134912,5,0,0:0:0:0:
296,237,135085,2,0,L|254:228|254:228,1,40
27,191,135257,5,0,0:0:0:0:
284,252,135429,1,0,0:0:0:0:
191,139,135602,2,0,L|105:229|105:229,1,120.000004577637
311,130,135947,5,0,0:0:0:0:
189,288,136119,1,0,0:0:0:0:
380,240,136292,2,0,L|499:204|499:204,1,120.000004577637
201,199,136636,5,0,0:0:0:0:
359,321,136808,1,0,0:0:0:0:
311,130,136981,2,0,L|275:11|275:11,1,120.000004577637
189,288,137326,5,0,0:0:0:0:
311,130,137498,1,0,0:0:0:0:
120,178,137671,2,0,L|1:214|1:214,1,120.000004577637
84,310,138016,2,0,P|118:261|119:259,1,60.0000022888184
212,81,138188,2,0,B|187:140|187:145,1,60.0000022888184
248,205,138361,1,0,0:0:0:0:
121,98,138533,1,0,0:0:0:0:
301,71,138705,5,0,0:0:0:0:
396,270,138878,1,0,0:0:0:0:
100,197,139050,2,0,L|233:233|233:233,1,120.000004577637
396,270,139395,5,0,0:0:0:0:
197,365,139568,1,0,0:0:0:0:
266,68,139740,2,0,B|252:142|252:142|192:176|192:176,1,120.000004577637
72,229,140085,2,0,L|140:248|140:248,1,60.0000022888184
266,277,140257,2,0,L|322:233|322:233,1,60.0000022888184
441,139,140430,2,0,L|393:181|393:181,2,60.0000022888184
132,81,140774,5,0,0:0:0:0:
462,273,140947,1,0,0:0:0:0:
462,273,141119,2,0,B|391:293|291:275|291:275,1,120.000004577637
383,108,141464,2,0,B|297:99|240:109|240:109,1,120.000004577637
232,335,141809,2,0,B|161:355|61:337|61:337,1,120.000004577637
153,170,142154,2,0,B|67:161|10:171|10:171,1,120.000004577637
274,252,142499,2,0,B|247:178|256:104|256:104,1,120.000004577637
360,302,142843,2,0,B|427:295|480:311|480:311,1,120.000004577637
178,235,143188,2,0,B|171:302|142:351|142:351,1,120.000004577637
153,84,143533,5,0,0:0:0:0:
277,338,143705,1,0,0:0:0:0:
328,269,143878,1,0,0:0:0:0:
243,256,144050,1,0,0:0:0:0:
358,342,144223,5,0,0:0:0:0:
428,275,144395,1,0,0:0:0:0:
425,173,144568,1,0,0:0:0:0:
364,103,144740,1,0,0:0:0:0:
492,222,144912,1,0,0:0:0:0:
342,180,145085,1,0,0:0:0:0:
181,41,145257,6,0,L|205:96|205:96,1,60.0000022888184
331,343,145430,2,0,L|307:288|307:288,1,60.0000022888184
331,41,145602,6,0,L|307:96|307:96,1,60.0000022888184
181,343,145775,2,0,L|205:288|205:288,1,60.0000022888184
378,52,145947,6,0,L|337:104|337:104,1,60.0000022888184
133,331,146120,2,0,L|174:279|174:279,1,60.0000022888184
27,74,146292,5,0,0:0:0:0:
473,241,146464,1,0,0:0:0:0:
401,148,146636,6,0,L|345:195|345:195,1,60.0000022888184
238,272,146981,5,0,0:0:0:0:
154,167,147154,1,0,0:0:0:0:
365,263,147326,2,0,L|424:295|424:295,2,68.0000012969971
168,316,147671,5,0,0:0:0:0:
216,93,147843,1,0,0:0:0:0:
423,204,148016,2,0,L|422:272|422:272,2,68.0000012969971
328,348,148361,5,0,0:0:0:0:
92,195,148533,1,0,0:0:0:0:
414,53,148705,2,0,L|351:88|351:88,2,68.0000012969971
492,10,149050,6,0,L|427:47|427:47,1,68.0000012969971
14,238,149223,2,0,L|79:203|79:203,1,68.0000012969971
181,267,149395,6,0,L|189:191|189:191,1,60.0000022888184
202,69,149740,5,0,0:0:0:0:
358,93,149912,1,0,0:0:0:0:
436,242,150085,2,0,L|466:303|466:303,2,68.0000012969971
269,24,150430,5,0,0:0:0:0:
404,131,150602,1,0,0:0:0:0:
394,314,150774,2,0,B|349:373|349:373|283:378|283:378,1,136.000002593994
325,266,151119,5,0,0:0:0:0:
400,0,151292,1,0,0:0:0:0:
69,94,151464,2,0,L|137:76|137:76,2,68.0000012969971
42,151,151809,2,0,L|104:103|104:103,1,68.0000012969971
455,36,151981,2,0,L|380:11|380:11,1,68.0000012969971
284,50,152154,6,0,L|308:109|308:109,1,60.0000022888184
365,216,152499,5,0,0:0:0:0:
183,313,152671,1,0,0:0:0:0:
169,123,152843,2,0,L|266:172|266:172,2,68.0000012969971
137,103,153188,5,0,0:0:0:0:
421,132,153361,1,0,0:0:0:0:
275,328,153533,2,0,L|321:270|321:270,2,68.0000012969971
265,343,153878,5,0,0:0:0:0:
46,93,154050,1,0,0:0:0:0:
429,142,154223,2,0,P|354:174|354:174,1,68.0000012969971
272,198,154395,1,0,0:0:0:0:
452,25,154568,2,0,L|489:102|489:102,1,68.0000012969971
442,375,154740,2,0,L|405:298|405:298,1,68.0000012969971
270,308,154912,6,0,L|200:318|200:318,1,60.0000022888184
117,321,155257,5,0,0:0:0:0:
130,229,155430,1,0,0:0:0:0:
223,210,155602,2,0,B|218:140|161:136|161:136,1,80
312,193,155947,2,0,B|317:263|374:267|374:267,1,80
464,293,156292,6,0,L|442:219,1,71.9999978027344
385,13,156464,2,0,L|405:88|405:88,1,71.9999978027344
387,318,156636,2,0,L|345:250|345:250,1,71.9999978027344
223,45,156809,2,0,L|264:114|264:114,1,71.9999978027344
319,360,156981,2,0,L|251:308|251:308,1,71.9999978027344
47,179,157154,2,0,L|107:221|107:221,1,71.9999978027344
333,28,157326,2,0,B|292:101|251:108|251:108,1,71.9999978027344
37,269,157499,2,0,B|97:255|124:230|124:230,1,71.9999978027344
197,195,157671,6,0,L|266:158|266:158,2,71.9999978027344
407,79,158016,5,0,0:0:0:0:
432,206,158188,1,0,0:0:0:0:
325,138,158361,1,0,0:0:0:0:
259,244,158533,1,0,0:0:0:0:
353,133,158705,1,0,0:0:0:0:
287,239,158877,1,0,0:0:0:0:
206,130,159050,6,0,B|146:185|119:252|119:252,1,143.999995605469
306,254,159395,6,0,B|366:199|393:132|393:132,1,143.999995605469
432,19,159740,2,0,L|362:62|362:62,1,71.9999978027344
236,128,159912,1,0,0:0:0:0:
337,14,160085,6,0,L|355:87|355:87,1,71.9999978027344
396,236,160257,1,0,0:0:0:0:
178,48,160430,1,0,0:0:0:0:
77,207,160602,1,0,0:0:0:0:
281,278,160774,6,0,B|359:249|387:186|387:186,1,143.999995605469
441,77,161119,5,0,0:0:0:0:
319,46,161292,1,0,0:0:0:0:
226,120,161464,1,0,0:0:0:0:
114,93,161636,1,0,0:0:0:0:
338,120,161809,6,0,B|358:204|408:253|408:253,1,143.999995605469
174,264,162154,2,0,B|154:180|104:131|104:131,1,143.999995605469
37,57,162499,6,0,L|123:68|123:68,1,71.9999978027344
240,75,162671,1,0,0:0:0:0:
256,102,162843,6,0,L|265:182|265:182,1,71.9999978027344
283,340,163016,1,0,0:0:0:0:
419,212,163188,1,0,0:0:0:0:
136,200,163361,1,0,0:0:0:0:
388,61,163533,6,0,L|304:201|304:201,1,143.999995605469
291,45,163878,5,0,0:0:0:0:
221,171,164050,1,0,0:0:0:0:
262,46,164223,1,0,0:0:0:0:
192,172,164395,1,0,0:0:0:0:
228,44,164568,2,0,B|162:83|104:154|104:154,1,143.999995605469
284,340,164912,2,0,B|350:301|408:230|408:230,1,143.999995605469
506,216,165257,6,0,L|421:215|421:215,1,71.9999978027344
283,213,165430,1,0,0:0:0:0:
115,272,165602,2,0,L|152:205,1,71.9999978027344
223,56,165774,1,0,0:0:0:0:
269,277,165947,5,0,0:0:0:0:
72,134,166119,1,0,0:0:0:0:
441,161,166292,2,0,L|294:146|294:146,1,143.999995605469
164,133,166636,5,0,0:0:0:0:
118,273,166809,1,0,0:0:0:0:
232,213,166981,1,0,0:0:0:0:
78,110,167154,1,0,0:0:0:0:
78,110,167326,6,0,P|112:188|169:215,1,143.999995605469
174,370,167671,2,0,P|252:336|279:279,1,143.999995605469
434,274,168016,2,0,P|400:196|343:169,1,143.999995605469
338,14,168361,2,0,P|260:48|233:105,1,143.999995605469
338,35,168705,2,0,P|260:69|233:126,1,143.999995605469
228,217,169050,5,0,0:0:0:0:
336,190,169223,1,0,0:0:0:0:
159,144,169395,1,0,0:0:0:0:
223,310,169568,1,0,0:0:0:0:
265,108,169740,1,0,0:0:0:0:
136,249,169912,1,0,0:0:0:0:
341,291,170085,6,0,B|355:211|413:170|413:170,1,143.999995605469
171,93,170430,2,0,B|157:173|99:214|99:214,1,143.999995605469
9,293,170774,6,0,L|102:293,1,71.9999978027344
236,291,170947,1,0,0:0:0:0:
317,89,171119,2,0,L|289:160|289:160,1,71.9999978027344
236,291,171292,1,0,0:0:0:0:
392,157,171464,5,0,0:0:0:0:
152,65,171636,1,0,0:0:0:0:
81,320,171809,2,0,L|260:287|260:287,1,143.999995605469
361,267,172154,5,0,0:0:0:0:
484,241,172326,1,0,0:0:0:0:
376,93,172499,1,0,0:0:0:0:
282,173,172671,1,0,0:0:0:0:
466,133,172843,6,0,B|416:200|356:237|356:237,1,143.999995605469
46,251,173188,2,0,B|96:184|156:147|156:147,1,143.999995605469
122,296,173533,6,0,L|180:248|180:248,1,71.9999978027344
277,165,173705,1,0,0:0:0:0:
84,119,173878,2,0,L|146:174|146:174,1,71.9999978027344
287,281,174050,1,0,0:0:0:0:
250,88,174223,5,0,0:0:0:0:
419,318,174395,1,0,0:0:0:0:
242,80,174568,1,0,0:0:0:0:
236,74,174740,1,0,0:0:0:0:
355,54,174912,5,0,0:0:0:0:
316,158,175085,1,0,0:0:0:0:
220,223,175257,1,0,0:0:0:0:
99,232,175430,1,0,0:0:0:0:
224,218,175602,6,0,B|305:176|340:108|340:108,1,143.999995605469
244,346,175947,2,0,B|162:315|121:260|121:260,1,143.999995605469
117,107,176292,6,0,L|167:164|167:164,1,71.9999978027344
299,288,176464,1,0,0:0:0:0:
266,31,176636,2,0,L|246:114|246:114,1,71.9999978027344
208,308,176809,1,0,0:0:0:0:
176,48,176981,5,0,0:0:0:0:
436,180,177154,1,0,0:0:0:0:
88,271,177326,1,0,0:0:0:0:
82,274,177499,1,0,0:0:0:0:
88,176,177671,5,0,0:0:0:0:
191,138,177843,1,0,0:0:0:0:
169,269,178016,1,0,0:0:0:0:
276,306,178188,1,0,0:0:0:0:
448,291,178361,5,0,0:0:0:0:
304,33,178533,1,0,0:0:0:0:
293,345,178705,1,0,0:0:0:0:
105,44,178878,1,0,0:0:0:0:
43,294,179050,5,0,0:0:0:0:
466,174,179223,1,0,0:0:0:0:
206,35,179395,1,0,0:0:0:0:
166,355,179568,1,0,0:0:0:0:
318,210,179740,6,0,L|302:289|302:289,2,71.9999978027344
439,82,180430,6,0,L|364:100|364:100,1,71.9999978027344
73,302,180602,2,0,L|148:284|148:284,1,71.9999978027344
469,188,180775,6,0,L|395:166|395:166,1,71.9999978027344
42,195,180947,2,0,L|116:217|116:217,1,71.9999978027344
442,295,181119,6,0,L|389:238|389:238,1,71.9999978027344
69,87,181291,2,0,L|122:143|122:143,1,71.9999978027344
365,374,181464,6,0,L|348:299|348:299,1,71.9999978027344
146,8,181636,2,0,L|164:83|164:83,1,71.9999978027344
231,332,181809,6,0,L|288:262|288:262,1,80
426,88,181981,1,0,0:0:0:0:
114,130,182154,2,0,L|186:172|186:172,1,80
444,300,182326,1,0,0:0:0:0:
365,154,182499,5,0,0:0:0:0:
192,82,182671,1,0,0:0:0:0:
90,223,182843,1,0,0:0:0:0:
214,356,183016,1,0,0:0:0:0:
107,38,183188,6,0,L|175:75|175:75,1,71.9999978027344
404,345,183360,2,0,L|336:308|336:308,1,71.9999978027344
51,133,183533,6,0,L|128:130|128:130,1,71.9999978027344
461,250,183705,2,0,L|384:252|384:252,1,71.9999978027344
49,243,183877,6,0,L|115:202|115:202,1,71.9999978027344
463,139,184049,2,0,L|397:179|397:179,1,71.9999978027344
102,339,184222,6,0,L|139:271|139:271,1,71.9999978027344
409,42,184394,2,0,L|372:110|372:110,1,71.9999978027344
243,333,184567,6,0,L|206:251|206:251,1,80
118,47,184739,1,0,0:0:0:0:
331,287,184912,6,0,L|294:204|294:204,1,80
205,0,185084,1,0,0:0:0:0:
416,35,185257,5,0,0:0:0:0:
221,108,185430,1,0,0:0:0:0:
262,290,185602,1,0,0:0:0:0:
77,341,185774,1,0,0:0:0:0:
323,20,185947,6,0,B|284:66|286:102|286:102,1,80
189,364,186119,2,0,P|226:282|226:282,1,80
189,20,186292,6,0,B|228:66|226:102|226:102,1,80
356,362,186464,2,0,P|303:287|303:287,1,80
345,23,186636,6,0,B|345:76|308:105|308:105,1,80
173,364,186808,2,0,P|221:287|221:287,1,80
166,21,186981,6,0,B|171:72|203:103|203:103,1,80
323,364,187153,2,0,P|286:282|286:282,1,80
211,91,187326,6,0,L|150:174|150:174,1,80
25,310,187499,1,0,0:0:0:0:
58,44,187671,6,0,L|119:127|119:127,1,80
244,263,187844,1,0,0:0:0:0:
179,17,188016,5,0,0:0:0:0:
479,221,188188,1,0,0:0:0:0:
73,321,188361,2,0,L|134:154|134:154,1,160
97,92,188705,5,0,0:0:0:0:
180,305,188878,1,0,0:0:0:0:
368,103,189050,1,0,0:0:0:0:
183,167,189223,1,0,0:0:0:0:
305,237,189395,1,0,0:0:0:0:
283,143,189568,5,0,0:0:0:0:
212,243,189740,1,0,0:0:0:0:
266,138,189912,1,0,0:0:0:0:
268,316,190085,2,0,L|266:131|266:131,1,160
244,68,190430,2,0,L|246:253|246:253,2,160
447,36,191464,6,0,L|510:215|510:215,1,160
65,348,191809,2,0,L|2:169|2:169,1,160
344,0,192154,6,0,L|488:123|488:123,1,160
180,384,192499,2,0,L|35:260|35:260,1,160
379,344,192843,5,0,0:0:0:0:
50,203,193016,1,0,0:0:0:0:
464,89,193188,1,0,0:0:0:0:
84,322,193361,1,0,0:0:0:0:
127,78,193533,5,0,0:0:0:0:
396,36,193705,1,0,0:0:0:0:
327,296,193878,1,0,0:0:0:0:
205,5,194050,1,0,0:0:0:0:
23,110,194223,6,0,L|25:300|25:300,1,160
488,273,194568,2,0,L|486:83|486:83,1,160
107,41,194913,6,0,L|14:207|14:207,1,160
393,346,195258,2,0,L|486:181|486:181,1,160
402,48,195602,5,0,0:0:0:0:
91,283,195774,1,0,0:0:0:0:
480,147,195947,5,0,0:0:0:0:
169,382,196119,1,0,0:0:0:0:
133,124,196292,6,0,L|163:46|163:46,1,80
379,124,196464,2,0,L|349:46|349:46,1,80
102,322,196636,6,0,L|132:244|132:244,1,80
348,322,196808,2,0,L|318:244|318:244,1,80
242,47,196981,5,0,0:0:0:0:
72,246,197154,1,0,0:0:0:0:
409,266,197326,1,0,0:0:0:0:
134,41,197499,5,0,0:0:0:0:
166,363,197671,1,0,0:0:0:0:
416,67,197843,1,0,0:0:0:0:
59,128,198016,5,0,0:0:0:0:
405,331,198188,1,0,0:0:0:0:
317,18,198361,6,0,L|260:95|260:95,1,80
125,255,198533,1,0,0:0:0:0:
93,42,198705,6,0,L|150:119|150:119,1,80
285,279,198877,1,0,0:0:0:0:
393,61,199050,5,0,0:0:0:0:
8,215,199223,1,0,0:0:0:0:
393,61,199395,1,0,0:0:0:0:
416,173,199568,6,0,L|317:110|317:110,1,80
212,66,199740,1,0,0:0:0:0:
21,292,199912,1,0,0:0:0:0:
372,330,200085,1,0,0:0:0:0:
49,29,200257,1,0,0:0:0:0:
61,168,200430,1,0,0:0:0:0:
164,268,200602,6,0,L|186:186|186:186,1,80
226,26,200774,2,0,L|206:112|206:112,1,80
142,347,200947,1,0,0:0:0:0:
260,293,201119,6,0,P|321:227|295:156,1,160
252,91,201464,2,0,P|191:157|217:228,1,160
256,192,201809,12,0,203188,0:0:0:0:
