osu file format v14

[General]
AudioFilename: audio.mp3
AudioLeadIn: 0
PreviewTime: -1
Countdown: 1
SampleSet: Normal
StackLeniency: 0.7
Mode: 0
LetterboxInBreaks: 0
WidescreenStoryboard: 0

[Editor]
Bookmarks: 50806,99624,141897,142170,208871
DistanceSpacing: 1
BeatDivisor: 8
GridSize: 4
TimelineZoom: 6.799996

[Metadata]
Title:Crystal Cave
TitleUnicode:Crystal Cave
Artist:Panda Eyes
ArtistUnicode:Panda Eyes
Creator:MujouSekai
Version:Mujou
Source:
Tags:
BeatmapID:1807144
BeatmapSetID:864005

[Difficulty]
HPDrainRate:6
CircleSize:4
OverallDifficulty:8
ApproachRate:9.4
SliderMultiplier:2
SliderTickRate:1

[Events]
//Background and Video events
0,0,"Crystal Cave.jpg",0,0
//Break Periods
2,105010,121725
2,174827,191545
2,232542,285096
//Storyboard Layer 0 (Background)
//Storyboard Layer 1 (Fail)
//Storyboard Layer 2 (Pass)
//Storyboard Layer 3 (Foreground)
//Storyboard Layer 4 (Overlay)
//Storyboard Sound Samples

[TimingPoints]
17534,545.454545454546,4,1,0,100,1,0
17534,-200,4,2,0,40,0,0
26261,-166.666666666667,4,2,0,40,0,0
33352,-166.666666666667,4,2,0,40,0,0
33624,-142.857142857143,4,2,0,40,0,0
33897,-125,4,2,0,40,0,0
34170,-111.111111111111,4,2,0,40,0,0
34443,-100,4,2,0,40,0,0
35193,-100,4,1,2,50,0,0
35261,-100,4,2,0,50,0,0
35738,-100,4,1,2,50,0,0
35806,-100,4,2,0,50,0,0
36284,-100,4,1,2,50,0,0
36352,-100,4,2,0,50,0,0
37374,-100,4,1,2,50,0,0
37443,-100,4,2,0,50,0,0
37920,-100,4,1,2,50,0,0
37988,-100,4,2,0,50,0,0
38465,-100,4,1,2,50,0,0
38534,-100,4,2,0,50,0,0
39011,-100,4,1,2,50,0,0
39079,-100,4,2,0,50,0,0
39352,-133.333333333333,4,2,0,50,0,0
39897,-100,4,2,0,50,0,0
41534,-133.333333333333,4,2,0,50,0,0
42079,-100,4,2,0,50,0,0
51352,-66.6666666666667,4,2,0,50,0,0
51624,-58.8235294117647,4,2,0,50,0,0
52443,-100,4,1,0,50,0,0
52447,272.727272727273,4,1,0,50,1,0
56810,-200,4,1,0,50,0,0
57356,-100,4,1,0,50,0,0
58992,-200,4,1,0,50,0,0
59537,-100,4,1,0,50,0,0
64719,-90.9090909090909,4,1,0,50,0,0
64992,-83.3333333333333,4,1,0,50,0,0
65231,-83.3333333333333,4,1,0,50,0,0
65265,-76.9230769230769,4,1,0,50,0,0
65537,-200,4,1,0,50,0,0
66083,-100,4,1,0,50,0,0
67719,-200,4,1,0,50,0,0
68265,-100,4,1,0,50,0,0
69901,-100,4,1,0,50,0,1
70174,-76.9230769230769,4,1,0,50,0,1
70447,-66.6666666666667,4,1,0,50,0,1
70719,-83.3333333333333,4,1,0,50,0,1
70992,-133.333333333333,4,1,0,50,0,1
71265,-90.9090909090909,4,1,0,50,0,1
71537,-66.6666666666667,4,1,0,50,0,1
71810,-66.6666666666667,4,1,0,50,0,1
71878,-66.6666666666667,4,1,2,50,0,1
72083,-100,4,1,0,50,0,1
72356,-76.9230769230769,4,1,0,50,0,1
72628,-66.6666666666667,4,1,0,50,0,1
72901,-66.6666666666667,4,1,0,50,0,1
73174,-58.8235294117647,4,1,0,50,0,1
73447,-76.9230769230769,4,1,0,50,0,1
73719,-100,4,1,0,50,0,1
73992,-133.333333333333,4,1,0,50,0,1
74265,-200,4,1,0,50,0,1
74810,-100,4,1,0,50,0,1
76447,-200,4,1,0,50,0,1
76992,-100,4,1,0,50,0,1
78628,-83.3333333333333,4,1,0,50,0,1
78901,-76.9230769230769,4,1,0,50,0,1
79174,-66.6666666666667,4,1,0,50,0,1
79447,-83.3333333333333,4,1,0,50,0,1
79719,-100,4,1,0,50,0,1
79992,-83.3333333333333,4,1,0,50,0,1
80265,-100,4,1,0,50,0,1
80537,-66.6666666666667,4,1,0,50,0,1
80606,-66.6666666666667,4,1,2,50,0,1
80810,-90.9090909090909,4,1,0,50,0,1
81083,-76.9230769230769,4,1,0,50,0,1
81356,-71.4285714285714,4,1,0,50,0,1
81628,-76.9230769230769,4,1,0,50,0,1
81901,-66.6666666666667,4,1,0,50,0,1
82174,-76.9230769230769,4,1,0,50,0,1
82447,-100,4,1,0,50,0,1
82719,-66.6666666666667,4,1,0,50,0,1
82787,-66.6666666666667,4,1,2,50,0,1
82992,-200,4,1,0,50,0,1
83537,-100,4,1,0,50,0,1
85174,-200,4,1,0,50,0,1
85719,-100,4,1,0,50,0,1
88447,-133.333333333333,4,1,0,50,0,1
88719,-100,4,1,0,50,0,1
88992,-100,4,1,0,50,0,1
89060,-100,4,1,2,50,0,1
89265,-100,4,1,0,50,0,1
89537,-76.9230769230769,4,1,0,50,0,1
89810,-66.6666666666667,4,1,0,50,0,1
90083,-71.4285714285714,4,1,0,50,0,1
90356,-66.6666666666667,4,1,0,50,0,1
90628,-55.5555555555556,4,1,0,50,0,1
90901,-62.5,4,1,0,50,0,1
91174,-100,4,1,0,50,0,1
91447,-66.6666666666667,4,1,0,50,0,1
91515,-66.6666666666667,4,1,2,50,0,1
91719,-200,4,1,0,50,0,1
92265,-100,4,1,0,50,0,1
93901,-200,4,1,0,50,0,1
94447,-100,4,1,0,50,0,1
96083,-76.9230769230769,4,1,0,50,0,1
96356,-66.6666666666667,4,1,0,50,0,1
96628,-55.5555555555556,4,1,0,50,0,1
96901,-62.5,4,1,0,50,0,1
97174,-71.4285714285714,4,1,0,50,0,1
97447,-76.9230769230769,4,1,0,50,0,1
97719,-66.6666666666667,4,1,0,50,0,1
97787,-66.6666666666667,4,1,2,50,0,1
97992,-66.6666666666667,4,1,0,50,0,1
98060,-66.6666666666667,4,1,2,50,0,1
98265,-66.6666666666667,4,1,0,50,0,1
98537,-62.5,4,1,0,50,0,1
98810,-58.8235294117647,4,1,0,50,0,1
99083,-62.5,4,1,0,50,0,1
99356,-62.5,4,1,0,50,0,1
99901,-71.4285714285714,4,1,0,50,0,1
100174,-66.6666666666667,4,1,0,50,0,1
100242,-66.6666666666667,4,1,2,50,0,1
100447,-200,4,1,0,50,0,1
100992,-100,4,1,0,50,0,1
102628,-133.333333333333,4,1,0,50,0,1
104265,-200,4,1,0,50,0,0
122742,-200,4,1,2,50,0,0
122810,-200,4,1,0,50,0,0
123765,-200,4,1,2,50,0,0
123901,-200,4,1,0,50,0,0
125947,-200,4,1,2,50,0,0
126083,-200,4,1,0,50,0,0
128128,-200,4,1,2,50,0,0
128265,-200,4,1,0,50,0,0
130310,-200,4,1,2,50,0,0
130447,-200,4,1,0,50,0,0
130856,-200,4,1,2,50,0,0
130992,-200,4,1,0,50,0,0
138628,-200,4,1,0,50,0,0
139174,-100,4,1,0,50,0,0
139447,-66.6666666666667,4,1,0,50,0,0
139719,-50,4,1,0,50,0,0
139787,-50,4,1,2,50,0,0
140265,-100,4,1,0,50,0,0
144015,-100,4,1,2,50,0,0
144083,-50,4,1,0,50,0,0
144151,-50,4,1,2,50,0,0
144628,-100,4,1,0,50,0,0
148378,-100,4,1,2,50,0,0
148447,-100,4,1,0,50,0,0
148515,-100,4,1,2,50,0,0
148719,-100,4,1,0,50,0,0
152810,-100,4,1,0,50,0,0
152878,-100,4,1,2,50,0,0
153083,-100,4,1,0,50,0,0
157447,-66.6666666666667,4,1,0,50,0,0
157719,-100,4,1,0,50,0,0
161469,-100,4,1,2,50,0,0
161537,-100,4,1,0,50,0,0
161810,-66.6666666666667,4,1,0,50,0,0
162083,-100,4,1,0,50,0,0
165833,-100,4,1,2,50,0,0
165901,-100,4,1,0,50,0,0
166174,-66.6666666666667,4,1,0,50,0,0
166447,-100,4,1,0,50,0,0
170197,-100,4,1,2,50,0,0
170265,-100,4,1,0,50,0,0
170537,-66.6666666666667,4,1,0,50,0,0
170810,-100,4,1,0,50,0,0
172447,-100,4,1,0,50,0,0
172719,-111.111111111111,4,1,0,50,0,0
172992,-125,4,1,0,50,0,0
173265,-142.857142857143,4,1,0,50,0,0
173537,-200,4,1,0,50,0,0
174629,545.454545454546,4,1,0,50,1,0
192085,545.454545454546,4,1,0,50,1,0
192085,-133.333333333333,4,1,0,50,0,0
192494,-133.333333333333,4,1,2,50,0,0
192630,-133.333333333333,4,1,0,50,0,0
194258,530.973451327434,4,1,0,50,1,0
194788,-133.333333333333,4,1,0,50,0,0
196389,512.820512820513,4,1,0,50,1,0
197414,-133.333333333333,4,1,0,50,0,0
198457,491.803278688525,4,1,0,50,1,0
200440,472.44094488189,4,1,0,50,1,0
201384,451.127819548872,4,1,0,50,1,0
201384,-83.3333333333333,4,1,0,50,0,0
202291,447.761194029851,4,1,0,50,1,0
203175,413.793103448276,4,1,0,50,1,0
204014,387.096774193548,4,1,0,50,1,0
204401,377.358490566038,4,1,0,50,1,0
204781,370.37037037037,4,1,0,50,1,0
205155,363.636363636364,4,1,0,50,1,0
205519,352.941176470588,4,1,2,50,1,0
206224,-133.333333333333,4,1,2,50,0,0
206577,-50,4,1,2,50,0,0
206930,-66.6666666666667,4,1,0,50,0,0
206974,-66.6666666666667,4,1,2,50,0,0
207107,-66.6666666666667,4,1,0,50,0,0
207151,-66.6666666666667,4,1,2,50,0,0
207283,-66.6666666666667,4,1,0,50,0,0
207327,-66.6666666666667,4,1,2,50,0,0
207460,-66.6666666666667,4,1,0,50,0,0
207636,-100,4,1,0,50,0,0
208342,-66.6666666666667,4,1,0,50,0,0
209048,-100,4,1,0,50,0,0
209754,-66.6666666666667,4,1,0,50,0,0
210460,-100,4,1,0,50,0,0
211342,-66.6666666666667,4,1,0,50,0,0
211871,-100,4,1,0,50,0,0
212224,-66.6666666666667,4,1,0,50,0,0
212401,-50,4,1,0,50,0,0
212754,-66.6666666666667,4,1,0,50,0,0
213283,-100,4,1,0,50,0,0
214166,-66.6666666666667,4,1,0,50,0,0
214695,-100,4,1,0,50,0,0
215401,-66.6666666666667,4,1,0,50,0,0
216107,-100,4,1,0,50,0,0
216989,-66.6666666666667,4,1,0,50,0,0
217166,-55.5555555555556,4,1,0,50,0,0
217342,-50,4,1,0,50,0,0
217519,-133.333333333333,4,1,0,50,0,0
217871,-66.6666666666667,4,1,0,50,0,0
218577,-58.8235294117647,4,1,0,50,0,0
230224,-133.333333333333,4,1,0,50,0,0
230930,-100,4,1,0,50,0,0
231018,-100,4,1,0,5,0,0
231107,-100,4,1,0,50,0,0
231195,-100,4,1,0,5,0,0
231283,-100,4,1,0,50,0,0
231371,-100,4,1,0,5,0,0
231460,-100,4,1,0,50,0,0
231548,-100,4,1,0,5,0,0
231636,-100,4,1,0,50,0,0
231989,-66.6666666666667,4,1,0,50,0,0
285636,-58.8235294117647,4,1,0,50,0,0

[HitObjects]
120,334,17534,6,0,L|129:296,1,25
184,169,17806,2,0,L|191:205,1,25
237,384,18079,2,0,L|246:346,1,25
301,219,18351,2,0,L|308:255,1,25
454,358,18624,6,0,L|398:350,1,50
306,75,19170,2,0,L|256:82,1,50,0|0,0:3|0:3,0:3:0:0:
61,212,19715,6,0,L|101:227,1,25
172,323,19988,2,0,L|213:311,1,25
159,100,20261,2,0,L|199:115,1,25
270,211,20534,2,0,L|311:199,1,25
368,41,20806,5,0,0:0:0:0:
362,253,21079,1,0,0:0:0:0:
428,140,21352,1,0,0:0:0:0:
285,152,21624,1,0,0:0:0:0:
438,347,21897,6,0,L|516:345,1,75
189,282,22443,6,0,L|199:316,1,25
122,189,22715,2,0,L|116:223,1,25
193,257,22988,2,0,L|203:291,1,25
126,164,23261,2,0,L|120:198,1,25
163,375,23534,5,0,0:0:0:0:
228,103,23806,1,0,0:0:0:0:
418,380,24079,6,0,L|326:373,1,75
95,254,24624,6,0,L|123:245,1,25
156,333,24897,2,0,L|191:345,1,25
118,262,25170,2,0,L|146:253,1,25
179,341,25443,2,0,L|214:353,1,25
212,76,25715,5,0,0:0:0:0:
249,213,25988,1,0,0:0:0:0:
435,111,26261,6,0,L|395:117,1,29.9999990844727
355,186,26534,2,0,L|367:232,1,29.9999990844727
77,111,26806,2,0,L|117:117,1,29.9999990844727
157,186,27079,2,0,L|145:232,1,29.9999990844727
54,353,27352,6,0,L|136:343,1,59.9999981689454
476,313,27897,1,0,0:0:0:0:
372,280,28170,1,0,0:0:0:0:
329,37,28443,6,0,L|343:89,1,29.9999990844727
425,163,28715,2,0,L|371:178,1,29.9999990844727
307,279,28988,2,0,L|293:227,1,29.9999990844727
211,153,29260,2,0,L|265:138,1,29.9999990844727
112,24,29534,5,0,0:0:0:0:
199,342,29806,1,0,0:0:0:0:
212,152,30079,1,0,0:0:0:0:
92,245,30352,1,0,0:0:0:0:
343,87,30624,6,0,L|318:-12,1,89.9999972534181
312,231,31170,6,0,L|327:278,1,29.9999990844727
405,313,31443,2,0,L|382:352,1,29.9999990844727
296,256,31715,2,0,L|311:303,1,29.9999990844727
389,338,31988,2,0,L|366:377,1,29.9999990844727
324,38,32261,1,0,0:0:0:0:
404,236,32534,1,0,0:0:0:0:
142,339,32806,6,0,L|37:327,1,89.9999972534181
376,126,33352,6,0,L|415:157,1,29.9999990844727
376,126,33624,2,0,L|387:183,1,34.9999989318848
376,126,33897,2,0,L|357:183,1,40
376,126,34170,2,0,L|327:180,1,44.999998626709
248,345,34443,5,0,0:0:0:0:
161,47,34715,1,0,0:0:0:0:
44,313,34988,6,0,P|73:340|122:344,1,75
143,338,35261,1,0,0:0:0:0:
244,154,35534,6,0,P|215:127|165:123,1,75
145,129,35807,1,0,0:0:0:0:
307,338,36079,6,0,P|355:309|361:278,1,75
364,255,36352,1,0,0:0:0:0:
331,34,36624,1,0,0:0:0:0:
188,114,36897,1,0,0:0:0:0:
166,384,37170,6,0,L|150:303,1,75
143,273,37443,1,0,0:0:0:0:
312,0,37715,6,0,L|297:73,1,75
288,111,37988,1,0,0:0:0:0:
492,285,38261,6,0,L|420:261,1,75
384,247,38534,1,0,0:0:0:0:
0,169,38806,6,0,L|71:145,1,75
108,131,39079,1,0,0:0:0:0:
256,272,39352,6,0,L|261:394,1,112.500004291535
411,52,39897,6,0,L|356:64,1,50
320,150,40170,2,0,L|254:136,1,50
362,41,40443,2,0,L|307:53,1,50
271,139,40716,2,0,L|205:125,1,50
78,19,40988,1,0,0:0:0:0:
206,303,41261,1,0,0:0:0:0:
169,0,41534,6,0,L|160:112,1,112.500004291535
52,341,42079,6,0,L|122:319,1,50
147,226,42352,2,0,L|205:237,1,50
101,350,42624,6,0,L|171:328,1,50
196,235,42897,2,0,L|254:246,1,50
371,358,43170,1,0,0:0:0:0:
345,133,43443,1,0,0:0:0:0:
41,188,43715,5,8,0:0:0:0:
103,267,43988,1,0,0:0:0:0:
158,30,44261,5,8,0:0:0:0:
137,135,44534,1,0,0:0:0:0:
425,305,44806,5,8,0:0:0:0:
363,384,45079,1,0,0:0:0:0:
308,147,45352,5,8,0:0:0:0:
329,252,45625,1,0,0:0:0:0:
81,337,45897,5,8,0:0:0:0:
251,263,46170,1,0,0:0:0:0:
216,72,46443,5,8,0:0:0:0:
226,355,46715,1,0,0:0:0:0:
434,241,46988,5,8,0:0:0:0:
152,127,47261,1,0,0:0:0:0:
291,28,47534,5,8,0:0:0:0:
266,357,47806,1,0,0:0:0:0:
90,251,48079,5,8,0:0:0:0:
90,251,48352,1,8,0:0:0:0:
385,334,48624,5,8,0:0:0:0:
385,334,48897,1,8,0:0:0:0:
202,32,49170,5,8,0:0:0:0:
202,32,49443,1,8,0:0:0:0:
512,112,49715,5,8,0:0:0:0:
512,112,49988,1,8,0:0:0:0:
107,259,50261,5,8,0:0:0:0:
147,230,50397,1,0,0:0:0:0:
197,229,50534,1,0,0:0:0:0:
238,257,50670,1,0,0:0:0:0:
260,351,50806,5,8,0:0:0:0:
301,379,50942,1,0,0:0:0:0:
351,378,51079,1,0,0:0:0:0:
397,359,51215,1,0,0:0:0:0:
422,269,51352,6,0,L|383:173,1,75.0000028610231,8|0,0:0|0:0,0:0:0:0:
422,269,51624,2,0,L|406:115,1,85.0000016212464,8|0,0:0|0:0,0:0:0:0:
363,0,51897,1,2,0:0:0:0:
347,369,52170,6,0,B|283:345|283:345|201:355,1,127.50000243187
178,291,52447,6,0,B|194:345|194:345|168:422,1,100,4|0,0:0|0:0,0:0:0:0:
83,309,52719,2,0,B|64:269|64:269|80:216,1,100
459,128,52992,6,0,L|242:77,1,200
168,51,53401,1,0,0:0:0:0:
133,218,53537,6,0,B|180:194|180:194|204:140,1,100
33,243,53810,2,0,B|52:286|52:286|99:310,1,100
286,384,54083,6,0,B|274:241|274:241|293:186,1,200
466,88,54628,6,0,L|342:72,1,100
54,167,54901,2,0,L|178:151,1,100
385,2,55174,6,0,L|360:240,1,200
297,276,55583,1,0,0:0:0:0:
128,88,55719,6,0,L|12:102,1,100
387,151,55992,2,0,L|503:165,1,100
279,0,56265,2,0,L|267:106,1,100
194,384,56537,2,0,L|206:278,1,100
356,56,56810,6,0,P|291:97|218:75,1,150
445,136,57356,6,0,B|474:178|474:178|466:237,1,100
411,332,57628,2,0,B|382:290|382:290|390:231,1,100
427,109,57901,2,0,B|456:151|456:151|448:210,1,100
393,305,58173,2,0,B|364:263|364:263|372:204,1,100
496,22,58447,6,0,L|249:37,1,200
205,76,58856,1,0,0:0:0:0:
106,278,58992,2,0,P|141:351|218:345,1,150
135,117,59537,6,0,B|86:137|86:137|29:129,1,100
186,31,59810,2,0,B|139:24|139:24|90:44,1,100
108,117,60083,2,0,B|59:137|59:137|2:129,1,100
159,31,60356,2,0,B|112:24|112:24|63:44,1,100
209,228,60628,6,0,L|440:256,1,200
281,74,61037,1,0,0:0:0:0:
281,74,61174,6,0,B|253:127|253:127|259:195,1,100
331,262,61447,2,0,B|359:209|359:209|356:170,1,100
152,306,61719,6,0,B|209:322|209:322|274:302,1,100
496,87,61992,2,0,B|438:70|438:70|400:82,1,100
235,373,62265,6,0,L|221:156,1,200
250,77,62674,1,0,0:0:0:0:
161,256,62810,2,0,L|51:248,1,100
285,371,63083,1,0,0:0:0:0:
176,124,63356,6,0,L|190:-92,1,200
234,13,63765,1,0,0:0:0:0:
100,184,63901,2,0,L|-6:179,1,100
174,295,64174,2,0,L|280:300,1,100
463,6,64447,6,0,L|446:117,1,100
470,237,64719,6,0,B|416:247|416:247|395:245|395:245|316:258,1,110.000003356934
269,384,64992,6,0,B|223:361|223:361|208:349|208:349|141:319,1,119.999996337891
150,18,65265,6,0,B|137:57|137:57|136:81|136:81|112:148,1,129.999994049073
177,377,65537,6,0,P|206:317|297:304,1,150
404,35,66083,6,0,B|410:91|410:91|378:141,1,100
291,110,66356,2,0,B|285:54|285:54|308:17,1,100
410,78,66628,2,0,B|416:134|416:134|384:184,1,100
297,153,66901,2,0,B|291:97|291:97|314:60,1,100
488,289,67174,6,0,L|284:291,1,200
202,237,67583,1,0,0:0:0:0:
320,26,67719,2,0,P|371:47|393:147,1,150
157,174,68265,6,0,B|101:170|101:170|61:149,1,100
216,264,68537,2,0,B|160:264|160:264|99:291,1,100
116,173,68810,6,0,B|60:169|60:169|21:148,1,100
175,263,69082,2,0,B|119:263|119:263|78:280,1,100
333,384,69356,6,0,B|336:290|336:290|330:264|330:264|336:171,1,200
151,60,69765,1,0,0:0:0:0:
151,60,69901,6,0,P|193:103|196:178,1,100
264,304,70174,6,0,P|190:328|103:268,1,129.999994049073
344,103,70447,6,0,B|377:81|412:72|412:72|457:82|513:145,1,150.000005722046
71,114,70719,6,0,P|64:56|101:-17,1,119.999996337891
265,211,70992,6,0,P|281:251|266:291,1,75.0000028610231
147,384,71265,6,0,P|124:328|158:254,1,110.000003356934
342,61,71537,6,0,B|386:60|386:60|391:62|391:62|424:61,1,75.0000028610231
78,189,71810,6,0,B|34:190|34:190|29:188|29:188|-4:189,1,75.0000028610231
300,354,72083,6,0,P|337:298|323:237,1,100
115,83,72356,6,0,P|160:108|235:81,1,110.000003356934
492,23,72628,6,0,P|410:48|381:122,1,150.000005722046
138,84,72901,6,0,P|178:135|153:237,1,150.000005722046
97,370,73174,6,0,B|122:322|158:309|158:309|205:303|284:360,1,170.000003242493
383,384,73447,2,0,P|420:326|391:248,1,129.999994049073
210,87,73719,6,0,B|261:91|261:91|266:95|266:95|318:100,1,100
492,172,73992,2,0,B|453:176|453:176|447:175|447:175|418:177,1,75.0000028610231
12,232,74265,6,0,B|21:257|21:257|42:268|42:268|63:285|63:285|87:276|87:276|113:273|113:273|132:247,1,150
177,46,74810,6,0,B|166:96|166:96|176:154,1,100
276,101,75083,2,0,B|292:51|292:51|281:0,1,100
167,78,75356,2,0,B|156:128|156:128|166:186,1,100
266,133,75629,2,0,B|282:83|282:83|271:32,1,100
45,274,75901,6,0,L|276:293,1,200
344,298,76310,1,0,0:0:0:0:
171,24,76447,6,0,B|144:25|144:25|127:42|127:42|105:57|105:57|106:82|106:82|102:108|102:108|121:134,1,150,0|0,0:0|0:0,2:0:0:0:
370,132,76992,2,0,B|422:141|422:141|483:122,1,100
283,219,77265,2,0,B|328:204|328:204|380:213,1,100
413,139,77537,2,0,B|465:148|465:148|526:129,1,100
326,226,77810,2,0,B|371:211|371:211|423:220,1,100
140,57,78083,6,0,L|159:259,1,200
90,329,78492,1,0,0:0:0:0:
28,77,78628,6,0,P|75:51|147:60,1,119.999996337891
394,37,78901,6,0,P|406:92|359:161,1,129.999994049073
219,384,79174,2,0,B|177:377|152:351|152:351|148:315|168:255,1,150.000005722046
265,105,79447,6,0,P|206:125|141:109,1,119.999996337891
21,90,79719,6,0,P|29:35|74:2,1,100
110,284,79992,6,0,P|53:313|-12:305,1,119.999996337891
415,268,80265,6,0,B|423:313|423:313|422:326|422:326|432:369,1,100
448,77,80537,6,0,B|449:109|449:109|452:124|452:124|452:158,1,75.0000028610231
1,150,80810,6,0,P|68:188|112:184,1,110.000003356934
217,0,81083,6,0,P|142:17|100:78,1,129.999994049073
196,251,81356,2,0,B|230:227|239:194|239:194|232:163|199:117,1,139.999995727539
95,324,81628,6,0,P|142:372|207:379,1,129.999994049073
511,221,81901,6,0,B|478:190|441:182|441:182|403:189|366:220,1,150.000005722046
185,284,82174,6,0,P|211:343|278:378,1,129.999994049073
228,60,82447,6,0,B|182:52|182:52|166:52|166:52|114:39,1,100
404,215,82719,6,0,B|437:220|437:220|446:219|446:219|485:229,1,75.0000028610231
274,383,82992,6,0,B|262:400|262:400|236:403|236:403|212:412|212:412|191:395|191:395|170:384|170:384|161:359,1,150
187,52,83537,6,0,B|132:48|132:48|91:74,1,100
189,161,83810,2,0,B|244:165|244:165|285:139,1,100
222,52,84083,6,0,B|167:48|167:48|126:74,1,100
224,161,84356,2,0,B|279:165|279:165|320:139,1,100
432,0,84628,6,0,L|425:221,1,200
368,282,85037,1,0,0:0:0:0:
177,58,85174,6,0,P|127:79|162:151,1,150
343,375,85719,6,0,B|368:332|368:332|367:280,1,100
282,300,85992,2,0,B|281:249|281:249|306:206,1,100
343,335,86265,6,0,B|368:292|368:292|367:240,1,100
282,260,86538,2,0,B|281:209|281:209|306:166,1,100
443,41,86810,6,0,L|236:51,1,200
148,84,87219,1,0,0:0:0:0:
340,288,87356,5,0,0:0:0:0:
358,199,87628,1,0,0:0:0:0:
386,362,87901,1,0,0:0:0:0:
315,125,88174,1,0,0:0:0:0:
140,340,88447,6,0,L|14:327,1,112.500004291535
104,258,88719,2,0,L|271:274,1,150
289,246,88992,6,0,L|292:308,1,50
403,173,89265,5,0,0:0:0:0:
353,151,89333,1,0,0:0:0:0:
324,75,89401,1,0,0:0:0:0:
366,1,89469,1,0,0:0:0:0:
467,15,89537,6,0,P|495:44|486:134,1,129.999994049073
465,384,89810,6,0,P|433:346|448:251,1,150.000005722046
149,146,90083,6,0,B|91:150|91:150|58:132|58:132|0:136,1,139.999995727539
301,265,90356,6,0,B|355:266|355:266|388:248|388:248|446:252,1,150.000005722046
305,11,90628,6,0,B|344:39|348:84|348:84|341:128|286:166,1,179.999994506836
243,347,90901,6,0,P|203:302|227:205,1,160
378,77,91174,6,0,B|419:83|419:83|445:75|445:75|491:81,1,100
135,146,91447,6,0,B|105:154|105:154|82:150|82:150|48:158,1,75.0000028610231
336,366,91719,6,0,B|362:369|362:369|381:355|381:355|406:344|406:344|409:319|409:319|418:294|418:294|403:265,1,150,0|0,2:0|2:0,2:0:0:0:
126,77,92265,6,0,B|105:126|105:126|128:173,1,100
220,114,92537,2,0,B|241:65|241:65|218:18,1,100
115,112,92810,6,0,B|94:161|94:161|117:208,1,100
209,149,93082,2,0,B|230:100|230:100|207:53,1,100
101,328,93356,6,0,L|307:351,1,200
394,315,93765,1,0,0:0:0:0:
197,0,93901,6,0,B|206:25|206:25|227:36|227:36|248:53|248:53|272:44|272:44|298:41|298:41|317:15,1,150
46,214,94447,6,0,L|153:239,1,100
127,333,94719,2,0,L|225:307,1,100
81,226,94992,6,0,L|188:251,1,100
162,345,95264,2,0,L|260:319,1,100
428,0,95537,6,0,L|393:196,1,200
361,293,95947,1,0,0:0:0:0:
231,79,96083,6,0,P|156:82|116:18,1,129.999994049073
341,0,96356,6,0,P|416:-3|457:80,1,150.000005722046
310,387,96628,6,0,B|306:315|306:315|318:282|318:282|316:192,1,179.999994506836
178,0,96901,6,0,B|184:51|184:51|193:73|193:73|203:173,1,160
79,312,97174,6,0,P|151:348|220:305,1,139.999995727539
227,88,97447,6,0,P|169:52|111:71,1,129.999994049073
337,323,97719,6,0,B|371:324|371:324|387:318|387:318|433:319,1,75.0000028610231
347,0,97992,6,0,B|346:34|346:34|352:50|352:50|351:96,1,75.0000028610231
141,234,98265,6,0,P|66:226|25:314,1,150.000005722046
274,384,98537,6,0,P|345:332|351:233,1,160
209,62,98810,6,0,B|223:103|259:128|259:128|303:132|367:110,1,170.000003242493
147,246,99083,6,0,P|104:201|-8:198,1,160
299,383,99356,6,0,B|295:299|295:299|287:278|287:278|279:194,1,189.999994926453
161,15,99628,6,0,B|158:83|158:83|150:104|150:104|142:188,1,160
481,205,99901,6,0,B|420:193|420:193|389:198|389:198|335:188,1,139.999995727539
0,244,100174,6,0,B|33:251|33:251|49:249|49:249|94:259,1,75.0000028610231
273,44,100447,6,0,B|294:59|294:59|318:56|318:56|345:58|345:58|359:37|359:37|379:19|379:19|379:-12,1,150,0|0,0:0|2:0,0:0:0:0:
193,232,100992,6,0,B|139:229|139:229|103:266,1,100
190,332,101264,2,0,B|243:334|243:334|279:297,1,100
156,233,101537,6,0,B|102:230|102:230|66:267,1,100
153,334,101809,2,0,B|206:336|206:336|242:299,1,100
401,55,102083,6,0,L|196:34,1,200
300,384,102628,6,0,B|365:348|365:348|376:264,1,150.000005722046
227,105,103174,5,0,0:0:0:0:
288,208,103447,1,0,0:0:0:0:
300,18,103719,1,0,0:0:0:0:
114,102,103992,1,0,0:0:0:0:
233,318,104265,6,0,B|277:340|277:340|337:339,1,100
413,341,104810,1,0,0:0:0:0:
139,148,122265,6,0,P|216:127|278:196,1,175
273,214,122810,5,0,0:0:0:0:
276,33,123083,1,0,0:0:0:0:
237,305,123356,6,0,P|161:279|101:323,1,150
90,356,123901,2,0,P|48:307|83:184,1,200
291,186,124992,5,0,0:0:0:0:
221,274,125265,1,0,0:0:0:0:
290,186,125537,2,0,P|361:172|418:217,1,150
428,266,126083,2,0,P|428:170|510:119,1,200
311,338,127174,5,0,0:0:0:0:
418,308,127447,1,0,0:0:0:0:
311,338,127719,6,0,P|241:348|169:305,1,150
162,261,128265,6,0,P|161:319|47:293,1,200
165,31,129356,5,0,0:0:0:0:
184,173,129628,1,0,0:0:0:0:
165,31,129901,6,0,B|203:44|241:35|241:35|243:72|289:92,1,150
354,136,130447,6,0,B|327:169|287:173|287:173|293:208|270:243,1,150
189,288,130992,5,0,0:0:0:0:
360,357,131537,1,0,0:0:0:0:
429,186,132083,1,0,0:0:0:0:
258,116,132628,1,0,0:0:0:0:
266,363,133174,5,0,0:0:0:0:
156,40,133719,1,0,0:0:0:0:
156,310,134265,1,0,0:0:0:0:
311,129,134810,1,0,0:0:0:0:
79,255,135356,5,0,0:0:0:0:
79,255,135628,1,0,0:0:0:0:
306,199,135901,5,0,0:0:0:0:
306,199,136174,1,0,0:0:0:0:
335,340,136447,5,0,0:0:0:0:
335,340,136719,1,0,0:0:0:0:
274,8,136992,5,0,0:0:0:0:
274,8,137265,1,0,0:0:0:0:
512,60,137537,5,0,0:0:0:0:
491,105,137674,1,0,0:0:0:0:
404,119,137810,5,0,0:0:0:0:
422,165,137947,1,0,0:0:0:0:
472,231,138083,5,0,0:0:0:0:
427,252,138219,1,0,0:0:0:0:
362,303,138356,5,0,0:0:0:0:
322,272,138492,1,0,0:0:0:0:
235,170,138628,6,0,B|203:249|266:246|233:331,1,150
158,376,139174,6,0,P|114:351|53:356,1,100
166,216,139447,6,0,P|209:247|308:208,1,150.000005722046
443,41,139719,6,0,L|436:102,4,50
173,266,140265,6,0,P|117:259|68:264,1,100
251,379,140537,2,0,P|300:385|350:382,1,100
381,20,140810,2,0,P|416:123|415:215,2,200
197,63,141492,1,0,0:0:0:0:
131,112,141628,1,0,0:0:0:0:
115,189,141765,1,0,0:0:0:0:
149,276,141901,6,0,P|103:253|54:243,1,100
242,225,142174,2,0,P|288:248|337:258,1,100
495,228,142447,2,0,P|501:294|491:336,1,100
408,105,142719,2,0,P|402:56|414:8,1,100
316,357,142992,6,0,P|195:377|104:357,2,200
303,189,143810,2,0,P|381:116|412:128,1,150
444,148,144083,2,0,L|455:201,4,50
108,91,144628,6,0,P|85:44|102:-13,1,100
193,156,144901,2,0,P|215:199|207:248,1,100
59,345,145174,2,0,P|177:340|271:353,2,200
355,240,145856,5,0,0:0:0:0:
410,171,145992,1,0,0:0:0:0:
394,87,146128,1,0,0:0:0:0:
313,29,146265,2,0,P|361:38|424:13,1,100
175,105,146537,2,0,P|127:96|64:121,1,100
250,323,146810,2,0,P|279:271|265:222,1,100
212,92,147083,2,0,P|183:144|197:193,1,100
444,329,147356,6,0,P|347:309|249:322,2,200
383,142,148174,2,0,P|356:55|403:10,1,150
428,8,148447,2,0,L|467:28,4,25
110,62,148992,6,0,P|165:41|211:60,1,100
419,153,149265,2,0,P|374:172|326:161,1,100
110,62,149537,2,0,P|120:160|96:271,2,200
218,260,150219,5,0,0:0:0:0:
287,299,150356,1,0,0:0:0:0:
366,298,150492,1,0,0:0:0:0:
429,219,150628,2,0,P|446:269|429:317,1,100
339,125,150901,2,0,P|322:75|339:27,1,100
218,260,151174,2,0,P|164:269|103:263,1,100
413,73,151447,2,0,P|462:61|526:74,1,100
229,367,151719,6,0,P|219:272|230:167,2,200
320,181,152537,2,0,P|306:107|235:73,1,150
204,68,152810,2,0,L|176:93,4,25
121,325,153356,6,0,P|166:346|227:337,1,100
451,294,153629,2,0,P|406:272|356:276,1,100
215,342,153901,6,0,P|188:237|204:129,2,200
286,138,154583,1,0,0:0:0:0:
243,70,154719,1,0,0:0:0:0:
162,68,154856,1,0,0:0:0:0:
99,138,154992,6,0,P|46:152|2:130,1,100
145,249,155265,2,0,P|198:235|242:257,1,100
379,367,155537,2,0,P|360:322|380:262,1,100
440,71,155810,2,0,P|459:116|439:176,1,100
232,348,156083,2,0,P|128:322|29:336,2,200
342,211,156765,1,0,0:0:0:0:
342,211,156901,6,0,P|281:233|234:223,1,100
176,171,157174,1,0,0:0:0:0:
149,260,157310,1,0,0:0:0:0:
32,190,157447,6,0,B|93:193|93:193|132:170|132:170|208:171,1,150.000005722046
176,171,157719,6,0,P|145:228|159:280,1,100
272,80,157992,2,0,P|226:32|172:30,1,100,0|0,0:0|0:0,2:0:0:0:
280,343,158265,6,0,P|377:337|476:367,2,200
119,238,158947,5,0,0:0:0:0:
128,148,159083,1,0,0:0:0:0:
191,84,159219,1,0,0:0:0:0:
217,194,159356,6,0,L|106:195,1,100
283,316,159628,2,0,L|392:313,1,100
178,291,159901,2,0,B|161:338|161:338|181:386,1,100
284,98,160174,2,0,B|301:51|301:51|281:3,1,100
238,325,160447,6,0,P|322:308|434:325,2,200
97,224,161128,1,0,0:0:0:0:
97,224,161265,2,0,P|155:238|221:184,1,150
216,139,161537,5,0,0:0:0:0:
274,69,161674,1,0,0:0:0:0:
371,256,161810,6,0,B|313:256|313:256|282:271|282:271|206:267,1,150.000005722046
76,363,162083,6,0,P|54:323|59:266,1,100
126,0,162356,6,0,P|148:40|143:97,1,100
76,363,162628,6,0,P|166:338|282:353,2,200
270,349,163310,5,0,0:0:0:0:
322,275,163447,1,0,0:0:0:0:
321,185,163583,1,0,0:0:0:0:
249,106,163719,6,0,L|148:113,1,100
345,352,163992,2,0,L|446:345,1,100
341,118,164265,2,0,P|334:66|291:18,1,100
286,279,164537,2,0,P|331:347|356:354,1,100
196,206,164810,6,0,P|81:222|-5:207,2,200
385,268,165492,1,0,0:0:0:0:
385,268,165628,2,0,P|309:273|260:328,1,150
258,370,165901,1,0,0:0:0:0:
219,243,166037,1,0,0:0:0:0:
38,309,166174,6,0,B|95:320|95:320|136:311|136:311|185:319,1,150.000005722046
291,130,166447,6,0,P|290:90|251:44,1,100
322,251,166719,2,0,P|361:243|400:198,1,100
115,39,166992,6,0,P|103:164|121:244,2,200
251,328,167674,5,0,0:0:0:0:
167,362,167810,1,0,0:0:0:0:
84,326,167947,1,0,0:0:0:0:
200,249,168083,6,0,P|248:237|311:259,1,100
477,181,168356,2,0,P|429:193|366:171,1,100
196,91,168628,2,0,P|244:79|307:101,1,100
473,12,168901,2,0,P|425:24|362:2,1,100
380,180,169174,6,0,P|402:290|385:386,2,200
276,48,169856,1,0,0:0:0:0:
276,48,169992,2,0,P|244:112|268:184,1,150
312,208,170265,1,0,0:0:0:0:
380,136,170401,1,0,0:0:0:0:
400,336,170537,6,0,B|336:336|336:336|300:320|300:320|236:320,1,150.000005722046
76,264,170810,6,0,P|52:320|72:372,1,100
184,212,171083,2,0,P|144:160|96:148,1,100
320,368,171356,6,0,P|419:357|511:320,2,200
208,264,172037,5,0,0:0:0:0:
188,164,172174,1,0,0:0:0:0:
252,88,172310,1,0,0:0:0:0:
344,124,172447,6,0,L|420:200,1,100
97,194,172719,2,0,L|164:128,1,89.9999972534181
323,241,172992,6,0,L|342:337,1,80
164,330,173265,2,0,L|183:235,1,87.499997329712
233,99,173537,6,0,B|287:96|326:127|326:127|361:95|421:98,2,200
112,281,192085,6,0,L|231:306,1,112.500004291535
253,317,192630,1,0,0:0:0:0:
320,234,192903,1,0,0:0:0:0:
512,384,193175,6,0,P|437:349|371:366,1,150.000005722046
499,144,194258,5,0,0:0:0:0:
161,55,194788,5,0,0:0:0:0:
84,133,195054,1,0,0:0:0:0:
118,257,195319,6,0,P|183:286|274:279,2,150.000005722046
248,31,196901,5,0,0:0:0:0:
306,125,197158,1,0,0:0:0:0:
228,230,197414,6,0,P|203:268|208:313,1,75.0000028610231
295,371,197927,2,0,P|340:364|370:331,1,75.0000028610231
384,227,198457,1,0,0:0:0:0:
124,75,198948,5,0,0:0:0:0:
191,161,199194,1,0,0:0:0:0:
78,208,199440,6,0,P|62:250|80:312,1,100
260,289,199932,2,0,P|226:261|166:259,1,100
379,384,200440,6,0,L|386:283,1,100
366,0,200912,2,0,L|359:101,1,100
362,364,201384,6,0,L|237:350,1,119.999996337891
388,10,201835,6,0,L|521:20,1,119.999996337891
148,84,202291,5,0,0:0:0:0:
164,198,202514,1,0,0:0:0:0:
248,376,202738,5,0,0:0:0:0:
298,154,202962,1,0,0:0:0:0:
197,27,203175,5,0,0:0:0:0:
319,321,203381,1,0,0:0:0:0:
426,25,203588,5,0,0:0:0:0:
53,254,203795,1,0,0:0:0:0:
388,384,204014,5,0,0:0:0:0:
432,312,204207,1,0,0:0:0:0:
173,18,204401,5,0,0:0:0:0:
200,132,204589,1,0,0:0:0:0:
108,376,204781,5,8,0:0:0:0:
272,344,204966,1,0,0:0:0:0:
360,84,205155,5,0,0:0:0:0:
68,8,205336,1,0,0:0:0:0:
120,212,205519,5,0,0:0:0:0:
124,260,205607,1,0,0:0:0:0:
168,336,205695,1,0,0:0:0:0:
200,300,205783,1,0,0:0:0:0:
232,220,205871,5,0,0:0:0:0:
272,252,205960,1,0,0:0:0:0:
320,332,206048,1,0,0:0:0:0:
372,259,206136,1,0,0:0:0:0:
356,164,206224,6,0,P|340:116|372:52,1,112.500004291535
362,60,206577,6,0,P|304:72|244:32,1,100
148,0,206754,6,0,P|92:-4|24:44,1,100
25,198,206930,6,0,L|58:287,1,75.0000028610231
211,381,207107,2,0,L|136:384,1,75.0000028610231
273,270,207283,2,0,L|354:266,1,75.0000028610231
452,131,207460,1,0,0:0:0:0:
466,204,207548,1,0,0:0:0:0:
443,275,207636,2,0,P|419:224|435:129,1,150.000005722046
495,196,207989,2,0,P|526:284|501:350,1,150
510,335,208342,5,0,0:0:0:0:
339,272,208519,2,0,L|265:260,1,75.0000028610231
278,108,208695,2,0,L|320:197,1,75.0000028610231
160,237,208871,2,0,L|207:178,1,75.0000028610231
372,49,209048,2,0,P|305:2|221:14,1,150
331,142,209401,2,0,P|404:142|463:98,1,150
465,57,209754,2,0,L|489:98,2,37.5000014305115
488,350,210107,6,0,L|394:341,1,75.0000028610231
274,265,210283,2,0,L|183:274,1,75.0000028610231
46,353,210460,6,0,P|13:281|40:204,1,150
90,137,210813,6,0,P|107:65|75:0,1,150
74,0,211166,1,0,0:0:0:0:
196,316,211342,6,0,L|284:340,1,75.0000028610231
267,165,211519,2,0,L|267:255,1,75.0000028610231
174,219,211695,2,0,L|100:200,1,75.0000028610231
0,92,211871,6,0,P|76:41|144:53,1,150
238,50,212224,6,0,P|226:97|193:133,1,75.0000028610231
106,206,212401,6,0,P|161:264|210:276,1,100
408,255,212577,5,0,0:0:0:0:
475,67,212930,6,0,L|400:76,1,75.0000028610231
303,141,213107,2,0,L|217:128,1,75.0000028610231
71,61,213283,6,0,P|41:138|62:207,1,150
117,287,213636,2,0,P|155:213|135:144,1,150
139,151,213989,1,0,0:0:0:0:
315,34,214166,6,0,L|338:126,1,75.0000028610231
451,136,214342,2,0,L|394:213,1,75.0000028610231
239,180,214519,2,0,L|306:211,1,75.0000028610231
436,345,214695,6,0,P|381:387|286:382,1,150
346,294,215048,2,0,P|412:249|492:260,1,150
501,285,215401,2,0,L|522:242,2,37.5000014305115
101,357,215754,6,0,L|59:276,1,75.0000028610231
138,57,215930,2,0,L|128:154,1,75.0000028610231
70,291,216107,6,0,P|154:248|214:268,1,150
282,335,216460,2,0,P|354:346|416:306,1,150
416,305,216813,1,0,0:0:0:0:
462,25,216989,6,0,L|416:96,1,75.0000028610231
372,198,217166,2,0,L|264:204,1,89.9999972534181
38,129,217342,1,2,0:0:0:0:
41,178,217386,1,0,0:0:0:0:
45,228,217430,1,0,0:0:0:0:
49,278,217474,1,0,0:0:0:0:
52,328,217519,6,2,B|90:321|90:321|123:335|123:335|166:330,1,112.500004291535
416,310,217871,6,0,P|425:351|416:388,1,75.0000028610231
290,221,218048,2,0,P|291:176|316:132,1,75.0000028610231
433,20,218224,1,0,0:0:0:0:
101,162,218401,1,0,0:0:0:0:
257,341,218577,6,0,L|148:332,1,85.0000016212464
101,162,218754,2,0,L|210:171,1,85.0000016212464
415,333,218930,6,0,B|443:272|433:232|405:182|355:176|355:176|391:112|383:67|341:32,2,340.000006484985
268,37,219813,6,0,L|379:45,1,85.0000016212464
158,127,219989,2,0,L|57:118,1,85.0000016212464
32,237,220166,2,0,L|34:343,1,85.0000016212464
189,323,220342,6,0,B|236:277|308:278|376:319|376:319|311:278|323:182,2,340.000006484985
299,174,221224,1,0,0:0:0:0:
331,75,221401,2,0,L|423:60,1,85.0000016212464
299,174,221577,2,0,L|185:156,1,85.0000016212464
73,34,221754,6,0,B|0:196|133:196|44:372,2,340.000006484985
185,96,222636,2,0,P|172:136|174:179,1,85.0000016212464
317,280,222813,2,0,P|251:283|199:262,1,85.0000016212464
319,160,222989,2,0,P|385:157|437:178,1,85.0000016212464
275,364,223166,6,0,B|218:346|174:358|174:358|121:308|82:241|82:241|29:257|-20:235,2,340.000006484985
141,92,224048,1,0,0:0:0:0:
55,348,224224,6,0,L|61:253,1,85.0000016212464
141,92,224401,2,0,L|136:185,1,85.0000016212464
191,366,224577,6,0,P|350:376|351:228,2,340.000006484985
327,60,225460,6,0,P|376:60|418:77,1,85.0000016212464
158,178,225636,2,0,P|121:124|113:79,1,85.0000016212464
332,287,225813,2,0,P|291:341|250:356,1,85.0000016212464
21,231,225989,6,0,P|39:58|194:3,2,340.000006484985
208,324,226871,1,0,0:0:0:0:
121,143,227048,6,0,L|26:171,1,85.0000016212464
208,324,227224,6,0,L|289:299,1,85.0000016212464
352,124,227401,6,0,B|371:182|469:201|469:201|508:86|389:13,2,340.000006484985
454,61,228460,6,0,L|349:73,1,85.0000016212464
258,134,228636,2,0,L|141:118,1,85.0000016212464
42,61,228813,5,0,0:0:0:0:
95,206,228989,1,0,0:0:0:0:
139,278,229077,1,0,0:0:0:0:
85,340,229166,2,0,P|77:293|91:257,1,85.0000016212464
229,262,229342,2,0,P|242:301|233:343,1,85.0000016212464
163,81,229519,6,0,L|365:63,1,170.000003242493
414,86,229783,1,0,0:0:0:0:
481,35,229871,1,0,0:0:0:0:
277,0,230048,1,0,0:0:0:0:
307,243,230224,6,0,L|311:333,1,75.0000028610231
456,366,230577,2,0,L|376:386,1,75.0000028610231
164,86,230930,6,0,L|167:175,1,75
250,27,231107,2,0,L|253:114,1,75.0000028610231
323,265,231283,2,0,L|321:184,1,75.0000028610231
409,203,231460,2,0,L|406:96,1,75.0000028610231
389,0,231636,6,0,L|228:6,1,150.000005722046
19,91,231989,2,0,L|115:101,1,75
160,212,232166,2,0,L|251:190,1,75
341,108,232342,1,0,0:0:0:0:
454,61,285636,6,0,L|349:73,1,85.0000016212464
258,134,285812,2,0,L|141:118,1,85.0000016212464
42,61,285989,5,0,0:0:0:0:
95,206,286165,1,0,0:0:0:0:
139,278,286253,1,0,0:0:0:0:
85,340,286342,2,0,P|77:293|91:257,1,85.0000016212464
229,262,286518,2,0,P|242:301|233:343,1,85.0000016212464
163,81,286695,6,0,L|365:63,1,170.000003242493
414,87,286959,1,0,0:0:0:0:
478,142,287047,6,0,L|489:278,1,85.0000016212464
304,165,287224,6,0,L|293:29,1,85.0000016212464
418,0,287400,6,0,P|495:58|446:171,1,170.000003242493
111,110,287753,1,0,0:0:0:0:
132,192,287842,1,0,0:0:0:0:
191,252,287930,1,0,0:0:0:0:
158,330,288018,1,0,0:0:0:0:
235,363,288106,6,0,L|420:380,1,170.000003242493
478,336,288371,1,0,0:0:0:0:
507,256,288459,2,0,L|471:143,1,85.0000016212464
329,153,288636,2,0,L|354:233,1,85.0000016212464
382,70,288812,6,0,P|296:52|228:121,1,170.000003242493
194,351,289165,1,0,0:0:0:0:
115,319,289253,1,0,0:0:0:0:
181,265,289342,1,0,0:0:0:0:
260,295,289430,1,0,0:0:0:0:
336,258,289518,6,0,L|316:54,1,170.000003242493
250,38,289783,1,0,0:0:0:0:
172,71,289871,2,0,L|45:82,1,85.0000016212464
236,184,290047,2,0,L|347:174,1,85.0000016212464
66,244,290224,2,0,P|79:325|155:361,1,170.000003242493
