osu file format v14

[General]
AudioFilename: audio.mp3
AudioLeadIn: 0
PreviewTime: 52943
Countdown: 0
SampleSet: Soft
StackLeniency: 0.4
Mode: 0
LetterboxInBreaks: 0
WidescreenStoryboard: 0

[Editor]
Bookmarks: 116216
DistanceSpacing: 0.7
BeatDivisor: 8
GridSize: 32
TimelineZoom: 2.52

[Metadata]
Title:Crystal Cave
TitleUnicode:Crystal Cave
Artist:Panda Eyes
ArtistUnicode:Panda Eyes
Creator:DeRandom Otaku
Version:Clear
Source:osu!
Tags:Drum n bass and dnb drumstep chill melodic kiko featured artist fa instrumental ren electronic
BeatmapID:2233132
BeatmapSetID:1066507

[Difficulty]
HPDrainRate:5
CircleSize:4
OverallDifficulty:8.7
ApproachRate:9.4
SliderMultiplier:2.2
SliderTickRate:1

[Events]
//Background and Video events
0,0,"bg.jpg",0,0
//Break Periods
//Storyboard Layer 0 (Background)
//Storyboard Layer 1 (Fail)
//Storyboard Layer 2 (Pass)
//Storyboard Layer 3 (Foreground)
//Storyboard Layer 4 (Overlay)
//Storyboard Sound Samples

[TimingPoints]
580,545.454545454546,4,2,1,60,1,0
580,-133.333333333333,4,2,1,40,0,0
852,-133.333333333333,4,2,1,5,0,0
2761,-133.333333333333,4,2,1,40,0,0
3034,-133.333333333333,4,2,1,5,0,0
4943,-133.333333333333,4,2,1,40,0,0
5216,-133.333333333333,4,2,1,5,0,0
7125,-133.333333333333,4,2,1,40,0,0
7398,-133.333333333333,4,2,1,5,0,0
9307,-133.333333333333,4,2,1,40,0,0
9852,-133.333333333333,4,2,1,20,0,0
11489,-133.333333333333,4,2,1,40,0,0
12034,-133.333333333333,4,2,1,25,0,0
13670,-133.333333333333,4,2,1,40,0,0
14216,-133.333333333333,4,2,1,30,0,0
15852,-133.333333333333,4,2,1,40,0,0
16398,-133.333333333333,4,2,1,35,0,0
18034,-117.647058823529,4,2,1,85,0,0
18307,-117.647058823529,4,2,1,50,0,0
35489,-117.647058823529,4,2,1,80,0,0
35761,-117.647058823529,4,2,1,40,0,0
40261,-117.647058823529,4,2,1,5,0,0
40398,-117.647058823529,4,2,1,40,0,0
42443,-117.647058823529,4,2,1,5,0,0
42580,-117.647058823529,4,2,1,40,0,0
44216,-117.647058823529,4,2,1,50,0,0
48580,-117.647058823529,4,2,1,58,0,0
50761,-90.9090909090909,4,2,1,58,0,0
51852,-166.666666666667,4,2,1,58,0,0
51989,-166.666666666667,4,2,1,5,0,0
52125,-166.666666666667,4,2,1,58,0,0
52261,-166.666666666667,4,2,1,5,0,0
52398,-166.666666666667,4,2,1,58,0,0
52534,-166.666666666667,4,2,1,5,0,0
52670,-166.666666666667,4,2,1,58,0,0
52943,-71.4285714285714,4,2,1,70,0,0
68761,-86.9565217391304,4,2,1,55,0,0
70398,-71.4285714285714,4,2,1,70,0,0
87852,-117.647058823529,4,2,1,70,0,0
90034,-71.4285714285714,4,2,1,70,0,0
103125,-86.9565217391304,4,2,1,50,0,0
105852,-142.857142857143,4,2,1,43,0,0
131489,-111.111111111111,4,2,1,50,0,0
133534,-111.111111111111,4,2,1,5,0,0
133670,-111.111111111111,4,2,1,50,0,0
135716,-111.111111111111,4,2,1,5,0,0
135852,-111.111111111111,4,2,1,58,0,0
138034,-90.9090909090909,4,2,1,58,0,0
139125,-125,4,2,1,58,0,0
139534,-125,4,2,1,5,0,0
139670,-125,4,2,1,58,0,0
139807,-125,4,2,1,5,0,0
139943,-125,4,2,1,58,0,0
140080,-125,4,2,1,5,0,0
140216,-55.5555555555556,4,2,1,68,0,0
140761,-71.4285714285714,4,2,1,68,0,0
141307,-100,4,2,1,68,0,0
142670,-71.4285714285714,4,2,1,68,0,0
143489,-100,4,2,1,68,0,0
144580,-83.3333333333333,4,2,1,68,0,0
145125,-71.4285714285714,4,2,1,68,0,0
145670,-100,4,2,1,68,0,0
147034,-71.4285714285714,4,2,1,68,0,0
147852,-100,4,2,1,68,0,0
148398,-71.4285714285714,4,2,1,68,0,0
148943,-55.5555555555556,4,2,1,68,0,0
149488,-71.4285714285714,4,2,1,68,0,0
150034,-100,4,2,1,68,0,0
151397,-71.4285714285714,4,2,1,68,0,0
152216,-100,4,2,1,68,0,0
153307,-83.3333333333333,4,2,1,68,0,0
153852,-71.4285714285714,4,2,1,68,0,0
154397,-100,4,2,1,68,0,0
155761,-71.4285714285714,4,2,1,68,0,0
156579,-100,4,2,1,68,0,0
157125,-71.4285714285714,4,2,1,68,0,0
157670,-166.666666666667,4,2,1,68,0,0
157977,-166.666666666667,4,2,1,5,0,0
158216,-71.4285714285714,4,2,1,68,0,0
158761,-100,4,2,1,68,0,0
160125,-71.4285714285714,4,2,1,68,0,0
160943,-100,4,2,1,68,0,0
162034,-83.3333333333333,4,2,1,68,0,0
162307,-166.666666666667,4,2,1,68,0,0
162341,-166.666666666667,4,2,1,5,0,0
162580,-71.4285714285714,4,2,1,68,0,0
163125,-100,4,2,1,68,0,0
164216,-71.4285714285714,4,2,1,68,0,0
165307,-100,4,2,1,68,0,0
165852,-71.4285714285714,4,2,1,68,0,0
166670,-166.666666666667,4,2,1,68,0,0
166705,-166.666666666667,4,2,1,5,0,0
166943,-71.4285714285714,4,2,1,68,0,0
167489,-100,4,2,1,68,0,0
168852,-71.4285714285714,4,2,1,68,0,0
169670,-100,4,2,1,68,0,0
170761,-71.4285714285714,4,2,1,68,0,0
171034,-166.666666666667,4,2,1,68,0,0
171068,-166.666666666667,4,2,1,5,0,0
171307,-71.4285714285714,4,2,1,68,0,0
171852,-100,4,2,1,68,0,0
172943,-166.666666666667,4,2,1,55,0,0
173250,-166.666666666667,4,2,1,5,0,0
173489,-166.666666666667,4,2,1,55,0,0
173795,-166.666666666667,4,2,1,5,0,0
174034,-166.666666666667,4,2,1,55,0,0
174341,-166.666666666667,4,2,1,5,0,0
174580,-166.666666666667,4,2,1,55,0,0
174886,-166.666666666667,4,2,1,5,0,0
175125,-166.666666666667,4,2,1,45,0,0
192580,-142.857142857143,4,2,1,50,0,0
194761,530.973451327434,4,2,1,50,1,0
194761,-142.857142857143,4,2,1,50,0,0
196884,518.358531317495,4,2,1,50,1,0
196884,-142.857142857143,4,2,1,50,0,0
198957,495.867768595041,4,2,1,55,1,0
198957,-142.857142857143,4,2,1,55,0,0
199948,483.870967741935,4,2,1,55,1,0
199948,-142.857142857143,4,2,1,55,0,0
200915,476.190476190476,4,2,1,58,1,0
200915,-125,4,2,1,58,0,0
201867,460.652591170825,4,2,1,58,1,0
201867,-125,4,2,1,58,0,0
202788,437.956204379562,4,2,1,58,1,0
202788,-111.111111111111,4,2,1,58,0,0
203663,416.666666666667,4,2,1,58,1,0
203663,-111.111111111111,4,2,1,58,0,0
204496,392.156862745098,4,2,1,58,1,0
205280,365.853658536585,4,2,1,58,1,0
206011,352.941176470588,4,2,1,58,1,0
206893,-100,4,2,1,5,0,0
207069,-100,4,2,1,58,0,0
207158,-100,4,2,1,5,0,0
207246,-100,4,2,1,58,0,0
207334,-100,4,2,1,5,0,0
207422,-64.5161290322581,4,2,1,65,0,0
208128,-83.3333333333333,4,2,1,65,0,0
209011,-64.5161290322581,4,2,1,65,0,0
209540,-83.3333333333333,4,2,1,65,0,0
210246,-74.0740740740741,4,2,1,65,0,0
210599,-64.5161290322581,4,2,1,65,0,0
210952,-95.2380952380952,4,2,1,65,0,0
211834,-64.5161290322581,4,2,1,65,0,0
212363,-100,4,2,1,65,0,0
212716,-71.4285714285714,4,2,1,65,0,0
213069,-64.5161290322581,4,2,1,65,0,0
213775,-83.3333333333333,4,2,1,65,0,0
214658,-64.5161290322581,4,2,1,65,0,0
215187,-83.3333333333333,4,2,1,65,0,0
215893,-74.0740740740741,4,2,1,65,0,0
216246,-64.5161290322581,4,2,1,65,0,0
216599,-80,4,2,1,65,0,0
217481,-64.5161290322581,4,2,1,65,0,0
217834,-83.3333333333333,4,2,1,65,0,0
218011,-153.846153846154,4,2,1,65,0,0
218363,-142.857142857143,4,2,1,65,0,0
218716,-57.1428571428571,4,2,1,70,0,0
219422,-68.9655172413793,4,2,1,70,0,0
220305,-64.5161290322581,4,2,1,70,0,0
220834,-66.6666666666667,4,2,1,70,0,0
221540,-74.0740740740741,4,2,1,70,0,0
221893,-57.1428571428571,4,2,1,70,0,0
222246,-68.9655172413793,4,2,1,70,0,0
223128,-57.1428571428571,4,2,1,70,0,0
223657,-80,4,2,1,70,0,0
224010,-58.8235294117647,4,2,1,70,0,0
224363,-57.1428571428571,4,2,1,70,0,0
225069,-74.0740740740741,4,2,1,70,0,0
225952,-58.8235294117647,4,2,1,70,0,0
226481,-68.9655172413793,4,2,1,70,0,0
227187,-74.0740740740741,4,2,1,70,0,0
227540,-58.8235294117647,4,2,1,70,0,0
227893,-68.9655172413793,4,2,1,70,0,0
228599,-68.9655172413793,4,2,1,50,0,0
228952,-125,4,2,1,50,0,0
230011,-80,4,2,1,62,0,0
252599,-142.857142857143,4,2,1,50,0,0
258246,-111.111111111111,4,2,1,58,0,0
258599,-100,4,2,1,58,0,0
258952,-90.9090909090909,4,2,1,58,0,0
259305,-83.3333333333333,4,2,1,58,0,0
261069,-83.3333333333333,4,2,1,62,0,0
263452,-83.3333333333333,4,2,1,5,0,0
263540,-83.3333333333333,4,2,1,62,0,0
263628,-83.3333333333333,4,2,1,5,0,0
263716,-83.3333333333333,4,2,1,62,0,0
263805,-83.3333333333333,4,2,1,5,0,0
263893,-64.5161290322581,4,2,1,72,0,0
264599,-83.3333333333333,4,2,1,72,0,0
265481,-68.9655172413793,4,2,1,72,0,0
266010,-68.9655172413793,4,2,1,72,0,0
266363,-83.3333333333333,4,2,1,72,0,0
266716,-83.3333333333333,4,2,1,72,0,0
267069,-64.5161290322581,4,2,1,72,0,0
268305,-64.5161290322581,4,2,1,72,0,0
268834,-71.4285714285714,4,2,1,72,0,0
269187,-57.1428571428571,4,2,1,72,0,0
269540,-64.5161290322581,4,2,1,72,0,0
270246,-68.9655172413793,4,2,1,72,0,0
271128,-64.5161290322581,4,2,1,72,0,0
271658,-74.0740740740741,4,2,1,72,0,0
272364,-74.0740740740741,4,2,1,72,0,0
272716,-64.5161290322581,4,2,1,72,0,0
273069,-71.4285714285714,4,2,1,72,0,0
274128,-125,4,2,1,72,0,0
274481,-125,4,2,1,72,0,0
275187,-57.1428571428571,4,2,1,72,0,0
275893,-68.9655172413793,4,2,1,72,0,0
276775,-64.5161290322581,4,2,1,72,0,0
277305,-66.6666666666667,4,2,1,72,0,0
278010,-74.0740740740741,4,2,1,72,0,0
278363,-57.1428571428571,4,2,1,72,0,0
278716,-68.9655172413793,4,2,1,72,0,0
279599,-57.1428571428571,4,2,1,72,0,0
280128,-64.5161290322581,4,2,1,72,0,0
280481,-58.8235294117647,4,2,1,72,0,0
280834,-57.1428571428571,4,2,1,72,0,0
281540,-62.5,4,2,1,72,0,0
282422,-54.054054054054,4,2,1,72,0,0
282952,-68.9655172413793,4,2,1,72,0,0
283658,-62.5,4,2,1,72,0,0
284010,-58.8235294117647,4,2,1,72,0,0
284363,-68.9655172413793,4,2,1,72,0,0
284716,-90.9090909090909,4,2,1,72,0,0
285069,-90.9090909090909,4,2,1,50,0,0
285422,-125,4,2,1,50,0,0
286481,-80,4,2,1,64,0,0
297775,-71.4285714285714,4,2,1,64,0,0
297952,-142.857142857143,4,2,1,64,0,0
298128,-71.4285714285714,4,2,1,64,0,0
298305,-142.857142857143,4,2,1,64,0,0
298481,-83.3333333333333,4,2,1,64,0,0
299187,-71.4285714285714,4,2,1,64,0,0
299363,-142.857142857143,4,2,1,64,0,0
299540,-71.4285714285714,4,2,1,64,0,0
299716,-142.857142857143,4,2,1,64,0,0
299893,-83.3333333333333,4,2,1,64,0,0
300599,-71.4285714285714,4,2,1,64,0,0
300775,-142.857142857143,4,2,1,64,0,0
300952,-71.4285714285714,4,2,1,64,0,0
301128,-142.857142857143,4,2,1,64,0,0
301305,-83.3333333333333,4,2,1,64,0,0
302010,-71.4285714285714,4,2,1,64,0,0
302187,-142.857142857143,4,2,1,64,0,0
302363,-71.4285714285714,4,2,1,64,0,0
302540,-142.857142857143,4,2,1,64,0,0
302716,-83.3333333333333,4,2,1,64,0,0
303422,-71.4285714285714,4,2,1,64,0,0
303599,-142.857142857143,4,2,1,64,0,0
303775,-71.4285714285714,4,2,1,64,0,0
303952,-142.857142857143,4,2,1,64,0,0
304128,-83.3333333333333,4,2,1,64,0,0
304834,-71.4285714285714,4,2,1,64,0,0
305010,-142.857142857143,4,2,1,64,0,0
305187,-71.4285714285714,4,2,1,64,0,0
305363,-142.857142857143,4,2,1,64,0,0
305540,-83.3333333333333,4,2,1,64,0,0
306246,-71.4285714285714,4,2,1,64,0,0
306422,-142.857142857143,4,2,1,64,0,0
306599,-71.4285714285714,4,2,1,64,0,0
306775,-142.857142857143,4,2,1,64,0,0
306952,-83.3333333333333,4,2,1,64,0,0
307658,-142.857142857143,4,2,1,64,0,0
309069,-105.263157894737,4,2,1,58,0,0
354334,-105.263157894737,4,2,1,30,0,0
354952,-105.263157894737,4,2,1,25,0,0
355658,-105.263157894737,4,2,1,20,0,0
356363,-105.263157894737,4,2,1,15,0,0
357069,-105.263157894737,4,2,1,10,0,0
357775,-105.263157894737,4,2,1,5,0,0

[Colours]
Combo1 : 128,128,255
Combo2 : 0,255,255
Combo3 : 0,128,192
Combo4 : 0,191,96

[HitObjects]
99,26,580,6,0,B|177:87|249:20|249:20|199:73|186:168|186:168|223:90|283:99|283:99|318:177|247:234,1,577.500022029878,6|0,0:2|0:0,0:0:0:0:
360,70,2761,6,0,B|398:169|327:278|327:278|367:222|435:211|484:234|516:292|485:324|410:376|326:297,1,577.500022029878,2|0,0:2|0:0,0:0:0:0:
192,205,4943,6,0,B|212:158|277:153|277:153|41:153|41:153|126:152|148:98|129:17|28:37,1,577.500022029878,2|0,0:2|0:0,0:0:0:0:
277,153,7125,6,0,B|483:153|483:153|424:242|424:242|276:242|276:242|235:316|148:287,1,577.500022029878,2|0,0:2|0:0,0:0:0:0:
193,40,9307,6,0,P|197:122|192:205,1,165.000006294251,2|0,0:2|0:0,0:0:0:0:
104,324,10125,2,0,P|140:304|180:294,1,82.5000031471254,0|0,0:0|0:0,0:0:0:0:
116,173,10670,2,0,P|155:184|191:204,2,82.5000031471254,0|0|0,0:0|0:0|0:0,0:0:0:0:
243,364,11489,6,0,P|273:311|233:217,1,165.000006294251,2|0,0:2|0:0,0:0:0:0:
116,173,12307,1,0,0:0:0:0:
246,138,12580,2,0,L|236:227,1,82.5000031471254,0|0,0:0|0:0,0:0:0:0:
106,91,13125,2,0,L|116:173,1,82.5000031471254,0|0,0:0|0:0,0:0:0:0:
337,134,13670,6,0,P|314:78|216:53,1,165.000006294251,2|0,0:2|0:0,0:0:0:0:
236,220,14489,1,0,0:0:0:0:
416,148,14761,2,0,P|377:134|336:134,1,82.5000031471254,0|0,0:0|0:0,0:0:0:0:
156,234,15307,2,0,P|194:220|236:220,1,82.5000031471254,0|0,0:0|0:0,0:0:0:0:
353,374,15852,6,0,B|394:297|326:297|362:208,1,165.000006294251,2|0,0:2|0:0,0:0:0:0:
276,327,16670,1,0,0:0:0:0:
441,255,16943,2,0,B|452:215|452:215|438:153,1,82.5000031471254,0|0,0:0|0:0,0:0:0:0:
277,246,17489,2,0,B|266:286|266:286|276:327,1,82.5000031471254,0|0,0:0|0:0,0:0:0:0:
18,41,18034,6,0,P|59:21|117:22,1,93.500001783371,6|0,1:2|0:0,0:0:0:0:
171,74,18443,1,0,0:0:0:0:
171,74,18580,2,0,L|229:69,2,46.7500008916855,2|0|0,0:2|0:0|0:0,0:0:0:0:
29,164,19125,1,2,0:2:0:0:
29,164,19261,1,0,0:0:0:0:
29,164,19398,2,0,P|38:189|48:228,1,46.7500008916855,0|0,0:0|0:0,0:0:0:0:
112,291,19670,1,2,0:2:0:0:
112,291,19807,1,0,0:0:0:0:
112,291,19943,2,0,P|118:268|126:246,1,46.7500008916855,0|0,0:0|0:0,0:0:0:0:
318,306,20216,6,0,L|225:304,1,93.500001783371,6|0,0:2|0:0,0:0:0:0:
129,250,20625,1,0,0:0:0:0:
129,250,20761,2,0,L|62:252,2,46.7500008916855,2|0|0,0:2|0:0|0:0,0:0:0:0:
365,192,21307,1,2,0:2:0:0:
365,192,21443,1,0,0:0:0:0:
365,192,21580,2,0,P|375:165|379:135,1,46.7500008916855,0|0,0:0|0:0,0:0:0:0:
454,281,21852,1,2,0:2:0:0:
454,281,21989,1,0,0:0:0:0:
454,281,22125,2,0,P|444:254|440:224,1,46.7500008916855,0|0,0:0|0:0,0:0:0:0:
410,39,22398,6,0,P|382:57|318:57,1,93.500001783371,6|0,0:2|0:0,0:0:0:0:
233,33,22807,1,0,0:0:0:0:
233,33,22943,2,0,L|238:85,2,46.7500008916855,2|0|0,0:2|0:0|0:0,0:0:0:0:
52,153,23489,1,2,0:2:0:0:
52,153,23625,1,0,0:0:0:0:
52,153,23761,2,0,P|72:149|106:149,1,46.7500008916855,0|0,0:0|0:0,0:0:0:0:
226,234,24034,1,2,0:2:0:0:
226,234,24170,1,0,0:0:0:0:
226,234,24307,2,0,P|206:230|172:230,1,46.7500008916855,0|0,0:0|0:0,0:0:0:0:
53,65,24580,6,0,B|37:96|37:96|52:153,1,93.500001783371,6|0,0:2|0:0,0:0:0:0:
76,242,24989,1,0,0:0:0:0:
76,242,25125,2,0,L|20:238,2,46.7500008916855,2|0|0,0:2|0:0|0:0,0:0:0:0:
297,302,25670,1,2,0:2:0:0:
297,302,25807,1,0,0:0:0:0:
297,302,25943,2,0,P|309:275|315:241,1,46.7500008916855,0|0,0:0|0:0,0:0:0:0:
209,190,26216,1,2,0:2:0:0:
209,190,26352,1,0,0:0:0:0:
209,190,26489,2,0,P|215:212|225:233,1,46.7500008916855,0|0,0:0|0:0,0:0:0:0:
368,39,26761,6,0,P|334:71|270:70,1,93.500001783371,6|0,0:2|0:0,0:0:0:0:
210,60,27170,1,0,0:0:0:0:
210,60,27307,2,0,P|214:89|214:111,1,46.7500008916855,2|0,0:2|0:0,0:0:0:0:
210,191,27580,1,0,0:0:0:0:
74,324,27852,5,2,0:2:0:0:
94,312,27989,1,0,0:0:0:0:
116,304,28125,1,0,0:0:0:0:
139,301,28261,1,0,0:0:0:0:
213,372,28398,1,2,0:2:0:0:
236,369,28534,1,0,0:0:0:0:
258,361,28670,1,0,0:0:0:0:
278,349,28807,1,0,0:0:0:0:
141,210,28943,6,0,B|128:248|128:248|139:301,1,93.500001783371,6|0,0:2|0:0,0:0:0:0:
177,375,29352,1,0,0:0:0:0:
177,375,29489,2,0,P|153:380|109:376,1,46.7500008916855,2|0,0:2|0:0,0:0:0:0:
66,337,29761,1,0,0:0:0:0:
141,210,30034,5,2,0:2:0:0:
138,186,30170,1,0,0:0:0:0:
136,163,30307,1,0,0:0:0:0:
134,140,30443,1,0,0:0:0:0:
56,117,30580,1,2,0:2:0:0:
58,93,30716,1,0,0:0:0:0:
60,70,30852,1,0,0:0:0:0:
62,47,30989,1,0,0:0:0:0:
219,113,31125,6,0,P|186:137|131:139,1,93.500001783371,6|0,0:2|0:0,0:0:0:0:
56,117,31534,1,0,0:0:0:0:
75,196,31670,2,0,P|79:223|78:252,1,46.7500008916855,2|0,0:2|0:0,0:0:0:0:
159,328,31943,2,0,P|159:304|162:281,1,46.7500008916855,0|0,0:0|0:0,0:0:0:0:
228,214,32216,5,2,0:2:0:0:
256,234,32352,1,0,0:0:0:0:
289,243,32489,1,0,0:0:0:0:
324,239,32625,1,0,0:0:0:0:
355,223,32761,2,0,L|353:280,1,46.7500008916855,2|0,0:2|0:0,0:0:0:0:
453,367,33034,2,0,L|450:320,1,46.7500008916855,0|0,0:0|0:0,0:0:0:0:
417,154,33307,6,0,B|370:128|370:128|232:159,1,187.000003566742,6|2,0:2|0:2,0:0:0:0:
151,185,34125,1,0,0:0:0:0:
220,248,34398,1,2,0:2:0:0:
240,157,34670,1,0,0:0:0:0:
151,185,34943,1,2,0:2:0:0:
131,276,35216,1,0,0:0:0:0:
493,43,35489,6,0,B|460:26|460:26|390:31,1,93.500001783371,6|0,1:2|0:0,0:0:0:0:
310,41,36034,1,2,0:2:0:0:
310,41,36307,1,0,0:0:0:0:
368,114,36580,1,2,0:2:0:0:
368,114,36852,1,0,0:0:0:0:
313,190,37125,1,2,0:2:0:0:
371,263,37398,1,0,0:0:0:0:
294,171,37670,6,0,P|263:156|202:156,1,93.500001783371,6|0,0:2|0:0,0:0:0:0:
9,213,38216,2,0,P|40:228|101:228,1,93.500001783371,2|0,0:2|0:0,0:0:0:0:
132,51,38761,2,0,P|117:82|117:143,1,93.500001783371,2|0,0:2|0:0,0:0:0:0:
174,336,39307,2,0,P|189:305|189:244,1,93.500001783371,2|0,0:2|0:0,0:0:0:0:
208,109,39852,6,0,L|67:124,1,140.250002675057,6|0,0:2|0:0,0:0:0:0:
44,129,40398,1,2,0:2:0:0:
208,109,40670,1,0,0:0:0:0:
101,204,40943,1,2,0:2:0:0:
265,184,41216,1,0,0:0:0:0:
158,279,41489,1,2,0:2:0:0:
322,259,41761,1,0,0:0:0:0:
101,204,42034,6,0,L|112:65,1,140.250002675057,6|0,0:2|0:0,0:0:0:0:
118,43,42580,2,0,P|162:72|217:72,1,93.500001783371,2|0,0:2|0:0,0:0:0:0:
366,134,43125,2,0,P|322:163|267:163,1,93.500001783371,2|0,0:2|0:0,0:0:0:0:
118,225,43670,2,0,P|162:254|217:254,1,93.500001783371,2|0,0:2|0:0,0:0:0:0:
295,77,44216,5,6,1:2:0:0:
295,77,44489,1,0,0:0:0:0:
352,266,44761,5,2,1:2:0:0:
352,266,45034,1,0,0:0:0:0:
163,323,45307,5,2,1:2:0:0:
163,323,45580,1,0,0:0:0:0:
106,134,45852,5,2,1:2:0:0:
106,134,46125,1,0,0:0:0:0:
308,52,46398,5,6,1:2:0:0:
308,52,46670,1,0,0:0:0:0:
376,279,46943,5,2,1:2:0:0:
376,279,47216,1,0,0:0:0:0:
149,347,47489,5,2,1:2:0:0:
149,347,47761,1,0,0:0:0:0:
81,120,48034,5,2,1:2:0:0:
81,120,48307,1,0,0:0:0:0:
317,34,48580,5,14,0:2:0:0:
393,288,48852,1,0,1:0:0:0:
63,110,49125,5,10,0:2:0:0:
139,364,49398,1,0,1:0:0:0:
406,295,49670,5,10,0:2:0:0:
131,377,49943,1,0,1:0:0:0:
324,20,50216,5,10,0:2:0:0:
50,103,50489,1,0,1:0:0:0:
292,357,50761,6,0,P|330:359|367:348,1,60.5000018463135,14|8,0:0|0:0,0:0:0:0:
406,295,51034,1,0,1:0:0:0:
406,295,51170,1,0,1:0:0:0:
351,235,51307,2,0,P|321:229|292:233,1,60.5000018463135,14|8,0:0|0:0,0:0:0:0:
245,296,51580,1,0,1:0:0:0:
183,247,51716,1,0,1:0:0:0:
224,150,51852,6,0,L|229:183,1,32.99999899292,10|0,0:0|0:0,0:0:0:0:
137,96,52125,2,0,L|132:128,1,32.99999899292,2|0,0:0|0:0,0:0:0:0:
284,71,52398,2,0,L|303:97,1,32.99999899292,2|0,0:0|0:0,0:0:0:0:
406,295,52670,1,2,0:0:0:0:
406,295,52807,1,2,0:0:0:0:
406,295,52943,6,0,P|432:271|478:255,1,76.9999976501466,6|0,1:2|0:0,0:0:0:0:
295,302,53216,2,0,P|296:266|317:222,1,76.9999976501466,2|0,0:0|0:0,0:0:0:0:
494,367,53489,1,10,0:0:0:0:
312,228,53761,2,0,P|271:231|232:251,1,76.9999976501466,2|0,0:0|0:0,0:0:0:0:
133,315,54034,1,2,1:2:0:0:
200,127,54307,2,0,P|173:158|159:199,1,76.9999976501466,2|0,0:0|0:0,0:0:0:0:
133,315,54580,1,10,0:0:0:0:
297,319,54852,1,2,0:0:0:0:
72,248,55125,6,0,B|43:278|41:317|41:317|29:237|70:142,1,230.99999295044,2|0,1:2|0:0,0:0:0:0:
94,79,55670,1,10,0:0:0:0:
297,319,55943,2,0,P|266:308|217:307,1,76.9999976501466,2|0,0:0|0:0,0:0:0:0:
42,350,56216,1,2,1:2:0:0:
201,148,56489,2,0,P|171:162|135:196,1,76.9999976501466,2|0,0:0|0:0,0:0:0:0:
42,350,56761,1,10,0:0:0:0:
222,306,57034,1,2,0:0:0:0:
100,95,57307,6,0,B|180:96|180:96|193:92|193:92|253:92|253:92|209:118|200:147,1,230.99999295044,2|0,1:2|0:0,0:0:0:0:
285,178,57852,2,0,P|320:165|358:135,1,76.9999976501466,10|0,0:0|0:0,0:0:0:0:
290,283,58125,2,0,P|326:289|374:282,1,76.9999976501466,2|0,0:0|0:0,0:0:0:0:
108,189,58398,2,0,P|71:182|23:189,1,76.9999976501466,2|0,1:2|0:0,0:0:0:0:
113,294,58670,2,0,P|78:307|40:337,1,76.9999976501466,2|0,0:0|0:0,0:0:0:0:
229,90,58943,2,0,P|252:61|270:16,1,76.9999976501466,10|0,0:0|0:0,0:0:0:0:
68,124,59216,2,0,P|83:159|107:188,1,76.9999976501466,2|0,0:0|0:0,0:0:0:0:
384,372,59489,6,0,P|455:290|397:200,1,230.99999295044,2|0,1:2|0:0,0:0:0:0:
298,314,60034,2,0,P|327:292|378:286,1,76.9999976501466,10|0,0:0|0:0,0:0:0:0:
328,173,60307,2,0,P|364:177|404:209,1,76.9999976501466,2|0,0:0|0:0,0:0:0:0:
193,374,60580,2,0,P|156:369|116:337,1,76.9999976501466,2|0,1:2|0:0,0:0:0:0:
223,233,60852,2,0,P|194:255|143:261,1,76.9999976501466,2|0,0:0|0:0,0:0:0:0:
367,132,61125,2,0,P|389:161|395:211,1,76.9999976501466,10|0,0:0|0:0,0:0:0:0:
156,171,61398,2,0,P|162:133|185:102,1,76.9999976501466,2|0,0:0|0:0,0:0:0:0:
364,320,61670,6,0,L|274:315,1,76.9999976501466,2|0,1:2|0:0,0:0:0:0:
154,262,61943,2,0,L|77:266,1,76.9999976501466,2|0,0:0|0:0,0:0:0:0:
193,374,62216,1,10,0:0:0:0:
453,342,62489,2,0,P|452:303|439:268,1,76.9999976501466,2|0,0:0|0:0,0:0:0:0:
364,167,62761,1,2,1:2:0:0:
304,354,63034,2,0,P|330:326|346:291,1,76.9999976501466,2|0,0:0|0:0,0:0:0:0:
364,167,63307,1,10,0:0:0:0:
256,277,63580,1,2,0:0:0:0:
438,267,63852,6,0,B|447:205|447:205|441:196|441:196|451:121|451:121|446:110|446:110|459:26,1,230.99999295044,2|0,1:2|0:0,0:0:0:0:
359,134,64398,1,10,0:0:0:0:
484,344,64670,2,0,P|452:357|399:347,1,76.9999976501466,2|0,0:0|0:0,0:0:0:0:
256,277,64943,2,0,L|268:354,1,76.9999976501466,2|0,1:2|0:0,0:0:0:0:
40,267,65216,2,0,P|72:280|125:270,1,76.9999976501466,2|0,0:0|0:0,0:0:0:0:
268,200,65489,2,0,L|256:277,1,76.9999976501466,10|0,0:0|0:0,0:0:0:0:
74,369,65761,1,2,0:0:0:0:
344,150,66034,6,0,B|295:89|222:121|222:121|256:76|231:3,1,230.99999295044,2|0,1:2|0:0,0:0:0:0:
268,200,66580,2,0,B|282:236|282:236|269:285,1,76.9999976501466,10|0,0:0|0:0,0:0:0:0:
175,207,66852,2,0,B|165:244|165:244|179:280,1,76.9999976501466,2|0,0:0|0:0,0:0:0:0:
432,69,67125,2,0,B|446:105|446:105|437:143,1,76.9999976501466,2|0,1:2|0:0,0:0:0:0:
340,77,67398,2,0,B|331:115|331:115|345:151,1,76.9999976501466,2|0,0:0|0:0,0:0:0:0:
370,358,67670,2,0,B|356:322|356:322|365:284,1,76.9999976501466,10|0,0:0|0:0,0:0:0:0:
463,351,67943,2,0,B|472:313|472:313|458:277,1,76.9999976501466,2|0,0:0|0:0,0:0:0:0:
340,77,68216,6,0,B|330:122|294:146|294:146|355:119|462:151,1,230.99999295044,2|0,1:2|0:0,0:0:0:0:
481,219,68761,2,0,P|465:248|459:294,1,63.250001206398,2|0,0:0|0:0,0:0:0:0:
463,351,69034,1,2,0:0:0:0:
341,300,69307,2,0,P|364:322|407:340,1,63.250001206398,2|0,0:2|0:0,0:0:0:0:
463,351,69580,1,2,0:0:0:0:
183,192,69852,1,10,0:0:0:0:
256,355,70125,1,2,0:0:0:0:
256,355,70261,1,0,0:0:0:0:
256,355,70398,6,0,B|221:341|221:341|175:352,1,76.9999976501466,6|0,1:2|0:0,0:0:0:0:
183,192,70670,2,0,B|148:206|148:206|123:247,1,76.9999976501466,2|0,0:0|0:0,0:0:0:0:
341,300,70943,1,10,0:0:0:0:
50,287,71216,2,0,P|39:256|50:201,1,76.9999976501466,2|0,0:0|0:0,0:0:0:0:
182,350,71489,1,2,1:2:0:0:
183,191,71761,2,0,P|194:154|217:124,1,76.9999976501466,2|0,0:0|0:0,0:0:0:0:
182,350,72034,5,10,0:2:0:0:
247,296,72170,1,0,3:2:0:0:
326,325,72307,1,2,3:2:0:0:
391,271,72443,1,0,3:2:0:0:
471,380,72580,6,0,B|430:388|430:388|443:254|443:254|385:273,1,230.99999295044,2|0,1:2|0:0,0:0:0:0:
326,325,73125,1,10,0:0:0:0:
430,159,73398,2,0,P|469:159|505:184,1,76.9999976501466,2|0,0:0|0:0,0:0:0:0:
319,336,73670,1,2,1:2:0:0:
444,247,73943,2,0,P|471:274|479:317,1,76.9999976501466,2|0,0:0|0:0,0:0:0:0:
312,347,74216,1,10,0:0:0:0:
271,81,74489,1,2,3:2:0:0:
271,81,74625,1,0,3:2:0:0:
311,161,74761,6,0,P|231:162|197:32,1,230.99999295044,2|0,1:2|0:0,0:0:0:0:
344,57,75307,2,0,P|308:72|271:81,1,76.9999976501466,10|0,0:0|0:0,0:0:0:0:
384,184,75580,2,0,P|348:169|310:160,1,76.9999976501466,2|0,0:0|0:0,0:0:0:0:
114,147,75852,2,0,P|149:161|187:170,1,76.9999976501466,2|0,1:2|0:0,0:0:0:0:
74,273,76125,2,0,P|109:258|147:249,1,76.9999976501466,2|0,0:0|0:0,0:0:0:0:
348,351,76398,2,0,P|357:315|350:262,1,76.9999976501466,10|0,0:0|3:2,0:0:0:0:
259,271,76670,2,0,P|250:307|257:360,1,76.9999976501466,2|0,3:2|3:2,0:0:0:0:
472,289,76943,6,0,B|466:228|466:228|470:215|470:215|466:138|466:138|457:129|457:129|450:49,1,230.99999295044,2|0,1:2|0:0,0:0:0:0:
360,38,77489,2,0,P|394:38|442:45,1,76.9999976501466,10|0,0:0|0:0,0:0:0:0:
306,107,77761,2,0,P|267:101|229:101,1,76.9999976501466,2|0,0:0|0:0,0:0:0:0:
51,207,78034,2,0,P|51:173|58:125,1,76.9999976501466,2|0,1:2|0:0,0:0:0:0:
120,261,78307,2,0,P|114:299|114:337,1,76.9999976501466,2|0,0:0|0:0,0:0:0:0:
299,214,78580,2,0,P|260:208|222:208,1,76.9999976501466,10|0,0:0|3:2,0:0:0:0:
376,262,78852,1,2,3:2:0:0:
376,262,78989,1,0,3:2:0:0:
376,262,79125,6,0,P|387:229|381:173,1,76.9999976501466,2|0,1:2|0:0,0:0:0:0:
357,106,79398,2,0,P|334:79|283:57,1,76.9999976501466,2|0,0:0|0:0,0:0:0:0:
215,36,79670,1,10,0:0:0:0:
275,264,79943,2,0,B|286:231|286:231|276:186,1,76.9999976501466,2|0,0:0|0:0,0:0:0:0:
215,36,80216,1,2,1:2:0:0:
159,312,80489,2,0,B|148:279|148:279|158:234,1,76.9999976501466,2|0,0:0|0:0,0:0:0:0:
215,36,80761,5,10,0:2:0:0:
285,96,80898,1,0,3:2:0:0:
359,42,81034,1,2,3:2:0:0:
433,96,81170,1,0,3:2:0:0:
355,251,81307,6,0,B|355:175|355:175|402:200|443:178|460:125|425:85,1,230.99999295044,2|0,1:2|0:0,0:0:0:0:
285,96,81852,1,10,0:0:0:0:
412,318,82125,2,0,P|379:338|331:337,1,76.9999976501466,2|0,0:0|0:0,0:0:0:0:
208,192,82398,1,2,1:2:0:0:
471,251,82670,2,0,P|438:231|390:232,1,76.9999976501466,2|0,0:0|0:0,0:0:0:0:
267,377,82943,5,10,0:0:0:0:
197,315,83080,1,0,3:2:0:0:
120,366,83216,1,2,3:2:0:0:
45,311,83352,1,0,3:2:0:0:
197,315,83489,6,0,B|183:276|197:249|197:249|186:235|186:235|240:175|188:89,1,230.99999295044,2|0,1:2|0:0,0:0:0:0:
52,145,84034,2,0,P|83:167|121:165,1,76.9999976501466,10|0,0:0|0:0,0:0:0:0:
194,99,84307,2,0,P|163:77|126:80,1,76.9999976501466,2|0,0:0|0:0,0:0:0:0:
268,278,84580,2,0,P|305:272|330:243,1,76.9999976501466,2|0,1:2|0:0,0:0:0:0:
335,146,84852,2,0,P|297:151|272:180,1,76.9999976501466,2|0,0:0|0:0,0:0:0:0:
419,375,85125,2,0,P|418:339|404:283,1,76.9999976501466,10|0,0:0|3:2,0:0:0:0:
330,243,85398,2,0,P|321:280|320:319,1,76.9999976501466,2|0,3:2|3:2,0:0:0:0:
479,78,85670,6,0,B|419:66|375:93|375:93|374:87|374:87|375:93|375:93|327:122|256:93,1,230.99999295044,2|0,1:2|0:0,0:0:0:0:
179,31,86216,2,0,P|161:66|176:100,1,76.9999976501466,10|0,0:0|0:0,0:0:0:0:
267,98,86489,2,0,P|285:63|270:29,1,76.9999976501466,2|0,0:0|0:0,0:0:0:0:
112,287,86761,2,0,P|151:285|173:255,1,76.9999976501466,2|0,1:2|0:0,0:0:0:0:
126,177,87034,2,0,P|86:178|64:208,1,76.9999976501466,2|0,0:0|0:0,0:0:0:0:
367,217,87307,2,0,P|345:183|308:179,1,76.9999976501466,10|0,0:0|3:2,0:0:0:0:
264,259,87580,2,0,P|285:292|322:296,1,76.9999976501466,2|0,3:2|3:2,0:0:0:0:
498,169,87852,6,0,L|311:178,1,187.000003566742,2|2,1:2|0:0,0:0:0:0:
499,262,88670,2,0,P|500:220|497:159,1,93.500001783371,2|2,0:0|0:0,0:0:0:0:
304,45,89216,2,0,P|303:72|304:99,1,46.7500008916855,2|0,0:0|0:0,0:0:0:0:
311,178,89489,1,10,0:0:0:0:
491,82,89761,1,2,0:0:0:0:
229,249,90034,6,0,B|196:211|196:211|334:213|334:213|311:178,1,230.99999295044,6|0,1:2|0:0,0:0:0:0:
212,105,90580,1,10,0:0:0:0:
400,262,90852,2,0,P|413:226|400:173,1,76.9999976501466,2|0,0:0|0:0,0:0:0:0:
201,99,91125,1,2,1:2:0:0:
319,373,91398,2,0,P|324:335|300:285,1,76.9999976501466,2|0,0:0|0:0,0:0:0:0:
190,93,91670,1,10,0:0:0:0:
107,341,91943,1,2,3:2:0:0:
107,341,92080,1,0,3:2:0:0:
184,294,92216,6,0,B|143:237|76:257|76:257|104:205|87:147,1,230.99999295044,2|0,1:2|0:0,0:0:0:0:
150,45,92761,2,0,P|173:75|171:113,1,76.9999976501466,10|0,0:0|0:0,0:0:0:0:
283,93,93034,2,0,P|277:130|249:155,1,76.9999976501466,2|0,0:0|0:0,0:0:0:0:
175,367,93307,2,0,P|152:336|154:299,1,76.9999976501466,2|0,1:2|0:0,0:0:0:0:
42,319,93580,2,0,P|47:281|75:256,1,76.9999976501466,2|0,0:0|0:0,0:0:0:0:
307,243,93852,2,0,P|300:287|287:330,1,76.9999976501466,10|0,0:0|3:2,0:0:0:0:
249,155,94125,2,0,P|238:117|233:79,1,76.9999976501466,2|0,3:2|3:2,0:0:0:0:
389,310,94398,6,0,B|411:297|450:302|450:302|377:261|282:324,1,230.99999295044,2|0,1:2|0:0,0:0:0:0:
173,369,94943,2,0,P|189:334|190:291,1,76.9999976501466,10|0,0:0|0:0,0:0:0:0:
177,206,95216,2,0,P|161:241|160:284,1,76.9999976501466,2|0,0:0|0:0,0:0:0:0:
389,310,95489,2,0,P|405:275|406:232,1,76.9999976501466,2|0,1:2|0:0,0:0:0:0:
393,147,95761,2,0,P|377:182|376:225,1,76.9999976501466,2|0,0:0|0:0,0:0:0:0:
457,27,96034,2,0,P|429:15|383:14,1,76.9999976501466,10|0,0:0|3:2,0:0:0:0:
277,25,96307,2,0,P|305:37|351:38,1,76.9999976501466,2|0,3:2|3:2,0:0:0:0:
159,279,96580,6,0,L|81:285,1,76.9999976501466,2|0,1:2|0:0,0:0:0:0:
304,363,96852,2,0,L|382:369,1,76.9999976501466,2|0,0:0|0:0,0:0:0:0:
229,326,97125,1,10,0:0:0:0:
233,109,97398,2,0,B|220:129|220:129|223:193,1,76.9999976501466,2|0,0:0|0:0,0:0:0:0:
229,326,97670,1,2,1:2:0:0:
419,221,97943,2,0,B|395:219|395:219|341:254,1,76.9999976501466,2|0,0:0|0:0,0:0:0:0:
229,326,98216,5,10,0:2:0:0:
159,279,98352,1,0,3:2:0:0:
74,288,98489,1,2,3:2:0:0:
22,355,98625,1,0,3:2:0:0:
136,177,98761,6,0,B|157:154|170:117|170:117|158:288,1,230.99999295044,2|0,1:2|0:0,0:0:0:0:
154,371,99307,1,10,0:0:0:0:
15,118,99580,2,0,P|44:105|93:114,1,76.9999976501466,2|0,0:0|0:0,0:0:0:0:
249,190,99852,1,2,1:2:0:0:
15,262,100125,2,0,P|44:275|93:266,1,76.9999976501466,2|0,0:0|0:0,0:0:0:0:
249,190,100398,5,10,0:0:0:0:
309,250,100534,1,0,3:2:0:0:
393,250,100670,1,2,3:2:0:0:
453,189,100807,1,0,3:2:0:0:
317,340,100943,6,0,B|284:318|243:339|243:339|278:273|243:173,1,230.99999295044,2|0,1:2|0:0,0:0:0:0:
157,202,101489,2,0,P|196:202|230:175,1,76.9999976501466,10|0,0:0|0:0,0:0:0:0:
169,289,101761,2,0,P|130:289|96:262,1,76.9999976501466,2|0,0:0|0:0,0:0:0:0:
283,115,102034,2,0,P|322:115|356:88,1,76.9999976501466,2|0,1:2|0:0,0:0:0:0:
295,202,102307,2,0,P|256:202|222:175,1,76.9999976501466,2|0,0:0|0:0,0:0:0:0:
129,60,102580,5,10,0:0:0:0:
283,115,102852,1,2,3:2:0:0:
33,171,103125,6,0,P|42:82|129:60,1,189.750003619194,2|0,0:2|0:0,0:0:0:0:
172,93,103670,1,2,0:0:0:0:
33,171,103943,1,2,0:0:0:0:
207,165,104216,1,2,0:2:0:0:
103,134,104489,1,2,0:0:0:0:
241,238,104761,1,2,0:0:0:0:
137,207,105034,1,2,3:2:0:0:
177,68,105307,5,6,1:2:0:0:
177,68,105852,2,0,P|214:46|266:41,1,76.9999976501466,2|2,0:0|0:0,0:0:0:0:
325,167,106398,2,0,P|327:90|336:14,2,153.999995300293,2|2|6,0:0|0:0|0:2,0:0:0:0:
325,167,108034,6,0,P|336:189|336:249,1,76.9999976501466,2|2,0:0|0:0,0:0:0:0:
248,274,108580,2,0,B|325:248|328:312|405:290,2,153.999995300293,2|2|6,0:0|0:0|0:2,0:0:0:0:
248,274,110216,6,0,P|217:285|169:287,1,76.9999976501466,2|2,0:0|0:0,0:0:0:0:
127,373,110761,2,0,P|128:365|138:219,2,153.999995300293,2|2|6,0:0|0:0|0:2,0:0:0:0:
127,373,112398,6,0,P|95:367|40:360,1,76.9999976501466,2|2,0:0|0:0,0:0:0:0:
15,227,112943,2,0,P|79:210|170:199,1,153.999995300293,2|2,0:0|0:0,0:0:0:0:
238,228,113761,1,2,0:0:0:0:
72,110,114034,5,6,0:2:0:0:
72,110,114580,1,2,0:0:0:0:
165,199,114852,1,2,0:0:0:0:
200,74,115125,2,0,B|298:50|261:106|364:86,2,153.999995300293,2|2|6,0:0|0:0|0:2,0:0:0:0:
200,74,116761,6,0,L|207:167,1,76.9999976501466,2|2,0:0|0:0,0:0:0:0:
117,203,117307,2,0,P|172:175|225:242,2,153.999995300293,2|2|6,0:0|0:0|0:2,0:0:0:0:
117,203,118943,6,0,P|71:218|26:220,1,76.9999976501466,2|2,0:0|0:0,0:0:0:0:
119,90,119489,2,0,P|199:99|275:127,2,153.999995300293,2|2|6,0:0|0:0|0:2,0:0:0:0:
119,90,121125,6,0,P|157:85|193:72,1,76.9999976501466,2|2,0:0|0:0,0:0:0:0:
46,20,121670,2,0,B|16:91|16:91|48:169,1,153.999995300293,2|2,0:0|0:0,0:0:0:0:
12,256,122489,1,2,0:0:0:0:
119,90,122761,5,6,1:2:0:0:
119,90,123307,1,2,0:0:0:0:
186,192,123580,1,2,0:0:0:0:
255,90,123852,2,0,P|328:84|411:92,2,153.999995300293,2|2|6,0:0|0:0|0:2,0:0:0:0:
255,90,125489,5,2,0:0:0:0:
408,91,125761,1,2,0:0:0:0:
254,90,126034,2,0,P|185:66|177:-6,2,153.999995300293,2|2|6,0:0|0:0|0:2,0:0:0:0:
254,90,127670,5,2,0:0:0:0:
111,147,127943,1,2,0:0:0:0:
254,90,128216,2,0,B|322:97|322:97|333:109|333:109|414:120,2,153.999995300293,2|2|6,0:0|0:0|0:2,0:0:0:0:
254,90,129852,5,2,0:0:0:0:
399,37,130125,1,2,0:0:0:0:
254,90,130398,2,0,B|167:61|186:116|87:87,1,153.999995300293,2|2,0:0|0:0,0:0:0:0:
210,171,131216,1,2,0:0:0:0:
15,25,131489,6,0,B|78:37|78:37|60:177,1,197.99999395752,6|2,1:2|1:2,0:0:0:0:
178,49,132307,1,2,0:2:0:0:
146,211,132580,2,0,L|151:323,1,98.9999969787599,2|0,1:2|0:0,0:0:0:0:
64,173,133125,2,0,P|102:133|201:139,1,148.49999546814,2|0,1:2|0:0,0:0:0:0:
254,196,133670,6,0,B|345:184|345:184|359:164|359:164|475:154,1,197.99999395752,6|2,1:2|1:2,0:0:0:0:
287,106,134489,1,2,0:2:0:0:
498,212,134761,2,0,P|518:162|502:105,1,98.9999969787599,2|0,1:2|0:0,0:0:0:0:
429,8,135307,2,0,L|440:160,1,148.49999546814,2|0,1:2|0:0,0:0:0:0:
498,212,135852,5,14,0:2:0:0:
190,132,136125,1,0,1:0:0:0:
478,304,136398,5,10,0:2:0:0:
170,224,136670,1,2,1:2:0:0:
330,43,136943,5,10,0:2:0:0:
410,351,137216,1,0,1:0:0:0:
238,63,137489,5,10,0:2:0:0:
318,371,137761,1,0,1:0:0:0:
480,108,138034,6,0,P|490:79|488:49,1,60.5000018463135,14|8,0:2|0:0,0:0:0:0:
427,165,138307,1,0,1:0:0:0:
427,165,138443,1,0,1:0:0:0:
374,109,138580,2,0,P|364:80|366:50,1,60.5000018463135,10|8,0:2|0:0,0:0:0:0:
427,165,138852,1,2,1:2:0:0:
387,233,138989,1,0,1:0:0:0:
374,109,139125,6,0,B|332:87|332:87|238:108,1,132,10|0,0:2|0:0,0:0:0:0:
276,176,139670,2,0,L|322:165,1,44,2|0,0:2|0:0,0:0:0:0:
286,21,139943,2,0,L|240:32,1,44,2|0,0:2|0:0,0:0:0:0:
75,174,140216,6,0,B|86:126|86:126|61:78,1,98.9999969787599,0|0,1:2|0:0,0:0:0:0:
63,81,140761,6,0,P|96:68|143:62,1,76.9999976501466,10|0,0:0|0:0,0:0:0:0:
323,124,141034,2,0,P|284:118|249:105,1,76.9999976501466,2|0,0:0|0:0,0:0:0:0:
459,33,141307,6,0,B|453:108|453:108|456:112|456:112|449:205,1,165,2|0,1:2|0:0,0:0:0:0:
447,28,141852,2,0,B|441:103|441:103|444:107|444:107|437:200,1,165,10|0,0:0|0:0,0:0:0:0:
428,321,142398,1,0,1:0:0:0:
249,105,142670,6,0,P|210:106|174:119,1,76.9999976501466,2|0,0:0|0:0,0:0:0:0:
291,289,142943,2,0,P|292:327|305:363,1,76.9999976501466,10|0,0:0|0:0,0:0:0:0:
232,206,143216,2,0,P|206:234|189:269,1,76.9999976501466,2|0,0:0|0:0,0:0:0:0:
378,142,143489,6,0,B|359:92|359:92|249:105,1,165,2|0,1:2|0:0,0:0:0:0:
383,128,144034,2,0,B|363:77|363:77|253:90,1,165,10|0,0:0|0:0,0:0:0:0:
179,159,144580,6,0,B|140:107|140:107|169:34,1,131.99999597168,0|0,1:2|0:0,0:0:0:0:
354,260,145125,6,0,L|266:252,1,76.9999976501466,10|0,0:0|0:0,0:0:0:0:
102,301,145398,2,0,L|178:294,1,76.9999976501466,2|0,0:0|0:0,0:0:0:0:
395,187,145670,6,0,P|433:233|396:333,1,165,2|0,1:2|0:0,0:0:0:0:
409,187,146216,2,0,P|447:233|410:333,1,165,10|0,0:0|0:0,0:0:0:0:
329,375,146761,1,0,1:0:0:0:
356,119,147034,6,0,P|363:77|374:36,1,76.9999976501466,2|0,0:0|0:0,0:0:0:0:
156,119,147307,2,0,P|149:77|138:36,1,76.9999976501466,10|0,0:0|0:0,0:0:0:0:
256,177,147580,2,0,L|256:95,1,76.9999976501466,2|0,0:0|0:0,0:0:0:0:
114,213,147852,6,0,B|219:213|161:269|286:269,1,165,2|0,1:2|0:0,0:0:0:0:
256,100,148398,2,0,L|256:177,1,76.9999976501466,10|0,0:0|0:0,0:0:0:0:
128,303,148670,2,0,L|128:380,1,76.9999976501466,2|0,0:0|0:0,0:0:0:0:
204,37,148943,6,0,B|248:15|248:15|309:34,1,98.9999969787599,0|0,1:2|0:0,0:0:0:0:
295,30,149489,6,0,P|336:38|372:38,1,76.9999976501466,10|0,0:0|0:0,0:0:0:0:
500,188,149761,2,0,P|461:188|423:196,1,76.9999976501466,2|0,0:0|0:0,0:0:0:0:
247,304,150034,6,0,B|279:267|279:267|251:149,1,165,2|0,1:2|0:0,0:0:0:0:
235,304,150580,2,0,B|267:267|267:267|239:149,1,165,10|0,0:0|0:0,0:0:0:0:
199,14,151125,1,0,1:0:0:0:
101,261,151398,6,0,L|183:246,1,76.9999976501466,2|0,0:0|0:0,0:0:0:0:
411,261,151670,2,0,L|329:246,1,76.9999976501466,10|0,0:0|0:0,0:0:0:0:
256,374,151943,2,0,L|256:287,1,76.9999976501466,2|0,0:0|0:0,0:0:0:0:
176,97,152216,6,0,B|212:73|251:67|251:67|284:97|338:101,1,165,2|0,1:2|0:0,0:0:0:0:
179,110,152761,2,0,B|215:86|254:80|254:80|287:110|341:114,1,165,10|0,0:0|0:0,0:0:0:0:
458,100,153307,6,0,B|400:102|400:102|396:108|396:108|330:112,1,131.99999597168,0|0,1:2|0:0,0:0:0:0:
435,335,153852,6,0,P|446:301|430:255,1,76.9999976501466,10|0,0:0|0:0,0:0:0:0:
329,112,154125,2,0,P|318:148|329:184,1,76.9999976501466,2|0,0:0|0:0,0:0:0:0:
501,63,154398,6,0,B|488:21|488:21|438:26|438:26|433:31|433:31|364:39,1,165,2|0,1:2|0:0,0:0:0:0:
496,73,154943,2,0,B|483:31|483:31|433:36|433:36|428:41|428:41|359:49,1,165,10|0,0:0|0:0,0:0:0:0:
239,63,155489,1,0,1:0:0:0:
357,302,155761,6,0,P|364:257|379:206,1,76.9999976501466,2|0,0:0|0:0,0:0:0:0:
155,302,156034,2,0,P|148:257|133:206,1,76.9999976501466,10|0,0:0|0:0,0:0:0:0:
256,362,156307,2,0,L|256:266,1,76.9999976501466,2|0,0:0|0:0,0:0:0:0:
173,121,156580,6,0,P|217:46|304:47,1,165,2|0,1:2|0:0,0:0:0:0:
255,188,157125,2,0,B|240:151|240:151|251:115,1,76.9999976501466,10|0,0:0|0:0,0:0:0:0:
330,115,157398,2,0,B|345:152|345:152|333:187,1,76.9999976501466,2|0,0:0|0:0,0:0:0:0:
288,39,157670,5,0,1:2:0:0:
288,39,157943,2,0,L|290:27,1,8.24999974822999,2|0,0:1|0:0,0:0:0:0:
408,202,158216,6,0,P|371:192|324:186,1,76.9999976501466,10|0,0:0|0:0,0:0:0:0:
179,203,158489,2,0,P|217:197|254:187,1,76.9999976501466,2|0,0:0|0:0,0:0:0:0:
510,91,158761,6,0,B|414:59|444:115|339:87,1,165,2|0,1:2|0:0,0:0:0:0:
510,101,159307,2,0,B|414:69|444:125|339:97,1,165,10|0,0:0|0:0,0:0:0:0:
236,67,159852,1,0,1:0:0:0:
463,254,160125,6,0,B|474:219|474:219|462:181,1,76.9999976501466,2|0,0:0|0:0,0:0:0:0:
280,181,160398,2,0,B|306:208|306:208|345:217,1,76.9999976501466,10|0,0:0|0:0,0:0:0:0:
434,58,160670,2,0,B|397:66|397:66|371:96,1,76.9999976501466,2|0,0:0|0:0,0:0:0:0:
503,353,160943,6,0,P|463:291|370:288,1,165,2|0,1:2|0:0,0:0:0:0:
498,365,161489,2,0,P|458:303|365:300,1,165,10|0,0:0|0:0,0:0:0:0:
200,339,162034,6,0,B|266:335|233:360|298:358,1,98.9999969787599,0|0,1:2|0:0,0:0:0:0:
295,358,162307,2,0,L|297:346,1,8.24999974822999,2|0,0:1|0:0,0:0:0:0:
152,124,162580,6,0,B|136:160|136:160|146:200,1,76.9999976501466,10|0,0:0|0:0,0:0:0:0:
243,207,162852,2,0,B|259:171|259:171|249:131,1,76.9999976501466,2|0,0:0|0:0,0:0:0:0:
70,16,163125,6,0,B|146:22|146:22|158:35|158:35|247:43,1,165,2|0,1:2|0:0,0:0:0:0:
70,27,163670,2,0,B|146:33|146:33|158:46|158:46|247:54,1,165,10|0,0:0|0:0,0:0:0:0:
357,69,164216,1,0,1:0:0:0:
137,181,164489,6,0,P|98:166|41:160,1,76.9999976501466,2|0,0:0|0:0,0:0:0:0:
244,223,164761,2,0,P|276:196|310:150,1,76.9999976501466,10|0,0:0|0:0,0:0:0:0:
154,294,165034,2,0,P|160:335|183:387,1,76.9999976501466,2|0,0:0|0:0,0:0:0:0:
376,252,165307,6,0,P|318:198|244:223,1,165,2|0,1:2|0:0,0:0:0:0:
295,348,165852,2,0,B|310:313|310:313|302:276,1,76.9999976501466,10|0,0:0|0:0,0:0:0:0:
179,266,166125,2,0,B|164:301|164:301|172:338,1,76.9999976501466,2|0,0:0|0:0,0:0:0:0:
244,222,166398,6,0,B|254:148|217:182|231:106,1,115.49999647522,0|0,1:2|0:0,0:0:0:0:
230,110,166670,2,0,L|232:97,1,8.24999974822999,2|0,0:1|0:0,0:0:0:0:
33,16,166943,6,0,B|17:52|17:52|32:95,1,76.9999976501466,10|0,0:0|0:0,0:0:0:0:
47,249,167216,2,0,B|63:213|63:213|48:170,1,76.9999976501466,2|0,0:0|0:0,0:0:0:0:
269,53,167489,6,0,B|228:43|195:56|195:56|182:52|182:52|154:63|101:55,1,165,2|0,1:2|0:0,0:0:0:0:
268,65,168034,2,0,B|227:55|194:68|194:68|181:64|181:64|153:75|100:67,1,165,10|0,0:0|0:0,0:0:0:0:
33,16,168580,1,0,1:0:0:0:
234,161,168852,6,0,P|249:201|249:258,1,76.9999976501466,2|0,0:0|0:0,0:0:0:0:
182,64,169125,2,0,P|209:31|258:2,1,76.9999976501466,10|0,0:0|0:0,0:0:0:0:
124,158,169398,2,0,P|81:150|32:122,1,76.9999976501466,2|0,0:0|0:0,0:0:0:0:
351,32,169670,6,0,B|332:77|349:114|349:114|367:154|352:192,1,165,2|0,1:2|0:0,0:0:0:0:
363,32,170216,2,0,B|344:77|361:114|361:114|379:154|364:192,1,165,10|0,0:0|0:0,0:0:0:0:
177,155,170761,6,0,B|229:132|229:132|282:157,1,115.49999647522,0|0,1:2|0:0,0:0:0:0:
282,157,171034,2,0,L|280:171,1,8.24999974822999,2|0,0:1|0:0,0:0:0:0:
113,112,171307,6,0,B|95:148|95:148|109:203,1,76.9999976501466,10|0,0:0|0:0,0:0:0:0:
43,315,171580,2,0,B|52:279|52:279|34:243,1,76.9999976501466,2|0,0:0|0:0,0:0:0:0:
95,30,171852,6,0,B|62:69|62:69|195:62,1,165,2|0,1:2|0:0,0:0:0:0:
98,40,172398,2,0,B|65:79|65:79|198:72,1,165,10|0,0:0|0:0,0:0:0:0:
329,69,172943,5,0,1:0:0:0:
329,69,173216,2,0,L|328:84,1,8.24999974822999,2|0,0:1|0:0,0:0:0:0:
232,226,173489,5,0,1:0:0:0:
232,226,173761,2,0,L|231:217,1,8.24999974822999,2|0,0:1|0:0,0:0:0:0:
408,77,174034,5,0,1:0:0:0:
408,77,174307,2,0,L|407:92,1,8.24999974822999,2|0,0:1|0:0,0:0:0:0:
153,218,174580,5,8,0:2:0:0:
153,218,174852,2,0,L|154:203,1,8.24999974822999,2|0,0:1|0:0,0:0:0:0:
368,0,175125,6,0,P|314:57|200:57,1,197.99999395752,6|0,0:0|0:0,0:0:0:0:
53,12,176216,1,2,0:0:0:0:
53,12,176352,1,0,0:0:0:0:
53,12,176489,1,0,0:0:0:0:
173,136,176761,1,2,0:0:0:0:
8,89,177034,1,0,0:0:0:0:
274,62,177307,6,0,B|204:77|204:77|221:214,1,197.99999395752,6|0,0:0|0:0,0:0:0:0:
110,83,178398,1,2,0:0:0:0:
110,83,178534,1,0,0:0:0:0:
110,83,178670,1,0,0:0:0:0:
296,148,178943,1,2,0:0:0:0:
157,5,179216,1,0,0:0:0:0:
197,211,179489,6,0,B|248:180|289:184|289:184|314:228|378:230,1,197.99999395752,6|0,0:0|0:0,0:0:0:0:
510,130,180580,1,2,0:0:0:0:
510,130,180716,1,0,0:0:0:0:
510,130,180852,1,0,0:0:0:0:
366,137,181125,1,2,0:0:0:0:
509,231,181398,1,0,0:0:0:0:
313,69,181670,6,0,B|354:189|279:138|323:269,1,197.99999395752,6|0,0:0|0:0,0:0:0:0:
236,125,182761,1,2,0:0:0:0:
399,204,183034,1,0,0:0:0:0:
313,69,183307,1,2,0:0:0:0:
320,261,183580,1,0,0:0:0:0:
407,20,183852,6,0,B|320:27|320:27|307:42|307:42|209:50,1,197.99999395752,6|0,0:0|0:0,0:0:0:0:
392,123,184943,1,2,0:0:0:0:
392,123,185080,1,0,0:0:0:0:
392,123,185216,1,0,0:0:0:0:
216,49,185489,1,2,0:0:0:0:
407,20,185761,1,0,0:0:0:0:
230,150,186034,6,0,B|139:142|139:142|126:127|126:127|39:120,1,197.99999395752,6|0,0:0|0:0,0:0:0:0:
216,49,187125,1,2,0:0:0:0:
216,49,187261,1,0,0:0:0:0:
216,49,187398,1,0,0:0:0:0:
300,204,187670,1,2,0:0:0:0:
286,9,187943,1,0,0:0:0:0:
221,268,188216,6,0,B|246:235|246:235|361:250|361:250|389:213,1,197.99999395752,6|0,0:0|0:0,0:0:0:0:
284,323,189307,1,2,0:0:0:0:
284,323,189443,1,0,0:0:0:0:
284,323,189580,1,0,0:0:0:0:
324,158,189852,1,2,0:0:0:0:
364,356,190125,1,0,0:0:0:0:
157,259,190398,6,0,B|194:248|222:220|222:220|201:345,1,197.99999395752,6|0,0:0|0:0,0:0:0:0:
142,155,191489,1,2,0:0:0:0:
311,214,191761,1,0,0:0:0:0:
138,175,192034,1,2,0:0:0:0:
307,234,192307,1,0,0:0:0:0:
0,384,192580,5,4,1:2:0:0:
0,384,193125,1,2,0:0:0:0:
87,296,193398,1,2,0:0:0:0:
0,209,193670,2,0,B|32:165|32:165|10:61,2,153.999995300293,2|2|4,0:0|0:0|0:2,0:0:0:0:
0,209,195291,5,2,0:0:0:0:
87,121,195557,1,2,0:0:0:0:
174,208,195822,2,0,B|265:175|236:237|333:209,2,153.999995300293,2|2|4,0:0|0:0|0:2,0:0:0:0:
174,208,197402,5,2,0:0:0:0:
261,120,197661,1,2,0:0:0:0:
173,32,197920,2,0,B|209:9|209:9|326:26,2,153.999995300293,2|2|4,0:0|0:0|0:2,0:0:0:0:
173,32,199452,5,2,0:0:0:0:
261,120,199700,1,2,0:0:0:0:
350,30,199948,2,0,B|410:43|410:43|395:140,1,153.999995300293,2|2,0:0|0:0,0:0:0:0:
370,255,200673,1,2,0:0:0:0:
173,126,200915,6,0,L|273:119,1,88,0|2,1:0|0:1,0:0:0:0:
58,261,201391,2,0,L|158:268,1,88,0|2,1:0|0:1,0:0:0:0:
118,74,201867,2,0,P|99:108|104:159,1,88,0|2,1:0|0:1,0:0:0:0:
226,296,202327,2,0,P|230:252|210:214,1,88,0|2,1:0|0:1,0:0:0:0:
81,4,202788,6,0,L|181:11,1,98.9999969787599,0|2,1:0|0:1,0:0:0:0:
359,112,203225,2,0,L|260:118,1,98.9999969787599,0|2,1:0|0:1,0:0:0:0:
414,49,203663,2,0,P|440:88|438:137,1,98.9999969787599,0|2,1:0|0:1,0:0:0:0:
292,289,204079,2,0,P|289:240|316:199,1,98.9999969787599,0|2,1:0|0:1,0:0:0:0:
452,347,204496,5,8,0:0:0:0:
201,325,204692,1,0,1:0:0:0:
469,227,204888,5,8,0:0:0:0:
217,206,205084,1,0,1:0:0:0:
371,382,205280,5,8,0:0:0:0:
392,131,205462,1,0,1:0:0:0:
268,376,205645,5,8,0:0:0:0:
289,124,205828,1,0,1:0:0:0:
452,347,206011,5,8,0:0:0:0:
435,324,206099,1,8,0:0:0:0:
413,308,206187,1,0,1:0:0:0:
388,299,206275,1,0,1:0:0:0:
309,349,206363,5,10,0:0:0:0:
284,340,206452,1,8,0:0:0:0:
262,324,206540,1,2,1:2:0:0:
245,301,206628,1,0,1:0:0:0:
296,218,206716,6,0,B|269:273|269:273|148:254,1,165,10|0,0:0|0:0,0:0:0:0:
172,179,207069,2,0,L|241:189,1,55,2|0,0:0|0:0,0:0:0:0:
215,346,207246,2,0,L|146:336,1,55,2|0,0:0|0:0,0:0:0:0:
18,162,207422,5,4,1:2:0:0:
18,162,207775,2,0,P|32:218|39:271,1,85.2500006504059,2|0,0:0|0:0,0:0:0:0:
64,384,207952,2,0,P|70:348|87:300,1,85.2500006504059,2|0,0:0|0:0,0:0:0:0:
149,103,208128,6,0,B|209:98|209:98|227:83|227:83|272:104|272:104|284:93|284:93|349:89,1,197.99999395752,10|0,0:0|0:0,0:0:0:0:
149,114,208481,2,0,B|209:109|209:109|227:94|227:94|272:115|272:115|284:104|284:104|349:100,1,197.99999395752,2|0,0:0|0:0,0:0:0:0:
487,97,208834,1,0,1:2:0:0:
330,259,209011,6,0,P|293:241|245:236,1,85.2500006504059,2|0,0:0|0:0,0:0:0:0:
133,128,209187,2,0,P|135:169|155:213,1,85.2500006504059,2|0,0:0|0:0,0:0:0:0:
118,364,209363,2,0,P|152:340|180:301,1,85.2500006504059,2|0,1:2|0:0,0:0:0:0:
332,101,209540,6,0,B|368:92|407:69|407:69|374:217,1,197.99999395752,10|0,0:0|0:0,0:0:0:0:
338,109,209893,2,0,B|374:100|413:77|413:77|380:225,1,197.99999395752,2|0,0:0|0:0,0:0:0:0:
315,234,210246,6,0,B|384:224|384:224|394:230|394:230|480:221,1,148.500000566483,0|0,1:2|0:0,0:0:0:0:
238,58,210599,6,0,B|222:97|222:97|235:148,1,85.2500006504059,2|0,0:0|0:0,0:0:0:0:
192,359,210775,2,0,B|202:317|202:317|186:278,1,85.2500006504059,2|0,0:0|0:0,0:0:0:0:
76,123,210952,6,0,B|111:101|157:97|157:97|186:132|240:139,1,173.24999471283,10|0,0:0|0:0,0:0:0:0:
77,135,211305,2,0,B|112:113|158:109|158:109|187:144|241:151,1,173.24999471283,2|0,0:0|0:0,0:0:0:0:
350,140,211658,1,0,1:2:0:0:
135,198,211834,6,0,B|118:237|118:237|130:277,1,85.2500006504059,2|0,0:0|0:0,0:0:0:0:
320,290,212011,2,0,B|337:251|337:251|325:211,1,85.2500006504059,2|0,0:0|0:0,0:0:0:0:
231,65,212187,2,0,L|233:166,1,85.2500006504059,2|0,1:2|0:0,0:0:0:0:
275,381,212363,6,0,P|316:324|407:327,1,165,10|0,0:0|0:0,0:0:0:0:
498,373,212716,2,0,B|488:334|488:334|504:281,1,76.9999976501466,2|0,0:0|0:0,0:0:0:0:
440,167,212893,2,0,B|450:202|450:202|440:241,1,76.9999976501466,2|0,0:0|0:0,0:0:0:0:
275,381,213069,5,0,1:2:0:0:
275,381,213422,2,0,P|231:365|179:364,1,85.2500006504059,2|0,0:0|0:0,0:0:0:0:
275,187,213599,2,0,P|231:203|179:204,1,85.2500006504059,2|0,0:0|0:0,0:0:0:0:
45,346,213775,6,0,B|33:299|48:265|48:265|40:233|40:233|56:202|46:150,1,197.99999395752,10|0,0:0|0:0,0:0:0:0:
33,345,214128,2,0,B|21:298|36:264|36:264|28:232|28:232|44:201|34:149,1,197.99999395752,2|0,0:0|0:0,0:0:0:0:
21,17,214481,1,0,1:2:0:0:
193,206,214658,6,0,P|235:202|275:187,1,85.2500006504059,2|0,0:0|0:0,0:0:0:0:
319,0,214834,2,0,P|301:38|294:80,1,85.2500006504059,2|0,0:0|0:0,0:0:0:0:
433,211,215011,2,0,P|409:176|376:149,1,85.2500006504059,2|0,1:2|0:0,0:0:0:0:
148,88,215187,6,0,B|157:174|157:174|147:198|147:198|157:283,1,197.99999395752,10|0,0:0|0:0,0:0:0:0:
136,91,215540,2,0,B|145:177|145:177|135:201|135:201|145:286,1,197.99999395752,2|0,0:0|0:0,0:0:0:0:
88,365,215893,6,0,B|148:319|148:319|221:353,1,148.500000566483,0|0,1:2|0:0,0:0:0:0:
474,367,216246,6,0,P|490:330|468:283,1,85.2500006504059,2|0,0:0|0:0,0:0:0:0:
375,287,216422,2,0,P|359:325|374:364,1,85.2500006504059,2|0,0:0|0:0,0:0:0:0:
494,124,216599,6,0,B|460:137|437:167|428:198|428:198|412:160|378:135|340:130,1,206.25,10|0,0:0|0:0,0:0:0:0:
493,113,216952,2,0,B|459:126|436:156|427:187|427:187|411:149|377:124|339:119,1,206.25,2|0,0:0|0:0,0:0:0:0:
419,53,217305,1,0,1:2:0:0:
279,174,217481,6,0,P|264:135|275:77,1,85.2500006504059,2|0,0:0|0:0,0:0:0:0:
309,294,217658,2,0,P|313:336|298:375,1,85.2500006504059,2|0,0:0|0:0,0:0:0:0:
126,279,217834,6,0,L|170:281,2,43.9999986572266,2|0|0,1:2|1:0|1:0,0:0:0:0:
209,321,218011,6,0,P|207:260|212:198,1,107.249995090485,10|0,0:0|0:0,0:0:0:0:
279,174,218363,2,0,L|331:179,1,38.4999988250733,2|0,0:0|0:0,0:0:0:0:
361,238,218540,2,0,L|413:243,1,38.4999988250733,2|0,0:0|0:0,0:0:0:0:
209,127,218716,5,4,1:2:0:0:
209,127,219069,2,0,B|166:104|166:104|115:120,1,96.2500009179115,2|0,0:0|0:0,0:0:0:0:
105,265,219246,2,0,B|147:287|147:287|198:271,1,96.2500009179115,2|0,0:0|0:0,0:0:0:0:
352,135,219422,6,0,B|318:117|286:80|286:80|305:156|313:234,1,239.250007301331,10|0,0:0|0:0,0:0:0:0:
363,134,219775,2,0,B|329:116|297:79|297:79|316:155|324:233,1,239.250007301331,2|0,0:0|0:0,0:0:0:0:
326,337,220128,1,0,1:2:0:0:
427,83,220305,6,0,B|450:121|450:121|437:166,1,85.2500006504059,2|0,0:0|0:0,0:0:0:0:
323,229,220481,2,0,B|278:229|278:229|246:196,1,85.2500006504059,2|0,0:0|0:0,0:0:0:0:
248,65,220658,2,0,B|269:26|269:26|314:14,1,85.2500006504059,2|0,1:2|0:0,0:0:0:0:
170,251,220834,6,0,B|150:209|167:155|167:155|126:135|126:135|142:95|127:20,1,247.500009441376,10|0,0:0|0:0,0:0:0:0:
155,254,221187,2,0,B|135:212|152:158|152:158|111:138|111:138|127:98|112:23,1,247.500009441376,2|0,0:0|0:0,0:0:0:0:
216,68,221540,6,0,B|255:56|284:69|284:69|291:63|291:63|321:77|365:68,1,148.500000566483,0|0,1:2|0:0,0:0:0:0:
213,314,221893,6,0,B|172:339|172:339|120:329,1,96.2500009179115,2|0,0:0|0:0,0:0:0:0:
97,194,222069,2,0,B|138:169|138:169|190:179,1,96.2500009179115,2|0,0:0|0:0,0:0:0:0:
377,247,222246,6,0,B|315:223|267:247|267:247|263:243|263:243|263:251|263:251|259:247|259:247|219:271|127:247,1,239.250007301331,10|0,0:0|0:0,0:0:0:0:
381,258,222599,2,0,B|319:234|271:258|271:258|267:254|267:254|267:262|267:262|263:258|263:258|223:282|131:258,1,239.250007301331,2|0,0:0|0:0,0:0:0:0:
33,238,222952,1,0,1:2:0:0:
230,79,223128,6,0,B|239:127|239:127|238:129|238:129|247:174,1,96.2500009179115,2|0,0:0|0:0,0:0:0:0:
222,367,223305,2,0,B|259:335|259:335|261:335|261:335|295:304,1,96.2500009179115,2|0,0:0|0:0,0:0:0:0:
476,230,223481,2,0,B|429:213|429:213|428:211|428:211|385:197,1,96.2500009179115,2|0,1:2|0:0,0:0:0:0:
142,79,223658,6,0,P|167:18|299:20,1,206.25,10|0,0:0|0:0,0:0:0:0:
234,166,224011,2,0,B|216:122|216:122|232:71,1,93.500001783371,2|0,0:0|0:0,0:0:0:0:
353,82,224187,2,0,B|366:125|366:125|348:169,1,93.500001783371,2|0,0:0|0:0,0:0:0:0:
292,13,224363,5,4,1:2:0:0:
292,13,224716,2,0,B|338:11|338:11|341:8|341:8|399:6,1,96.2500009179115,2|0,0:0|0:0,0:0:0:0:
510,220,224893,2,0,B|464:218|464:218|461:215|461:215|415:213,1,96.2500009179115,2|0,0:0|0:0,0:0:0:0:
183,90,225069,6,0,B|166:125|141:147|141:147|216:129|318:125,1,222.750000849724,10|0,0:0|0:0,0:0:0:0:
178,81,225422,2,0,B|161:116|136:138|136:138|211:120|313:116,1,222.750000849724,2|0,0:0|0:0,0:0:0:0:
426,121,225775,1,0,1:2:0:0:
377,357,225952,6,0,P|361:308|362:244,1,93.500001783371,2|0,0:0|0:0,0:0:0:0:
153,266,226128,2,0,P|150:312|135:357,1,93.500001783371,2|0,0:0|0:0,0:0:0:0:
256,159,226305,2,0,L|256:63,1,93.500001783371,2|0,1:2|0:0,0:0:0:0:
53,221,226481,6,0,B|194:169|143:290|291:233,1,239.250007301331,10|0,0:0|0:0,0:0:0:0:
53,232,226834,2,0,B|194:180|143:301|291:244,1,239.250007301331,2|0,0:0|0:0,0:0:0:0:
314,167,227187,6,0,B|313:231|313:231|320:248|320:248|319:321,1,148.500000566483,0|0,1:2|0:0,0:0:0:0:
262,113,227540,6,0,P|307:93|366:114,1,93.500001783371,2|0,0:0|0:0,0:0:0:0:
371,368,227716,2,0,P|326:388|267:367,1,93.500001783371,2|0,0:0|0:0,0:0:0:0:
90,269,227893,6,0,B|168:284|168:284|171:288|171:288|176:285|176:285|243:298|243:298|247:295|247:295|250:300|250:300|318:313,1,239.250007301331,10|0,0:0|0:0,0:0:0:0:
88,281,228246,2,0,B|166:296|166:296|169:300|169:300|174:297|174:297|241:310|241:310|245:307|245:307|248:312|248:312|316:325,1,239.250007301331,2|0,0:0|0:0,0:0:0:0:
316,325,228952,6,0,L|310:281,1,44,2|0,0:0|0:0,0:0:0:0:
366,226,229128,2,0,L|372:178,1,44,2|0,0:0|0:0,0:0:0:0:
316,127,229305,2,0,L|310:79,1,44,2|0,0:0|0:0,0:0:0:0:
366,28,229481,5,0,1:0:0:0:
315,285,229658,1,10,0:2:0:0:
315,285,229834,1,2,0:0:0:0:
452,148,230011,6,0,B|446:79|446:79|310:82,1,206.25,6|0,1:2|0:0,0:0:0:0:
245,131,230363,2,0,P|229:96|233:57,1,68.75,2|0,0:0|0:0,0:0:0:0:
336,197,230540,2,0,P|336:231|321:261,1,68.75,0|0,0:0|0:0,0:0:0:0:
124,189,230716,2,0,B|189:195|189:195|196:205|196:205|256:213,1,137.5,10|0,0:0|0:0,0:0:0:0:
441,60,231069,2,0,B|376:66|376:66|369:76|369:76|309:83,1,137.5,2|0,0:0|0:0,0:0:0:0:
129,28,231422,5,2,1:2:0:0:
129,28,231599,2,0,L|117:99,1,68.75,0|0,0:0|0:0,0:0:0:0:
256,213,231775,1,2,0:0:0:0:
256,213,231952,2,0,L|268:284,1,68.75,0|0,0:0|0:0,0:0:0:0:
394,95,232128,2,0,B|338:57|338:57|266:76,1,137.5,10|0,0:0|0:0,0:0:0:0:
132,234,232481,2,0,B|198:251|198:251|255:212,1,137.5,2|0,0:0|0:0,0:0:0:0:
41,47,232834,5,2,1:2:0:0:
41,47,233187,2,0,L|32:117,1,68.75,2|0,0:0|0:0,0:0:0:0:
123,165,233363,2,0,L|132:234,1,68.75,0|0,0:0|0:0,0:0:0:0:
31,351,233540,2,0,P|99:336|175:325,1,137.5,10|0,0:0|0:0,0:0:0:0:
391,238,233893,2,0,P|323:228|256:213,1,137.5,2|0,0:0|0:0,0:0:0:0:
32,115,234246,5,2,1:2:0:0:
32,115,234422,2,0,L|108:104,1,68.75,0|0,0:0|0:0,0:0:0:0:
187,203,234599,1,2,0:0:0:0:
187,203,234775,2,0,L|263:214,1,68.75,0|0,0:0|0:0,0:0:0:0:
410,105,234952,2,0,B|445:144|445:144|433:241,1,137.5,10|0,0:0|0:0,0:0:0:0:
280,336,235305,2,0,B|245:297|245:297|255:212,1,137.5,2|0,0:0|0:0,0:0:0:0:
280,16,235658,5,2,1:2:0:0:
280,16,236010,2,0,P|241:24|203:28,1,68.75,2|0,0:0|0:0,0:0:0:0:
94,84,236187,2,0,P|55:76|17:72,1,68.75,0|0,0:0|0:0,0:0:0:0:
185,174,236363,2,0,L|324:164,1,137.5,10|0,0:0|0:0,0:0:0:0:
159,333,236716,2,0,L|21:323,1,137.5,2|0,0:0|0:0,0:0:0:0:
319,276,237069,5,2,1:2:0:0:
319,276,237246,2,0,L|314:349,1,68.75,0|0,0:0|0:0,0:0:0:0:
185,174,237422,1,2,0:0:0:0:
185,174,237599,2,0,L|190:247,1,68.75,0|0,0:0|0:0,0:0:0:0:
319,72,237775,2,0,B|381:44|381:44|456:80,1,137.5,10|0,0:0|0:0,0:0:0:0:
446,176,238128,2,0,B|384:204|384:204|309:168,1,137.5,2|0,0:0|0:0,0:0:0:0:
166,26,238481,5,2,1:2:0:0:
166,26,238834,2,0,P|126:42|92:48,1,68.75,2|0,0:0|0:0,0:0:0:0:
19,196,239010,2,0,P|52:203|84:217,1,68.75,0|0,0:0|0:0,0:0:0:0:
236,324,239187,2,0,B|156:320|194:365|102:357,1,137.5,10|0,0:0|0:0,0:0:0:0:
192,140,239540,2,0,B|272:136|234:181|326:173,1,137.5,2|0,0:0|0:0,0:0:0:0:
502,77,239893,5,2,1:2:0:0:
502,77,240069,2,0,L|492:155,1,68.75,0|0,0:0|0:0,0:0:0:0:
293,29,240246,1,2,0:0:0:0:
293,29,240422,2,0,L|303:107,1,68.75,0|0,0:0|0:0,0:0:0:0:
314,300,240599,1,10,0:0:0:0:
314,300,240952,1,2,0:0:0:0:
314,300,241305,6,0,B|345:246|345:246|191:262,1,206.25,6|0,1:2|0:0,0:0:0:0:
132,316,241658,2,0,P|114:279|118:237,1,68.75,2|0,0:0|0:0,0:0:0:0:
187,118,241834,2,0,P|185:152|168:181,1,68.75,0|0,0:0|0:0,0:0:0:0:
114,69,242010,2,0,P|162:33|236:45,1,137.5,10|0,0:0|0:0,0:0:0:0:
428,120,242363,2,0,P|362:133|307:95,1,137.5,2|0,0:0|0:0,0:0:0:0:
493,49,242716,5,2,1:2:0:0:
493,49,242893,2,0,L|502:124,1,68.75,0|0,0:0|0:0,0:0:0:0:
363,179,243069,1,2,0:0:0:0:
363,179,243246,2,0,L|354:254,1,68.75,0|0,1:0|0:0,0:0:0:0:
479,360,243422,2,0,B|509:331|509:331|495:233,1,137.5,10|0,0:0|0:0,0:0:0:0:
379,55,243775,2,0,B|349:84|349:84|363:179,1,137.5,2|0,0:0|0:0,0:0:0:0:
390,375,244128,5,2,1:2:0:0:
390,375,244481,2,0,L|321:361,1,68.75,2|0,0:0|0:0,0:0:0:0:
139,297,244658,2,0,L|206:283,1,68.75,0|0,0:0|0:0,0:0:0:0:
390,219,244834,2,0,B|415:155|415:155|384:86,1,137.5,10|0,0:0|0:0,0:0:0:0:
125,92,245187,2,0,B|97:155|97:155|122:219,1,137.5,2|0,0:0|0:0,0:0:0:0:
330,157,245540,5,2,1:2:0:0:
330,157,245716,2,0,L|262:162,1,68.75,0|0,0:0|0:0,0:0:0:0:
358,11,245893,1,2,0:0:0:0:
358,11,246069,2,0,L|426:16,1,68.75,0|0,1:0|0:0,0:0:0:0:
508,248,246246,2,0,B|446:245|446:245|435:237|435:237|360:233,1,137.5,10|0,0:0|0:0,0:0:0:0:
195,171,246599,2,0,B|257:168|257:168|268:160|268:160|343:156,1,137.5,2|0,0:0|0:0,0:0:0:0:
498,64,246952,5,2,1:2:0:0:
498,64,247305,2,0,P|465:50|429:47,1,68.75,2|0,0:0|0:0,0:0:0:0:
329,156,247481,2,0,P|296:170|260:173,1,68.75,0|0,0:0|0:0,0:0:0:0:
94,46,247658,2,0,B|133:75|133:75|121:175,1,137.5,10|0,0:0|0:0,0:0:0:0:
216,351,248010,2,0,B|177:322|177:322|189:222,1,137.5,2|0,0:0|0:0,0:0:0:0:
270,22,248363,5,2,1:2:0:0:
270,22,248540,2,0,L|280:91,1,68.75,0|0,0:0|0:0,0:0:0:0:
270,216,248716,1,2,0:0:0:0:
270,216,248893,2,0,L|260:285,1,68.75,0|0,1:0|0:0,0:0:0:0:
165,120,249069,2,0,P|212:77|287:96,1,137.5,10|0,0:0|0:0,0:0:0:0:
384,246,249422,2,0,P|319:259|269:215,1,137.5,2|0,0:0|0:0,0:0:0:0:
363,21,249775,5,2,1:2:0:0:
363,21,250128,2,0,P|406:22|454:47,1,68.75,2|0,0:0|0:0,0:0:0:0:
308,105,250305,2,0,P|328:142|330:196,1,68.75,0|0,0:0|0:0,0:0:0:0:
207,99,250481,2,0,P|175:150|110:192,1,137.5,10|0,0:0|0:0,0:0:0:0:
18,101,250834,2,0,P|49:49|114:7,1,137.5,2|0,0:0|0:0,0:0:0:0:
308,105,251187,5,2,1:2:0:0:
308,105,251540,2,0,B|342:96|369:72|369:72|347:150|344:212,1,206.25,2|0,0:0|1:0,0:0:0:0:
344,240,251893,1,10,0:0:0:0:
256,8,252069,1,0,1:0:0:0:
168,240,252246,1,10,0:0:0:0:
256,8,252422,1,0,1:0:0:0:
256,304,252599,1,6,1:2:0:0:
256,304,252952,6,0,P|290:289|331:287,1,76.9999976501466,2|2,0:0|0:0,0:0:0:0:
397,337,253305,2,0,P|412:280|411:182,2,153.999995300293,2|2|6,0:0|0:0|0:2,0:0:0:0:
397,337,254363,6,0,P|431:352|472:354,1,76.9999976501466,2|2,0:0|0:0,0:0:0:0:
459,237,254716,2,0,P|417:190|330:190,2,153.999995300293,2|2|6,0:0|0:0|0:2,0:0:0:0:
459,237,255775,6,0,L|470:144,1,76.9999976501466,2|2,0:0|0:0,0:0:0:0:
373,102,256128,2,0,L|354:254,2,153.999995300293,2|2|6,0:0|0:0|0:2,0:0:0:0:
373,102,257187,6,0,P|337:79|291:76,1,76.9999976501466,2|2,0:0|0:0,0:0:0:0:
155,170,257540,2,0,L|309:164,1,153.999995300293,2|2,0:0|0:0,0:0:0:0:
227,44,258069,1,2,0:0:0:0:
155,170,258246,6,0,L|164:283,1,98.9999969787599,0|2,1:0|0:1,0:0:0:0:
255,60,258599,2,0,L|246:173,1,110,0|2,1:0|0:1,0:0:0:0:
335,195,258952,2,0,L|345:321,1,121.000003692627,0|2,1:0|0:1,0:0:0:0:
435,85,259305,2,0,L|424:222,1,131.99999597168,0|2,1:0|0:1,0:0:0:0:
352,18,259658,5,0,1:0:0:0:
352,18,259834,1,2,0:1:0:0:
335,195,260010,5,0,1:0:0:0:
335,195,260187,1,2,0:1:0:0:
158,178,260363,5,0,1:0:0:0:
158,178,260540,1,2,0:1:0:0:
175,1,260716,5,0,1:0:0:0:
175,1,260893,1,2,0:1:0:0:
335,195,261069,5,8,0:0:0:0:
88,94,261246,1,0,1:0:0:0:
334,102,261422,5,10,0:0:0:0:
87,203,261599,1,2,1:2:0:0:
268,0,261775,5,10,0:0:0:0:
167,287,261952,1,0,1:0:0:0:
175,1,262128,5,10,0:0:0:0:
276,288,262305,1,0,1:0:0:0:
39,136,262481,5,8,0:0:0:0:
60,110,262569,1,8,0:0:0:0:
88,94,262658,1,0,1:0:0:0:
121,89,262746,1,0,1:0:0:0:
190,161,262834,5,10,0:0:0:0:
211,187,262922,1,8,0:0:0:0:
239,203,263010,1,2,1:2:0:0:
272,208,263099,1,0,1:0:0:0:
353,173,263187,6,0,B|303:135|303:135|324:297,1,197.99999395752,10|0,0:0|0:0,0:0:0:0:
415,214,263540,2,0,P|427:169|413:130,1,65.9999979858399,2|0,0:0|0:0,0:0:0:0:
281,335,263716,2,0,P|326:347|365:333,1,65.9999979858399,2|0,0:0|0:0,0:0:0:0:
303,135,263893,5,4,1:2:0:0:
303,135,264246,2,0,B|265:115|265:115|221:125,1,85.2500006504059,10|0,0:0|0:0,0:0:0:0:
201,324,264422,2,0,B|239:344|239:344|283:334,1,85.2500006504059,2|0,0:0|0:0,0:0:0:0:
166,58,264599,2,0,B|133:118|133:118|158:185,1,131.99999597168,2|0,0:0|1:0,0:0:0:0:
60,384,264952,2,0,B|82:324|82:324|49:264,1,131.99999597168,10|0,0:0|1:0,0:0:0:0:
19,57,265305,5,0,1:0:0:0:
162,259,265481,2,0,P|198:248|231:208,1,79.7500024337769,2|0,0:0|0:0,0:0:0:0:
258,37,265658,2,0,P|249:73|267:122,1,79.7500024337769,10|0,0:0|0:0,0:0:0:0:
402,231,265834,2,0,P|374:205|323:196,1,79.7500024337769,2|0,0:0|0:0,0:0:0:0:
120,111,266010,6,0,B|146:94|164:76|164:76|155:179,1,159.500004867554,2|0,0:0|1:0,0:0:0:0:
256,324,266363,2,0,B|230:341|211:358|211:358|229:191,1,197.99999395752,10|0,0:0|0:0,0:0:0:0:
280,166,266716,6,0,B|196:163|243:204|149:199,1,131.99999597168,0|0,1:2|0:0,0:0:0:0:
351,216,267069,6,0,P|367:180|360:136,1,85.2500006504059,10|0,0:0|0:0,0:0:0:0:
156,37,267246,2,0,P|153:79|171:118,1,85.2500006504059,2|0,0:0|0:0,0:0:0:0:
443,102,267422,2,0,P|391:50|295:72,1,170.500001300812,2|0,0:0|1:0,0:0:0:0:
87,151,267775,2,0,P|139:203|235:181,1,170.500001300812,10|0,0:0|1:0,0:0:0:0:
443,102,268128,5,0,1:0:0:0:
159,34,268305,2,0,L|171:133,1,85.2500006504059,2|0,0:0|0:0,0:0:0:0:
325,240,268481,2,0,L|233:200,1,85.2500006504059,10|0,0:0|0:0,0:0:0:0:
63,280,268658,2,0,L|142:220,1,85.2500006504059,2|0,0:0|0:0,0:0:0:0:
311,102,268834,6,0,B|352:165|352:165|321:250,1,153.999995300293,2|0,0:0|1:0,0:0:0:0:
175,349,269187,2,0,B|218:353|218:353|222:357|222:357|276:363,1,96.2500009179115,10|0,0:0|0:0,0:0:0:0:
480,292,269363,2,0,B|437:296|437:296|433:300|433:300|379:306,1,96.2500009179115,2|0,0:0|0:0,0:0:0:0:
155,213,269540,5,0,1:2:0:0:
155,213,269893,2,0,P|171:176|156:127,1,85.2500006504059,10|0,0:0|0:0,0:0:0:0:
59,126,270069,2,0,P|43:163|58:212,1,85.2500006504059,2|0,0:0|0:0,0:0:0:0:
227,75,270246,6,0,B|226:26|226:26|93:33,1,159.500004867554,2|0,0:0|1:0,0:0:0:0:
103,272,270599,2,0,B|104:321|104:321|237:314,1,159.500004867554,10|0,0:0|1:0,0:0:0:0:
59,126,270952,1,0,1:0:0:0:
269,369,271128,6,0,P|290:324|282:276,1,85.2500006504059,2|0,0:0|0:0,0:0:0:0:
160,133,271305,2,0,P|188:173|234:190,1,85.2500006504059,10|0,0:0|0:0,0:0:0:0:
418,156,271481,2,0,P|368:160|330:191,1,85.2500006504059,2|0,0:0|0:0,0:0:0:0:
393,367,271658,6,0,B|426:337|426:337|401:237,1,148.500000566483,2|0,0:0|1:0,0:0:0:0:
233,51,272010,2,0,B|275:35|325:63|325:63|353:44|353:44|389:74|444:60,1,222.750000849724,10|0,0:0|0:0,0:0:0:0:
505,10,272363,6,0,P|466:64|510:122,1,148.500000566483,0|0,1:2|0:0,0:0:0:0:
235,359,272716,2,0,P|277:356|315:339,1,85.2500006504059,10|0,0:0|0:0,0:0:0:0:
512,325,272893,2,0,P|467:306|427:306,1,85.2500006504059,2|0,0:0|0:0,0:0:0:0:
258,126,273069,6,0,B|224:217|289:189|259:275,1,153.999995300293,2|0,0:0|1:0,0:0:0:0:
336,52,273422,1,10,0:0:0:0:
185,239,273599,1,0,1:0:0:0:
417,160,273775,1,0,1:0:0:0:
417,160,274128,6,0,L|368:164,1,44,2|0,0:0|0:0,0:0:0:0:
303,127,274305,2,0,L|254:123,1,44,2|0,0:0|0:0,0:0:0:0:
189,160,274481,2,0,L|36:172,1,132,2|0,0:0|0:0,0:0:0:0:
22,99,274834,2,0,L|65:95,1,44,2|0,0:0|0:0,0:0:0:0:
128,48,275010,2,0,L|171:51,1,44,2|0,0:0|0:0,0:0:0:0:
373,163,275187,5,0,1:2:0:0:
373,163,275540,2,0,B|354:117|354:117|374:60,1,96.2500009179115,10|0,0:0|0:0,0:0:0:0:
482,75,275716,2,0,B|501:121|501:121|481:178,1,96.2500009179115,2|0,0:0|0:0,0:0:0:0:
330,312,275893,6,0,B|428:290|379:352|491:337,1,159.500004867554,2|0,0:0|1:0,0:0:0:0:
189,160,276246,2,0,B|91:138|140:200|28:185,1,159.500004867554,10|0,0:0|1:0,0:0:0:0:
256,353,276599,5,0,1:0:0:0:
350,157,276775,2,0,P|362:111|379:78,1,85.2500006504059,2|0,0:0|0:0,0:0:0:0:
162,157,276952,2,0,P|150:111|133:78,1,85.2500006504059,10|0,0:0|0:0,0:0:0:0:
256,264,277128,2,0,L|256:172,1,85.2500006504059,2|0,0:0|0:0,0:0:0:0:
34,161,277305,6,0,B|45:238|45:238|42:243|42:243|58:351,1,165.000006294251,2|0,0:0|1:0,0:0:0:0:
132,77,277658,2,0,B|182:7|283:42|283:42|241:78|237:124,1,247.500009441376,10|0,0:0|0:0,0:0:0:0:
162,157,278010,6,0,B|251:122|217:188|313:153,1,148.500000566483,0|0,1:2|0:0,0:0:0:0:
486,368,278363,6,0,B|465:324|465:324|480:272,1,96.2500009179115,10|0,0:0|0:0,0:0:0:0:
365,103,278540,2,0,B|386:147|386:147|372:192,1,96.2500009179115,2|0,0:0|0:0,0:0:0:0:
235,358,278716,6,0,B|181:344|181:344|201:243,1,159.500004867554,2|0,0:0|1:0,0:0:0:0:
267,27,279069,2,0,P|236:42|188:51,1,79.7500024337769,10|0,0:0|0:0,0:0:0:0:
14,153,279246,2,0,P|53:160|89:176,1,79.7500024337769,0|0,1:0|0:0,0:0:0:0:
271,290,279422,5,0,1:0:0:0:
271,290,279599,2,0,B|255:243|255:243|271:187,1,96.2500009179115,2|0,0:0|0:0,0:0:0:0:
438,100,279775,2,0,B|405:137|405:137|348:151,1,96.2500009179115,10|0,0:0|0:0,0:0:0:0:
191,50,279952,2,0,B|239:59|239:59|280:101,1,96.2500009179115,2|0,0:0|0:0,0:0:0:0:
437,261,280128,6,0,B|445:187|445:187|428:172|428:172|438:100,1,170.500001300812,2|0,0:0|1:0,0:0:0:0:
347,253,280481,2,0,P|319:234|355:236,1,93.500001783371,10|0,0:0|0:0,0:0:0:0:
342,14,280658,2,0,P|370:33|334:31,1,93.500001783371,2|0,0:0|0:0,0:0:0:0:
388,327,280834,5,0,1:2:0:0:
388,327,281187,2,0,P|448:323|501:321,1,96.2500009179115,10|0,0:0|0:0,0:0:0:0:
185,181,281363,2,0,P|125:177|72:175,1,96.2500009179115,2|0,0:0|0:0,0:0:0:0:
342,14,281540,6,0,B|327:60|342:90|342:90|334:110|334:110|348:145|337:194,1,176,2|0,0:0|1:0,0:0:0:0:
188,352,281893,2,0,B|179:312|193:277|193:277|185:257|185:257|200:227|185:181,1,176,10|0,0:0|1:0,0:0:0:0:
337,376,282246,5,0,1:0:0:0:
207,103,282422,2,0,B|157:93|157:93|119:132,1,101.749999611855,2|0,0:0|0:0,0:0:0:0:
318,272,282599,2,0,B|351:233|351:233|336:181,1,101.749999611855,10|0,0:0|0:0,0:0:0:0:
116,283,282775,2,0,B|132:331|132:331|185:344,1,101.749999611855,2|0,0:0|0:0,0:0:0:0:
405,141,282952,6,0,P|357:105|269:140,1,159.500004867554,2|0,0:0|1:0,0:0:0:0:
11,211,283305,2,0,B|57:225|97:204|97:204|124:263|124:263|163:243|217:263,1,239.250007301331,10|0,0:0|0:0,0:0:0:0:
309,304,283658,6,0,B|268:304|241:261|241:261|237:261|237:261|241:261|241:261|280:217|328:224,1,176,0|0,1:2|0:0,0:0:0:0:
471,54,284010,6,0,B|491:98|491:98|477:142,1,93.500001783371,10|0,0:0|0:0,0:0:0:0:
452,333,284187,2,0,B|438:289|438:289|458:245,1,93.500001783371,2|0,0:0|0:0,0:0:0:0:
396,103,284363,6,0,B|349:94|320:110|320:110|317:114|317:114|289:137|243:128,1,159.500004867554,2|0,0:0|1:0,0:0:0:0:
58,299,284716,2,0,B|99:296|141:283|141:283|135:207|124:126,1,242.000007385254,10|0,0:0|1:0,0:0:0:0:
124,126,285422,6,0,L|178:132,1,44,2|0,0:0|0:0,0:0:0:0:
227,79,285599,2,0,L|281:73,1,44,2|0,0:0|0:0,0:0:0:0:
330,126,285775,2,0,L|384:132,1,44,2|0,0:0|0:0,0:0:0:0:
433,79,285952,1,0,1:0:0:0:
171,135,286128,1,10,0:0:0:0:
171,135,286305,1,2,0:0:0:0:
333,329,286481,6,0,B|337:233|337:233|325:216|325:216|330:126,1,206.25,6|0,1:2|0:0,0:0:0:0:
406,103,286834,2,0,L|402:178,1,68.75,10|0,0:0|0:0,0:0:0:0:
256,352,287010,2,0,L|260:277,1,68.75,0|0,0:0|0:0,0:0:0:0:
264,78,287187,2,0,B|203:47|203:47|139:80,1,137.5,2|0,0:0|1:0,0:0:0:0:
50,264,287540,1,10,0:0:0:0:
201,135,287716,1,0,1:0:0:0:
9,98,287893,5,2,1:2:0:0:
9,98,288069,2,0,L|85:89,1,68.75,0|0,0:0|0:0,0:0:0:0:
183,241,288246,1,10,0:0:0:0:
183,241,288422,2,0,L|259:250,1,68.75,0|0,0:0|0:0,0:0:0:0:
357,98,288599,2,0,B|393:158|393:158|368:228,1,137.5,2|0,0:0|1:0,0:0:0:0:
118,294,288952,2,0,B|95:230|95:230|131:170,1,137.5,10|0,0:0|0:0,0:0:0:0:
327,354,289305,5,2,1:2:0:0:
326,354,289658,2,0,P|359:344|394:341,1,68.75,10|0,0:0|0:0,0:0:0:0:
303,208,289834,2,0,P|335:217|370:220,1,68.75,0|0,0:0|0:0,0:0:0:0:
208,301,290010,2,0,B|116:304|168:264|68:267,1,137.5,2|0,0:0|1:0,0:0:0:0:
325,354,290363,1,10,0:0:0:0:
137,378,290540,1,0,1:0:0:0:
222,188,290716,5,2,1:2:0:0:
222,188,290893,2,0,L|214:110,1,68.75,0|0,0:0|0:0,0:0:0:0:
363,289,291069,1,10,0:0:0:0:
363,289,291246,2,0,L|371:211,1,68.75,0|0,0:0|0:0,0:0:0:0:
150,245,291422,2,0,B|205:285|205:285|284:262,1,137.5,2|0,0:0|1:0,0:0:0:0:
441,157,291775,2,0,B|386:117|386:117|307:140,1,137.5,10|0,0:0|0:0,0:0:0:0:
126,336,292128,5,2,1:2:0:0:
126,336,292481,2,0,P|88:330|49:329,1,68.75,10|0,0:0|0:0,0:0:0:0:
271,265,292658,2,0,P|305:263|339:257,1,68.75,0|0,0:0|0:0,0:0:0:0:
157,119,292834,2,0,B|125:181|125:181|152:251,1,137.5,2|0,0:0|1:0,0:0:0:0:
224,35,293187,1,10,0:0:0:0:
40,104,293363,1,0,1:0:0:0:
219,187,293540,5,2,1:2:0:0:
219,187,293716,2,0,L|292:174,1,68.75,0|0,0:0|0:0,0:0:0:0:
355,340,293893,1,10,0:0:0:0:
355,340,294069,2,0,L|428:353,1,68.75,0|0,0:0|0:0,0:0:0:0:
419,117,294246,2,0,B|385:160|385:160|403:241,1,137.5,2|0,0:0|1:0,0:0:0:0:
245,380,294599,2,0,B|279:337|279:337|261:256,1,137.5,10|0,0:0|0:0,0:0:0:0:
217,21,294952,5,2,1:2:0:0:
217,21,295305,2,0,P|257:25|288:26,1,68.75,10|0,0:0|0:0,0:0:0:0:
453,18,295481,2,0,P|418:19|384:22,1,68.75,0|0,0:0|0:0,0:0:0:0:
314,218,295658,2,0,B|360:195|360:195|343:111,1,137.5,2|0,0:0|1:0,0:0:0:0:
217,21,296010,1,10,0:0:0:0:
421,97,296187,1,0,1:0:0:0:
202,158,296363,5,2,1:2:0:0:
202,158,296540,2,0,L|212:228,1,68.75,0|0,0:0|0:0,0:0:0:0:
352,42,296716,1,10,0:0:0:0:
352,42,296893,2,0,L|342:112,1,68.75,0|0,0:0|0:0,0:0:0:0:
314,309,297069,1,2,0:0:0:0:
257,87,297246,1,0,1:0:0:0:
424,246,297422,1,10,0:0:0:0:
424,246,297775,6,0,P|395:216|340:205,1,76.9999976501466,6|0,1:2|0:0,0:0:0:0:
198,247,297952,6,0,L|245:244,1,38.4999988250733,0|0,0:0|0:0,0:0:0:0:
414,111,298128,6,0,P|372:110|325:141,1,76.9999976501466,10|0,0:0|0:0,0:0:0:0:
196,230,298305,6,0,L|243:227,1,38.4999988250733,0|0,0:0|0:0,0:0:0:0:
218,20,298481,6,0,B|188:81|188:81|211:146,1,131.99999597168,2|0,0:0|1:0,0:0:0:0:
371,325,298834,2,0,B|392:264|392:264|361:204,1,131.99999597168,10|0,0:0|1:0,0:0:0:0:
169,277,299187,6,0,L|257:271,1,76.9999976501466,2|0,1:2|0:0,0:0:0:0:
368,120,299363,6,0,L|329:122,1,38.4999988250733,0|0,0:0|0:0,0:0:0:0:
167,200,299540,6,0,L|255:194,1,76.9999976501466,10|0,0:0|0:0,0:0:0:0:
366,43,299716,6,0,L|327:45,1,38.4999988250733,0|0,0:0|0:0,0:0:0:0:
125,129,299893,6,0,B|114:68|114:68|108:63|108:63|98:-1,1,131.99999597168,2|0,0:0|1:0,0:0:0:0:
243,195,300246,2,0,B|233:256|233:256|227:261|227:261|216:322,1,131.99999597168,10|0,0:0|0:0,0:0:0:0:
15,237,300599,6,0,P|43:212|90:209,1,76.9999976501466,2|0,1:2|0:0,0:0:0:0:
216,322,300775,6,0,L|161:315,1,38.4999988250733,0|0,0:0|0:0,0:0:0:0:
57,103,300952,6,0,P|94:105|129:136,1,76.9999976501466,10|0,0:0|0:0,0:0:0:0:
214,336,301128,6,0,L|159:329,1,38.4999988250733,0|0,0:0|0:0,0:0:0:0:
215,109,301305,6,0,B|273:116|273:116|285:128|285:128|357:139,1,131.99999597168,2|0,0:0|1:0,0:0:0:0:
512,295,301658,2,0,B|454:302|454:302|442:314|442:314|370:325,1,131.99999597168,10|0,0:0|1:0,0:0:0:0:
390,81,302010,6,0,P|415:124|409:165,1,76.9999976501466,2|0,1:2|0:0,0:0:0:0:
315,287,302187,6,0,L|269:280,1,38.4999988250733,0|0,0:0|0:0,0:0:0:0:
493,149,302363,6,0,P|480:197|447:221,1,76.9999976501466,10|0,0:0|0:0,0:0:0:0:
317,270,302540,6,0,L|271:263,1,38.4999988250733,0|0,0:0|0:0,0:0:0:0:
189,75,302716,6,0,P|229:32|300:35,1,131.99999597168,2|0,0:0|1:0,0:0:0:0:
460,214,303069,2,0,P|420:257|349:254,1,131.99999597168,10|0,0:0|0:0,0:0:0:0:
82,12,303422,6,0,L|88:88,1,76.9999976501466,2|0,1:2|0:0,0:0:0:0:
148,261,303599,6,0,L|151:223,1,38.4999988250733,0|0,0:0|0:0,0:0:0:0:
3,15,303775,6,0,L|9:91,1,76.9999976501466,10|0,0:0|0:0,0:0:0:0:
69,264,303952,6,0,L|72:226,1,38.4999988250733,0|0,0:0|0:0,0:0:0:0:
223,30,304128,6,0,B|281:0|281:0|349:33,1,131.99999597168,2|0,0:0|1:0,0:0:0:0:
350,256,304481,2,0,B|292:286|292:286|224:253,1,131.99999597168,10|0,0:0|1:0,0:0:0:0:
3,15,304834,6,0,B|40:1|40:1|82:17,1,76.9999976501466,2|0,1:2|0:0,0:0:0:0:
72,225,305010,6,0,L|21:222,1,38.4999988250733,0|0,0:0|0:0,0:0:0:0:
182,46,305187,6,0,B|219:59|219:59|241:98,1,76.9999976501466,10|0,0:0|0:0,0:0:0:0:
99,251,305363,6,0,L|72:225,1,38.4999988250733,0|0,0:0|0:0,0:0:0:0:
299,184,305540,6,0,B|387:191|334:223|435:229,1,131.99999597168,2|0,0:0|1:0,0:0:0:0:
182,46,305893,2,0,B|94:53|147:85|46:91,1,131.99999597168,10|0,0:0|0:0,0:0:0:0:
201,267,306246,6,0,B|176:238|176:238|183:194,1,76.9999976501466,2|0,1:2|0:0,0:0:0:0:
304,20,306422,6,0,L|357:25,1,38.4999988250733,0|0,0:0|0:0,0:0:0:0:
103,197,306599,6,0,B|105:158|105:158|141:132,1,76.9999976501466,10|0,0:0|0:0,0:0:0:0:
304,35,306775,6,0,L|357:40,1,38.4999988250733,0|0,0:0|0:0,0:0:0:0:
310,246,306952,6,0,B|290:201|290:201|317:111,1,131.99999597168,2|0,0:0|1:0,0:0:0:0:
140,12,307305,2,0,B|160:57|160:57|136:136,1,131.99999597168,10|0,0:0|1:0,0:0:0:0:
42,353,307658,5,2,1:2:0:0:
42,353,307834,2,0,L|86:345,1,38.4999988250733,0|0,0:0|0:0,0:0:0:0:
191,258,308010,1,10,0:0:0:0:
191,258,308187,2,0,L|235:266,1,38.4999988250733,0|0,0:0|0:0,0:0:0:0:
340,353,308363,1,2,0:0:0:0:
340,353,308540,2,0,L|384:345,1,38.4999988250733,0|0,1:0|0:0,0:0:0:0:
489,258,308716,1,10,0:0:0:0:
489,258,309069,6,0,L|476:147,1,104.499997209549,4|0,1:2|0:0,0:0:0:0:
315,266,309422,2,0,L|417:310,1,104.499997209549,10|0,0:2|0:0,0:0:0:0:
395,111,309775,2,0,L|305:177,1,104.499997209549,2|0,0:2|1:2,0:0:0:0:
489,258,310128,1,10,0:2:0:0:
445,60,310305,6,0,P|396:37|348:57,2,104.499997209549,2|0|0,1:2|1:2|0:0,0:0:0:0:
349,164,310834,2,0,P|398:187|446:167,1,104.499997209549,10|0,0:2|0:0,0:0:0:0:
445,40,311187,2,0,P|396:17|348:37,1,104.499997209549,2|0,0:2|1:2,0:0:0:0:
279,200,311540,1,10,0:2:0:0:
266,26,311716,6,0,L|255:146,2,104.499997209549,2|0|0,0:2|1:2|0:0,0:0:0:0:
129,250,312246,2,0,L|119:145,1,104.499997209549,10|0,0:2|0:0,0:0:0:0:
250,22,312599,2,0,L|239:142,1,104.499997209549,2|0,0:2|1:2,0:0:0:0:
216,260,312952,1,10,0:2:0:0:
119,145,313128,6,0,B|103:98|103:98|124:48,2,104.499997209549,2|0|0,1:2|1:2|0:0,0:0:0:0:
281,152,313658,2,0,B|248:109|248:109|199:100,1,104.499997209549,10|0,0:2|0:0,0:0:0:0:
111,235,314010,2,0,B|164:228|164:228|197:190,1,104.499997209549,2|0,0:2|1:2,0:0:0:0:
124,48,314363,1,10,0:2:0:0:
294,191,314540,6,0,L|406:204,2,104.499997209549,2|0|0,0:2|1:2|0:0,0:0:0:0:
403,34,315069,2,0,L|335:124,1,104.499997209549,10|0,0:2|0:0,0:0:0:0:
484,206,315422,2,0,L|439:102,1,104.499997209549,2|0,0:2|1:2,0:0:0:0:
288,44,315775,1,10,0:2:0:0:
397,203,315952,6,0,L|388:307,2,104.499997209549,2|0|0,1:2|1:2|0:0,0:0:0:0:
223,160,316481,2,0,L|308:219,1,104.499997209549,10|0,0:2|0:0,0:0:0:0:
432,89,316834,2,0,L|337:133,1,104.499997209549,2|0,0:2|1:2,0:0:0:0:
202,22,317187,1,10,0:2:0:0:
69,230,317363,6,0,P|118:243|164:222,2,104.499997209549,2|0|0,0:2|1:2|0:0,0:0:0:0:
243,276,317893,2,0,P|285:305|297:360,1,104.499997209549,10|0,0:2|0:0,0:0:0:0:
251,182,318246,2,0,P|255:130|296:92,1,104.499997209549,2|0,0:2|1:2,0:0:0:0:
165,222,318599,1,10,0:2:0:0:
331,167,318775,6,0,L|437:182,2,104.499997209549,2|0|0,1:2|1:2|0:0,0:0:0:0:
243,276,319305,2,0,L|177:360,1,104.499997209549,10|0,0:2|0:0,0:0:0:0:
192,145,319658,2,0,L|151:45,1,104.499997209549,2|0,0:2|1:2,0:0:0:0:
322,251,320010,1,10,0:2:0:0:
126,206,320187,1,2,0:2:0:0:
360,176,320363,6,0,B|409:214|409:214|394:325,1,156.749995814324,4|0,1:2|0:0,0:0:0:0:
392,344,320716,2,0,P|436:328|496:330,1,104.499997209549,10|0,0:2|0:0,0:0:0:0:
322,251,321069,2,0,P|270:253|220:236,1,104.499997209549,2|0,0:2|1:2,0:0:0:0:
74,148,321422,1,10,0:2:0:0:
140,319,321599,6,0,P|139:271|148:204,2,104.499997209549,2|0|0,1:2|1:2|0:0,0:0:0:0:
300,114,322128,2,0,P|258:138|196:164,1,104.499997209549,10|0,0:2|0:0,0:0:0:0:
43,78,322481,2,0,P|85:101|138:142,1,104.499997209549,2|0,0:2|1:2,0:0:0:0:
244,271,322834,1,10,0:2:0:0:
283,59,323010,6,0,B|235:42|235:42|186:63,2,104.499997209549,2|0|0,0:2|1:2|0:0,0:0:0:0:
289,219,323540,2,0,B|247:187|247:187|238:137,1,104.499997209549,10|0,0:2|0:0,0:0:0:0:
374,52,323893,2,0,B|367:104|367:104|322:143,1,104.499997209549,2|0,0:2|1:2,0:0:0:0:
160,180,324246,1,10,0:2:0:0:
186,63,324422,6,0,B|235:42|235:42|283:59,2,104.499997209549,2|0|0,1:2|1:2|0:0,0:0:0:0:
328,138,324952,2,0,B|367:104|367:104|374:52,1,104.499997209549,10|0,0:2|0:0,0:0:0:0:
238,137,325305,2,0,B|247:187|247:187|289:219,1,104.499997209549,2|0,0:2|1:2,0:0:0:0:
450,93,325658,1,10,0:2:0:0:
488,279,325834,6,0,P|440:298|385:278,2,104.499997209549,2|0|0,0:2|1:2|0:0,0:0:0:0:
316,121,326363,2,0,P|356:153|366:210,1,104.499997209549,10|0,0:2|0:0,0:0:0:0:
266,349,326716,2,0,P|273:297|318:260,1,104.499997209549,2|0,0:2|1:2,0:0:0:0:
467,201,327069,1,10,0:2:0:0:
263,184,327246,6,0,L|157:194,2,104.499997209549,2|0|0,1:2|1:2|0:0,0:0:0:0:
133,3,327775,2,0,L|194:89,1,104.499997209549,10|0,0:2|0:0,0:0:0:0:
42,207,328128,2,0,L|86:110,1,104.499997209549,2|0,0:2|1:2,0:0:0:0:
233,8,328481,1,10,0:2:0:0:
86,112,328658,6,0,L|25:26,2,104.499997209549,2|0|0,0:2|1:2|0:0,0:0:0:0:
291,52,329187,2,0,L|184:61,1,104.499997209549,10|0,0:2|0:0,0:0:0:0:
135,269,329540,2,0,L|179:172,1,104.499997209549,2|0,0:2|1:2,0:0:0:0:
115,11,329893,1,10,0:2:0:0:
266,144,330069,6,0,L|370:134,2,104.499997209549,2|0|0,1:2|1:2|0:0,0:0:0:0:
316,349,330599,2,0,L|255:263,1,104.499997209549,10|0,0:2|0:0,0:0:0:0:
469,204,330952,2,0,L|425:299,1,104.499997209549,2|0,0:2|1:2,0:0:0:0:
266,144,331305,1,10,0:2:0:0:
370,134,331481,1,2,0:2:0:0:
255,263,331658,6,0,P|174:247|91:236,1,156.749995814324,4|0,1:2|0:0,0:0:0:0:
103,240,332010,2,0,P|150:218|196:176,1,104.499997209549,10|0,0:2|0:0,0:0:0:0:
124,86,332363,2,0,P|77:108|31:150,1,104.499997209549,2|0,0:2|1:2,0:0:0:0:
232,54,332716,1,10,0:2:0:0:
189,183,332893,6,0,P|234:180|293:172,2,104.499997209549,2|0|0,1:2|1:2|0:0,0:0:0:0:
362,3,333422,2,0,P|342:43|319:98,1,104.499997209549,10|0,0:2|0:0,0:0:0:0:
431,242,333775,2,0,P|405:204|369:157,1,104.499997209549,2|0,0:2|1:2,0:0:0:0:
247,27,334128,1,10,0:2:0:0:
292,172,334305,6,0,L|313:283,2,104.499997209549,2|0|0,0:2|1:2|0:0,0:0:0:0:
176,160,334834,2,0,L|261:86,1,104.499997209549,10|0,0:2|0:0,0:0:0:0:
224,267,335187,2,0,L|117:229,1,104.499997209549,2|0,0:2|1:2,0:0:0:0:
292,172,335540,1,10,0:2:0:0:
359,328,335716,6,0,P|307:325|260:346,2,104.499997209549,2|0|0,1:2|1:2|0:0,0:0:0:0:
498,373,336246,2,0,P|453:337|431:290,1,104.499997209549,10|0,0:2|0:0,0:0:0:0:
403,154,336599,2,0,P|394:210|364:252,1,104.499997209549,2|0,0:2|1:2,0:0:0:0:
336,86,336952,1,10,0:2:0:0:
490,179,337128,6,0,L|479:291,2,104.499997209549,2|0|0,0:2|1:2|0:0,0:0:0:0:
313,252,337658,2,0,L|407:208,1,104.499997209549,10|0,0:2|0:0,0:0:0:0:
466,368,338010,2,0,L|380:308,1,104.499997209549,2|0,0:2|1:2,0:0:0:0:
248,193,338363,1,10,0:2:0:0:
407,208,338540,6,0,L|398:312,2,104.499997209549,2|0|0,1:2|1:2|0:0,0:0:0:0:
347,138,339069,2,0,L|442:94,1,104.499997209549,10|0,0:2|0:0,0:0:0:0:
318,224,339422,2,0,L|233:165,1,104.499997209549,2|0,0:2|1:2,0:0:0:0:
102,66,339775,1,10,0:2:0:0:
292,2,339952,6,0,P|291:53|257:91,2,104.499997209549,2|0|0,0:2|1:2|0:0,0:0:0:0:
102,180,340481,2,0,P|146:153|196:163,1,104.499997209549,10|0,0:2|0:0,0:0:0:0:
352,254,340834,2,0,P|307:228|290:180,1,104.499997209549,2|0,0:2|1:2,0:0:0:0:
217,25,341187,1,10,0:2:0:0:
160,235,341363,6,0,L|96:318,2,104.499997209549,2|0|0,1:2|1:2|0:0,0:0:0:0:
108,104,341893,2,0,L|69:8,1,104.499997209549,10|0,0:2|0:0,0:0:0:0:
247,126,342246,2,0,L|351:141,1,104.499997209549,2|0,0:2|1:2,0:0:0:0:
217,25,342599,1,10,0:2:0:0:
159,234,342775,1,2,0:2:0:0:
351,141,342952,6,0,B|359:215|359:215|355:219|355:219|365:304,1,156.749995814324,4|0,1:2|0:0,0:0:0:0:
325,364,343305,2,0,B|369:338|369:338|440:361,1,104.499997209549,10|0,0:2|0:0,0:0:0:0:
253,243,343658,2,0,B|202:259|202:259|158:233,1,104.499997209549,2|0,0:2|1:2,0:0:0:0:
219,103,344010,1,10,0:2:0:0:
345,245,344187,6,0,P|344:197|353:130,2,104.499997209549,2|0|0,1:2|1:2|0:0,0:0:0:0:
510,49,344716,2,0,P|468:73|406:99,1,104.499997209549,10|0,0:2|0:0,0:0:0:0:
258,4,345069,2,0,P|300:27|353:68,1,104.499997209549,2|0,0:2|1:2,0:0:0:0:
440,194,345422,1,10,0:2:0:0:
247,210,345599,6,0,B|229:162|229:162|250:113,2,104.499997209549,2|0|0,0:2|1:2|0:0,0:0:0:0:
408,213,346128,2,0,B|375:170|375:170|324:162,1,104.499997209549,10|0,0:2|0:0,0:0:0:0:
242,301,346481,2,0,B|294:293|294:293|327:254,1,104.499997209549,2|0,0:2|1:2,0:0:0:0:
432,109,346834,1,10,0:2:0:0:
250,113,347010,6,0,B|229:162|229:162|247:210,2,104.499997209549,2|0|0,1:2|1:2|0:0,0:0:0:0:
327,254,347540,2,0,B|294:293|294:293|242:301,1,104.499997209549,10|0,0:2|0:0,0:0:0:0:
324,162,347893,2,0,B|375:170|375:170|407:211,1,104.499997209549,2|0,0:2|1:2,0:0:0:0:
273,374,348246,1,10,0:2:0:0:
458,274,348422,6,0,P|410:293|355:273,2,104.499997209549,2|0|0,0:2|1:2|0:0,0:0:0:0:
286,116,348952,2,0,P|326:148|336:205,1,104.499997209549,10|0,0:2|0:0,0:0:0:0:
236,344,349305,2,0,P|243:292|288:255,1,104.499997209549,2|0,0:2|1:2,0:0:0:0:
439,186,349658,1,10,0:2:0:0:
315,329,349834,6,0,L|419:319,2,104.499997209549,2|0|0,1:2|1:2|0:0,0:0:0:0:
213,245,350363,2,0,L|169:340,1,104.499997209549,10|0,0:2|0:0,0:0:0:0:
337,198,350716,2,0,L|276:112,1,104.499997209549,2|0,0:2|1:2,0:0:0:0:
315,329,351069,1,10,0:2:0:0:
439,186,351246,6,0,P|452:132|427:80,2,104.499997209549,2|0|0,0:2|1:2|0:0,0:0:0:0:
249,153,351775,2,0,P|289:191|346:195,1,104.499997209549,10|0,0:2|0:0,0:0:0:0:
372,4,352128,2,0,P|318:19|286:67,1,104.499997209549,2|0,0:2|1:2,0:0:0:0:
439,186,352481,1,10,0:2:0:0:
267,280,352658,6,0,L|371:290,2,104.499997209549,2|0|0,1:2|1:2|0:0,0:0:0:0:
149,233,353187,2,0,L|88:318,1,104.499997209549,10|0,0:2|0:0,0:0:0:0:
249,153,353540,2,0,L|205:57,1,104.499997209549,2|0,0:2|1:2,0:0:0:0:
197,319,353893,1,10,0:2:0:0:
336,197,354069,1,2,0:2:0:0:
336,197,354246,5,4,0:0:0:0:
256,192,354334,12,0,359452,0:0:0:0:
