osu file format v14

[General]
AudioFilename: audio.mp3
AudioLeadIn: 0
PreviewTime: 52737
Countdown: 0
SampleSet: None
StackLeniency: 0.7
Mode: 3
LetterboxInBreaks: 0
SpecialStyle: 1
WidescreenStoryboard: 1

[Editor]
DistanceSpacing: 1.8
BeatDivisor: 4
GridSize: 4
TimelineZoom: 1

[Metadata]
Title:Crystal Cave
TitleUnicode:Crystal Cave
Artist:Panda Eyes
ArtistUnicode:Panda Eyes
Creator:DanielDimitrov
Version:The Crystal
Source:Youtube
Tags:
BeatmapID:1165242
BeatmapSetID:550143

[Difficulty]
HPDrainRate:6
CircleSize:4
OverallDifficulty:8
ApproachRate:5
SliderMultiplier:1.4
SliderTickRate:1

[Events]
//Background and Video events
0,0,"bg.jpg",0,0
//Break Periods
//Storyboard Layer 0 (Background)
//Storyboard Layer 1 (Fail)
//Storyboard Layer 2 (Pass)
//Storyboard Layer 3 (Foreground)
//Storyboard Sound Samples

[TimingPoints]
374,545.454545454546,4,3,0,69,1,0
51510,-133.333333333333,4,3,0,69,0,0
51783,-100,4,3,0,69,0,0
51919,-100,4,3,0,69,0,0
52055,-333.333333333333,4,3,0,69,0,0
52192,-133.333333333333,4,3,0,69,0,1
52601,-100,4,3,0,69,0,1
52737,-90.9090909090909,4,3,0,69,0,1
105101,-100,4,3,0,69,0,0
138783,-333.333333333333,4,3,0,69,0,0
138919,-100,4,3,0,69,0,0
139737,-200,4,3,0,69,0,0
140010,-200,4,3,0,69,0,0
140146,-200,4,3,0,69,0,0
140283,-100,4,3,0,69,0,0
140845,-66.6666666666667,4,3,0,69,0,0

[HitObjects]
460,192,374,128,0,2555:0:0:0:0:
153,192,2555,128,0,4737:0:0:0:0:
320,192,4737,128,0,9101:0:0:0:0:
64,192,6919,128,0,11283:0:0:0:0:
448,192,9101,1,0,0:0:0:0:
448,192,11283,128,0,13464:0:0:0:0:
320,192,11828,128,0,12101:0:0:0:0:
192,192,12101,128,0,12374:0:0:0:0:
320,192,12374,128,0,12646:0:0:0:0:
192,192,12646,1,0,0:0:0:0:
64,192,12919,1,0,0:0:0:0:
192,192,13192,1,0,0:0:0:0:
320,192,13464,128,0,14010:0:0:0:0:
64,192,14010,1,0,0:0:0:0:
192,192,14283,1,0,0:0:0:0:
64,192,14555,1,0,0:0:0:0:
192,192,14828,1,0,0:0:0:0:
192,192,15101,1,0,0:0:0:0:
448,192,15374,1,0,0:0:0:0:
320,192,15646,1,0,0:0:0:0:
448,192,15919,1,0,0:0:0:0:
64,192,16192,1,0,0:0:0:0:
448,192,16464,1,0,0:0:0:0:
192,192,16737,128,0,17828:0:0:0:0:
320,192,17828,1,0,0:0:0:0:
320,192,18101,1,0,0:0:0:0:
448,192,18374,1,0,0:0:0:0:
320,192,18646,1,0,0:0:0:0:
64,192,18919,1,0,0:0:0:0:
448,192,19192,1,0,0:0:0:0:
192,192,19464,1,0,0:0:0:0:
448,192,19737,1,0,0:0:0:0:
320,192,20010,1,0,0:0:0:0:
192,192,20283,1,0,0:0:0:0:
448,192,20555,1,0,0:0:0:0:
448,192,20828,1,0,0:0:0:0:
192,192,21101,1,0,0:0:0:0:
320,192,21374,1,0,0:0:0:0:
192,192,21646,1,0,0:0:0:0:
448,192,21919,1,0,0:0:0:0:
192,192,22192,1,0,0:0:0:0:
64,192,22464,128,0,22737:0:0:0:0:
448,192,22737,128,0,23010:0:0:0:0:
320,192,23010,1,0,0:0:0:0:
192,192,23283,1,0,0:0:0:0:
320,192,23555,1,0,0:0:0:0:
192,192,23828,1,0,0:0:0:0:
320,192,24101,1,0,0:0:0:0:
448,192,24374,1,0,0:0:0:0:
448,192,24646,128,0,24919:0:0:0:0:
192,192,24919,128,0,25192:0:0:0:0:
448,192,25192,128,0,25464:0:0:0:0:
192,192,25464,128,0,25737:0:0:0:0:
320,192,25737,128,0,26010:0:0:0:0:
192,192,26010,1,0,0:0:0:0:
192,192,26283,1,0,0:0:0:0:
64,192,26555,5,0,0:0:0:0:
64,192,26828,1,0,0:0:0:0:
64,192,27101,128,0,27374:0:0:0:0:
448,192,27101,128,0,27374:0:0:0:0:
320,192,27374,128,0,27646:0:0:0:0:
192,192,27646,128,0,27919:0:0:0:0:
64,192,27919,128,0,28192:0:0:0:0:
448,192,28192,128,0,28464:0:0:0:0:
192,192,28192,128,0,28464:0:0:0:0:
320,192,28464,1,0,0:0:0:0:
320,192,28737,1,0,0:0:0:0:
192,192,29010,1,0,0:0:0:0:
320,192,29283,1,0,0:0:0:0:
192,192,29555,1,0,0:0:0:0:
448,192,29828,1,0,0:0:0:0:
448,192,30101,1,0,0:0:0:0:
320,192,30374,1,0,0:0:0:0:
192,192,30646,1,0,0:0:0:0:
192,192,30919,1,0,0:0:0:0:
320,192,31192,128,0,31464:0:0:0:0:
192,192,31464,128,0,31737:0:0:0:0:
320,192,31737,128,0,32010:0:0:0:0:
64,192,32010,128,0,32555:0:0:0:0:
448,192,32283,128,0,32555:0:0:0:0:
192,192,32555,1,0,0:0:0:0:
192,192,32828,1,0,0:0:0:0:
448,192,33101,1,0,0:0:0:0:
192,192,33374,1,0,0:0:0:0:
320,192,33646,1,0,0:0:0:0:
192,192,33919,1,0,0:0:0:0:
320,192,34192,1,0,0:0:0:0:
192,192,34464,128,0,35010:0:0:0:0:
64,192,35283,5,0,0:0:0:0:
320,192,35283,128,0,35555:0:0:0:0:
192,192,35555,128,0,35828:0:0:0:0:
448,192,35828,128,0,36101:0:0:0:0:
64,192,36101,128,0,36374:0:0:0:0:
320,192,36374,1,0,0:0:0:0:
448,192,36374,128,0,36646:0:0:0:0:
192,192,36646,128,0,36919:0:0:0:0:
64,192,36919,128,0,37192:0:0:0:0:
320,192,37192,128,0,37464:0:0:0:0:
64,192,37464,128,0,37737:0:0:0:0:
192,192,37464,1,0,0:0:0:0:
448,192,37737,128,0,38010:0:0:0:0:
64,192,38010,128,0,38283:0:0:0:0:
448,192,38283,128,0,38555:0:0:0:0:
64,192,38555,128,0,38828:0:0:0:0:
448,192,38828,1,0,0:0:0:0:
448,192,39101,1,0,0:0:0:0:
448,192,39374,1,0,0:0:0:0:
64,192,39646,1,0,0:0:0:0:
448,192,39646,1,0,0:0:0:0:
448,192,39919,128,0,40192:0:0:0:0:
64,192,40192,128,0,40464:0:0:0:0:
320,192,40464,128,0,40737:0:0:0:0:
192,192,40737,128,0,41010:0:0:0:0:
448,192,41010,1,0,0:0:0:0:
320,192,41146,1,0,0:0:0:0:
192,192,41283,128,0,41555:0:0:0:0:
448,192,41555,128,0,41828:0:0:0:0:
64,192,41828,128,0,42101:0:0:0:0:
448,192,42101,1,0,0:0:0:0:
320,192,42374,128,0,42646:0:0:0:0:
192,192,42646,128,0,42919:0:0:0:0:
320,192,42919,128,0,43192:0:0:0:0:
448,192,43192,1,0,0:0:0:0:
320,192,43464,1,0,0:0:0:0:
192,192,43737,1,0,0:0:0:0:
64,192,44010,1,0,0:0:0:0:
448,192,44010,1,0,0:0:0:0:
192,192,44283,1,0,0:0:0:0:
320,192,44283,1,0,0:0:0:0:
448,192,44555,1,0,0:0:0:0:
64,192,44555,1,0,0:0:0:0:
192,192,44828,1,0,0:0:0:0:
320,192,44828,1,0,0:0:0:0:
64,192,45101,1,0,0:0:0:0:
448,192,45101,1,0,0:0:0:0:
64,192,45374,1,0,0:0:0:0:
448,192,45374,1,0,0:0:0:0:
192,192,45646,1,0,0:0:0:0:
320,192,45646,1,0,0:0:0:0:
448,192,45919,1,0,0:0:0:0:
64,192,45919,1,0,0:0:0:0:
64,192,46192,1,0,0:0:0:0:
448,192,46192,1,0,0:0:0:0:
320,192,46464,1,0,0:0:0:0:
192,192,46464,1,0,0:0:0:0:
192,192,46737,1,0,0:0:0:0:
320,192,46737,1,0,0:0:0:0:
448,192,47010,1,0,0:0:0:0:
64,192,47010,1,0,0:0:0:0:
64,192,47283,128,0,47555:0:0:0:0:
448,192,47283,128,0,47555:0:0:0:0:
320,192,47555,128,0,47828:0:0:0:0:
192,192,47555,128,0,47828:0:0:0:0:
64,192,47828,128,0,48101:0:0:0:0:
448,192,47828,128,0,48101:0:0:0:0:
64,192,48374,1,0,0:0:0:0:
192,192,48510,128,0,48646:0:0:0:0:
320,192,48646,1,0,0:0:0:0:
448,192,48783,1,0,0:0:0:0:
320,192,48919,1,0,0:0:0:0:
192,192,49055,1,0,0:0:0:0:
64,192,49192,1,0,0:0:0:0:
192,192,49328,1,0,0:0:0:0:
320,192,49464,1,0,0:0:0:0:
448,192,49601,1,0,0:0:0:0:
320,192,49737,1,0,0:0:0:0:
192,192,49874,1,0,0:0:0:0:
64,192,50010,1,0,0:0:0:0:
320,192,50010,128,0,50283:0:0:0:0:
448,192,50283,1,0,0:0:0:0:
448,192,50555,1,0,0:0:0:0:
320,192,50692,1,0,0:0:0:0:
192,192,50828,1,0,0:0:0:0:
64,192,50964,1,0,0:0:0:0:
192,192,51101,1,0,0:0:0:0:
320,192,51237,1,0,0:0:0:0:
448,192,51374,1,0,0:0:0:0:
192,192,51646,1,0,0:0:0:0:
448,192,51919,1,0,0:0:0:0:
192,192,52192,128,0,52464:0:0:0:0:
64,192,52737,1,0,0:0:0:0:
448,192,52737,1,0,0:0:0:0:
64,192,53010,128,0,53283:0:0:0:0:
320,192,53010,128,0,53283:0:0:0:0:
448,192,53283,128,0,53555:0:0:0:0:
320,192,53555,128,0,53828:0:0:0:0:
192,192,53828,128,0,54101:0:0:0:0:
448,192,54101,128,0,54374:0:0:0:0:
64,192,54374,128,0,54919:0:0:0:0:
448,192,54646,128,0,55192:0:0:0:0:
192,192,54919,128,0,55192:0:0:0:0:
320,192,55192,128,0,55737:0:0:0:0:
448,192,55464,1,0,0:0:0:0:
64,192,55737,1,0,0:0:0:0:
448,192,56010,1,0,0:0:0:0:
64,192,56010,128,0,56555:0:0:0:0:
320,192,56283,1,0,0:0:0:0:
448,192,56555,128,0,56828:0:0:0:0:
192,192,56555,128,0,56828:0:0:0:0:
320,192,56828,128,0,57374:0:0:0:0:
64,192,57101,1,0,0:0:0:0:
448,192,57101,1,0,0:0:0:0:
192,192,57374,1,0,0:0:0:0:
64,192,57646,1,0,0:0:0:0:
448,192,57919,1,0,0:0:0:0:
64,192,57919,128,0,58192:0:0:0:0:
320,192,58192,128,0,58464:0:0:0:0:
448,192,58464,128,0,58737:0:0:0:0:
320,192,58737,1,0,0:0:0:0:
192,192,59010,1,0,0:0:0:0:
448,192,59010,1,0,0:0:0:0:
448,192,59283,1,0,0:0:0:0:
64,192,59283,128,0,59828:0:0:0:0:
448,192,59828,1,0,0:0:0:0:
320,192,59964,1,0,0:0:0:0:
192,192,60101,1,0,0:0:0:0:
192,192,60374,1,0,0:0:0:0:
192,192,60646,1,0,0:0:0:0:
320,192,60783,1,0,0:0:0:0:
448,192,60919,1,0,0:0:0:0:
448,192,61192,1,0,0:0:0:0:
448,192,61464,1,0,0:0:0:0:
64,192,61464,128,0,61737:0:0:0:0:
320,192,61737,128,0,62010:0:0:0:0:
64,192,62010,128,0,62283:0:0:0:0:
448,192,62283,1,0,0:0:0:0:
320,192,62555,1,0,0:0:0:0:
320,192,62828,1,0,0:0:0:0:
64,192,62828,1,0,0:0:0:0:
320,192,63101,1,0,0:0:0:0:
64,192,63374,1,0,0:0:0:0:
448,192,63374,1,0,0:0:0:0:
320,192,63646,128,0,63919:0:0:0:0:
64,192,63919,1,0,0:0:0:0:
448,192,64192,128,0,64464:0:0:0:0:
64,192,64192,1,0,0:0:0:0:
64,192,64464,1,0,0:0:0:0:
64,192,64737,1,0,0:0:0:0:
320,192,64737,128,0,65010:0:0:0:0:
192,192,65010,128,0,65555:0:0:0:0:
448,192,65010,128,0,65283:0:0:0:0:
320,192,65283,1,0,0:0:0:0:
448,192,65555,1,0,0:0:0:0:
192,192,65828,1,0,0:0:0:0:
448,192,65828,1,0,0:0:0:0:
64,192,66101,1,0,0:0:0:0:
192,192,66237,1,0,0:0:0:0:
320,192,66374,1,0,0:0:0:0:
448,192,66646,1,0,0:0:0:0:
320,192,66783,1,0,0:0:0:0:
192,192,66919,128,0,67192:0:0:0:0:
448,192,67192,128,0,67464:0:0:0:0:
64,192,67464,128,0,67737:0:0:0:0:
320,192,67737,128,0,68010:0:0:0:0:
448,192,68010,128,0,68828:0:0:0:0:
192,192,68283,128,0,68555:0:0:0:0:
320,192,68555,128,0,69101:0:0:0:0:
64,192,68828,1,0,0:0:0:0:
192,192,69101,1,0,0:0:0:0:
320,192,69374,1,0,0:0:0:0:
64,192,69374,1,0,0:0:0:0:
320,192,69646,1,0,0:0:0:0:
192,192,69919,1,0,0:0:0:0:
448,192,70055,1,0,0:0:0:0:
192,192,70192,1,0,0:0:0:0:
64,192,70464,128,0,71010:0:0:0:0:
192,192,70464,1,0,0:0:0:0:
448,192,70737,1,0,0:0:0:0:
448,192,71010,128,0,71555:0:0:0:0:
192,192,71283,1,0,0:0:0:0:
192,192,71555,1,0,0:0:0:0:
448,192,71828,128,0,72101:0:0:0:0:
64,192,72101,128,0,72646:0:0:0:0:
448,192,72374,1,0,0:0:0:0:
448,192,72646,1,0,0:0:0:0:
192,192,72919,1,0,0:0:0:0:
448,192,73192,128,0,73737:0:0:0:0:
192,192,73464,1,0,0:0:0:0:
64,192,73464,1,0,0:0:0:0:
320,192,73737,1,0,0:0:0:0:
192,192,74010,1,0,0:0:0:0:
64,192,74010,1,0,0:0:0:0:
320,192,74283,1,0,0:0:0:0:
448,192,74283,1,0,0:0:0:0:
320,192,74555,128,0,75101:0:0:0:0:
192,192,74555,128,0,75101:0:0:0:0:
64,192,75101,1,0,0:0:0:0:
448,192,75101,1,0,0:0:0:0:
448,192,75374,1,0,0:0:0:0:
64,192,75374,1,0,0:0:0:0:
192,192,75646,1,0,0:0:0:0:
320,192,75646,1,0,0:0:0:0:
64,192,75919,1,0,0:0:0:0:
64,192,76192,1,0,0:0:0:0:
320,192,76192,128,0,76737:0:0:0:0:
448,192,76464,1,0,0:0:0:0:
192,192,76737,1,0,0:0:0:0:
448,192,77010,128,0,77555:0:0:0:0:
192,192,77283,1,0,0:0:0:0:
320,192,77283,1,0,0:0:0:0:
448,192,77828,1,0,0:0:0:0:
64,192,77828,1,0,0:0:0:0:
320,192,78101,1,0,0:0:0:0:
320,192,78374,1,0,0:0:0:0:
192,192,78646,1,0,0:0:0:0:
448,192,78646,128,0,79192:0:0:0:0:
192,192,78919,1,0,0:0:0:0:
64,192,78919,1,0,0:0:0:0:
192,192,79192,1,0,0:0:0:0:
320,192,79464,1,0,0:0:0:0:
192,192,79464,1,0,0:0:0:0:
448,192,79737,1,0,0:0:0:0:
448,192,80010,1,0,0:0:0:0:
320,192,80146,1,0,0:0:0:0:
192,192,80283,1,0,0:0:0:0:
448,192,80555,1,0,0:0:0:0:
64,192,80555,128,0,80828:0:0:0:0:
448,192,80828,1,0,0:0:0:0:
448,192,81101,128,0,81646:0:0:0:0:
64,192,81374,128,0,81919:0:0:0:0:
320,192,81646,128,0,82192:0:0:0:0:
192,192,81919,128,0,82464:0:0:0:0:
448,192,82192,1,0,0:0:0:0:
448,192,82464,1,0,0:0:0:0:
448,192,82737,1,0,0:0:0:0:
448,192,83010,1,0,0:0:0:0:
320,192,83283,1,0,0:0:0:0:
192,192,83283,1,0,0:0:0:0:
64,192,83555,1,0,0:0:0:0:
192,192,83692,1,0,0:0:0:0:
320,192,83828,128,0,84374:0:0:0:0:
192,192,84101,1,0,0:0:0:0:
448,192,84237,1,0,0:0:0:0:
192,192,84374,1,0,0:0:0:0:
64,192,84646,1,0,0:0:0:0:
448,192,84646,128,0,85192:0:0:0:0:
320,192,84919,1,0,0:0:0:0:
192,192,85055,1,0,0:0:0:0:
64,192,85192,1,0,0:0:0:0:
320,192,85464,1,0,0:0:0:0:
64,192,85737,128,0,86828:0:0:0:0:
448,192,85737,128,0,86283:0:0:0:0:
192,192,86010,128,0,86555:0:0:0:0:
320,192,86283,128,0,86828:0:0:0:0:
448,192,86555,128,0,86828:0:0:0:0:
192,192,86828,128,0,87374:0:0:0:0:
448,192,87101,1,0,0:0:0:0:
64,192,87101,1,0,0:0:0:0:
448,192,87374,1,0,0:0:0:0:
448,192,87646,1,0,0:0:0:0:
64,192,87646,1,0,0:0:0:0:
64,192,87919,128,0,88464:0:0:0:0:
192,192,88055,1,0,0:0:0:0:
320,192,88192,1,0,0:0:0:0:
448,192,88328,128,0,88874:0:0:0:0:
320,192,88464,1,0,0:0:0:0:
192,192,88601,1,0,0:0:0:0:
64,192,88737,1,0,0:0:0:0:
64,192,89010,1,0,0:0:0:0:
64,192,89283,1,0,0:0:0:0:
448,192,89283,128,0,89828:0:0:0:0:
320,192,89555,1,0,0:0:0:0:
192,192,89555,1,0,0:0:0:0:
64,192,89828,1,0,0:0:0:0:
320,192,89828,128,0,90374:0:0:0:0:
64,192,90374,1,0,0:0:0:0:
192,192,90646,1,0,0:0:0:0:
320,192,90919,1,0,0:0:0:0:
64,192,90919,1,0,0:0:0:0:
192,192,91192,1,0,0:0:0:0:
448,192,91192,1,0,0:0:0:0:
64,192,91464,1,0,0:0:0:0:
320,192,91464,1,0,0:0:0:0:
448,192,91737,128,0,92283:0:0:0:0:
192,192,92010,128,0,92555:0:0:0:0:
448,192,92555,1,0,0:0:0:0:
64,192,92555,1,0,0:0:0:0:
192,192,92828,1,0,0:0:0:0:
320,192,92964,1,0,0:0:0:0:
448,192,93101,1,0,0:0:0:0:
64,192,93101,128,0,93646:0:0:0:0:
448,192,93374,128,0,93646:0:0:0:0:
192,192,93646,128,0,93919:0:0:0:0:
320,192,93646,128,0,93919:0:0:0:0:
64,192,93919,1,0,0:0:0:0:
448,192,93919,1,0,0:0:0:0:
448,192,94192,1,0,0:0:0:0:
64,192,94192,1,0,0:0:0:0:
192,192,94192,128,0,94737:0:0:0:0:
320,192,94192,128,0,94737:0:0:0:0:
448,192,94737,1,0,0:0:0:0:
448,192,95010,1,0,0:0:0:0:
320,192,95283,1,0,0:0:0:0:
192,192,95555,1,0,0:0:0:0:
448,192,95828,1,0,0:0:0:0:
64,192,95828,1,0,0:0:0:0:
192,192,96101,128,0,96646:0:0:0:0:
448,192,96374,128,0,96919:0:0:0:0:
320,192,96646,1,0,0:0:0:0:
64,192,96919,128,0,97464:0:0:0:0:
320,192,97192,1,0,0:0:0:0:
448,192,97192,1,0,0:0:0:0:
320,192,97464,1,0,0:0:0:0:
320,192,97737,1,0,0:0:0:0:
320,192,98010,1,0,0:0:0:0:
64,192,98010,128,0,98555:0:0:0:0:
448,192,98283,128,0,98828:0:0:0:0:
192,192,98555,1,0,0:0:0:0:
320,192,98555,1,0,0:0:0:0:
64,192,98828,1,0,0:0:0:0:
320,192,98828,128,0,99374:0:0:0:0:
192,192,99101,1,0,0:0:0:0:
64,192,99374,1,0,0:0:0:0:
192,192,99646,1,0,0:0:0:0:
448,192,99919,1,0,0:0:0:0:
192,192,100192,1,0,0:0:0:0:
448,192,100464,1,0,0:0:0:0:
64,192,100737,1,0,0:0:0:0:
448,192,100737,1,0,0:0:0:0:
64,192,101010,128,0,102101:0:0:0:0:
448,192,101010,128,0,101555:0:0:0:0:
192,192,101283,128,0,101828:0:0:0:0:
320,192,101555,128,0,102101:0:0:0:0:
448,192,101828,128,0,102374:0:0:0:0:
192,192,102101,128,0,102646:0:0:0:0:
64,192,102374,1,0,0:0:0:0:
448,192,102646,1,0,0:0:0:0:
320,192,102919,1,0,0:0:0:0:
64,192,103192,128,0,103737:0:0:0:0:
320,192,103464,128,0,104010:0:0:0:0:
64,192,104010,5,0,0:0:0:0:
64,192,104283,1,0,0:0:0:0:
320,192,104555,1,0,0:0:0:0:
448,192,104828,1,0,0:0:0:0:
448,192,105101,128,0,107283:0:0:0:0:
64,192,107283,128,0,111646:0:0:0:0:
448,192,109464,128,0,113828:0:0:0:0:
192,192,111646,128,0,116010:0:0:0:0:
320,192,113828,1,0,0:0:0:0:
448,192,116010,128,0,118192:0:0:0:0:
192,192,116555,128,0,116828:0:0:0:0:
320,192,116828,128,0,117101:0:0:0:0:
192,192,117101,128,0,117919:0:0:0:0:
192,192,118192,1,0,0:0:0:0:
64,192,118192,128,0,120374:0:0:0:0:
448,192,118737,128,0,119010:0:0:0:0:
320,192,119010,128,0,119283:0:0:0:0:
448,192,119283,128,0,119555:0:0:0:0:
192,192,119555,1,0,0:0:0:0:
448,192,119828,1,0,0:0:0:0:
448,192,120101,1,0,0:0:0:0:
448,192,120374,1,0,0:0:0:0:
192,192,120374,128,0,122555:0:0:0:0:
448,192,122555,1,0,0:0:0:0:
64,192,122555,1,0,0:0:0:0:
64,192,122828,1,0,0:0:0:0:
448,192,123101,128,0,123374:0:0:0:0:
64,192,123374,128,0,123646:0:0:0:0:
448,192,123646,128,0,124464:0:0:0:0:
320,192,123783,128,0,124055:0:0:0:0:
64,192,123919,1,0,0:0:0:0:
192,192,124055,1,0,0:0:0:0:
64,192,124192,1,0,0:0:0:0:
64,192,124464,1,0,0:0:0:0:
320,192,124737,1,0,0:0:0:0:
320,192,125283,128,0,125555:0:0:0:0:
192,192,125555,128,0,125828:0:0:0:0:
320,192,125828,128,0,126101:0:0:0:0:
448,192,126101,128,0,126646:0:0:0:0:
64,192,126101,128,0,126646:0:0:0:0:
64,192,126919,1,0,0:0:0:0:
448,192,126919,1,0,0:0:0:0:
448,192,127192,128,0,127737:0:0:0:0:
192,192,127464,128,0,128010:0:0:0:0:
320,192,127737,1,0,0:0:0:0:
448,192,128010,1,0,0:0:0:0:
64,192,128010,128,0,128828:0:0:0:0:
192,192,128283,128,0,129101:0:0:0:0:
320,192,128555,128,0,128828:0:0:0:0:
448,192,128828,1,0,0:0:0:0:
448,192,129101,1,0,0:0:0:0:
64,192,129101,1,0,0:0:0:0:
448,192,129374,1,0,0:0:0:0:
320,192,129646,1,0,0:0:0:0:
192,192,129919,1,0,0:0:0:0:
64,192,130192,1,0,0:0:0:0:
448,192,130192,1,0,0:0:0:0:
320,192,130464,1,0,0:0:0:0:
192,192,130464,1,0,0:0:0:0:
64,192,130737,128,0,131283:0:0:0:0:
448,192,130737,128,0,131283:0:0:0:0:
192,192,131283,1,0,0:0:0:0:
320,192,131283,1,0,0:0:0:0:
64,192,131555,1,0,0:0:0:0:
448,192,131555,1,0,0:0:0:0:
192,192,131828,1,0,0:0:0:0:
320,192,131828,1,0,0:0:0:0:
192,192,132101,1,0,0:0:0:0:
320,192,132101,1,0,0:0:0:0:
64,192,132374,1,0,0:0:0:0:
448,192,132374,1,0,0:0:0:0:
192,192,132374,128,0,132919:0:0:0:0:
448,192,132646,1,0,0:0:0:0:
64,192,132646,1,0,0:0:0:0:
64,192,132919,1,0,0:0:0:0:
448,192,132919,1,0,0:0:0:0:
320,192,133192,128,0,133737:0:0:0:0:
192,192,133464,1,0,0:0:0:0:
64,192,133737,1,0,0:0:0:0:
192,192,134010,1,0,0:0:0:0:
448,192,134283,1,0,0:0:0:0:
192,192,134555,1,0,0:0:0:0:
448,192,134555,128,0,135374:0:0:0:0:
192,192,134828,1,0,0:0:0:0:
64,192,134828,128,0,135101:0:0:0:0:
192,192,135101,128,0,135374:0:0:0:0:
64,192,135646,1,0,0:0:0:0:
448,192,135646,1,0,0:0:0:0:
320,192,135919,1,0,0:0:0:0:
192,192,135919,1,0,0:0:0:0:
64,192,136192,1,0,0:0:0:0:
448,192,136192,1,0,0:0:0:0:
320,192,136464,1,0,0:0:0:0:
192,192,136464,1,0,0:0:0:0:
192,192,136737,5,0,0:0:0:0:
320,192,136737,1,0,0:0:0:0:
448,192,137010,1,0,0:0:0:0:
192,192,137010,1,0,0:0:0:0:
320,192,137283,1,0,0:0:0:0:
64,192,137283,1,0,0:0:0:0:
192,192,137555,1,0,0:0:0:0:
448,192,137555,1,0,0:0:0:0:
448,192,137828,5,0,0:0:0:0:
320,192,137964,1,0,0:0:0:0:
192,192,138101,1,0,0:0:0:0:
64,192,138237,1,0,0:0:0:0:
192,192,138374,1,0,0:0:0:0:
320,192,138510,1,0,0:0:0:0:
448,192,138646,1,0,0:0:0:0:
320,192,138783,1,0,0:0:0:0:
192,192,138919,128,0,139192:0:0:0:0:
64,192,139192,1,0,0:0:0:0:
448,192,139192,128,0,139737:0:0:0:0:
320,192,139464,128,0,139737:0:0:0:0:
64,192,140010,1,0,0:0:0:0:
192,192,140010,1,0,0:0:0:0:
448,192,140010,1,0,0:0:0:0:
64,192,140283,1,0,0:0:0:0:
320,192,140283,128,0,140555:0:0:0:0:
64,192,140555,1,0,0:0:0:0:
448,192,140828,128,0,141646:0:0:0:0:
320,192,141101,128,0,141919:0:0:0:0:
64,192,141101,128,0,141374:0:0:0:0:
64,192,141646,1,0,0:0:0:0:
448,192,141919,1,0,0:0:0:0:
64,192,141919,128,0,142737:0:0:0:0:
320,192,142192,1,0,0:0:0:0:
448,192,142464,1,0,0:0:0:0:
320,192,142737,1,0,0:0:0:0:
