osu file format v14

[General]
AudioFilename: Panda Eyes - Colorblind.mp3
AudioLeadIn: 0
PreviewTime: -1
Countdown: 1
SampleSet: Normal
StackLeniency: 0.7
Mode: 0
LetterboxInBreaks: 1
WidescreenStoryboard: 1

[Editor]
DistanceSpacing: 1.2
BeatDivisor: 4
GridSize: 4
TimelineZoom: 1

[Metadata]
Title:ColorBlind
TitleUnicode:ColorBlind
Artist:Panda Eyes
ArtistUnicode:Panda Eyes
Creator:Combistein
Version:Hard
Source:
Tags:
BeatmapID:806866
BeatmapSetID:358768

[Difficulty]
HPDrainRate:6
CircleSize:3
OverallDifficulty:5
ApproachRate:6
SliderMultiplier:1.8
SliderTickRate:1

[Events]
//Background and Video events
0,0,"Colorblind.jpg",0,0
//Break Periods
2,51665,63337
//Storyboard Layer 0 (Background)
//Storyboard Layer 1 (Fail)
//Storyboard Layer 2 (Pass)
//Storyboard Layer 3 (Foreground)
//Storyboard Sound Samples

[TimingPoints]
15108.5188223938,535.640540540539,4,1,0,100,1,0
77242,535.714285714286,4,1,0,100,1,0

[HitObjects]
392,104,16045,6,0,L|464:52,2,70
308,164,16849,1,0,0:0:0:0:
232,228,17117,1,0,0:0:0:0:
168,148,17384,5,0,0:0:0:0:
244,84,17652,1,8,0:0:0:0:
344,64,17920,2,0,P|384:72|408:112,1,70
444,200,18456,2,0,P|452:240|436:264,1,70,0|8,0:0|0:0,0:0:0:0:
352,312,18991,1,0,0:0:0:0:
256,316,19259,1,0,0:0:0:0:
184,256,19527,2,0,P|148:224|140:200,1,70,0|8,0:0|0:0,0:0:0:0:
128,116,20063,2,0,P|132:72|160:56,1,70
216,28,20598,1,0,0:0:0:0:
304,28,20866,1,8,0:0:0:0:
368,120,21134,2,0,L|408:80,2,35
448,192,21737,6,0,P|452:240|416:264,1,70,0|8,0:0|0:0,0:0:0:0:
328,320,22272,2,0,P|280:312|260:276,1,70
180,224,22808,1,0,0:0:0:0:
320,136,23076,1,8,0:0:0:0:
236,40,23343,1,0,0:0:0:0:
112,108,23611,1,0,0:0:0:0:
136,216,23879,2,0,P|160:176|188:164,1,70,0|8,0:0|0:0,0:0:0:0:
192,284,24415,2,0,P|208:244|248:228,1,70
256,332,24950,2,0,P|276:280|312:264,1,70,0|8,0:0|0:0,0:0:0:0:
396,304,25486,1,0,0:0:0:0:
448,168,25754,1,0,0:0:0:0:
392,92,26022,6,0,P|360:60|328:52,1,70,0|8,0:0|0:0,0:0:0:0:
340,160,26557,2,0,P|308:132|272:120,1,70
292,228,27093,2,0,P|260:192|216:188,1,70,0|8,0:0|0:0,0:0:0:0:
120,280,27629,1,0,0:0:0:0:
80,120,27896,1,0,0:0:0:0:
188,40,28164,6,0,L|208:132,1,70,0|8,0:0|0:0,0:0:0:0:
328,40,28700,2,0,L|304:132,1,70
256,192,29236,2,0,L|256:268,1,70,0|8,0:0|0:0,0:0:0:0:
348,192,29771,1,0,0:0:0:0:
164,192,30039,1,0,0:0:0:0:
112,84,30307,5,0,0:0:0:0:
256,168,30575,1,8,0:0:0:0:
252,48,30842,1,0,0:0:0:0:
168,140,31110,1,0,0:0:0:0:
256,224,31378,1,0,0:0:0:0:
120,224,31646,1,8,0:0:0:0:
176,36,32182,5,0,0:0:0:0:
348,108,32449,2,0,L|264:160,1,70
184,228,32985,1,0,0:0:0:0:
336,340,33253,2,0,P|384:312|392:280,1,70
420,152,33788,1,0,0:0:0:0:
256,328,34324,5,0,0:0:0:0:
348,316,34592,2,0,P|400:280|400:256,1,70,0|8,0:0|0:0,0:0:0:0:
464,212,35128,1,0,0:0:0:0:
440,88,35395,1,0,0:0:0:0:
360,32,35663,2,0,P|316:24|272:28,1,70,0|8,0:0|0:0,0:0:0:0:
164,320,36735,6,0,P|128:300|104:272,1,70,0|8,0:0|0:0,0:0:0:0:
56,212,37270,1,0,0:0:0:0:
76,96,37538,1,0,0:0:0:0:
152,32,37806,2,0,P|200:24|244:36,1,70,0|8,0:0|0:0,0:0:0:0:
220,340,38877,6,0,L|320:340,1,70,0|8,0:0|0:0,0:0:0:0:
292,192,39413,2,0,L|212:192,1,70
224,56,39948,2,0,L|296:56,1,70,0|8,0:0|0:0,0:0:0:0:
156,140,41020,5,0,0:0:0:0:
348,140,41287,1,8,0:0:0:0:
184,256,41555,1,0,0:0:0:0:
252,48,41823,1,0,0:0:0:0:
324,252,42091,1,0,0:0:0:0:
256,164,42359,1,8,0:0:0:0:
256,164,43162,5,0,0:0:0:0:
376,272,43430,2,0,P|408:228|408:192,1,70
256,164,43966,1,0,0:0:0:0:
104,136,44233,2,0,P|116:88|160:68,1,70
148,84,45305,5,0,0:0:0:0:
256,56,45573,2,0,B|288:80|272:128|272:128,2,70,8|0|0,0:0|0:0|0:0,0:0:0:0:
204,232,46376,1,0,0:0:0:0:
304,340,46644,1,8,0:0:0:0:
400,128,47179,5,0,0:0:0:0:
408,264,47447,2,0,P|408:308|376:332,1,70,0|8,0:0|0:0,0:0:0:0:
272,348,47983,1,0,0:0:0:0:
140,316,48251,1,0,0:0:0:0:
72,216,48519,2,0,P|72:152|88:132,1,70,0|8,0:0|0:0,0:0:0:0:
460,136,49322,5,0,0:0:0:0:
388,220,49590,1,0,0:0:0:0:
324,136,49858,1,8,0:0:0:0:
248,220,50126,1,0,0:0:0:0:
176,136,50393,1,0,0:0:0:0:
100,228,50661,1,0,0:0:0:0:
32,136,50929,1,8,0:0:0:0:
256,192,51465,5,0,0:0:0:0:
256,192,64387,12,0,68538,0:0:0:0:
256,192,68672,5,0,0:0:0:0:
256,192,70815,1,0,0:0:0:0:
256,192,72957,1,0,0:0:0:0:
256,192,75100,1,0,0:0:0:0:
128,8,77242,2,0,B|24:28|-28:164|36:232|96:272,1,315,8|0,0:0|2:0,0:0:0:0:
108,252,78313,2,0,B|188:244|216:208|176:156|124:140|112:92|160:44|232:28|252:16|256:28,1,315,0|0,0:0|2:0,0:0:0:0:
276,28,79384,2,0,B|352:32|328:112|248:144|308:200|352:244|280:256|324:300|368:292|368:292,1,315,0|0,0:0|2:0,0:0:0:0:
388,264,80456,2,0,P|452:244|376:288,1,315,0|0,0:0|2:0,0:0:0:0:
368,300,81527,1,0,0:0:0:0:
368,24,82063,1,0,0:0:0:0:
116,24,82599,1,0,0:0:0:0:
116,300,83134,1,0,0:0:0:0:
256,192,83670,12,0,84742,0:0:0:0:
420,72,85277,6,0,B|440:148|440:148|440:144,2,45
112,108,85813,2,0,B|64:168|56:240|96:264,1,157.5
120,280,86349,1,0,0:0:0:0:
400,288,86884,2,0,B|432:240|448:192|436:152|432:136,1,157.5
420,92,87420,1,0,0:0:0:0:
100,192,87956,1,0,0:0:0:0:
312,152,88224,1,0,0:0:0:0:
152,68,88492,1,0,0:0:0:0:
224,272,88759,1,0,0:0:0:0:
160,68,89027,2,0,B|248:48|312:128|320:160|328:176,1,180
184,88,90099,2,0,P|264:64|280:84,1,90
352,304,90634,1,0,0:0:0:0:
344,96,91170,2,0,P|392:104|392:164,1,90
144,304,91706,1,0,0:0:0:0:
192,104,92242,1,0,0:0:0:0:
360,304,92509,1,0,0:0:0:0:
236,84,92777,1,0,0:0:0:0:
304,336,93045,5,0,0:0:0:0:
300,68,93313,2,0,P|352:64|328:128,1,135
312,148,93849,2,0,P|284:204|360:208,1,157.5
376,200,94384,1,0,0:0:0:0:
