osu file format v14

[General]
AudioFilename: Panda Eyes - Colorblind.mp3
AudioLeadIn: 0
PreviewTime: -1
Countdown: 1
SampleSet: Normal
StackLeniency: 0.7
Mode: 0
LetterboxInBreaks: 1
WidescreenStoryboard: 0

[Editor]
DistanceSpacing: 1.2
BeatDivisor: 4
GridSize: 4
TimelineZoom: 1

[Metadata]
Title:ColorBlind
TitleUnicode:ColorBlind
Artist:Panda Eyes
ArtistUnicode:Panda Eyes
Creator:Combistein
Version:Easy
Source:
Tags:
BeatmapID:788903
BeatmapSetID:358768

[Difficulty]
HPDrainRate:3
CircleSize:3
OverallDifficulty:2
ApproachRate:3
SliderMultiplier:1.4
SliderTickRate:1

[Events]
//Background and Video events
0,0,"Colorblind.jpg",0,0
//Break Periods
2,51732,67232
//Storyboard Layer 0 (Background)
//Storyboard Layer 1 (Fail)
//Storyboard Layer 2 (Pass)
//Storyboard Layer 3 (Foreground)
//Storyboard Sound Samples

[TimingPoints]
15108.5188223938,535.640540540539,4,1,0,100,1,0

[HitObjects]
20,72,16179,6,0,B|68:16|132:-8|180:20|220:60|244:100|256:128,1,280
320,212,17786,1,8,0:0:0:0:
400,176,18322,2,0,L|464:40,1,140,0|8,0:0|0:0,0:0:0:0:
376,32,19393,2,0,L|228:36,1,140,0|8,0:0|0:0,0:0:0:0:
100,84,20464,1,0,0:0:0:0:
72,192,21000,1,8,0:0:0:0:
164,288,21536,6,0,L|308:284,1,140,0|8,0:0|0:0,0:0:0:0:
360,268,22607,1,0,0:0:0:0:
444,160,23143,1,8,0:0:0:0:
376,60,23678,2,0,L|224:44,1,140,0|8,0:0|0:0,0:0:0:0:
104,76,24750,1,0,0:0:0:0:
64,200,25285,1,8,0:0:0:0:
160,288,25821,6,0,L|216:152,1,140,0|8,0:0|0:0,0:0:0:0:
272,96,26892,1,0,0:0:0:0:
408,132,27428,1,8,0:0:0:0:
428,240,27963,2,0,B|420:296|384:328|328:320,1,140,0|8,0:0|0:0,0:0:0:0:
216,320,29035,2,0,P|184:296|200:204,1,140,0|8,0:0|0:0,0:0:0:0:
296,172,30106,6,0,B|360:180|400:212|400:264,1,140,0|8,0:0|0:0,0:0:0:0:
380,324,31177,2,0,P|296:320|252:280,1,140,0|8,0:0|0:0,0:0:0:0:
172,224,32249,1,0,0:0:0:0:
108,104,32784,1,8,0:0:0:0:
232,40,33320,1,0,0:0:0:0:
304,168,33855,1,8,0:0:0:0:
228,240,34391,6,0,L|100:320,1,140,0|8,0:0|0:0,0:0:0:0:
108,312,35462,1,0,0:0:0:0:
48,192,35998,1,8,0:0:0:0:
140,64,36534,2,0,L|284:72,1,140,0|8,0:0|0:0,0:0:0:0:
280,64,37605,1,0,0:0:0:0:
392,168,38141,1,8,0:0:0:0:
320,312,38676,6,0,L|160:324,1,140,0|8,0:0|0:0,0:0:0:0:
180,324,39747,1,0,0:0:0:0:
88,232,40283,1,8,0:0:0:0:
112,64,40819,2,0,L|260:68,1,140,0|8,0:0|0:0,0:0:0:0:
360,100,41890,1,0,0:0:0:0:
436,236,42426,1,8,0:0:0:0:
348,344,42961,6,0,B|272:320|244:280|256:240,1,140,0|8,0:0|0:0,0:0:0:0:
232,160,44033,1,0,0:0:0:0:
76,124,44568,1,8,0:0:0:0:
76,124,45104,2,0,L|156:248,1,140,0|8,0:0|0:0,0:0:0:0:
200,300,46175,2,0,L|324:216,1,140,0|8,0:0|0:0,0:0:0:0:
404,160,47246,5,0,0:0:0:0:
328,40,47782,1,8,0:0:0:0:
268,112,48318,2,0,L|168:216,1,140,0|8,0:0|0:0,0:0:0:0:
72,180,49389,1,0,0:0:0:0:
72,36,49925,1,8,0:0:0:0:
208,36,50460,1,0,0:0:0:0:
208,180,50996,1,8,0:0:0:0:
144,108,51532,5,0,0:0:0:0:
256,192,68672,5,0,0:0:0:0:
256,192,70815,1,0,0:0:0:0:
256,192,72957,1,0,0:0:0:0:
256,192,75100,1,0,0:0:0:0:
256,192,77242,5,0,0:0:0:0:
256,324,78314,1,0,0:0:0:0:
408,272,79385,1,0,0:0:0:0:
444,124,80456,1,0,0:0:0:0:
320,56,81527,5,0,0:0:0:0:
192,56,82063,1,0,0:0:0:0:
192,184,82599,1,0,0:0:0:0:
320,184,83134,1,0,0:0:0:0:
256,124,83670,1,0,0:0:0:0:
256,152,85277,2,0,L|256:200,2,35,8|8|8,0:0|0:0|0:0,0:0:0:0:
408,152,85813,5,0,0:0:0:0:
360,284,86348,2,0,L|196:304,1,140,8|0,0:0|0:0,0:0:0:0:
100,296,87419,1,8,0:0:0:0:
104,180,87955,2,0,L|120:32,1,140,0|8,0:0|0:0,0:0:0:0:
256,40,89026,1,0,0:0:0:0:
364,116,89562,6,0,B|396:172|400:208|380:248,1,140,8|0,0:0|0:0,0:0:0:0:
256,288,90633,1,8,0:0:0:0:
132,248,91169,2,0,P|112:192|148:92,1,140,0|8,0:0|0:0,0:0:0:0:
256,56,92240,1,0,0:0:0:0:
396,136,92776,1,8,0:0:0:0:
408,272,93312,2,0,P|336:288|272:248,1,140,0|8,0:0|0:0,0:0:0:0:
256,192,94383,5,0,0:0:0:0:
256,192,94918,2,0,B|180:200|128:196|108:180,1,140,8|0,0:0|0:0,0:0:0:0:
116,184,95990,2,0,B|80:140|64:108|80:76|96:56,1,140,8|0,0:0|0:0,0:0:0:0:
96,56,97061,2,0,P|160:40|240:40,1,140,8|0,0:0|0:0,0:0:0:0:
360,96,98132,1,8,0:0:0:0:
444,212,98668,5,0,0:0:0:0:
372,304,99204,2,0,P|292:320|224:304,1,140,8|0,0:0|0:0,0:0:0:0:
144,324,100275,1,8,0:0:0:0:
128,208,100811,1,0,0:0:0:0:
128,64,101346,1,8,0:0:0:0:
276,64,101882,1,0,0:0:0:0:
276,208,102417,1,8,0:0:0:0:
204,136,102953,5,0,0:0:0:0:
352,144,103489,2,0,L|356:228,6,70,8|0|0|0|8|0|0,0:0|0:0|0:0|0:0|0:0|0:0|0:0,0:0:0:0:
304,60,105631,1,8,0:0:0:0:
184,80,106167,1,0,0:0:0:0:
104,160,106703,1,8,0:0:0:0:
144,268,107238,5,0,0:0:0:0:
296,216,107774,2,0,L|296:300,6,70,8|0|0|0|8|0|0,0:0|0:0|0:0|0:0|0:0|0:0|0:0,0:0:0:0:
296,128,109916,1,8,0:0:0:0:
296,20,110452,1,0,0:0:0:0:
192,20,110988,1,8,0:0:0:0:
192,128,111523,5,0,0:0:0:0:
180,220,112059,2,8,L|180:296,1,70,8|0,0:0|0:0,0:0:0:0:
244,304,112595,2,0,L|316:304,1,70
368,304,113130,2,0,L|444:304,1,70,8|0,0:0|0:0,0:0:0:0:
444,236,113666,2,0,L|444:156,1,70
444,104,114202,2,0,L|444:24,1,70,8|0,0:0|0:0,0:0:0:0:
384,24,114737,2,0,L|312:24,1,70
256,24,115273,1,8,0:0:0:0:
128,52,115808,5,0,0:0:0:0:
60,132,116344,2,0,L|56:224,1,70,8|0,0:0|0:0,0:0:0:0:
92,260,116880,2,0,L|152:332,1,70
196,344,117415,2,0,L|288:344,1,70,8|0,0:0|0:0,0:0:0:0:
344,344,117951,5,0,0:0:0:0:
444,252,118487,1,8,0:0:0:0:
436,152,119022,2,0,B|416:120|376:80|312:108,1,140,0|8,0:0|0:0,0:0:0:0:
256,192,120094,5,0,0:0:0:0:
156,152,120629,2,0,L|208:88,1,70,8|0,0:0|0:0,0:0:0:0:
312,96,121165,2,0,L|380:164,1,70
352,248,121700,2,0,B|288:304|288:304|292:308,1,70,8|0,0:0|0:0,0:0:0:0:
204,292,122236,2,0,L|144:228,1,70
136,188,122772,2,0,L|232:188,1,70,8|0,0:0|0:0,0:0:0:0:
376,192,123307,2,0,L|276:192,1,70
256,192,123843,6,0,B|264:176|252:168|260:160|252:156|264:144|252:144|272:128|252:120|272:96|248:84|268:56|256:40,1,140,8|0,0:0|0:0,0:0:0:0:
136,52,124914,1,8,0:0:0:0:
80,192,125450,2,0,L|80:272|80:272,2,70,0|0|8,0:0|0:0|0:0,0:0:0:0:
84,36,126521,1,0,0:0:0:0:
256,192,127057,1,8,0:0:0:0:
256,32,127593,1,0,0:0:0:0:
84,192,128128,1,8,0:0:0:0:
180,120,128664,6,0,B|248:112|308:140|328:164,1,140,0|8,0:0|0:0,0:0:0:0:
400,212,129735,1,0,0:0:0:0:
424,300,130003,2,0,L|372:320|372:320,3,35,0|0|8|0,0:0|0:0|0:0|0:0,0:0:0:0:
288,336,130806,2,0,L|216:332,1,70
132,280,131342,2,0,L|100:184,1,70,8|0,0:0|0:0,0:0:0:0:
96,136,131878,2,0,B|148:68|148:68|160:60,1,70
224,52,132413,6,0,B|244:64|248:48|264:60|276:44|292:60|308:48|324:64|336:40|352:64|372:40|376:40,1,140,8|0,0:0|0:0,0:0:0:0:
436,108,133485,1,8,0:0:0:0:
444,224,134020,1,0,0:0:0:0:
320,304,134556,1,8,0:0:0:0:
124,248,135091,1,0,0:0:0:0:
124,100,135627,1,8,0:0:0:0:
280,100,136163,1,0,0:0:0:0:
280,252,136698,1,8,0:0:0:0:
200,184,137234,5,0,0:0:0:0:
216,76,137770,2,0,P|300:28|348:52,1,140,8|0,0:0|0:0,0:0:0:0:
432,136,138841,1,8,0:0:0:0:
400,264,139377,2,0,P|368:284|256:256,1,140,0|8,0:0|0:0,0:0:0:0:
204,184,140448,2,0,P|188:144|240:64,1,140,0|8,0:0|0:0,0:0:0:0:
328,40,141519,5,0,0:0:0:0:
328,140,142055,2,0,L|328:284,1,140,8|0,0:0|0:0,0:0:0:0:
180,280,143126,1,8,0:0:0:0:
180,184,143662,2,0,L|180:40,1,140,0|8,0:0|0:0,0:0:0:0:
304,36,144733,1,0,0:0:0:0:
400,176,145269,1,8,0:0:0:0:
304,304,145804,5,0,0:0:0:0:
156,276,146340,2,8,B|108:248|80:212|88:156,1,140,8|0,0:0|0:0,0:0:0:0:
84,72,147411,1,8,0:0:0:0:
200,32,147947,2,0,B|276:20|320:32|356:72,1,140,0|8,0:0|0:0,0:0:0:0:
384,148,149018,2,0,B|388:208|352:260|316:264,1,140,0|8,0:0|0:0,0:0:0:0:
164,292,150089,5,0,0:0:0:0:
340,136,150625,1,8,0:0:0:0:
164,136,151161,1,0,0:0:0:0:
340,292,151696,1,8,0:0:0:0:
132,228,152232,5,0,0:0:0:0:
240,104,152768,1,8,0:0:0:0:
360,204,153303,1,0,0:0:0:0:
256,328,153839,1,8,0:0:0:0:
248,212,154375,5,0,0:0:0:0:
256,328,154910,1,8,0:0:0:0:
360,204,155446,1,0,0:0:0:0:
244,104,155981,1,8,0:0:0:0:
132,228,156517,1,0,0:0:0:0:
252,228,157053,1,8,0:0:0:0:
368,224,157588,1,0,0:0:0:0:
252,228,158124,1,8,0:0:0:0:
128,224,158660,5,0,0:0:0:0:
188,132,159195,2,0,P|248:112|316:140,1,140,8|0,0:0|0:0,0:0:0:0:
380,224,160267,1,8,0:0:0:0:
300,316,160802,2,0,P|216:328|168:296,1,140,0|8,0:0|0:0,0:0:0:0:
100,208,161874,1,0,0:0:0:0:
168,80,162409,1,8,0:0:0:0:
296,48,162945,6,0,P|392:48|444:96,1,140,0|8,0:0|0:0,0:0:0:0:
456,188,164016,1,0,0:0:0:0:
356,304,164552,1,8,0:0:0:0:
208,316,165087,2,0,P|120:296|88:248,1,140,0|8,0:0|0:0,0:0:0:0:
192,160,166159,1,0,0:0:0:0:
72,60,166694,1,8,0:0:0:0:
180,52,167230,5,0,0:0:0:0:
344,52,167766,1,8,0:0:0:0:
344,200,168301,1,0,0:0:0:0:
180,200,168837,1,8,0:0:0:0:
180,56,169372,1,0,0:0:0:0:
340,148,169908,1,8,0:0:0:0:
184,244,170444,1,0,0:0:0:0:
340,344,170979,1,8,0:0:0:0:
256,192,171515,5,0,0:0:0:0:
256,192,173658,1,0,0:0:0:0:
256,192,175733,1,0,0:0:0:0:
256,192,177742,1,0,0:0:0:0:
256,192,179617,5,0,0:0:0:0:
256,344,180554,1,0,0:0:0:0:
432,348,181491,1,0,0:0:0:0:
432,188,182362,1,0,0:0:0:0:
256,192,183232,5,0,0:0:0:0:
112,192,183634,1,0,0:0:0:0:
112,60,184058,1,0,0:0:0:0:
256,60,184504,1,0,0:0:0:0:
184,128,184906,1,0,0:0:0:0:
256,192,186647,5,4,0:0:0:0:
