osu file format v14

[General]
AudioFilename: audio.mp3
AudioLeadIn: 0
PreviewTime: -1
Countdown: 0
SampleSet: None
StackLeniency: 0.7
Mode: 0
LetterboxInBreaks: 0
WidescreenStoryboard: 0

[Editor]
Bookmarks: 20818,25478,30139,34799,39375,53440,58100,72007,76668,95308,109289,113949,132590,146571,151231,155891,188512,221134,225794,244435,263075
DistanceSpacing: 2.2
BeatDivisor: 8
GridSize: 8
TimelineZoom: 2.75

[Metadata]
Title:Back Again
TitleUnicode:Back Again
Artist:Panda Eyes
ArtistUnicode:Panda Eyes
Creator:kKrAsAv4iKk
Version:Expert again?
Source:
Tags:
BeatmapID:2075082
BeatmapSetID:992246

[Difficulty]
HPDrainRate:6
CircleSize:4
OverallDifficulty:8.2
ApproachRate:9.9
SliderMultiplier:1.4
SliderTickRate:1

[Events]
//Background and Video events
0,0,"8d8531bd417502cb0bb6473b4cfc2ceb.png",0,0
//Break Periods
2,11916,38279
//Storyboard Layer 0 (Background)
//Storyboard Layer 1 (Fail)
//Storyboard Layer 2 (Pass)
//Storyboard Layer 3 (Foreground)
//Storyboard Sound Samples

[TimingPoints]
2105,291.26213592233,4,2,0,100,1,0
2541,-100,4,2,0,5,0,0
95308,-100,4,2,0,40,0,0
110600,-200,4,2,0,40,0,0
111619,-100,4,2,0,40,0,0

[Colours]
Combo1 : 26,116,242
Combo2 : 164,32,240
Combo3 : 37,185,239
Combo4 : 23,209,116
Combo5 : 226,45,124

[HitObjects]
96,289,2105,5,0,0:0:0:0:
115,262,2250,1,0,0:0:0:0:
136,237,2396,1,0,0:0:0:0:
237,143,2687,6,0,L|255:181,1,35
315,129,2833,2,0,L|333:167,1,35
407,162,2978,2,0,L|425:200,1,35
485,148,3124,2,0,L|503:186,1,35
495,308,3270,6,0,L|451:284,1,35
377,244,3415,2,0,L|340:278,1,35
292,216,3561,2,0,L|255:250,1,35
101,310,3852,6,0,L|141:294,1,35
107,221,3998,2,0,L|147:205,1,35
44,156,4143,2,0,L|84:140,1,35
50,68,4289,2,0,L|90:52,1,35
200,9,4435,6,0,L|214:48,1,35
244,129,4580,2,0,L|219:174,1,35
281,216,4726,2,0,L|256:260,1,35
60,304,5017,6,0,L|95:274,1,35
143,336,5163,2,0,L|178:306,1,35
244,334,5308,2,0,L|279:304,1,35
327,366,5454,2,0,L|362:336,1,35
453,262,5600,6,0,L|412:240,1,35
326,191,5745,2,0,L|332:238,1,35
242,167,5891,2,0,L|248:214,1,35
159,148,6037,2,0,L|165:195,1,35
174,291,6182,6,0,L|221:291,1,35
305,291,6328,2,0,L|293:336,1,35
391,277,6474,2,0,L|379:322,1,35
476,262,6619,2,0,L|464:307,1,35
497,172,6765,5,0,0:0:0:0:
478,145,6910,1,0,0:0:0:0:
457,118,7056,1,0,0:0:0:0:
275,143,7347,6,0,L|257:181,1,35
197,129,7493,2,0,L|179:167,1,35
105,162,7638,2,0,L|87:200,1,35
27,148,7784,2,0,L|9:186,1,35
17,308,7930,6,0,L|61:284,1,35
135,244,8075,2,0,L|172:278,1,35
220,216,8221,2,0,L|257:250,1,35
411,310,8512,6,0,L|370:294,1,35
405,221,8658,2,0,L|364:205,1,35
468,156,8803,2,0,L|427:140,1,35
462,68,8949,2,0,L|421:52,1,35
311,9,9095,6,0,L|297:48,1,35
267,129,9240,2,0,L|292:174,1,35
230,216,9386,2,0,L|255:260,1,35
452,304,9677,6,0,L|416:274,1,35
369,336,9823,2,0,L|333:306,1,35
268,334,9968,2,0,L|232:304,1,35
185,366,10114,2,0,L|149:336,1,35
59,262,10260,6,0,L|100:240,1,35
186,191,10405,2,0,L|180:238,1,35
270,167,10551,2,0,L|264:214,1,35
353,148,10697,2,0,L|347:195,1,35
338,291,10842,6,0,L|290:291,1,35
207,291,10988,2,0,L|218:336,1,35
121,277,11134,2,0,L|132:322,1,35
15,172,11425,5,0,0:0:0:0:
34,145,11570,1,0,0:0:0:0:
55,118,11716,1,0,0:0:0:0:
197,319,38804,5,0,0:0:0:0:
154,224,38949,1,0,0:0:0:0:
234,138,39095,1,0,0:0:0:0:
341,196,39240,1,0,0:0:0:0:
321,303,39386,6,0,L|405:327,1,70
512,241,39677,2,0,L|430:218,1,70
269,182,39969,6,0,L|245:103,1,70
115,23,40260,2,0,L|138:100,1,70
172,206,40551,1,0,0:0:0:0:
115,318,40697,1,0,0:0:0:0:
39,212,40842,1,0,0:0:0:0:
404,51,41134,6,0,L|424:148,1,70
385,327,41425,2,0,L|365:229,1,70
341,111,41716,1,0,0:0:0:0:
248,231,41862,1,0,0:0:0:0:
469,184,42007,1,0,0:0:0:0:
59,34,42299,5,0,0:0:0:0:
94,180,42444,1,0,0:0:0:0:
0,309,42590,1,0,0:0:0:0:
154,270,42736,1,0,0:0:0:0:
269,353,42881,2,0,L|320:295,1,70
424,292,43172,6,0,L|399:218,1,70
462,117,43464,2,0,L|386:101,1,70
324,14,43755,2,0,L|272:72,1,70
168,174,44046,5,0,0:0:0:0:
54,295,44192,1,0,0:0:0:0:
351,188,44338,1,0,0:0:0:0:
241,328,44629,5,0,0:0:0:0:
184,155,44774,1,0,0:0:0:0:
439,242,44920,1,0,0:0:0:0:
223,316,45066,1,0,0:0:0:0:
363,89,45211,1,0,0:0:0:0:
442,265,45357,1,0,0:0:0:0:
178,120,45503,1,0,0:0:0:0:
317,299,45794,5,0,0:0:0:0:
136,322,45939,1,0,0:0:0:0:
271,88,46085,1,0,0:0:0:0:
301,315,46231,1,0,0:0:0:0:
106,134,46376,1,0,0:0:0:0:
294,90,46522,1,0,0:0:0:0:
101,321,46668,1,0,0:0:0:0:
229,188,46959,5,0,0:0:0:0:
455,232,47104,1,0,0:0:0:0:
305,87,47250,1,0,0:0:0:0:
407,321,47396,1,0,0:0:0:0:
119,271,47541,5,0,0:0:0:0:
264,312,47687,1,0,0:0:0:0:
142,240,47833,1,0,0:0:0:0:
290,282,47978,1,0,0:0:0:0:
118,127,48124,1,0,0:0:0:0:
383,221,48270,1,0,0:0:0:0:
168,76,48415,1,0,0:0:0:0:
435,173,48561,1,0,0:0:0:0:
199,214,48706,5,0,0:0:0:0:
279,346,48852,1,0,0:0:0:0:
27,217,48998,1,0,0:0:0:0:
215,98,49289,5,0,0:0:0:0:
398,250,49435,1,0,0:0:0:0:
158,257,49580,1,0,0:0:0:0:
378,144,49726,1,0,0:0:0:0:
263,339,49871,1,0,0:0:0:0:
199,111,50017,1,0,0:0:0:0:
394,267,50163,1,0,0:0:0:0:
140,316,50454,5,0,0:0:0:0:
28,148,50600,1,0,0:0:0:0:
248,180,50745,1,0,0:0:0:0:
110,327,50891,1,0,0:0:0:0:
84,92,51037,1,0,0:0:0:0:
271,168,51182,1,0,0:0:0:0:
24,246,51328,1,0,0:0:0:0:
421,114,51619,5,0,0:0:0:0:
318,272,51765,1,0,0:0:0:0:
278,74,51910,1,0,0:0:0:0:
465,296,52056,1,0,0:0:0:0:
225,269,52202,5,0,0:0:0:0:
74,313,52347,1,0,0:0:0:0:
234,247,52493,1,0,0:0:0:0:
80,291,52638,1,0,0:0:0:0:
316,136,52784,1,0,0:0:0:0:
63,171,52930,1,0,0:0:0:0:
268,78,53075,1,0,0:0:0:0:
20,111,53221,1,0,0:0:0:0:
295,254,53367,5,0,0:0:0:0:
118,234,53512,1,0,0:0:0:0:
442,157,53658,1,0,0:0:0:0:
272,340,53949,5,0,0:0:0:0:
221,95,54095,1,0,0:0:0:0:
349,211,54240,1,0,0:0:0:0:
119,183,54386,1,0,0:0:0:0:
253,126,54532,1,0,0:0:0:0:
341,258,54677,1,0,0:0:0:0:
80,183,54823,1,0,0:0:0:0:
475,127,55114,5,0,0:0:0:0:
245,225,55260,1,0,0:0:0:0:
331,77,55405,1,0,0:0:0:0:
352,307,55551,1,0,0:0:0:0:
269,188,55697,1,0,0:0:0:0:
380,75,55842,1,0,0:0:0:0:
361,346,55988,1,0,0:0:0:0:
188,286,56279,5,0,0:0:0:0:
47,126,56425,1,0,0:0:0:0:
89,333,56571,1,0,0:0:0:0:
190,141,56716,1,0,0:0:0:0:
462,83,56862,5,0,0:0:0:0:
268,46,57007,1,0,0:0:0:0:
477,112,57153,1,0,0:0:0:0:
283,79,57299,1,0,0:0:0:0:
504,218,57444,1,0,0:0:0:0:
178,246,57590,1,0,0:0:0:0:
483,294,57736,1,0,0:0:0:0:
143,314,57881,1,0,0:0:0:0:
191,81,58027,6,0,L|107:57,1,70
0,143,58318,2,0,L|82:166,1,70
243,202,58610,6,0,L|267:281,1,70
397,361,58901,2,0,L|374:284,1,70
340,178,59192,1,0,0:0:0:0:
397,66,59338,1,0,0:0:0:0:
473,172,59483,1,0,0:0:0:0:
108,333,59775,6,0,L|88:236,1,70
127,57,60066,2,0,L|147:155,1,70
171,273,60357,1,0,0:0:0:0:
264,153,60503,1,0,0:0:0:0:
43,200,60648,1,0,0:0:0:0:
453,350,60940,5,0,0:0:0:0:
418,204,61085,1,0,0:0:0:0:
512,75,61231,1,0,0:0:0:0:
358,114,61377,1,0,0:0:0:0:
243,31,61522,2,0,L|192:89,1,70
88,92,61813,6,0,L|113:166,1,70
50,267,62105,2,0,L|126:283,1,70
188,370,62396,2,0,L|240:312,1,70
344,210,62687,5,0,0:0:0:0:
458,89,62833,1,0,0:0:0:0:
161,196,62979,1,0,0:0:0:0:
271,56,63270,5,0,0:0:0:0:
328,229,63415,1,0,0:0:0:0:
73,142,63561,1,0,0:0:0:0:
289,68,63707,1,0,0:0:0:0:
149,295,63852,1,0,0:0:0:0:
70,119,63998,1,0,0:0:0:0:
334,264,64144,1,0,0:0:0:0:
195,85,64435,5,0,0:0:0:0:
376,62,64580,1,0,0:0:0:0:
241,296,64726,1,0,0:0:0:0:
211,69,64872,1,0,0:0:0:0:
406,250,65017,1,0,0:0:0:0:
218,294,65163,1,0,0:0:0:0:
411,63,65309,1,0,0:0:0:0:
283,196,65600,5,0,0:0:0:0:
57,152,65745,1,0,0:0:0:0:
207,297,65891,1,0,0:0:0:0:
105,63,66037,1,0,0:0:0:0:
393,113,66182,5,0,0:0:0:0:
248,72,66328,1,0,0:0:0:0:
370,144,66474,1,0,0:0:0:0:
222,102,66619,1,0,0:0:0:0:
394,257,66765,1,0,0:0:0:0:
129,163,66911,1,0,0:0:0:0:
344,308,67056,1,0,0:0:0:0:
77,211,67202,1,0,0:0:0:0:
313,170,67347,5,0,0:0:0:0:
233,38,67493,1,0,0:0:0:0:
485,167,67639,1,0,0:0:0:0:
297,286,67930,5,0,0:0:0:0:
114,134,68076,1,0,0:0:0:0:
354,127,68221,1,0,0:0:0:0:
134,240,68367,1,0,0:0:0:0:
249,45,68512,1,0,0:0:0:0:
313,273,68658,1,0,0:0:0:0:
118,117,68804,1,0,0:0:0:0:
372,68,69095,5,0,0:0:0:0:
484,236,69241,1,0,0:0:0:0:
264,204,69386,1,0,0:0:0:0:
402,57,69532,1,0,0:0:0:0:
428,292,69678,1,0,0:0:0:0:
241,216,69823,1,0,0:0:0:0:
488,138,69969,1,0,0:0:0:0:
91,270,70260,5,0,0:0:0:0:
194,112,70406,1,0,0:0:0:0:
234,310,70551,1,0,0:0:0:0:
47,88,70697,1,0,0:0:0:0:
287,115,70843,5,0,0:0:0:0:
438,71,70988,1,0,0:0:0:0:
278,137,71134,1,0,0:0:0:0:
432,93,71279,1,0,0:0:0:0:
196,248,71425,1,0,0:0:0:0:
449,213,71571,1,0,0:0:0:0:
244,306,71716,1,0,0:0:0:0:
492,273,71862,1,0,0:0:0:0:
217,130,72008,5,0,0:0:0:0:
394,150,72153,1,0,0:0:0:0:
70,227,72299,1,0,0:0:0:0:
244,89,72590,5,0,0:0:0:0:
280,259,72736,1,0,0:0:0:0:
191,178,72881,1,0,0:0:0:0:
350,198,73027,1,0,0:0:0:0:
258,237,73173,1,0,0:0:0:0:
197,146,73318,1,0,0:0:0:0:
377,198,73464,1,0,0:0:0:0:
104,236,73755,5,0,0:0:0:0:
263,169,73901,1,0,0:0:0:0:
204,271,74046,1,0,0:0:0:0:
189,112,74192,1,0,0:0:0:0:
247,194,74338,1,0,0:0:0:0:
170,272,74483,1,0,0:0:0:0:
183,85,74629,1,0,0:0:0:0:
302,127,74920,5,0,0:0:0:0:
400,237,75066,1,0,0:0:0:0:
371,94,75212,1,0,0:0:0:0:
301,227,75357,1,0,0:0:0:0:
81,284,75503,5,0,0:0:0:0:
245,315,75648,1,0,0:0:0:0:
68,259,75794,1,0,0:0:0:0:
233,287,75940,1,0,0:0:0:0:
44,169,76085,1,0,0:0:0:0:
322,146,76231,1,0,0:0:0:0:
62,105,76377,1,0,0:0:0:0:
352,88,76522,1,0,0:0:0:0:
291,346,76668,5,0,0:0:0:0:
206,45,76813,1,0,0:0:0:0:
84,329,77104,5,0,0:0:0:0:
461,278,77250,1,0,0:0:0:0:
332,44,77541,5,0,0:0:0:0:
203,349,77686,1,0,0:0:0:0:
65,77,77978,5,0,0:0:0:0:
262,130,78270,1,0,0:0:0:0:
455,189,78415,5,0,0:0:0:0:
405,339,78561,1,0,0:0:0:0:
343,35,78706,1,0,0:0:0:0:
301,347,78998,5,0,0:0:0:0:
29,84,79143,1,0,0:0:0:0:
268,42,79435,5,0,0:0:0:0:
97,348,79580,1,0,0:0:0:0:
99,37,79871,5,0,0:0:0:0:
457,148,80017,1,0,0:0:0:0:
379,318,80308,5,0,0:0:0:0:
206,223,80600,1,0,0:0:0:0:
48,130,80745,5,0,0:0:0:0:
188,36,80891,1,0,0:0:0:0:
67,323,81037,1,0,0:0:0:0:
178,21,81182,1,0,0:0:0:0:
239,346,81328,5,0,0:0:0:0:
504,119,81473,1,0,0:0:0:0:
385,335,81765,5,0,0:0:0:0:
231,4,81910,1,0,0:0:0:0:
106,262,82202,5,0,0:0:0:0:
465,141,82347,1,0,0:0:0:0:
299,69,82638,5,0,0:0:0:0:
215,201,82930,1,0,0:0:0:0:
123,346,83075,5,0,0:0:0:0:
5,248,83221,1,0,0:0:0:0:
340,338,83367,1,0,0:0:0:0:
95,106,83658,5,0,0:0:0:0:
429,5,83804,1,0,0:0:0:0:
512,246,84095,5,0,0:0:0:0:
240,0,84240,1,0,0:0:0:0:
510,115,84531,5,0,0:0:0:0:
60,200,84677,1,0,0:0:0:0:
199,337,84969,5,0,0:0:0:0:
316,256,85260,1,0,0:0:0:0:
445,160,85405,5,0,0:0:0:0:
340,44,85551,1,0,0:0:0:0:
454,330,85697,1,0,0:0:0:0:
311,35,85842,1,0,0:0:0:0:
255,191,85988,5,0,0:0:0:0:
19,18,86134,1,0,0:0:0:0:
0,301,86425,5,0,0:0:0:0:
215,9,86571,1,0,0:0:0:0:
370,73,86862,5,0,0:0:0:0:
0,169,87007,1,0,0:0:0:0:
114,41,87299,5,0,0:0:0:0:
240,164,87590,1,0,0:0:0:0:
373,294,87736,5,0,0:0:0:0:
481,174,87881,1,0,0:0:0:0:
144,305,88027,1,0,0:0:0:0:
13,117,88318,5,0,0:0:0:0:
312,321,88464,1,0,0:0:0:0:
508,128,88755,5,0,0:0:0:0:
179,248,88901,1,0,0:0:0:0:
200,12,89192,5,0,0:0:0:0:
463,315,89338,1,0,0:0:0:0:
285,298,89629,5,0,0:0:0:0:
315,174,89920,1,0,0:0:0:0:
349,35,90065,5,0,0:0:0:0:
512,100,90211,1,0,0:0:0:0:
155,145,90356,1,0,0:0:0:0:
489,80,90503,1,0,0:0:0:0:
415,360,90648,5,0,0:0:0:0:
56,266,90794,1,0,0:0:0:0:
139,365,91085,5,0,0:0:0:0:
494,215,91231,1,0,0:0:0:0:
512,318,91522,5,0,0:0:0:0:
53,146,91668,1,0,0:0:0:0:
179,60,91959,5,0,0:0:0:0:
302,112,92250,1,0,0:0:0:0:
430,169,92396,5,0,0:0:0:0:
277,256,92541,1,0,0:0:0:0:
455,12,92687,1,0,0:0:0:0:
112,57,92978,5,0,0:0:0:0:
486,210,93124,1,0,0:0:0:0:
285,15,93415,5,0,0:0:0:0:
172,354,93560,1,0,0:0:0:0:
438,89,93852,5,0,0:0:0:0:
41,205,93997,1,0,0:0:0:0:
137,42,94289,5,0,0:0:0:0:
208,163,94580,1,0,0:0:0:0:
288,286,94726,5,0,0:0:0:0:
409,195,94871,1,0,0:0:0:0:
98,252,95017,1,0,0:0:0:0:
422,174,95163,1,0,0:0:0:0:
229,18,95308,5,0,0:0:0:0:
412,299,95454,2,0,B|397:300|397:300|402:309|402:309|386:308|386:308|390:318|390:318|373:318|373:318,1,70
111,330,95745,5,0,0:0:0:0:
397,142,95891,1,0,0:0:0:0:
119,48,96037,6,0,L|149:80,1,35
105,147,96182,2,0,L|146:159,1,35
154,237,96328,2,0,L|196:227,1,35
325,75,96473,6,0,L|321:118,1,35
397,142,96618,2,0,L|372:178,1,35
416,243,96764,2,0,L|376:262,1,35
243,312,96910,1,2,0:0:0:0:
50,297,97056,6,8,B|45:261|64:229|64:229|34:219|34:219|28:179|28:179|30:189|30:189|25:162|25:162|27:171|27:171|23:145|23:145|24:154|24:154,1,210,2|0,0:0|0:0,0:0:0:0:
225,17,97638,5,0,0:0:0:0:
356,344,97784,2,0,B|343:335|343:335|342:346|342:346|329:335|329:335|327:346|327:346|313:336|313:336,1,70
86,317,98075,5,0,0:0:0:0:
497,224,98221,1,0,0:0:0:0:
428,73,98367,6,0,L|388:92,1,35
337,30,98512,2,0,L|312:66,1,35
237,51,98658,2,0,L|234:94,1,35
341,262,98803,6,0,L|300:246,1,35
256,311,98948,2,0,L|228:276,1,35
154,300,99094,2,0,L|147:256,1,35
126,138,99240,1,2,0:0:0:0:
259,162,99386,6,8,B|294:165|326:144|326:144|337:172|337:172|377:177|377:177|367:176|367:176|395:179|395:179|386:178|386:178|412:181|412:181|403:180|403:180,1,210,10|8,0:0|0:0,0:0:0:0:
321,363,99969,5,0,2:2:0:0:
408,39,100115,2,0,B|393:42|393:42|395:32|395:32|380:38|380:38|381:27|381:27|365:32|365:32,1,70,0|0,2:2|2:2,2:2:0:0:
112,102,100406,5,0,2:2:0:0:
442,193,100552,1,0,2:2:0:0:
207,368,100698,6,0,L|225:328,1,35,0|0,2:2|2:2,2:2:0:0:
163,278,100843,2,0,L|198:252,1,35,0|0,2:2|2:2,2:2:0:0:
181,177,100989,2,0,L|224:173,1,35,0|0,2:2|2:2,2:2:0:0:
394,279,101134,6,0,L|377:238,1,35,0|0,2:2|2:2,2:2:0:0:
442,193,101279,2,0,L|407:166,1,35,0|0,2:2|2:2,2:2:0:0:
429,91,101425,2,0,L|385:85,1,35,0|0,2:2|2:2,2:2:0:0:
243,79,101571,1,2,2:2:0:0:
64,152,101717,6,8,B|70:186|98:212|98:212|73:230|73:230|80:269|80:269|78:259|78:259|82:287|82:287|81:278|81:278|85:304|85:304|83:295|83:295,1,210,10|8,2:2|2:2,2:2:0:0:
317,365,102299,5,0,2:2:0:0:
298,19,102444,2,0,B|283:20|283:20|288:29|288:29|272:28|272:28|276:38|276:38|259:38|259:38,1,70
92,122,102736,5,0,2:2:0:0:
512,84,102882,1,0,2:2:0:0:
493,249,103028,6,0,L|449:242,1,35,0|0,2:2|2:2,2:2:0:0:
420,318,103173,2,0,L|385:290,1,35,0|0,2:2|2:2,2:2:0:0:
318,329,103319,2,0,L|301:288,1,35,0|0,2:2|2:2,2:2:0:0:
352,96,103464,6,0,L|317:123,1,35,0|0,2:2|2:2,2:2:0:0:
256,75,103609,2,0,L|240:115,1,35,0|0,2:2|2:2,2:2:0:0:
162,117,103755,2,0,L|168:160,1,35,0|0,2:2|2:2,2:2:0:0:
185,280,103901,1,2,2:2:0:0:
393,313,104046,5,0,0:0:0:0:
79,232,104192,1,0,0:0:0:0:
445,228,104338,1,0,0:0:0:0:
83,67,104483,1,0,0:0:0:0:
283,18,104629,5,0,0:0:0:0:
100,299,104775,2,0,B|115:300|115:300|110:309|110:309|126:308|126:308|122:318|122:318|139:318|139:318,1,70
401,330,105066,5,0,0:0:0:0:
115,142,105212,1,0,0:0:0:0:
393,48,105358,6,0,L|363:80,1,35
407,147,105503,2,0,L|365:159,1,35
358,237,105649,2,0,L|315:227,1,35
187,75,105794,6,0,L|190:118,1,35
115,142,105939,2,0,L|139:178,1,35
96,243,106085,2,0,L|135:262,1,35
269,312,106231,1,2,0:0:0:0:
462,297,106377,6,8,B|467:261|448:229|448:229|477:219|477:219|483:179|483:179|481:189|481:189|486:162|486:162|484:171|484:171|488:145|488:145|487:154|487:154,1,210,10|8,0:0|0:0,0:0:0:0:
287,17,106959,5,0,0:0:0:0:
156,344,107105,2,0,B|168:335|168:335|169:346|169:346|182:335|182:335|184:346|184:346|198:336|198:336,1,70
426,317,107396,5,0,0:0:0:0:
15,224,107542,1,0,0:0:0:0:
84,73,107688,6,0,L|123:92,1,35
175,30,107833,2,0,L|199:66,1,35
275,51,107979,2,0,L|277:94,1,35
171,262,108124,6,0,L|211:246,1,35
256,311,108269,2,0,L|283:276,1,35
358,300,108415,2,0,L|364:256,1,35
386,138,108561,1,2,0:0:0:0:
253,162,108707,6,8,B|217:165|185:144|185:144|174:172|174:172|135:177|135:177|145:176|145:176|117:179|117:179|126:178|126:178|100:181|100:181|109:180|109:180,1,210,10|8,0:0|0:0,0:0:0:0:
191,363,109290,5,0,2:2:0:0:
104,39,109436,2,0,B|115:48|115:48|118:38|118:38|129:49|129:49|133:39|133:39|145:50|145:50,1,70,0|0,2:2|2:2,2:2:0:0:
400,102,109727,5,0,2:2:0:0:
74,200,109871,2,0,B|82:212|82:212|87:203|87:203|94:218|94:218|101:210|101:210|109:224|109:224,1,70,0|0,2:2|2:2,2:2:0:0:
303,380,110163,5,0,0:0:0:0:
424,103,110308,2,0,B|412:112|412:112|409:102|409:102|398:113|398:113|394:103|394:103|382:114|382:114,1,70,0|0,2:2|2:2,2:2:0:0:
135,187,110600,6,0,L|163:220,1,35,0|0,2:2|2:2,2:2:0:0:
213,362,110891,2,0,L|184:328,1,35,0|0,2:2|2:2,2:2:0:0:
29,147,111183,5,0,0:0:0:0:
110,85,111328,1,0,0:0:0:0:
221,223,111474,1,0,0:0:0:0:
301,161,111620,5,0,2:2:0:0:
128,350,111765,2,0,B|116:340|116:340|125:336|125:336|111:327|111:327|120:321|120:321|106:312|106:312,1,70
0,84,112057,5,0,2:2:0:0:
420,122,112202,2,0,B|422:136|422:136|412:134|412:134|417:149|417:149|406:147|406:147|410:164|410:164,1,70
342,382,112493,5,0,0:0:0:0:
221,51,112638,2,0,B|216:64|216:64|208:58|208:58|206:73|206:73|197:67|197:67|193:84|193:84,1,70,0|2,0:0|0:0,0:0:0:0:
139,263,112930,1,2,0:0:0:0:
206,107,113075,1,2,0:0:0:0:
158,282,113221,1,2,0:0:0:0:
349,105,113367,5,8,0:0:0:0:
213,375,113512,1,8,0:0:0:0:
503,195,113658,1,8,0:0:0:0:
66,217,113804,1,8,0:0:0:0:
