osu file format v14

[General]
AudioFilename: edit.mp3
AudioLeadIn: 0
PreviewTime: 143983
Countdown: 0
SampleSet: Soft
StackLeniency: 0.7
Mode: 2
LetterboxInBreaks: 0
EpilepsyWarning: 1
WidescreenStoryboard: 1

[Editor]
Bookmarks: 4415,39324,56778,91687,187687
DistanceSpacing: 3
BeatDivisor: 8
GridSize: 32
TimelineZoom: 2.5

[Metadata]
Title:Immortal Flame (feat. Anna Yvette)
TitleUnicode:Immortal Flame (feat. Anna Yvette)
Artist:Panda Eyes & Teminite
ArtistUnicode:Panda Eyes & Teminite
Creator:Sotarks
Version:Reimuscendance's Rain
Source:
Tags:DubstepGutter DSG Akitoshi corinn Kin SnowNiNo_ corinn ascendance hareimu Mir PoNo Ponoyoshi
BeatmapID:1532487
BeatmapSetID:703957

[Difficulty]
HPDrainRate:6
CircleSize:3.8
OverallDifficulty:9
ApproachRate:9
SliderMultiplier:2.3
SliderTickRate:4

[Events]
//Background and Video events
0,0,"BG.jpg",0,0
//Break Periods
//Storyboard Layer 0 (Background)
Sprite,Background,Centre,"SB\BG\BG_BW_B.jpg",320,240 F,0,56778,57323,0.5,0 S,4,56778,57323,0.4528302,0.4444444 F,0,57323,57868,0.5,0 S,4,57323,57868,0.4528302,0.4444444 F,0,57868,58414,0.5,0 S,4,57868,58414,0.4528302,0.4444444 F,0,58414,58959,0.5,0 S,4,58414,58959,0.4528302,0.4444444 F,0,58959,59505,0.5,0 S,4,58959,59505,0.4528302,0.4444444 F,0,59505,60050,0.5,0 S,4,59505,60050,0.4528302,0.4444444 F,0,60050,60596,0.5,0 S,4,60050,60596,0.4528302,0.4444444 F,0,60596,61141,0.5,0 S,4,60596,61141,0.4528302,0.4444444 F,0,61141,61687,0.5,0 S,4,61141,61687,0.4528302,0.4444444 F,0,61687,62232,0.5,0 S,4,61687,62232,0.4528302,0.4444444 F,0,62232,62777,0.5,0 S,4,62232,62777,0.4528302,0.4444444 F,0,62777,63323,0.5,0 S,4,62777,63323,0.4528302,0.4444444 F,0,63323,63868,0.5,0 S,4,63323,63868,0.4528302,0.4444444 F,0,63868,64414,0.5,0 S,4,63868,64414,0.4528302,0.4444444 F,0,64414,64959,0.5,0 S,4,64414,64959,0.4528302,0.4444444 F,0,64959,65505,0.5,0 S,4,64959,65505,0.4528302,0.4444444 F,0,65505,66050,0.5,0 S,4,65505,66050,0.4528302,0.4444444 F,0,66050,66596,0.5,0 S,4,66050,66596,0.4528302,0.4444444 F,0,66596,67141,0.5,0 S,4,66596,67141,0.4528302,0.4444444 F,0,67141,67687,0.5,0 S,4,67141,67687,0.4528302,0.4444444 F,0,67687,68232,0.5,0 S,4,67687,68232,0.4528302,0.4444444 F,0,68232,68777,0.5,0 S,4,68232,68777,0.4528302,0.4444444 F,0,68777,69323,0.5,0 S,4,68777,69323,0.4528302,0.4444444 F,0,69323,69868,0.5,0 S,4,69323,69868,0.4528302,0.4444444 F,0,69868,70414,0.5,0 S,4,69868,70414,0.4528302,0.4444444 F,0,70414,70959,0.5,0 S,4,70414,70959,0.4528302,0.4444444 F,0,70959,71505,0.5,0 S,4,70959,71505,0.4528302,0.4444444 F,0,71505,72050,0.5,0 S,4,71505,72050,0.4528302,0.4444444 F,0,72050,72596,0.5,0 S,4,72050,72596,0.4528302,0.4444444 F,0,72596,73141,0.5,0 S,4,72596,73141,0.4528302,0.4444444 F,0,73141,73687,0.5,0 S,4,73141,73687,0.4528302,0.4444444 F,0,73687,74232,0.5,0 S,4,73687,74232,0.4528302,0.4444444
Sprite,Background,Centre,"SB\BG\BG_BW_B.jpg",320,240 F,0,91687,92232,0.5,0 S,4,91687,92232,0.4528302,0.4444444 F,0,92232,92777,0.5,0 S,4,92232,92777,0.4528302,0.4444444 F,0,92777,93323,0.5,0 S,4,92777,93323,0.4528302,0.4444444 F,0,93323,93868,0.5,0 S,4,93323,93868,0.4528302,0.4444444 F,0,93868,94414,0.5,0 S,4,93868,94414,0.4528302,0.4444444 F,0,94414,94959,0.5,0 S,4,94414,94959,0.4528302,0.4444444 F,0,94959,95505,0.5,0 S,4,94959,95505,0.4528302,0.4444444 F,0,95505,96050,0.5,0 S,4,95505,96050,0.4528302,0.4444444 F,0,96050,96596,0.5,0 S,4,96050,96596,0.4528302,0.4444444 F,0,96596,97141,0.5,0 S,4,96596,97141,0.4528302,0.4444444 F,0,97141,97686,0.5,0 S,4,97141,97686,0.4528302,0.4444444 F,0,97686,98232,0.5,0 S,4,97686,98232,0.4528302,0.4444444 F,0,98232,98777,0.5,0 S,4,98232,98777,0.4528302,0.4444444 F,0,98777,99323,0.5,0 S,4,98777,99323,0.4528302,0.4444444 F,0,99323,99868,0.5,0 S,4,99323,99868,0.4528302,0.4444444 F,0,99868,100414,0.5,0 S,4,99868,100414,0.4528302,0.4444444 F,0,100414,100959,0.5,0 S,4,100414,100959,0.4528302,0.4444444 F,0,100959,101505,0.5,0 S,4,100959,101505,0.4528302,0.4444444 F,0,101505,102050,0.5,0 S,4,101505,102050,0.4528302,0.4444444 F,0,102050,102596,0.5,0 S,4,102050,102596,0.4528302,0.4444444 F,0,102596,103141,0.5,0 S,4,102596,103141,0.4528302,0.4444444 F,0,103141,103686,0.5,0 S,4,103141,103686,0.4528302,0.4444444 F,0,103686,104232,0.5,0 S,4,103686,104232,0.4528302,0.4444444 F,0,104232,104777,0.5,0 S,4,104232,104777,0.4528302,0.4444444 F,0,104777,105323,0.5,0 S,4,104777,105323,0.4528302,0.4444444 F,0,105323,105868,0.5,0 S,4,105323,105868,0.4528302,0.4444444 F,0,105868,106414,0.5,0 S,4,105868,106414,0.4528302,0.4444444 F,0,106414,106959,0.5,0 S,4,106414,106959,0.4528302,0.4444444 F,0,106959,107505,0.5,0 S,4,106959,107505,0.4528302,0.4444444 F,0,107505,108050,0.5,0 S,4,107505,108050,0.4528302,0.4444444 F,0,108050,108596,0.5,0 S,4,108050,108596,0.4528302,0.4444444 F,0,108596,109141,0.5,0 S,4,108596,109141,0.4528302,0.4444444
Sprite,Background,Centre,"SB\BG\BG_BW_B.jpg",320,240 F,0,144051,144596,0.5,0 S,4,144051,144596,0.4528302,0.4444444 F,0,144596,145141,0.5,0 S,4,144596,145141,0.4528302,0.4444444 F,0,145141,145687,0.5,0 S,4,145141,145687,0.4528302,0.4444444 F,0,145687,146232,0.5,0 S,4,145687,146232,0.4528302,0.4444444 F,0,146232,146778,0.5,0 S,4,146232,146778,0.4528302,0.4444444 F,0,146778,147323,0.5,0 S,4,146778,147323,0.4528302,0.4444444 F,0,147323,147869,0.5,0 S,4,147323,147869,0.4528302,0.4444444 F,0,147869,148414,0.5,0 S,4,147869,148414,0.4528302,0.4444444 F,0,148414,148960,0.5,0 S,4,148414,148960,0.4528302,0.4444444 F,0,148960,149505,0.5,0 S,4,148960,149505,0.4528302,0.4444444 F,0,149505,150051,0.5,0 S,4,149505,150051,0.4528302,0.4444444 F,0,150051,150596,0.5,0 S,4,150051,150596,0.4528302,0.4444444 F,0,150596,151141,0.5,0 S,4,150596,151141,0.4528302,0.4444444 F,0,151141,151687,0.5,0 S,4,151141,151687,0.4528302,0.4444444 F,0,151687,152232,0.5,0 S,4,151687,152232,0.4528302,0.4444444 F,0,152232,152778,0.5,0 S,4,152232,152778,0.4528302,0.4444444 F,0,152778,153323,0.5,0 S,4,152778,153323,0.4528302,0.4444444 F,0,153323,153869,0.5,0 S,4,153323,153869,0.4528302,0.4444444 F,0,153869,154414,0.5,0 S,4,153869,154414,0.4528302,0.4444444 F,0,154414,154960,0.5,0 S,4,154414,154960,0.4528302,0.4444444 F,0,154960,155505,0.5,0 S,4,154960,155505,0.4528302,0.4444444 F,0,155505,156051,0.5,0 S,4,155505,156051,0.4528302,0.4444444 F,0,156051,156596,0.5,0 S,4,156051,156596,0.4528302,0.4444444 F,0,156596,157141,0.5,0 S,4,156596,157141,0.4528302,0.4444444 F,0,157141,157687,0.5,0 S,4,157141,157687,0.4528302,0.4444444 F,0,157687,158232,0.5,0 S,4,157687,158232,0.4528302,0.4444444 F,0,158232,158778,0.5,0 S,4,158232,158778,0.4528302,0.4444444 F,0,158778,159323,0.5,0 S,4,158778,159323,0.4528302,0.4444444 F,0,159323,159869,0.5,0 S,4,159323,159869,0.4528302,0.4444444 F,0,159869,160414,0.5,0 S,4,159869,160414,0.4528302,0.4444444 F,0,160414,160960,0.5,0 S,4,160414,160960,0.4528302,0.4444444 F,0,160960,161505,0.5,0 S,4,160960,161505,0.4528302,0.4444444 F,0,161505,162051,0.5,0 S,4,161505,162051,0.4528302,0.4444444 F,0,162051,162596,0.5,0 S,4,162051,162596,0.4528302,0.4444444 F,0,162596,163141,0.5,0 S,4,162596,163141,0.4528302,0.4444444 F,0,163141,163687,0.5,0 S,4,163141,163687,0.4528302,0.4444444 F,0,163687,164232,0.5,0 S,4,163687,164232,0.4528302,0.4444444 F,0,164232,164778,0.5,0 S,4,164232,164778,0.4528302,0.4444444 F,0,164778,165323,0.5,0 S,4,164778,165323,0.4528302,0.4444444 F,0,165323,165869,0.5,0 S,4,165323,165869,0.4528302,0.4444444 F,0,165869,166414,0.5,0 S,4,165869,166414,0.4528302,0.4444444 F,0,166414,166960,0.5,0 S,4,166414,166960,0.4528302,0.4444444 F,0,166960,167505,0.5,0 S,4,166960,167505,0.4528302,0.4444444 F,0,167505,168051,0.5,0 S,4,167505,168051,0.4528302,0.4444444 F,0,168051,168596,0.5,0 S,4,168051,168596,0.4528302,0.4444444 F,0,168596,169141,0.5,0 S,4,168596,169141,0.4528302,0.4444444 F,0,169141,169687,0.5,0 S,4,169141,169687,0.4528302,0.4444444 F,0,169687,170232,0.5,0 S,4,169687,170232,0.4528302,0.4444444 F,0,170232,170778,0.5,0 S,4,170232,170778,0.4528302,0.4444444 F,0,170778,171323,0.5,0 S,4,170778,171323,0.4528302,0.4444444 F,0,171323,171869,0.5,0 S,4,171323,171869,0.4528302,0.4444444 F,0,171869,172414,0.5,0 S,4,171869,172414,0.4528302,0.4444444 F,0,172414,172960,0.5,0 S,4,172414,172960,0.4528302,0.4444444 F,0,172960,173505,0.5,0 S,4,172960,173505,0.4528302,0.4444444 F,0,173505,174051,0.5,0 S,4,173505,174051,0.4528302,0.4444444 F,0,174051,174596,0.5,0 S,4,174051,174596,0.4528302,0.4444444 F,0,174596,175141,0.5,0 S,4,174596,175141,0.4528302,0.4444444 F,0,175141,175687,0.5,0 S,4,175141,175687,0.4528302,0.4444444 F,0,175687,176232,0.5,0 S,4,175687,176232,0.4528302,0.4444444 F,0,176232,176778,0.5,0 S,4,176232,176778,0.4528302,0.4444444 F,0,176778,177323,0.5,0 S,4,176778,177323,0.4528302,0.4444444 F,0,177323,177869,0.5,0 S,4,177323,177869,0.4528302,0.4444444 F,0,177869,178414,0.5,0 S,4,177869,178414,0.4528302,0.4444444 F,0,178414,178960,0.5,0 S,4,178414,178960,0.4528302,0.4444444 F,0,178960,179505,0.5,0 S,4,178960,179505,0.4528302,0.4444444 F,0,179505,180051,0.5,0 S,4,179505,180051,0.4528302,0.4444444 F,0,180051,180596,0.5,0 S,4,180051,180596,0.4528302,0.4444444 F,0,180596,181141,0.5,0 S,4,180596,181141,0.4528302,0.4444444 F,0,181141,181687,0.5,0 S,4,181141,181687,0.4528302,0.4444444 F,0,181687,182232,0.5,0 S,4,181687,182232,0.4528302,0.4444444 F,0,182232,182778,0.5,0 S,4,182232,182778,0.4528302,0.4444444 F,0,182778,183323,0.5,0 S,4,182778,183323,0.4528302,0.4444444 F,0,183323,183869,0.5,0 S,4,183323,183869,0.4528302,0.4444444 F,0,183869,184414,0.5,0 S,4,183869,184414,0.4528302,0.4444444 F,0,184414,184960,0.5,0 S,4,184414,184960,0.4528302,0.4444444 F,0,184960,185505,0.5,0 S,4,184960,185505,0.4528302,0.4444444 F,0,185505,186051,0.5,0 S,4,185505,186051,0.4528302,0.4444444 F,0,186051,186596,0.5,0 S,4,186051,186596,0.4528302,0.4444444 F,0,186596,187141,0.5,0 S,4,186596,187141,0.4528302,0.4444444 F,0,187141,187687,0.5,0 S,4,187141,187687,0.4528302,0.4444444
Sprite,Background,Centre,"SB\BG\BG_BW_B.jpg",320,240 S,0,1142,,0.4444444 F,0,1142,4414,0,0.2 F,0,4414,6596,0.6,0.2 F,0,21869,39324,0.2,0.5 F,0,39324,41505,0.5,0 F,0,109142,126596,0.2 F,0,126596,128778,0.2,0 F,0,135324,144051,0,0.8 F,0,187687,189869,0.5,0.2 F,0,189869,213869,0.2 F,0,213869,222596,0.2,0 F,0,222596,240051,0.2,0
Sprite,Background,Centre,"SB\BG\BG_BW.jpg",320,240 S,0,39324,,0.4444444 F,0,39324,54596,0.3 F,0,54596,56233,0.3,0
Sprite,Background,Centre,"BG.jpg",320,240 S,4,56778,57323,0.4528302,0.4444444 F,0,56778,74233,0.8 S,4,57323,57868,0.4528302,0.4444444 S,4,57868,58414,0.4528302,0.4444444 S,4,58414,58959,0.4528302,0.4444444 S,4,58959,59505,0.4528302,0.4444444 S,4,59505,60050,0.4528302,0.4444444 S,4,60050,60596,0.4528302,0.4444444 S,4,60596,61141,0.4528302,0.4444444 S,4,61141,61687,0.4528302,0.4444444 S,4,61687,62232,0.4528302,0.4444444 S,4,62232,62777,0.4528302,0.4444444 S,4,62777,63323,0.4528302,0.4444444 S,4,63323,63868,0.4528302,0.4444444 S,4,63868,64414,0.4528302,0.4444444 S,4,64414,64959,0.4528302,0.4444444 S,4,64959,65505,0.4528302,0.4444444 S,4,65505,66050,0.4528302,0.4444444 S,4,66050,66596,0.4528302,0.4444444 S,4,66596,67141,0.4528302,0.4444444 S,4,67141,67687,0.4528302,0.4444444 S,4,67687,68232,0.4528302,0.4444444 S,4,68232,68777,0.4528302,0.4444444 S,4,68777,69323,0.4528302,0.4444444 S,4,69323,69868,0.4528302,0.4444444 S,4,69868,70414,0.4528302,0.4444444 S,4,70414,70959,0.4528302,0.4444444 S,4,70959,71505,0.4528302,0.4444444 S,4,71505,72050,0.4528302,0.4444444 S,4,72050,72596,0.4528302,0.4444444 S,4,72596,73141,0.4528302,0.4444444 S,4,73141,73687,0.4528302,0.4444444 S,4,73687,74232,0.4528302,0.4444444
Sprite,Background,Centre,"BG.jpg",320,240 S,4,91687,92232,0.4528302,0.4444444 F,0,91687,109142,0.8 S,4,92232,92777,0.4528302,0.4444444 S,4,92777,93323,0.4528302,0.4444444 S,4,93323,93868,0.4528302,0.4444444 S,4,93868,94414,0.4528302,0.4444444 S,4,94414,94959,0.4528302,0.4444444 S,4,94959,95505,0.4528302,0.4444444 S,4,95505,96050,0.4528302,0.4444444 S,4,96050,96596,0.4528302,0.4444444 S,4,96596,97141,0.4528302,0.4444444 S,4,97141,97686,0.4528302,0.4444444 S,4,97686,98232,0.4528302,0.4444444 S,4,98232,98777,0.4528302,0.4444444 S,4,98777,99323,0.4528302,0.4444444 S,4,99323,99868,0.4528302,0.4444444 S,4,99868,100414,0.4528302,0.4444444 S,4,100414,100959,0.4528302,0.4444444 S,4,100959,101505,0.4528302,0.4444444 S,4,101505,102050,0.4528302,0.4444444 S,4,102050,102596,0.4528302,0.4444444 S,4,102596,103141,0.4528302,0.4444444 S,4,103141,103686,0.4528302,0.4444444 S,4,103686,104232,0.4528302,0.4444444 S,4,104232,104777,0.4528302,0.4444444 S,4,104777,105323,0.4528302,0.4444444 S,4,105323,105868,0.4528302,0.4444444 S,4,105868,106414,0.4528302,0.4444444 S,4,106414,106959,0.4528302,0.4444444 S,4,106959,107505,0.4528302,0.4444444 S,4,107505,108050,0.4528302,0.4444444 S,4,108050,108596,0.4528302,0.4444444 S,4,108596,109141,0.4528302,0.4444444
Sprite,Background,Centre,"BG.jpg",320,240 S,4,144051,144596,0.4528302,0.4444444 F,0,144051,187687,0.8 S,4,144596,145141,0.4528302,0.4444444 S,4,145141,145687,0.4528302,0.4444444 S,4,145687,146232,0.4528302,0.4444444 S,4,146232,146778,0.4528302,0.4444444 S,4,146778,147323,0.4528302,0.4444444 S,4,147323,147869,0.4528302,0.4444444 S,4,147869,148414,0.4528302,0.4444444 S,4,148414,148960,0.4528302,0.4444444 S,4,148960,149505,0.4528302,0.4444444 S,4,149505,150051,0.4528302,0.4444444 S,4,150051,150596,0.4528302,0.4444444 S,4,150596,151141,0.4528302,0.4444444 S,4,151141,151687,0.4528302,0.4444444 S,4,151687,152232,0.4528302,0.4444444 S,4,152232,152778,0.4528302,0.4444444 S,4,152778,153323,0.4528302,0.4444444 S,4,153323,153869,0.4528302,0.4444444 S,4,153869,154414,0.4528302,0.4444444 S,4,154414,154960,0.4528302,0.4444444 S,4,154960,155505,0.4528302,0.4444444 S,4,155505,156051,0.4528302,0.4444444 S,4,156051,156596,0.4528302,0.4444444 S,4,156596,157141,0.4528302,0.4444444 S,4,157141,157687,0.4528302,0.4444444 S,4,157687,158232,0.4528302,0.4444444 S,4,158232,158778,0.4528302,0.4444444 S,4,158778,159323,0.4528302,0.4444444 S,4,159323,159869,0.4528302,0.4444444 S,4,159869,160414,0.4528302,0.4444444 S,4,160414,160960,0.4528302,0.4444444 S,4,160960,161505,0.4528302,0.4444444 S,4,161505,162051,0.4528302,0.4444444 S,4,162051,162596,0.4528302,0.4444444 S,4,162596,163141,0.4528302,0.4444444 S,4,163141,163687,0.4528302,0.4444444 S,4,163687,164232,0.4528302,0.4444444 S,4,164232,164778,0.4528302,0.4444444 S,4,164778,165323,0.4528302,0.4444444 S,4,165323,165869,0.4528302,0.4444444 S,4,165869,166414,0.4528302,0.4444444 S,4,166414,166960,0.4528302,0.4444444 S,4,166960,167505,0.4528302,0.4444444 S,4,167505,168051,0.4528302,0.4444444 S,4,168051,168596,0.4528302,0.4444444 S,4,168596,169141,0.4528302,0.4444444 S,4,169141,169687,0.4528302,0.4444444 S,4,169687,170232,0.4528302,0.4444444 S,4,170232,170778,0.4528302,0.4444444 S,4,170778,171323,0.4528302,0.4444444 S,4,171323,171869,0.4528302,0.4444444 S,4,171869,172414,0.4528302,0.4444444 S,4,172414,172960,0.4528302,0.4444444 S,4,172960,173505,0.4528302,0.4444444 S,4,173505,174051,0.4528302,0.4444444 S,4,174051,174596,0.4528302,0.4444444 S,4,174596,175141,0.4528302,0.4444444 S,4,175141,175687,0.4528302,0.4444444 S,4,175687,176232,0.4528302,0.4444444 S,4,176232,176778,0.4528302,0.4444444 S,4,176778,177323,0.4528302,0.4444444 S,4,177323,177869,0.4528302,0.4444444 S,4,177869,178414,0.4528302,0.4444444 S,4,178414,178960,0.4528302,0.4444444 S,4,178960,179505,0.4528302,0.4444444 S,4,179505,180051,0.4528302,0.4444444 S,4,180051,180596,0.4528302,0.4444444 S,4,180596,181141,0.4528302,0.4444444 S,4,181141,181687,0.4528302,0.4444444 S,4,181687,182232,0.4528302,0.4444444 S,4,182232,182778,0.4528302,0.4444444 S,4,182778,183323,0.4528302,0.4444444 S,4,183323,183869,0.4528302,0.4444444 S,4,183869,184414,0.4528302,0.4444444 S,4,184414,184960,0.4528302,0.4444444 S,4,184960,185505,0.4528302,0.4444444 S,4,185505,186051,0.4528302,0.4444444 S,4,186051,186596,0.4528302,0.4444444 S,4,186596,187141,0.4528302,0.4444444 S,4,187141,187687,0.4528302,0.4444444
Sprite,Background,Centre,"SB\BG\BG_BW.jpg",320,240 S,0,74233,,0.4444444 F,0,74233,91687,0.2
Sprite,Background,Centre,"SB\NAMES\AscendanceHareimu.png",0,0 M,0,56778,,500,100 S,0,56778,,0.3 F,0,56778,74233,1 R,0,56778,74233,-0.2,-0.1
Sprite,Background,Centre,"SB\NAMES\AscendanceHareimu.png",0,0 M,0,91687,,500,100 S,0,91687,,0.3 F,0,91687,109142,1 R,0,91687,109142,-0.2,-0.1
Sprite,Background,Centre,"SB\NAMES\AscendanceHareimu.png",0,0 M,0,144051,,500,100 S,0,144051,,0.3 F,0,144051,187687,1 R,0,144051,187687,-0.2,-0.1
Sprite,Background,Centre,"SB\MLG\3.png",0,0 M,0,146778,,504,388 S,0,146778,,0.4 R,0,146778,,0.04303316 F,0,146778,148414,1 F,0,148414,148714,1,0
Sprite,Background,Centre,"SB\MLG\4.png",0,0 M,0,147051,,393,306 S,0,147051,,0.4 R,0,147051,,-0.03393922 F,0,147051,148414,1 F,0,148414,148714,1,0
Sprite,Background,Centre,"SB\MLG\5.png",0,0 M,0,147187,,513,250 S,0,147187,,0.4 R,0,147187,,-0.09677954 F,0,147187,148414,1 F,0,148414,148714,1,0
Sprite,Background,Centre,"SB\MLG\6.png",0,0 M,0,147324,,267,352 S,0,147324,,0.4 R,0,147324,,-0.08897038 F,0,147324,148414,1 F,0,148414,148714,1,0
Sprite,Background,Centre,"SB\MLG\7.png",0,0 M,0,147597,,137,276 S,0,147597,,0.4 R,0,147597,,-0.09914284 F,0,147597,148414,1 F,0,148414,148714,1,0
Sprite,Background,Centre,"SB\MLG\8.png",0,0 M,0,147733,,256,179 S,0,147733,,0.4 R,0,147733,,-0.04794959 F,0,147733,148414,1 F,0,148414,148714,1,0
Sprite,Background,Centre,"SB\MLG\9.png",0,0 M,0,147869,,513,250 S,0,147869,,0.4 R,0,147869,,-0.02387294 F,0,147869,148414,1 F,0,148414,148714,1,0
Sprite,Background,Centre,"SB\MLG\10.png",0,0 M,0,148005,,393,248 S,0,148005,,0.4 R,0,148005,,0.07970273 F,0,148005,148414,1 F,0,148414,148714,1,0
Sprite,Background,Centre,"SB\MLG\11.png",0,0 M,0,148142,,512,313 S,0,148142,,0.4 R,0,148142,,-0.08658127 F,0,148142,148414,1 F,0,148414,148714,1,0
Sprite,Background,Centre,"SB\MLG\2.png",0,0 M,0,155505,,152,299 S,0,155505,,0.4 R,0,155505,,-0.06401057 F,0,155505,157142,1 F,0,157142,157442,1,0
Sprite,Background,Centre,"SB\MLG\3.png",0,0 M,0,155778,,301,197 S,0,155778,,0.4 R,0,155778,,-0.01446269 F,0,155778,157142,1 F,0,157142,157442,1,0
Sprite,Background,Centre,"SB\MLG\4.png",0,0 M,0,156051,,489,197 S,0,156051,,0.4 R,0,156051,,-0.0440044 F,0,156051,157142,1 F,0,157142,157442,1,0
Sprite,Background,Centre,"SB\MLG\5.png",0,0 M,0,156324,,378,352 S,0,156324,,0.4 R,0,156324,,-0.0249589 F,0,156324,157142,1 F,0,157142,157442,1,0
Sprite,Background,Centre,"SB\MLG\6.png",0,0 M,0,156460,,497,352 S,0,156460,,0.4 R,0,156460,,0.05417404 F,0,156460,157142,1 F,0,157142,157442,1,0
Sprite,Background,Centre,"SB\MLG\7.png",0,0 M,0,156596,,201,173 S,0,156596,,0.4 R,0,156596,,0.05564739 F,0,156596,157142,1 F,0,157142,157442,1,0
Sprite,Background,Centre,"SB\MLG\8.png",0,0 M,0,156732,,312,172 S,0,156732,,0.4 R,0,156732,,0.06700199 F,0,156732,157142,1 F,0,157142,157442,1,0
Sprite,Background,Centre,"SB\MLG\9.png",0,0 M,0,156869,,199,335 S,0,156869,,0.4 R,0,156869,,-0.08977547 F,0,156869,157142,1 F,0,157142,157442,1,0
Sprite,Background,Centre,"SB\MLG\10.png",0,0 M,0,157142,,454,389 F,0,157142,,1 S,0,157142,,0.4 R,0,157142,,0.06202563 F,0,157142,157442,1,0
//Storyboard Layer 1 (Fail)
//Storyboard Layer 2 (Pass)
//Storyboard Layer 3 (Foreground)
//Storyboard Sound Samples

[TimingPoints]
4415,545.454545454546,4,2,22,75,1,0
4415,-133.333333333333,4,2,22,75,0,0
21869,-100,4,2,22,80,0,0
56778,-71.4285714285714,4,2,22,82,0,1
65369,-71.4285714285714,4,2,22,82,0,0
65505,-71.4285714285714,4,2,22,72,0,1
72051,-71.4285714285714,4,2,22,82,0,1
72596,-71.4285714285714,4,2,22,62,0,1
73142,-71.4285714285714,4,2,22,52,0,0
73687,-71.4285714285714,4,2,22,42,0,0
74233,-100,4,2,22,62,0,0
83233,-76.9230769230769,4,2,22,62,0,0
91687,-76.9230769230769,4,2,22,82,0,1
106960,-100,4,2,22,82,0,1
107505,-100,4,2,22,62,0,1
108051,-100,4,2,22,52,0,0
108596,-100,4,2,22,42,0,0
109142,-100,4,2,22,52,0,0
124415,-100,4,2,22,62,0,0
126596,-100,4,2,22,72,0,0
144051,-76.9230769230769,4,2,22,92,0,1
161369,-76.9230769230769,4,2,22,92,0,0
161505,-76.9230769230769,4,2,22,82,0,1
169142,-76.9230769230769,4,2,22,82,0,0
170233,-76.9230769230769,4,2,22,82,0,1
187687,-76.9230769230769,4,2,22,82,0,0
187824,-100,4,2,22,42,0,0

[Colours]
Combo1 : 255,159,43
Combo2 : 255,80,21
Combo3 : 255,0,0
Combo4 : 192,192,192
SliderBorder : 255,228,145
SliderTrackOverride : 48,22,14

[HitObjects]
78,60,4415,5,4,1:0:0:0:
236,300,5505,2,0,B|299:237|337:196|342:120|270:62|177:38|121:87|111:164|142:213|198:249|278:260|340:254|391:234|457:194|480:151|481:110|447:42|391:25|319:21|276:32|236:51|209:107|157:186|88:199|33:152|31:70|74:19|191:4|292:28|351:79|375:166|371:254|331:307|273:342|204:357|128:345,1,1380.00005264282,0|0,0:0|0:0,0:0:0:0:
348,72,10960,6,0,P|272:74|204:93,2,129.375004935265,2|2|2,0:0|0:0|0:0,0:0:0:0:
196,78,12051,2,0,P|139:134|172:226,1,172.500006580353,2|2,0:0|0:0,0:0:0:0:
384,273,13142,5,0,0:0:0:0:
199,276,13960,1,0,0:0:0:0:
314,215,14233,2,0,L|460:232,2,129.375004935265,2|2|2,0:0|0:0|0:0,0:0:0:0:
172,277,15324,6,0,P|135:184|204:123,1,172.500006580353,2|0,0:0|0:0,0:0:0:0:
313,111,16142,1,0,0:0:0:0:
205,88,16415,2,0,L|61:76,2,129.375004935265,2|2|2,0:0|0:0|0:0,0:0:0:0:
380,104,17505,5,2,0:0:0:0:
235,154,19687,2,0,L|385:175,2,129.375004935265,2|2|2,0:0|0:0|0:0,0:0:0:0:
116,275,20778,2,0,L|442:239,1,301.875011515618,2|0,0:0|0:0,0:0:0:0:
137,143,21869,5,4,1:0:0:0:
314,271,22415,2,0,L|322:133,1,115,2|0,0:0|0:0,0:0:0:0:
161,115,22960,2,0,L|415:100,2,230,2|0|2,0:0|0:0|0:0,0:0:0:0:
402,316,24869,2,0,L|411:197,1,115,2|0,0:0|0:0,0:0:0:0:
276,212,25415,2,0,L|157:197,2,115,2|0|2,0:0|0:0|0:0,0:0:0:0:
431,359,26233,6,0,B|498:315|511:270|494:190|442:89|368:71|308:80|264:115|238:151|188:244|152:260|36:190|98:50|186:12|265:32|336:90|346:169|327:236|282:307|201:354|150:324,1,920,2|2,0:0|0:0,0:0:0:0:
66,211,28824,2,0,L|279:225,1,172.5,2|2,0:0|0:0,0:0:0:0:
428,255,29505,2,0,L|171:293,1,230,2|2,0:0|0:0,0:0:0:0:
431,117,30596,5,0,0:0:0:0:
235,57,31142,2,0,P|169:140|240:225,1,230,2|2,0:0|0:0,0:0:0:0:
423,254,32233,2,0,L|173:283,1,230,2|2,0:0|0:0,0:0:0:0:
369,353,33596,6,0,L|378:231,1,115,2|2,0:0|0:0,0:0:0:0:
260,189,34142,2,0,L|403:171,1,115,0|2,0:0|0:0,0:0:0:0:
491,161,34687,1,0,0:0:0:0:
289,109,34960,5,2,0:0:0:0:
96,278,35505,2,0,P|55:182|146:109,1,230,2|2,0:0|0:0,0:0:0:0:
367,97,36869,1,2,0:0:0:0:
249,47,37142,2,0,L|49:76,2,172.5,2|2|2,0:0|0:0|0:0,0:0:0:0:
448,192,38233,2,0,L|205:165,1,230,2|2,0:0|0:0,0:0:0:0:
470,53,39324,5,4,1:0:0:0:
102,88,40415,2,0,L|80:321,1,230,2|0,0:0|0:0,0:0:0:0:
371,153,41505,6,0,L|137:153,1,230,2|0,0:0|0:0,0:0:0:0:
431,316,42596,2,0,L|410:88,1,230,2|0,0:0|0:0,0:0:0:0:
64,64,43687,2,0,P|215:200|64:337,1,460,2|0,0:0|0:0,0:0:0:0:
427,339,45869,6,0,P|378:338|204:128,1,345,2|0,0:0|0:0,0:0:0:0:
348,92,46960,2,0,L|362:224,1,115,2|0,0:0|0:0,0:0:0:0:
187,213,47505,2,0,P|138:154|195:94,1,172.5,2|0,0:0|0:0,0:0:0:0:
337,94,48051,5,6,0:0:0:0:
122,262,48869,1,0,0:0:0:0:
323,214,49142,2,0,L|439:213,1,115,2|0,0:0|0:0,0:0:0:0:
189,214,49687,2,0,L|73:213,1,115,2|0,0:0|0:0,0:0:0:0:
323,214,50233,6,0,P|396:135|320:64,1,230,2|0,0:0|0:0,0:0:0:0:
209,61,51051,1,0,0:0:0:0:
437,213,51324,2,0,L|323:214,1,115,2|0,0:0|0:0,0:0:0:0:
74,213,51869,2,0,L|189:214,1,115,2|0,0:0|0:0,0:0:0:0:
420,212,52415,6,0,B|460:187|475:116|475:116|358:115,1,230,2|0,0:0|0:0,0:0:0:0:
107,91,53505,2,0,P|209:137|255:239,1,230,2|2,0:0|0:0,0:0:0:0:
140,241,54324,1,2,0:0:0:0:
360,329,54596,6,0,P|456:204|281:61,1,402.5,2|0,0:0|0:0,0:0:0:0:
109,88,55687,2,0,P|64:151|130:215,1,172.5,2|0,0:0|0:0,0:0:0:0:
416,95,56233,5,8,0:0:0:0:
122,97,56778,6,0,L|-1:112,2,80.499997543335,6|0|2,1:0|0:0|0:0,0:0:0:0:
404,227,57187,2,0,L|202:211,1,160.99999508667,2|2,0:0|0:0,0:0:0:0:
387,141,57596,2,0,L|411:38,1,80.499997543335,2|2,0:0|0:0,0:0:0:0:
181,334,57869,6,0,L|164:229,1,80.499997543335,2|0,1:0|0:0,0:0:0:0:
285,229,58142,1,2,0:0:0:0:
85,230,58278,2,0,P|41:165|135:113,1,160.99999508667,2|2,0:0|0:0,0:0:0:0:
175,102,58687,2,0,L|285:102,1,80.499997543335,2|2,0:0|0:0,0:0:0:0:
485,210,58960,5,2,1:0:0:0:
404,209,59096,1,0,0:0:0:0:
324,209,59232,1,2,0:0:0:0:
89,329,59369,2,0,P|52:258|126:193,1,160.99999508667,2|2,0:0|0:0,0:0:0:0:
213,194,59778,2,0,L|110:194,1,80.499997543335,2|2,0:0|0:0,0:0:0:0:
355,295,60051,6,0,L|471:296,2,80.499997543335,2|0|2,1:0|0:0|0:0,0:0:0:0:
123,255,60460,2,0,L|297:254,1,160.99999508667,2|2,0:0|0:0,0:0:0:0:
159,338,60869,2,0,L|60:339,1,80.499997543335,2|2,0:0|0:0,0:0:0:0:
411,316,61142,6,0,L|419:225,1,80.499997543335,2|0,1:0|0:0,0:0:0:0:
320,202,61415,1,2,0:0:0:0:
114,176,61551,2,0,L|297:155,1,160.99999508667,2|2,0:0|0:0,0:0:0:0:
386,192,61960,2,0,L|497:177,1,80.499997543335,2|2,0:0|0:0,0:0:0:0:
226,282,62233,6,0,L|124:299,1,80.499997543335,2|0,1:0|0:0,0:0:0:0:
307,328,62505,1,2,0:0:0:0:
71,245,62642,2,0,L|61:67,1,160.99999508667,2|2,0:0|0:0,0:0:0:0:
191,182,63051,2,0,L|92:190,1,80.499997543335,2|2,0:0|0:0,0:0:0:0:
391,322,63324,6,0,L|404:230,1,80.499997543335,2|0,1:0|0:0,0:0:0:0:
293,209,63596,1,2,0:0:0:0:
156,276,63733,2,0,L|143:182,1,80.499997543335,2|8,0:0|0:0,0:0:0:0:
236,144,64005,1,2,0:0:0:0:
443,223,64142,2,0,L|453:119,1,80.499997543335,2|2,0:0|0:0,0:0:0:0:
106,193,64415,6,0,L|94:103,1,80.499997543335,2|0,1:0|0:0,0:0:0:0:
184,63,64688,1,2,0:0:0:0:
416,168,64824,2,0,L|497:168,2,80.499997543335,2|10|2,0:0|0:0|0:0,0:0:0:0:
180,263,65233,2,0,L|72:263,1,80.499997543335,2|2,0:0|0:0,0:0:0:0:
376,359,65505,6,0,P|475:260|342:157,1,321.99999017334,4|10,1:0|0:0,0:0:0:0:
243,152,66187,1,0,0:0:0:0:
372,153,66324,2,0,L|498:153,1,80.499997543335,2|2,0:0|0:0,0:0:0:0:
176,243,66596,2,0,L|-8:243,1,160.99999508667,0|2,1:0|0:0,0:0:0:0:
102,208,67005,1,0,0:0:0:0:
325,215,67142,2,0,L|437:215,1,80.499997543335,10|2,0:0|0:0,0:0:0:0:
497,224,67415,2,0,L|406:224,1,80.499997543335,2|0,0:0|0:0,0:0:0:0:
204,347,67687,6,0,P|116:227|263:124,1,321.99999017334,2|10,1:0|0:0,0:0:0:0:
354,180,68369,2,0,L|357:79,1,80.499997543335,0|2,0:0|0:0,0:0:0:0:
220,55,68642,1,2,0:0:0:0:
463,321,68778,6,0,L|474:143,1,160.99999508667,0|2,1:0|0:0,0:0:0:0:
349,113,69187,1,0,0:0:0:0:
112,229,69324,2,0,L|101:142,1,80.499997543335,10|2,0:0|0:0,0:0:0:0:
311,146,69596,2,0,L|396:134,1,80.499997543335,2|2,0:0|0:0,0:0:0:0:
129,356,69869,6,0,L|119:263,1,80.499997543335,2|0,1:0|0:0,0:0:0:0:
243,252,70142,2,0,L|236:163,1,80.499997543335,2|0,0:0|0:0,0:0:0:0:
36,162,70415,2,0,L|131:149,1,80.499997543335,10|2,0:0|0:0,0:0:0:0:
238,191,70687,2,0,L|147:181,1,80.499997543335,2|2,0:0|0:0,0:0:0:0:
370,294,70960,6,0,L|389:118,1,160.99999508667,0|2,1:0|0:0,0:0:0:0:
252,152,71369,1,0,0:0:0:0:
472,50,71505,2,0,L|302:72,1,160.99999508667,10|2,0:0|0:0,0:0:0:0:
219,87,71915,1,2,0:0:0:0:
450,324,72051,6,0,P|494:220|432:177,1,160.99999508667,2|2,1:0|0:0,0:0:0:0:
378,168,72460,1,2,0:0:0:0:
121,324,72596,2,0,P|77:220|139:177,1,160.99999508667,10|2,0:0|0:0,0:0:0:0:
193,168,73005,1,2,0:0:0:0:
334,167,73142,6,0,L|159:169,1,160.99999508667,2|2,1:0|0:0,0:0:0:0:
268,132,73551,1,2,0:0:0:0:
391,221,73687,2,0,L|408:134,1,80.499997543335,10|2,0:0|0:0,0:0:0:0:
270,330,73960,2,0,L|252:242,1,80.499997543335,2|2,0:0|0:0,0:0:0:0:
471,219,74233,5,6,1:0:0:0:
215,160,74505,2,0,L|371:142,1,115,2|10,0:0|0:0,0:0:0:0:
110,278,74915,2,0,L|82:141,1,115,2|0,0:0|0:0,0:0:0:0:
312,108,75324,5,2,1:0:0:0:
160,83,75596,1,2,0:0:0:0:
312,108,75869,1,10,0:0:0:0:
160,83,76142,1,2,0:0:0:0:
239,63,76278,1,2,0:0:0:0:
438,20,76415,5,6,1:0:0:0:
252,62,76687,2,0,L|269:195,1,115,2|10,0:0|0:0,0:0:0:0:
474,236,77096,2,0,L|330:254,1,115,2|0,0:0|0:0,0:0:0:0:
141,243,77505,5,2,1:0:0:0:
310,282,77778,1,2,0:0:0:0:
310,282,78051,1,10,0:0:0:0:
141,243,78324,2,0,L|126:171,1,57.5,2|2,0:0|0:0,0:0:0:0:
333,104,78596,5,6,1:0:0:0:
138,41,78869,2,0,L|153:180,1,115,2|10,0:0|0:0,0:0:0:0:
367,301,79278,2,0,L|376:164,1,115,2|0,0:0|0:0,0:0:0:0:
173,149,79687,5,2,1:0:0:0:
297,141,79960,1,2,0:0:0:0:
433,129,80233,1,10,0:0:0:0:
309,179,80505,2,0,L|237:170,1,57.5,2|2,0:0|0:0,0:0:0:0:
20,76,80778,5,6,1:0:0:0:
211,29,81051,2,0,L|354:43,1,115,2|10,0:0|0:0,0:0:0:0:
92,233,81460,2,0,L|78:104,1,115,2|2,0:0|0:0,0:0:0:0:
322,79,81869,5,2,1:0:0:0:
193,66,82142,1,2,0:0:0:0:
322,79,82415,2,0,L|327:148,1,57.5,10|2,0:0|0:0,0:0:0:0:
465,181,82687,2,0,L|457:257,1,57.5,2|2,0:0|0:0,0:0:0:0:
193,287,82960,5,6,1:0:0:0:
364,343,83233,2,0,P|397:242|338:222,1,149.499993156433,2|8,0:0|0:0,0:0:0:0:
168,223,83642,2,0,P|141:147|215:103,1,149.499993156433,2|0,0:0|0:0,0:0:0:0:
412,91,84051,5,2,1:0:0:0:
408,196,84324,1,2,0:0:0:0:
255,201,84596,1,10,0:0:0:0:
408,196,84869,2,0,L|320:195,1,74.7499965782167,2|2,0:0|0:0,0:0:0:0:
96,194,85142,5,6,1:0:0:0:
283,298,85415,2,0,P|304:216|223:189,1,149.499993156433,2|8,0:0|0:0,0:0:0:0:
61,136,85824,2,0,P|154:149|207:113,1,149.499993156433,2|0,0:0|0:0,0:0:0:0:
410,104,86233,5,2,1:0:0:0:
284,100,86505,1,2,0:0:0:0:
150,93,86778,1,10,0:0:0:0:
284,100,87051,2,0,L|366:80,1,74.7499965782167,2|2,0:0|0:0,0:0:0:0:
90,50,87324,5,6,1:0:0:0:
269,100,87596,2,0,L|263:253,1,149.499993156433,2|8,0:0|0:0,0:0:0:0:
38,304,88005,2,0,L|207:319,1,149.499993156433,2|0,0:0|0:0,0:0:0:0:
429,348,88415,5,2,1:0:0:0:
259,321,88687,1,2,0:0:0:0:
262,187,88960,1,10,0:0:0:0:
419,190,89233,2,0,L|426:96,1,74.7499965782167,2|2,0:0|0:0,0:0:0:0:
166,47,89505,5,6,1:0:0:0:
326,85,89778,2,0,P|352:159|299:235,1,149.499993156433,2|10,0:0|0:0,0:0:0:0:
99,287,90187,2,0,L|16:300,2,74.7499965782167,2|0|2,0:0|0:0|0:0,0:0:0:0:
321,240,90596,2,0,L|505:262,1,149.499993156433,2|2,1:0|0:0,0:0:0:0:
249,129,91142,2,0,L|164:144,1,74.7499965782167,10|2,0:0|0:0,0:0:0:0:
303,203,91415,2,0,L|378:214,1,74.7499965782167,2|2,0:0|0:0,0:0:0:0:
161,266,91687,6,0,P|98:216|79:136,1,149.499993156433,4|0,1:0|0:0,0:0:0:0:
228,141,92233,2,0,L|320:141,2,74.7499965782167,10|2|2,0:0|0:0|0:0,0:0:0:0:
96,107,92642,1,2,0:0:0:0:
320,239,92778,6,0,L|476:240,1,149.499993156433,0|2,1:0|0:0,0:0:0:0:
244,239,93324,2,0,L|251:155,1,74.7499965782167,10|2,0:0|0:0,0:0:0:0:
381,94,93596,1,2,0:0:0:0:
119,262,93869,6,0,P|105:165|154:130,1,149.499993156433,2|0,1:0|0:0,0:0:0:0:
399,322,94415,2,0,L|392:238,1,74.7499965782167,10|2,0:0|0:0,0:0:0:0:
262,207,94687,1,2,0:0:0:0:
393,175,94824,1,2,0:0:0:0:
169,187,94960,6,0,P|101:153|79:66,1,149.499993156433,0|2,1:0|0:0,0:0:0:0:
339,240,95505,2,0,L|350:160,1,74.7499965782167,10|2,0:0|0:0,0:0:0:0:
480,249,95778,1,2,0:0:0:0:
253,253,95915,5,2,0:0:0:0:
227,184,96051,2,0,P|240:141|338:92,1,149.499993156433,2|2,1:0|0:0,0:0:0:0:
64,78,96596,2,0,L|173:80,1,74.7499965782167,10|2,0:0|0:0,0:0:0:0:
32,168,96869,1,2,0:0:0:0:
302,302,97005,5,2,0:0:0:0:
374,287,97142,2,0,P|405:267|450:167,1,149.499993156433,0|2,1:0|0:0,0:0:0:0:
189,109,97687,1,10,0:0:0:0:
320,141,97824,2,0,L|399:140,1,74.7499965782167,2|2,0:0|0:0,0:0:0:0:
164,289,98096,5,2,0:0:0:0:
112,238,98233,2,0,P|111:201|194:141,1,149.499993156433,2|0,1:0|0:0,0:0:0:0:
456,82,98778,2,0,L|377:82,2,74.7499965782167,10|2|2,0:0|0:0|0:0,0:0:0:0:
250,231,99187,5,2,0:0:0:0:
179,209,99324,2,0,P|130:160|111:72,1,149.499993156433,2|2,1:0|0:0,0:0:0:0:
185,88,99733,1,2,0:0:0:0:
390,280,99869,2,0,L|368:198,1,74.7499965782167,10|2,0:0|0:0,0:0:0:0:
145,277,100142,2,0,L|70:276,1,74.7499965782167,2|0,0:0|0:0,0:0:0:0:
333,273,100415,6,0,P|410:236|434:166,1,149.499993156433,6|0,1:0|0:0,0:0:0:0:
171,243,100960,2,0,L|96:242,2,74.7499965782167,10|2|2,0:0|0:0|0:0,0:0:0:0:
302,170,101369,1,2,0:0:0:0:
78,168,101505,6,0,P|43:238|84:310,1,149.499993156433,0|2,1:0|0:0,0:0:0:0:
333,155,102051,2,0,L|246:154,1,74.7499965782167,10|2,0:0|0:0,0:0:0:0:
127,80,102324,1,2,0:0:0:0:
388,223,102596,6,0,L|407:63,1,149.499993156433,2|0,1:0|0:0,0:0:0:0:
143,222,103142,2,0,L|128:137,1,74.7499965782167,10|2,0:0|0:0,0:0:0:0:
261,76,103415,1,2,0:0:0:0:
130,320,103551,1,2,0:0:0:0:
352,316,103687,6,0,P|405:268|382:201,1,149.499993156433,0|2,1:0|0:0,0:0:0:0:
119,69,104233,2,0,L|214:68,1,74.7499965782167,10|2,0:0|0:0,0:0:0:0:
324,96,104505,1,2,0:0:0:0:
96,287,104642,5,2,0:0:0:0:
60,223,104778,2,0,P|64:186|147:119,1,149.499993156433,2|2,1:0|0:0,0:0:0:0:
386,144,105324,2,0,L|284:146,1,74.7499965782167,10|2,0:0|0:0,0:0:0:0:
461,144,105596,1,2,0:0:0:0:
208,240,105733,5,2,0:0:0:0:
151,196,105869,2,0,P|145:168|237:93,1,149.499993156433,0|2,1:0|0:0,0:0:0:0:
333,92,106278,1,0,0:0:0:0:
107,294,106415,2,0,L|257:294,1,149.499993156433,10|2,0:0|0:0,0:0:0:0:
182,90,106824,1,2,0:0:0:0:
405,90,106960,6,0,L|290:90,1,115,2|2,1:0|0:0,0:0:0:0:
348,293,107369,1,2,0:0:0:0:
107,294,107505,2,0,L|224:294,1,115,10|2,0:0|0:0,0:0:0:0:
164,91,107914,1,2,0:0:0:0:
405,294,108051,6,0,P|437:259|391:221,1,115,2|2,1:0|0:0,0:0:0:0:
339,164,108460,1,2,0:0:0:0:
110,218,108596,2,0,L|125:151,1,57.5,10|2,0:0|0:0,0:0:0:0:
325,77,108869,2,0,L|236:78,1,57.5,2|2,0:0|0:0,0:0:0:0:
65,81,109142,5,4,1:0:0:0:
353,293,110233,2,0,P|429:254|462:177,2,172.5,2|2|2,0:0|0:0|0:0,0:0:0:0:
154,293,111324,6,0,P|306:220|385:70,1,345,2|0,0:0|0:0,0:0:0:0:
154,294,112415,2,0,P|120:285|61:147,2,172.5,2|2|2,0:0|0:0|0:0,0:0:0:0:
384,299,113505,6,0,P|396:227|209:62,1,345,2|0,0:0|0:0,0:0:0:0:
359,143,114596,2,0,P|254:307|148:144,1,460,2|2,0:0|0:0,0:0:0:0:
411,72,116233,1,2,0:0:0:0:
128,334,116778,2,0,L|96:98,1,230,2|2,0:0|0:0,0:0:0:0:
397,291,117869,6,0,P|303:228|405:60,1,345,2|0,0:0|0:0,0:0:0:0:
195,282,118960,2,0,P|123:238|96:156,2,172.5,2|2|2,0:0|0:0|0:0,0:0:0:0:
397,233,120051,6,0,L|50:233,1,345,2|0,0:0|0:0,0:0:0:0:
283,241,121142,2,0,L|302:61,1,172.5,2|2,0:0|0:0,0:0:0:0:
129,71,121960,1,2,0:0:0:0:
361,362,122233,6,0,P|257:31|151:362,2,920,2|2|4,0:0|0:0|1:0,0:0:0:0:
245,164,127142,5,0,0:0:0:0:
131,363,127687,2,0,L|97:136,1,230,2|0,0:0|0:0,0:0:0:0:
328,133,128778,1,2,0:0:0:0:
135,292,129596,5,0,0:0:0:0:
251,294,129733,1,2,0:0:0:0:
135,292,129869,2,0,L|121:206,1,57.5,2|0,0:0|0:0,0:0:0:0:
241,224,130142,2,2,L|255:138,1,57.5
366,162,130415,1,2,0:0:0:0:
252,163,130551,1,2,0:0:0:0:
366,162,130687,2,0,L|380:76,1,57.5,2|0,0:0|0:0,0:0:0:0:
145,279,130960,6,0,P|68:228|160:157,1,230,2|0,0:0|0:0,0:0:0:0:
367,151,132051,1,2,0:0:0:0:
145,151,132324,1,2,0:0:0:0:
368,278,132869,6,0,P|471:156|369:34,1,345,2|0,0:0|0:0,0:0:0:0:
143,34,134233,1,2,0:0:0:0:
369,350,134505,1,2,0:0:0:0:
109,345,135324,5,2,1:0:0:0:
339,346,135869,2,0,P|305:239|207:183,2,230,2|2|2,0:0|1:0|0:0,0:0:0:0:
109,346,137505,5,2,0:0:0:0:
403,38,138051,1,0,1:0:0:0:
135,292,138324,1,2,0:0:0:0:
251,294,138461,1,2,0:0:0:0:
135,92,138597,2,0,L|192:92,1,57.5,2|2,0:0|0:0,0:0:0:0:
308,170,138870,2,0,L|242:172,1,57.5,2|2,0:0|0:0,0:0:0:0:
366,251,139143,1,2,0:0:0:0:
252,250,139279,1,2,0:0:0:0:
366,133,139415,2,0,L|427:133,1,57.5,2|2,1:0|0:0,0:0:0:0:
195,251,139687,6,0,P|109:217|56:94,1,230,2|2,1:0|0:0,0:0:0:0:
287,290,140505,1,0,1:0:0:0:
57,298,140778,2,0,L|184:298,1,115,2|2,1:0|0:0,0:0:0:0:
404,298,141324,1,0,1:0:0:0:
261,296,141596,6,0,P|186:157|312:61,1,345,2|2,0:0|0:0,0:0:0:0:
139,66,142687,1,0,1:0:0:0:
409,278,142960,2,0,L|426:152,1,115,2|2,0:0|0:0,0:0:0:0:
87,219,143505,2,0,L|78:144,3,57.5,8|0|0|0,0:0|0:0|0:0|0:0,0:0:0:0:
310,233,144051,6,0,P|429:188|479:108,1,224.24998973465,6|0,1:0|0:0,0:0:0:0:
256,68,144596,1,10,0:0:0:0:
181,68,144732,1,0,0:0:0:0:
256,68,144868,1,0,0:0:0:0:
331,69,145005,1,0,0:0:0:0:
106,283,145142,5,2,1:0:0:0:
43,244,145278,1,0,0:0:0:0:
54,170,145414,1,0,0:0:0:0:
130,170,145551,1,0,0:0:0:0:
354,208,145687,2,0,P|412:138|326:64,1,224.24998973465,10|0,0:0|0:0,0:0:0:0:
104,63,146233,6,0,P|47:141|130:208,1,224.24998973465,2|0,1:0|0:0,0:0:0:0:
373,234,146778,2,0,L|452:233,1,74.7499965782167,10|2,0:0|0:0,0:0:0:0:
329,250,147051,1,2,0:0:0:0:
449,194,147187,1,2,0:0:0:0:
203,296,147324,6,0,L|191:197,1,74.7499965782167,2|2,1:0|0:0,0:0:0:0:
73,220,147597,1,2,0:0:0:0:
192,123,147733,1,2,0:0:0:0:
449,194,147869,1,10,0:0:0:0:
329,192,148005,1,2,0:0:0:0:
448,257,148142,2,0,L|440:332,1,74.7499965782167,2|2,0:0|0:0,0:0:0:0:
180,339,148415,6,0,P|124:299|188:182,1,224.24998973465,6|0,1:0|0:0,0:0:0:0:
390,326,148960,1,10,0:0:0:0:
441,273,149096,1,0,0:0:0:0:
442,200,149232,1,0,0:0:0:0:
394,145,149369,1,0,0:0:0:0:
170,150,149505,6,0,L|94:149,1,74.7499965782167,2|0,1:0|0:0,0:0:0:0:
223,155,149778,2,0,L|318:156,1,74.7499965782167,2|0,0:0|0:0,0:0:0:0:
54,322,150051,2,0,L|44:226,1,74.7499965782167,8|0,0:0|0:0,0:0:0:0:
308,308,150324,2,0,L|399:311,1,74.7499965782167,2|0,0:0|0:0,0:0:0:0:
159,307,150596,6,0,P|90:251|147:149,1,224.24998973465,2|0,1:0|0:0,0:0:0:0:
384,86,151142,1,10,0:0:0:0:
309,86,151278,1,0,0:0:0:0:
234,86,151414,1,0,0:0:0:0:
159,86,151551,1,0,0:0:0:0:
382,294,151687,6,0,L|397:204,1,74.7499965782167,2|0,1:0|0:0,0:0:0:0:
263,196,151960,2,0,L|178:196,1,74.7499965782167,2|0,0:0|0:0,0:0:0:0:
431,185,152233,2,0,L|441:96,3,74.7499965782167,10|2|2|2,0:0|0:0|0:0|0:0,0:0:0:0:
202,233,152778,6,0,P|83:188|28:104,1,224.24998973465,6|0,1:0|0:0,0:0:0:0:
255,80,153324,2,0,L|340:80,1,74.7499965782167,10|0,0:0|0:0,0:0:0:0:
203,302,153596,2,0,L|123:302,1,74.7499965782167,0|0,0:0|0:0,0:0:0:0:
366,225,153869,5,2,1:0:0:0:
462,225,154005,1,2,0:0:0:0:
333,129,154142,1,2,0:0:0:0:
429,129,154278,1,2,0:0:0:0:
197,254,154415,2,0,P|155:194|228:78,1,224.24998973465,10|0,0:0|0:0,0:0:0:0:
470,239,154960,6,0,P|470:221|344:75,1,224.24998973465,2|0,1:0|0:0,0:0:0:0:
88,243,155505,1,10,0:0:0:0:
237,141,155778,2,0,L|137:139,1,74.7499965782167,2|2,0:0|0:0,0:0:0:0:
425,141,156051,6,0,L|435:217,1,74.7499965782167,2|2,1:0|0:0,0:0:0:0:
314,296,156324,1,2,0:0:0:0:
433,296,156460,1,2,0:0:0:0:
137,117,156596,1,10,0:0:0:0:
248,116,156732,1,2,0:0:0:0:
135,279,156869,2,0,L|124:191,1,74.7499965782167,2|2,0:0|0:0,0:0:0:0:
390,333,157142,6,0,P|458:241|387:199,1,224.24998973465,6|0,1:0|0:0,0:0:0:0:
172,241,157687,2,0,P|105:147|176:87,1,224.24998973465,10|0,0:0|0:0,0:0:0:0:
374,299,158233,6,0,L|384:218,1,74.7499965782167,2|0,1:0|0:0,0:0:0:0:
256,225,158505,2,0,L|176:225,1,74.7499965782167,2|0,0:0|0:0,0:0:0:0:
404,65,158778,2,0,L|307:65,1,74.7499965782167,8|0,0:0|0:0,0:0:0:0:
103,303,159051,2,0,L|93:228,1,74.7499965782167,2|0,0:0|0:0,0:0:0:0:
324,226,159324,6,0,B|398:226|398:226|398:151|398:151|318:152,1,224.24998973465,2|0,1:0|0:0,0:0:0:0:
61,151,159869,1,10,0:0:0:0:
135,150,160005,1,0,0:0:0:0:
210,150,160141,1,0,0:0:0:0:
285,150,160278,1,0,0:0:0:0:
61,312,160415,6,0,L|62:225,1,74.7499965782167,2|0,1:0|0:0,0:0:0:0:
286,236,160687,2,0,L|374:236,1,74.7499965782167,2|0,0:0|0:0,0:0:0:0:
97,232,160960,2,0,L|90:143,3,74.7499965782167,10|2|2|2,0:0|0:0|0:0|0:0,0:0:0:0:
331,159,161505,6,0,L|177:159,1,149.499993156433,6|2,1:0|3:0,0:0:0:0:
407,306,162051,2,0,P|442:225|383:179,1,149.499993156433,10|2,0:0|3:0,0:0:0:0:
181,159,162596,2,0,L|330:159,1,149.499993156433,2|2,1:0|3:0,0:0:0:0:
104,305,163142,2,0,L|74:154,1,149.499993156433,10|2,0:0|3:0,0:0:0:0:
407,306,163687,5,0,1:0:0:0:
180,192,163960,2,0,L|339:192,1,149.499993156433,2|10,3:0|0:0,0:0:0:0:
67,119,164505,2,0,L|224:120,2,149.499993156433,2|0|2,3:0|1:0|3:0,0:0:0:0:
330,181,165324,1,10,0:0:0:0:
67,265,165596,1,2,3:0:0:0:
445,265,165869,5,0,1:0:0:0:
295,267,166142,2,0,L|323:120,2,149.499993156433,2|10|2,3:0|0:0|3:0,0:0:0:0:
445,265,166960,1,0,1:0:0:0:
236,270,167233,2,0,L|337:157,2,149.499993156433,2|10|2,3:0|0:0|3:0,0:0:0:0:
445,265,168051,5,0,1:0:0:0:
182,109,168324,2,0,L|331:109,2,149.499993156433,2|10|2,3:0|0:0|3:0,0:0:0:0:
445,265,169142,5,0,1:0:0:0:
147,234,169415,1,2,3:0:0:0:
365,234,169687,1,10,0:0:0:0:
67,265,169960,1,2,3:0:0:0:
445,265,170233,6,0,L|446:99,1,149.499993156433,6|0,1:0|0:0,0:0:0:0:
211,127,170778,1,10,0:0:0:0:
301,126,170915,1,2,0:0:0:0:
211,127,171051,1,2,0:0:0:0:
301,126,171188,1,2,0:0:0:0:
66,264,171324,6,0,P|20:170|96:98,1,224.24998973465,2|0,1:0|0:0,0:0:0:0:
301,127,171869,1,10,0:0:0:0:
211,126,172006,1,2,0:0:0:0:
200,199,172142,1,2,0:0:0:0:
312,199,172279,1,2,0:0:0:0:
66,264,172415,6,0,P|40:204|145:94,1,224.24998973465,2|0,1:0|0:0,0:0:0:0:
432,144,172960,2,0,L|443:62,1,74.7499965782167,10|2,0:0|0:0,0:0:0:0:
321,69,173233,1,2,0:0:0:0:
440,69,173369,1,2,0:0:0:0:
217,305,173505,6,0,P|256:225|293:306,1,224.24998973465,2|0,1:0|0:0,0:0:0:0:
80,144,174051,2,0,L|69:62,1,74.7499965782167,10|2,0:0|0:0,0:0:0:0:
304,70,174324,1,2,0:0:0:0:
207,69,174460,1,2,0:0:0:0:
446,263,174596,6,0,P|483:164|405:92,1,224.24998973465,6|0,1:0|0:0,0:0:0:0:
207,266,175142,1,10,0:0:0:0:
304,267,175278,1,2,0:0:0:0:
207,266,175415,1,2,0:0:0:0:
196,169,175551,1,2,0:0:0:0:
419,168,175687,6,0,L|194:168,1,224.24998973465,2|0,1:0|0:0,0:0:0:0:
419,168,176233,2,0,L|426:91,1,74.7499965782167,10|2,0:0|0:0,0:0:0:0:
208,314,176505,1,2,0:0:0:0:
305,315,176641,1,2,0:0:0:0:
66,264,176778,6,0,P|40:204|145:94,1,224.24998973465,2|0,1:0|0:0,0:0:0:0:
356,284,177324,2,0,L|367:205,1,74.7499965782167,10|2,0:0|0:0,0:0:0:0:
146,209,177596,2,0,L|134:122,1,74.7499965782167,2|2,0:0|0:0,0:0:0:0:
423,263,177869,6,0,P|474:172|403:94,1,224.24998973465,2|0,1:0|0:0,0:0:0:0:
92,92,178415,2,0,L|202:92,1,74.7499965782167,10|2,0:0|0:0,0:0:0:0:
420,292,178687,1,2,0:0:0:0:
344,290,178824,1,2,0:0:0:0:
61,301,178960,6,0,L|53:149,1,149.499993156433,6|0,1:0|0:0,0:0:0:0:
315,212,179505,2,0,L|154:212,1,149.499993156433,10|0,0:0|3:0,0:0:0:0:
241,211,179915,1,0,0:0:0:0:
451,301,180051,6,0,L|459:149,1,149.499993156433,2|0,1:0|0:0,0:0:0:0:
197,87,180596,2,0,L|47:87,1,149.499993156433,10|0,0:0|3:0,0:0:0:0:
392,92,181142,6,0,P|444:157|384:205,1,149.499993156433,2|0,1:0|0:0,0:0:0:0:
149,263,181687,2,0,L|307:262,1,149.499993156433,10|0,0:0|3:0,0:0:0:0:
373,260,182096,1,0,0:0:0:0:
109,261,182233,6,0,P|60:207|71:135,1,149.499993156433,2|0,1:0|0:0,0:0:0:0:
334,106,182778,2,0,L|484:106,1,149.499993156433,10|0,0:0|3:0,0:0:0:0:
138,115,183324,6,0,P|80:173|66:242,1,149.499993156433,6|0,1:0|0:0,0:0:0:0:
327,235,183869,2,0,L|157:235,1,149.499993156433,10|0,0:0|3:0,0:0:0:0:
102,236,184278,1,0,0:0:0:0:
327,238,184415,6,0,P|394:192|422:123,1,149.499993156433,2|0,1:0|0:0,0:0:0:0:
185,238,184960,2,0,P|118:192|90:123,1,149.499993156433,10|0,0:0|3:0,0:0:0:0:
443,134,185505,6,0,P|457:205|411:261,1,149.499993156433,2|0,1:0|0:0,0:0:0:0:
149,190,186051,2,0,L|66:187,1,74.7499965782167,10|0,0:0|0:0,0:0:0:0:
206,214,186324,2,0,L|220:125,1,74.7499965782167,0|0,3:0|0:0,0:0:0:0:
461,219,186596,6,0,L|474:140,1,74.7499965782167,2|0,1:0|0:0,0:0:0:0:
342,140,186869,2,0,L|252:140,1,74.7499965782167,0|0,3:0|0:0,0:0:0:0:
41,143,187142,2,0,L|149:141,1,74.7499965782167,10|0,0:0|0:0,0:0:0:0:
340,132,187415,2,0,L|432:134,1,74.7499965782167,0|0,3:0|0:0,0:0:0:0:
191,131,187687,5,4,1:0:0:0:
413,327,188505,2,0,L|424:211,1,115,0|2,0:0|0:0,0:0:0:0:
250,206,189051,2,0,L|235:66,1,115,0|2,0:0|0:0,0:0:0:0:
395,86,189596,1,2,0:0:0:0:
232,24,189869,6,0,P|118:132|261:245,1,345,2|0,0:0|0:0,0:0:0:0:
391,353,190960,2,0,L|414:233,1,115,2|0,0:0|0:0,0:0:0:0:
256,243,191505,2,0,L|137:219,1,115,2|0,0:0|0:0,0:0:0:0:
315,105,192051,6,0,L|68:133,1,230,2|0,0:0|0:0,0:0:0:0:
341,330,193142,2,0,P|398:237|325:148,1,230,2|2,0:0|0:0,0:0:0:0:
180,137,193960,1,2,0:0:0:0:
360,42,194233,6,0,B|441:98|455:143|450:190|426:222|401:252|326:276|253:266|176:182,2,460,2|2|2,0:0|0:0|0:0,0:0:0:0:
256,192,196687,12,2,198596,0:0:0:0:
164,328,199687,6,0,B|82:217|116:143|196:130|244:186|254:228|228:262|156:287|127:288|81:287|48:273|21:255,1,460,2|2,0:0|0:0,0:0:0:0:
389,353,204051,2,0,P|469:256|360:84,1,345,2|2,0:0|0:0,0:0:0:0:
175,69,205142,5,6,0:0:0:0:
393,117,206233,2,0,L|261:145,1,115,2|2,0:0|0:0,0:0:0:0:
124,205,206778,2,0,L|251:228,1,115,2|2,0:0|0:0,0:0:0:0:
380,254,207324,5,2,0:0:0:0:
185,353,208415,2,0,L|171:226,1,115,2|2,0:0|0:0,0:0:0:0:
322,224,208960,2,0,L|339:106,1,115,2|2,0:0|0:0,0:0:0:0:
159,63,209505,5,2,0:0:0:0:
353,48,210596,2,0,L|116:76,1,230,2|2,0:0|0:0,0:0:0:0:
295,130,211415,1,2,0:0:0:0:
452,242,211687,6,0,B|311:197|156:220|144:263|163:316|214:348|276:359|337:352,2,460,2|2|6,0:0|0:0|0:0,0:0:0:0:
256,192,214142,12,2,214892,0:0:0:0:
62,77,216051,6,0,P|124:136|291:98,1,230,2|0,0:0|0:0,0:0:0:0:
492,201,218233,2,0,P|406:179|283:248,1,230,2|0,0:0|0:0,0:0:0:0:
52,150,220415,5,2,0:0:0:0:
256,192,220687,12,4,222596,1:0:0:0:
