osu file format v14

[General]
AudioFilename: edit.mp3
AudioLeadIn: 0
PreviewTime: 143983
Countdown: 0
SampleSet: Soft
StackLeniency: 0.2
Mode: 0
LetterboxInBreaks: 0
EpilepsyWarning: 1
WidescreenStoryboard: 1

[Editor]
Bookmarks: 91687,109142,126596,135324,187687,222596
DistanceSpacing: 1
BeatDivisor: 8
GridSize: 4
TimelineZoom: 2.799999

[Metadata]
Title:Immortal Flame (feat. Anna Yvette)
TitleUnicode:Immortal Flame (feat. Anna Yvette)
Artist:Panda Eyes & Teminite
ArtistUnicode:Panda Eyes & Teminite
Creator:Sotarks
Version:NiNo's Insane
Source:
Tags:DubstepGutter DSG Akitoshi corinn Kin SnowNiNo_ corinn ascendance hareimu Mir PoNo Ponoyoshi
BeatmapID:1530620
BeatmapSetID:703957

[Difficulty]
HPDrainRate:5
CircleSize:4
OverallDifficulty:8
ApproachRate:9
SliderMultiplier:1.8
SliderTickRate:1

[Events]
//Background and Video events
0,0,"BG.jpg",0,0
//Break Periods
2,4615,21269
2,109342,125996
//Storyboard Layer 0 (Background)
Sprite,Background,Centre,"SB\BG\BG_BW_B.jpg",320,240 F,0,56778,57323,0.5,0 S,4,56778,57323,0.4528302,0.4444444 F,0,57323,57868,0.5,0 S,4,57323,57868,0.4528302,0.4444444 F,0,57868,58414,0.5,0 S,4,57868,58414,0.4528302,0.4444444 F,0,58414,58959,0.5,0 S,4,58414,58959,0.4528302,0.4444444 F,0,58959,59505,0.5,0 S,4,58959,59505,0.4528302,0.4444444 F,0,59505,60050,0.5,0 S,4,59505,60050,0.4528302,0.4444444 F,0,60050,60596,0.5,0 S,4,60050,60596,0.4528302,0.4444444 F,0,60596,61141,0.5,0 S,4,60596,61141,0.4528302,0.4444444 F,0,61141,61687,0.5,0 S,4,61141,61687,0.4528302,0.4444444 F,0,61687,62232,0.5,0 S,4,61687,62232,0.4528302,0.4444444 F,0,62232,62777,0.5,0 S,4,62232,62777,0.4528302,0.4444444 F,0,62777,63323,0.5,0 S,4,62777,63323,0.4528302,0.4444444 F,0,63323,63868,0.5,0 S,4,63323,63868,0.4528302,0.4444444 F,0,63868,64414,0.5,0 S,4,63868,64414,0.4528302,0.4444444 F,0,64414,64959,0.5,0 S,4,64414,64959,0.4528302,0.4444444 F,0,64959,65505,0.5,0 S,4,64959,65505,0.4528302,0.4444444 F,0,65505,66050,0.5,0 S,4,65505,66050,0.4528302,0.4444444 F,0,66050,66596,0.5,0 S,4,66050,66596,0.4528302,0.4444444 F,0,66596,67141,0.5,0 S,4,66596,67141,0.4528302,0.4444444 F,0,67141,67687,0.5,0 S,4,67141,67687,0.4528302,0.4444444 F,0,67687,68232,0.5,0 S,4,67687,68232,0.4528302,0.4444444 F,0,68232,68777,0.5,0 S,4,68232,68777,0.4528302,0.4444444 F,0,68777,69323,0.5,0 S,4,68777,69323,0.4528302,0.4444444 F,0,69323,69868,0.5,0 S,4,69323,69868,0.4528302,0.4444444 F,0,69868,70414,0.5,0 S,4,69868,70414,0.4528302,0.4444444 F,0,70414,70959,0.5,0 S,4,70414,70959,0.4528302,0.4444444 F,0,70959,71505,0.5,0 S,4,70959,71505,0.4528302,0.4444444 F,0,71505,72050,0.5,0 S,4,71505,72050,0.4528302,0.4444444 F,0,72050,72596,0.5,0 S,4,72050,72596,0.4528302,0.4444444 F,0,72596,73141,0.5,0 S,4,72596,73141,0.4528302,0.4444444 F,0,73141,73687,0.5,0 S,4,73141,73687,0.4528302,0.4444444 F,0,73687,74232,0.5,0 S,4,73687,74232,0.4528302,0.4444444
Sprite,Background,Centre,"SB\BG\BG_BW_B.jpg",320,240 F,0,91687,92232,0.5,0 S,4,91687,92232,0.4528302,0.4444444 F,0,92232,92777,0.5,0 S,4,92232,92777,0.4528302,0.4444444 F,0,92777,93323,0.5,0 S,4,92777,93323,0.4528302,0.4444444 F,0,93323,93868,0.5,0 S,4,93323,93868,0.4528302,0.4444444 F,0,93868,94414,0.5,0 S,4,93868,94414,0.4528302,0.4444444 F,0,94414,94959,0.5,0 S,4,94414,94959,0.4528302,0.4444444 F,0,94959,95505,0.5,0 S,4,94959,95505,0.4528302,0.4444444 F,0,95505,96050,0.5,0 S,4,95505,96050,0.4528302,0.4444444 F,0,96050,96596,0.5,0 S,4,96050,96596,0.4528302,0.4444444 F,0,96596,97141,0.5,0 S,4,96596,97141,0.4528302,0.4444444 F,0,97141,97686,0.5,0 S,4,97141,97686,0.4528302,0.4444444 F,0,97686,98232,0.5,0 S,4,97686,98232,0.4528302,0.4444444 F,0,98232,98777,0.5,0 S,4,98232,98777,0.4528302,0.4444444 F,0,98777,99323,0.5,0 S,4,98777,99323,0.4528302,0.4444444 F,0,99323,99868,0.5,0 S,4,99323,99868,0.4528302,0.4444444 F,0,99868,100414,0.5,0 S,4,99868,100414,0.4528302,0.4444444 F,0,100414,100959,0.5,0 S,4,100414,100959,0.4528302,0.4444444 F,0,100959,101505,0.5,0 S,4,100959,101505,0.4528302,0.4444444 F,0,101505,102050,0.5,0 S,4,101505,102050,0.4528302,0.4444444 F,0,102050,102596,0.5,0 S,4,102050,102596,0.4528302,0.4444444 F,0,102596,103141,0.5,0 S,4,102596,103141,0.4528302,0.4444444 F,0,103141,103686,0.5,0 S,4,103141,103686,0.4528302,0.4444444 F,0,103686,104232,0.5,0 S,4,103686,104232,0.4528302,0.4444444 F,0,104232,104777,0.5,0 S,4,104232,104777,0.4528302,0.4444444 F,0,104777,105323,0.5,0 S,4,104777,105323,0.4528302,0.4444444 F,0,105323,105868,0.5,0 S,4,105323,105868,0.4528302,0.4444444 F,0,105868,106414,0.5,0 S,4,105868,106414,0.4528302,0.4444444 F,0,106414,106959,0.5,0 S,4,106414,106959,0.4528302,0.4444444 F,0,106959,107505,0.5,0 S,4,106959,107505,0.4528302,0.4444444 F,0,107505,108050,0.5,0 S,4,107505,108050,0.4528302,0.4444444 F,0,108050,108596,0.5,0 S,4,108050,108596,0.4528302,0.4444444 F,0,108596,109141,0.5,0 S,4,108596,109141,0.4528302,0.4444444
Sprite,Background,Centre,"SB\BG\BG_BW_B.jpg",320,240 F,0,144051,144596,0.5,0 S,4,144051,144596,0.4528302,0.4444444 F,0,144596,145141,0.5,0 S,4,144596,145141,0.4528302,0.4444444 F,0,145141,145687,0.5,0 S,4,145141,145687,0.4528302,0.4444444 F,0,145687,146232,0.5,0 S,4,145687,146232,0.4528302,0.4444444 F,0,146232,146778,0.5,0 S,4,146232,146778,0.4528302,0.4444444 F,0,146778,147323,0.5,0 S,4,146778,147323,0.4528302,0.4444444 F,0,147323,147869,0.5,0 S,4,147323,147869,0.4528302,0.4444444 F,0,147869,148414,0.5,0 S,4,147869,148414,0.4528302,0.4444444 F,0,148414,148960,0.5,0 S,4,148414,148960,0.4528302,0.4444444 F,0,148960,149505,0.5,0 S,4,148960,149505,0.4528302,0.4444444 F,0,149505,150051,0.5,0 S,4,149505,150051,0.4528302,0.4444444 F,0,150051,150596,0.5,0 S,4,150051,150596,0.4528302,0.4444444 F,0,150596,151141,0.5,0 S,4,150596,151141,0.4528302,0.4444444 F,0,151141,151687,0.5,0 S,4,151141,151687,0.4528302,0.4444444 F,0,151687,152232,0.5,0 S,4,151687,152232,0.4528302,0.4444444 F,0,152232,152778,0.5,0 S,4,152232,152778,0.4528302,0.4444444 F,0,152778,153323,0.5,0 S,4,152778,153323,0.4528302,0.4444444 F,0,153323,153869,0.5,0 S,4,153323,153869,0.4528302,0.4444444 F,0,153869,154414,0.5,0 S,4,153869,154414,0.4528302,0.4444444 F,0,154414,154960,0.5,0 S,4,154414,154960,0.4528302,0.4444444 F,0,154960,155505,0.5,0 S,4,154960,155505,0.4528302,0.4444444 F,0,155505,156051,0.5,0 S,4,155505,156051,0.4528302,0.4444444 F,0,156051,156596,0.5,0 S,4,156051,156596,0.4528302,0.4444444 F,0,156596,157141,0.5,0 S,4,156596,157141,0.4528302,0.4444444 F,0,157141,157687,0.5,0 S,4,157141,157687,0.4528302,0.4444444 F,0,157687,158232,0.5,0 S,4,157687,158232,0.4528302,0.4444444 F,0,158232,158778,0.5,0 S,4,158232,158778,0.4528302,0.4444444 F,0,158778,159323,0.5,0 S,4,158778,159323,0.4528302,0.4444444 F,0,159323,159869,0.5,0 S,4,159323,159869,0.4528302,0.4444444 F,0,159869,160414,0.5,0 S,4,159869,160414,0.4528302,0.4444444 F,0,160414,160960,0.5,0 S,4,160414,160960,0.4528302,0.4444444 F,0,160960,161505,0.5,0 S,4,160960,161505,0.4528302,0.4444444 F,0,161505,162051,0.5,0 S,4,161505,162051,0.4528302,0.4444444 F,0,162051,162596,0.5,0 S,4,162051,162596,0.4528302,0.4444444 F,0,162596,163141,0.5,0 S,4,162596,163141,0.4528302,0.4444444 F,0,163141,163687,0.5,0 S,4,163141,163687,0.4528302,0.4444444 F,0,163687,164232,0.5,0 S,4,163687,164232,0.4528302,0.4444444 F,0,164232,164778,0.5,0 S,4,164232,164778,0.4528302,0.4444444 F,0,164778,165323,0.5,0 S,4,164778,165323,0.4528302,0.4444444 F,0,165323,165869,0.5,0 S,4,165323,165869,0.4528302,0.4444444 F,0,165869,166414,0.5,0 S,4,165869,166414,0.4528302,0.4444444 F,0,166414,166960,0.5,0 S,4,166414,166960,0.4528302,0.4444444 F,0,166960,167505,0.5,0 S,4,166960,167505,0.4528302,0.4444444 F,0,167505,168051,0.5,0 S,4,167505,168051,0.4528302,0.4444444 F,0,168051,168596,0.5,0 S,4,168051,168596,0.4528302,0.4444444 F,0,168596,169141,0.5,0 S,4,168596,169141,0.4528302,0.4444444 F,0,169141,169687,0.5,0 S,4,169141,169687,0.4528302,0.4444444 F,0,169687,170232,0.5,0 S,4,169687,170232,0.4528302,0.4444444 F,0,170232,170778,0.5,0 S,4,170232,170778,0.4528302,0.4444444 F,0,170778,171323,0.5,0 S,4,170778,171323,0.4528302,0.4444444 F,0,171323,171869,0.5,0 S,4,171323,171869,0.4528302,0.4444444 F,0,171869,172414,0.5,0 S,4,171869,172414,0.4528302,0.4444444 F,0,172414,172960,0.5,0 S,4,172414,172960,0.4528302,0.4444444 F,0,172960,173505,0.5,0 S,4,172960,173505,0.4528302,0.4444444 F,0,173505,174051,0.5,0 S,4,173505,174051,0.4528302,0.4444444 F,0,174051,174596,0.5,0 S,4,174051,174596,0.4528302,0.4444444 F,0,174596,175141,0.5,0 S,4,174596,175141,0.4528302,0.4444444 F,0,175141,175687,0.5,0 S,4,175141,175687,0.4528302,0.4444444 F,0,175687,176232,0.5,0 S,4,175687,176232,0.4528302,0.4444444 F,0,176232,176778,0.5,0 S,4,176232,176778,0.4528302,0.4444444 F,0,176778,177323,0.5,0 S,4,176778,177323,0.4528302,0.4444444 F,0,177323,177869,0.5,0 S,4,177323,177869,0.4528302,0.4444444 F,0,177869,178414,0.5,0 S,4,177869,178414,0.4528302,0.4444444 F,0,178414,178960,0.5,0 S,4,178414,178960,0.4528302,0.4444444 F,0,178960,179505,0.5,0 S,4,178960,179505,0.4528302,0.4444444 F,0,179505,180051,0.5,0 S,4,179505,180051,0.4528302,0.4444444 F,0,180051,180596,0.5,0 S,4,180051,180596,0.4528302,0.4444444 F,0,180596,181141,0.5,0 S,4,180596,181141,0.4528302,0.4444444 F,0,181141,181687,0.5,0 S,4,181141,181687,0.4528302,0.4444444 F,0,181687,182232,0.5,0 S,4,181687,182232,0.4528302,0.4444444 F,0,182232,182778,0.5,0 S,4,182232,182778,0.4528302,0.4444444 F,0,182778,183323,0.5,0 S,4,182778,183323,0.4528302,0.4444444 F,0,183323,183869,0.5,0 S,4,183323,183869,0.4528302,0.4444444 F,0,183869,184414,0.5,0 S,4,183869,184414,0.4528302,0.4444444 F,0,184414,184960,0.5,0 S,4,184414,184960,0.4528302,0.4444444 F,0,184960,185505,0.5,0 S,4,184960,185505,0.4528302,0.4444444 F,0,185505,186051,0.5,0 S,4,185505,186051,0.4528302,0.4444444 F,0,186051,186596,0.5,0 S,4,186051,186596,0.4528302,0.4444444 F,0,186596,187141,0.5,0 S,4,186596,187141,0.4528302,0.4444444 F,0,187141,187687,0.5,0 S,4,187141,187687,0.4528302,0.4444444
Sprite,Background,Centre,"SB\BG\BG_BW_B.jpg",320,240 S,0,1142,,0.4444444 F,0,1142,4414,0,0.2 F,0,4414,6596,0.6,0.2 F,0,21869,39324,0.2,0.5 F,0,39324,41505,0.5,0 F,0,109142,126596,0.2 F,0,126596,128778,0.2,0 F,0,135324,144051,0,0.8 F,0,187687,189869,0.5,0.2 F,0,189869,213869,0.2 F,0,213869,222596,0.2,0 F,0,222596,240051,0.2,0
Sprite,Background,Centre,"SB\BG\BG_BW.jpg",320,240 S,0,39324,,0.4444444 F,0,39324,54596,0.3 F,0,54596,56233,0.3,0
Sprite,Background,Centre,"BG.jpg",320,240 S,4,56778,57323,0.4528302,0.4444444 F,0,56778,74233,0.8 S,4,57323,57868,0.4528302,0.4444444 S,4,57868,58414,0.4528302,0.4444444 S,4,58414,58959,0.4528302,0.4444444 S,4,58959,59505,0.4528302,0.4444444 S,4,59505,60050,0.4528302,0.4444444 S,4,60050,60596,0.4528302,0.4444444 S,4,60596,61141,0.4528302,0.4444444 S,4,61141,61687,0.4528302,0.4444444 S,4,61687,62232,0.4528302,0.4444444 S,4,62232,62777,0.4528302,0.4444444 S,4,62777,63323,0.4528302,0.4444444 S,4,63323,63868,0.4528302,0.4444444 S,4,63868,64414,0.4528302,0.4444444 S,4,64414,64959,0.4528302,0.4444444 S,4,64959,65505,0.4528302,0.4444444 S,4,65505,66050,0.4528302,0.4444444 S,4,66050,66596,0.4528302,0.4444444 S,4,66596,67141,0.4528302,0.4444444 S,4,67141,67687,0.4528302,0.4444444 S,4,67687,68232,0.4528302,0.4444444 S,4,68232,68777,0.4528302,0.4444444 S,4,68777,69323,0.4528302,0.4444444 S,4,69323,69868,0.4528302,0.4444444 S,4,69868,70414,0.4528302,0.4444444 S,4,70414,70959,0.4528302,0.4444444 S,4,70959,71505,0.4528302,0.4444444 S,4,71505,72050,0.4528302,0.4444444 S,4,72050,72596,0.4528302,0.4444444 S,4,72596,73141,0.4528302,0.4444444 S,4,73141,73687,0.4528302,0.4444444 S,4,73687,74232,0.4528302,0.4444444
Sprite,Background,Centre,"BG.jpg",320,240 S,4,91687,92232,0.4528302,0.4444444 F,0,91687,109142,0.8 S,4,92232,92777,0.4528302,0.4444444 S,4,92777,93323,0.4528302,0.4444444 S,4,93323,93868,0.4528302,0.4444444 S,4,93868,94414,0.4528302,0.4444444 S,4,94414,94959,0.4528302,0.4444444 S,4,94959,95505,0.4528302,0.4444444 S,4,95505,96050,0.4528302,0.4444444 S,4,96050,96596,0.4528302,0.4444444 S,4,96596,97141,0.4528302,0.4444444 S,4,97141,97686,0.4528302,0.4444444 S,4,97686,98232,0.4528302,0.4444444 S,4,98232,98777,0.4528302,0.4444444 S,4,98777,99323,0.4528302,0.4444444 S,4,99323,99868,0.4528302,0.4444444 S,4,99868,100414,0.4528302,0.4444444 S,4,100414,100959,0.4528302,0.4444444 S,4,100959,101505,0.4528302,0.4444444 S,4,101505,102050,0.4528302,0.4444444 S,4,102050,102596,0.4528302,0.4444444 S,4,102596,103141,0.4528302,0.4444444 S,4,103141,103686,0.4528302,0.4444444 S,4,103686,104232,0.4528302,0.4444444 S,4,104232,104777,0.4528302,0.4444444 S,4,104777,105323,0.4528302,0.4444444 S,4,105323,105868,0.4528302,0.4444444 S,4,105868,106414,0.4528302,0.4444444 S,4,106414,106959,0.4528302,0.4444444 S,4,106959,107505,0.4528302,0.4444444 S,4,107505,108050,0.4528302,0.4444444 S,4,108050,108596,0.4528302,0.4444444 S,4,108596,109141,0.4528302,0.4444444
Sprite,Background,Centre,"BG.jpg",320,240 S,4,144051,144596,0.4528302,0.4444444 F,0,144051,187687,0.8 S,4,144596,145141,0.4528302,0.4444444 S,4,145141,145687,0.4528302,0.4444444 S,4,145687,146232,0.4528302,0.4444444 S,4,146232,146778,0.4528302,0.4444444 S,4,146778,147323,0.4528302,0.4444444 S,4,147323,147869,0.4528302,0.4444444 S,4,147869,148414,0.4528302,0.4444444 S,4,148414,148960,0.4528302,0.4444444 S,4,148960,149505,0.4528302,0.4444444 S,4,149505,150051,0.4528302,0.4444444 S,4,150051,150596,0.4528302,0.4444444 S,4,150596,151141,0.4528302,0.4444444 S,4,151141,151687,0.4528302,0.4444444 S,4,151687,152232,0.4528302,0.4444444 S,4,152232,152778,0.4528302,0.4444444 S,4,152778,153323,0.4528302,0.4444444 S,4,153323,153869,0.4528302,0.4444444 S,4,153869,154414,0.4528302,0.4444444 S,4,154414,154960,0.4528302,0.4444444 S,4,154960,155505,0.4528302,0.4444444 S,4,155505,156051,0.4528302,0.4444444 S,4,156051,156596,0.4528302,0.4444444 S,4,156596,157141,0.4528302,0.4444444 S,4,157141,157687,0.4528302,0.4444444 S,4,157687,158232,0.4528302,0.4444444 S,4,158232,158778,0.4528302,0.4444444 S,4,158778,159323,0.4528302,0.4444444 S,4,159323,159869,0.4528302,0.4444444 S,4,159869,160414,0.4528302,0.4444444 S,4,160414,160960,0.4528302,0.4444444 S,4,160960,161505,0.4528302,0.4444444 S,4,161505,162051,0.4528302,0.4444444 S,4,162051,162596,0.4528302,0.4444444 S,4,162596,163141,0.4528302,0.4444444 S,4,163141,163687,0.4528302,0.4444444 S,4,163687,164232,0.4528302,0.4444444 S,4,164232,164778,0.4528302,0.4444444 S,4,164778,165323,0.4528302,0.4444444 S,4,165323,165869,0.4528302,0.4444444 S,4,165869,166414,0.4528302,0.4444444 S,4,166414,166960,0.4528302,0.4444444 S,4,166960,167505,0.4528302,0.4444444 S,4,167505,168051,0.4528302,0.4444444 S,4,168051,168596,0.4528302,0.4444444 S,4,168596,169141,0.4528302,0.4444444 S,4,169141,169687,0.4528302,0.4444444 S,4,169687,170232,0.4528302,0.4444444 S,4,170232,170778,0.4528302,0.4444444 S,4,170778,171323,0.4528302,0.4444444 S,4,171323,171869,0.4528302,0.4444444 S,4,171869,172414,0.4528302,0.4444444 S,4,172414,172960,0.4528302,0.4444444 S,4,172960,173505,0.4528302,0.4444444 S,4,173505,174051,0.4528302,0.4444444 S,4,174051,174596,0.4528302,0.4444444 S,4,174596,175141,0.4528302,0.4444444 S,4,175141,175687,0.4528302,0.4444444 S,4,175687,176232,0.4528302,0.4444444 S,4,176232,176778,0.4528302,0.4444444 S,4,176778,177323,0.4528302,0.4444444 S,4,177323,177869,0.4528302,0.4444444 S,4,177869,178414,0.4528302,0.4444444 S,4,178414,178960,0.4528302,0.4444444 S,4,178960,179505,0.4528302,0.4444444 S,4,179505,180051,0.4528302,0.4444444 S,4,180051,180596,0.4528302,0.4444444 S,4,180596,181141,0.4528302,0.4444444 S,4,181141,181687,0.4528302,0.4444444 S,4,181687,182232,0.4528302,0.4444444 S,4,182232,182778,0.4528302,0.4444444 S,4,182778,183323,0.4528302,0.4444444 S,4,183323,183869,0.4528302,0.4444444 S,4,183869,184414,0.4528302,0.4444444 S,4,184414,184960,0.4528302,0.4444444 S,4,184960,185505,0.4528302,0.4444444 S,4,185505,186051,0.4528302,0.4444444 S,4,186051,186596,0.4528302,0.4444444 S,4,186596,187141,0.4528302,0.4444444 S,4,187141,187687,0.4528302,0.4444444
Sprite,Background,Centre,"SB\BG\BG_BW.jpg",320,240 S,0,74233,,0.4444444 F,0,74233,91687,0.2
Sprite,Background,Centre,"SB\NAMES\snownino.png",0,0 M,0,56778,,500,100 S,0,56778,,0.3 F,0,56778,74233,1 R,0,56778,74233,-0.2,-0.1
Sprite,Background,Centre,"SB\NAMES\snownino.png",0,0 M,0,91687,,500,100 S,0,91687,,0.3 F,0,91687,109142,1 R,0,91687,109142,-0.2,-0.1
Sprite,Background,Centre,"SB\NAMES\snownino.png",0,0 M,0,144051,,500,100 S,0,144051,,0.3 F,0,144051,187687,1 R,0,144051,187687,-0.2,-0.1
Sprite,Background,Centre,"SB\DIV\pixel.png",0,0 L,75323,3 R,19,0,272,0,0.09279197 S,0,74233,,12 F,19,74233,76414,0.5 M,19,74253,75323,397,230,430.7569,376.1522 M,18,75869,76414,430.7569,376.1522,397,230
Sprite,Background,Centre,"SB\DIV\pixel.png",0,0 L,75323,3 R,19,0,272,0,3.088621 S,0,74233,,18 F,19,74233,76414,0.5 M,19,74313,75323,397,230,248.4525,250.8237 M,18,75869,76414,248.4525,250.8237,397,230
Sprite,Background,Centre,"SB\DIV\pixel.png",0,0 L,75323,3 R,19,0,272,0,1.787745 S,0,74233,,18 F,19,74233,76414,0.5 M,19,74309,75323,397,230,365.231,376.5972 M,18,75869,76414,365.231,376.5972,397,230
Sprite,Background,Centre,"SB\DIV\pixel.png",0,0 L,75323,3 R,19,0,272,0,0.2726582 S,0,74233,,14 F,19,74233,76414,0.5 M,19,74265,75323,397,230,253.172,272.5852 M,18,75869,76414,253.172,272.5852,397,230
Sprite,Background,Centre,"SB\DIV\pixel.png",0,0 L,75323,3 R,19,0,272,0,0.7341629 S,0,74233,,16 F,19,74233,76414,0.5 M,19,74255,75323,397,230,247.1401,236.4813 M,18,75869,76414,247.1401,236.4813,397,230
Sprite,Background,Centre,"SB\DIV\pixel.png",0,0 L,75323,3 R,19,0,272,0,1.632623 S,0,74233,,7 F,19,74233,76414,0.5 M,19,74312,75323,397,230,316.7019,103.3027 M,18,75869,76414,316.7019,103.3027,397,230
Sprite,Background,Centre,"SB\DIV\pixel.png",0,0 L,75323,3 R,19,0,272,0,2.01157 S,0,74233,,12 F,19,74233,76414,0.5 M,19,74321,75323,397,230,527.5891,156.1996 M,18,75869,76414,527.5891,156.1996,397,230
Sprite,Background,Centre,"SB\DIV\pixel.png",0,0 L,75323,3 R,19,0,272,0,0.6853305 S,0,74233,,5 F,19,74233,76414,0.5 M,19,74324,75323,397,230,497.3371,341.501 M,18,75869,76414,497.3371,341.501,397,230
Sprite,Background,Centre,"SB\DIV\pixel.png",0,0 L,75323,3 R,19,0,272,0,2.251404 S,0,74233,,7 F,19,74233,76414,0.5 M,19,74273,75323,397,230,546.6874,239.6794 M,18,75869,76414,546.6874,239.6794,397,230
Sprite,Background,Centre,"SB\DIV\pixel.png",0,0 L,75323,3 R,19,0,272,0,1.412117 S,0,74233,,2 F,19,74233,76414,0.5 M,19,74331,75323,397,230,351.8747,373.0514 M,18,75869,76414,351.8747,373.0514,397,230
Sprite,Background,Centre,"SB\DIV\pixel.png",0,0 L,75323,3 R,19,0,272,0,0.6701114 S,0,74233,,11 F,19,74233,76414,0.5 M,19,74331,75323,397,230,507.2566,331.7029 M,18,75869,76414,507.2566,331.7029,397,230
Sprite,Background,Centre,"SB\DIV\pixel.png",0,0 L,75323,3 R,19,0,272,0,0.6778296 S,0,74233,,8 F,19,74233,76414,0.5 M,19,74272,75323,397,230,546.8839,224.1 M,18,75869,76414,546.8839,224.1,397,230
Sprite,Background,Centre,"SB\DIV\pixel.png",0,0 L,75323,3 R,19,0,272,0,2.211018 S,0,74233,,9 F,19,74233,76414,0.5 M,19,74284,75323,397,230,336.2144,92.86828 M,18,75869,76414,336.2144,92.86828,397,230
Sprite,Background,Centre,"SB\DIV\pixel.png",0,0 L,75323,3 R,19,0,272,0,1.515439 S,0,74233,,7 F,19,74233,76414,0.5 M,19,74252,75323,397,230,274.715,316.8699 M,18,75869,76414,274.715,316.8699,397,230
Sprite,Background,Centre,"SB\DIV\pixel.png",0,0 L,75323,3 R,19,0,272,0,0.5389467 S,0,74233,,10 F,19,74233,76414,0.5 M,19,74243,75323,397,230,251.3675,194.0671 M,18,75869,76414,251.3675,194.0671,397,230
Sprite,Background,Centre,"SB\DIV\pixel.png",0,0 L,75323,3 R,19,0,272,0,2.336945 S,0,74233,,3 F,19,74233,76414,0.5 M,19,74324,75323,397,230,522.4309,312.2623 M,18,75869,76414,522.4309,312.2623,397,230
Sprite,Background,Centre,"SB\DIV\pixel.png",0,0 L,75323,3 R,19,0,272,0,0.8079442 S,0,74233,,16 F,19,74233,76414,0.5 M,19,74311,75323,397,230,325.1482,98.32875 M,18,75869,76414,325.1482,98.32875,397,230
Sprite,Background,Centre,"SB\DIV\pixel.png",0,0 L,75323,3 R,19,0,272,0,0.6016439 S,0,74233,,8 F,19,74233,76414,0.5 M,19,74268,75323,397,230,532.6321,165.938 M,18,75869,76414,532.6321,165.938,397,230
Sprite,Background,Centre,"SB\DIV\pixel.png",0,0 L,75323,3 R,19,0,272,0,2.896351 S,0,74233,,2 F,19,74233,76414,0.5 M,19,74288,75323,397,230,385.4973,80.4417 M,18,75869,76414,385.4973,80.4417,397,230
Sprite,Background,Centre,"SB\DIV\pixel.png",0,0 L,75323,3 R,19,0,272,0,0.37503 S,0,74233,,12 F,19,74233,76414,0.5 M,19,74330,75323,397,230,247.2125,237.9809 M,18,75869,76414,247.2125,237.9809,397,230
Sprite,Background,Centre,"SB\DIV\pixel.png",0,0 L,75323,3 R,19,0,272,0,2.76329 S,0,74233,,11 F,19,74233,76414,0.5 M,19,74302,75323,397,230,514.6564,323.0429 M,18,75869,76414,514.6564,323.0429,397,230
Sprite,Background,Centre,"SB\DIV\pixel.png",0,0 L,75323,3 R,19,0,272,0,1.907497 S,0,74233,,8 F,19,74233,76414,0.5 M,19,74283,75323,397,230,546.3312,244.1486 M,18,75869,76414,546.3312,244.1486,397,230
Sprite,Background,Centre,"SB\DIV\pixel.png",0,0 L,75323,3 R,19,0,272,0,2.20105 S,0,74233,,13 F,19,74233,76414,0.5 M,19,74263,75323,397,230,529.6294,300.0675 M,18,75869,76414,529.6294,300.0675,397,230
Sprite,Background,Centre,"SB\DIV\pixel.png",0,0 L,75323,3 R,19,0,272,0,1.705947 S,0,74233,,4 F,19,74233,76414,0.5 M,19,74301,75323,397,230,517.947,141.2767 M,18,75869,76414,517.947,141.2767,397,230
Sprite,Background,Centre,"SB\DIV\pixel.png",0,0 L,75323,3 R,19,0,272,0,1.223461 S,0,74233,,3 F,19,74233,76414,0.5 M,19,74315,75323,397,230,540.3075,274.3053 M,18,75869,76414,540.3075,274.3053,397,230
Sprite,Background,Centre,"SB\DIV\pixel.png",0,0 L,75323,3 R,19,0,272,0,2.952811 S,0,74233,,12 F,19,74233,76414,0.5 M,19,74243,75323,397,230,546.6028,219.0911 M,18,75869,76414,546.6028,219.0911,397,230
Sprite,Background,Centre,"SB\DIV\pixel.png",0,0 L,75323,3 R,19,0,272,0,2.060099 S,0,74233,,19 F,19,74233,76414,0.5 M,19,74264,75323,397,230,510.1556,328.4673 M,18,75869,76414,510.1556,328.4673,397,230
Sprite,Background,Centre,"SB\DIV\pixel.png",0,0 L,75323,3 R,19,0,272,0,1.675014 S,0,74233,,19 F,19,74233,76414,0.5 M,19,74258,75323,397,230,545.3738,207.9725 M,18,75869,76414,545.3738,207.9725,397,230
Sprite,Background,Centre,"SB\DIV\pixel.png",0,0 L,75323,3 R,19,0,272,0,2.623544 S,0,74233,,15 F,19,74233,76414,0.5 M,19,74332,75323,397,230,262.7179,296.8455 M,18,75869,76414,262.7179,296.8455,397,230
Sprite,Background,Centre,"SB\DIV\pixel.png",0,0 L,75323,3 R,19,0,272,0,0.9306161 S,0,74233,,7 F,19,74233,76414,0.5 M,19,74325,75323,397,230,260.9663,293.2046 M,18,75869,76414,260.9663,293.2046,397,230
Sprite,Background,Centre,"SB\DIV\pixel.png",0,0 L,75323,3 R,19,0,272,0,1.419618 S,0,74233,,3 F,19,74233,76414,0.5 M,19,74314,75323,397,230,448.3675,89.06957 M,18,75869,76414,448.3675,89.06957,397,230
Sprite,Background,Centre,"SB\DIV\pixel.png",0,0 L,75323,3 R,19,0,272,0,0.1490924 S,0,74233,,4 F,19,74233,76414,0.5 M,19,74291,75323,397,230,371.2871,377.7797 M,18,75869,76414,371.2871,377.7797,397,230
Sprite,Background,Centre,"SB\DIV\pixel.png",0,0 L,75323,3 R,19,0,272,0,1.54747 S,0,74233,,9 F,19,74233,76414,0.5 M,19,74327,75323,397,230,525.2438,152.1955 M,18,75869,76414,525.2438,152.1955,397,230
Sprite,Background,Centre,"SB\DIV\pixel.png",0,0 L,75323,3 R,19,0,272,0,0.9172304 S,0,74233,,19 F,19,74233,76414,0.5 M,19,74266,75323,397,230,407.2936,80.35361 M,18,75869,76414,407.2936,80.35361,397,230
Sprite,Background,Centre,"SB\DIV\pixel.png",0,0 L,75323,3 R,19,0,272,0,1.248108 S,0,74233,,13 F,19,74233,76414,0.5 M,19,74306,75323,397,230,303.2004,112.946 M,18,75869,76414,303.2004,112.946,397,230
Sprite,Background,Centre,"SB\DIV\pixel.png",0,0 L,75323,3 R,19,0,272,0,1.174496 S,0,74233,,6 F,19,74233,76414,0.5 M,19,74240,75323,397,230,539.5151,276.7913 M,18,75869,76414,539.5151,276.7913,397,230
Sprite,Background,Centre,"SB\DIV\pixel.png",0,0 L,75323,3 R,19,0,272,0,1.90863 S,0,74233,,6 F,19,74233,76414,0.5 M,19,74313,75323,397,230,536.4467,285.2685 M,18,75869,76414,536.4467,285.2685,397,230
Sprite,Background,Centre,"SB\DIV\pixel.png",0,0 L,75323,3 R,19,0,272,0,1.933174 S,0,74233,,11 F,19,74233,76414,0.5 M,19,74258,75323,397,230,350.0164,372.4519 M,18,75869,76414,350.0164,372.4519,397,230
Sprite,Background,Centre,"SB\DIV\pixel.png",0,0 L,75323,3 R,19,0,272,0,2.505689 S,0,74233,,18 F,19,74233,76414,0.5 M,19,74244,75323,397,230,283.4157,327.9724 M,18,75869,76414,283.4157,327.9724,397,230
Sprite,Background,Centre,"SB\DIV\pixel.png",0,0 L,75323,3 R,19,0,272,0,1.861903 S,0,74233,,6 F,19,74233,76414,0.5 M,19,74291,75323,397,230,247.5515,242.8507 M,18,75869,76414,247.5515,242.8507,397,230
Sprite,Background,Centre,"SB\DIV\pixel.png",0,0 L,77505,3 R,19,0,272,0,2.032783 S,0,76415,,2 F,19,76415,78596,0.5 M,19,76511,77505,177,210,302.1214,292.7323 M,18,78051,78596,302.1214,292.7323,177,210
Sprite,Background,Centre,"SB\DIV\pixel.png",0,0 L,77505,3 R,19,0,272,0,0.6624678 S,0,76415,,13 F,19,76415,78596,0.5 M,19,76433,77505,177,210,311.4979,276.4102 M,18,78051,78596,311.4979,276.4102,177,210
Sprite,Background,Centre,"SB\DIV\pixel.png",0,0 L,77505,3 R,19,0,272,0,2.029809 S,0,76415,,15 F,19,76415,78596,0.5 M,19,76447,77505,177,210,219.5402,353.8413 M,18,78051,78596,219.5402,353.8413,177,210
Sprite,Background,Centre,"SB\DIV\pixel.png",0,0 L,77505,3 R,19,0,272,0,0.5768073 S,0,76415,,16 F,19,76415,78596,0.5 M,19,76482,77505,177,210,291.0684,307.4084 M,18,78051,78596,291.0684,307.4084,177,210
Sprite,Background,Centre,"SB\DIV\pixel.png",0,0 L,77505,3 R,19,0,272,0,0.5049444 S,0,76415,,8 F,19,76415,78596,0.5 M,19,76497,77505,177,210,27.00622,208.634 M,18,78051,78596,27.00622,208.634,177,210
Sprite,Background,Centre,"SB\DIV\pixel.png",0,0 L,77505,3 R,19,0,272,0,0.5176063 S,0,76415,,17 F,19,76415,78596,0.5 M,19,76497,77505,177,210,28.67268,187.6616 M,18,78051,78596,28.67268,187.6616,177,210
Sprite,Background,Centre,"SB\DIV\pixel.png",0,0 L,77505,3 R,19,0,272,0,0.3744724 S,0,76415,,14 F,19,76415,78596,0.5 M,19,76495,77505,177,210,29.64058,238.0214 M,18,78051,78596,29.64058,238.0214,177,210
Sprite,Background,Centre,"SB\DIV\pixel.png",0,0 L,77505,3 R,19,0,272,0,2.882866 S,0,76415,,13 F,19,76415,78596,0.5 M,19,76494,77505,177,210,299.6272,296.3862 M,18,78051,78596,299.6272,296.3862,177,210
Sprite,Background,Centre,"SB\DIV\pixel.png",0,0 L,77505,3 R,19,0,272,0,1.964866 S,0,76415,,7 F,19,76415,78596,0.5 M,19,76474,77505,177,210,286.7245,312.2767 M,18,78051,78596,286.7245,312.2767,177,210
Sprite,Background,Centre,"SB\DIV\pixel.png",0,0 L,77505,3 R,19,0,272,0,0.3834448 S,0,76415,,6 F,19,76415,78596,0.5 M,19,76450,77505,177,210,314.3096,270.3828 M,18,78051,78596,314.3096,270.3828,177,210
Sprite,Background,Centre,"SB\DIV\pixel.png",0,0 L,77505,3 R,19,0,272,0,2.044952 S,0,76415,,3 F,19,76415,78596,0.5 M,19,76492,77505,177,210,234.9465,71.64464 M,18,78051,78596,234.9465,71.64464,177,210
Sprite,Background,Centre,"SB\DIV\pixel.png",0,0 L,77505,3 R,19,0,272,0,1.208285 S,0,76415,,17 F,19,76415,78596,0.5 M,19,76476,77505,177,210,155.8444,358.5006 M,18,78051,78596,155.8444,358.5006,177,210
Sprite,Background,Centre,"SB\DIV\pixel.png",0,0 L,77505,3 R,19,0,272,0,1.433225 S,0,76415,,10 F,19,76415,78596,0.5 M,19,76449,77505,177,210,180.6067,359.9566 M,18,78051,78596,180.6067,359.9566,177,210
Sprite,Background,Centre,"SB\DIV\pixel.png",0,0 L,77505,3 R,19,0,272,0,1.061044 S,0,76415,,13 F,19,76415,78596,0.5 M,19,76479,77505,177,210,58.84169,302.4046 M,18,78051,78596,58.84169,302.4046,177,210
Sprite,Background,Centre,"SB\DIV\pixel.png",0,0 L,77505,3 R,19,0,272,0,2.97706 S,0,76415,,18 F,19,76415,78596,0.5 M,19,76420,77505,177,210,112.3599,345.3575 M,18,78051,78596,112.3599,345.3575,177,210
Sprite,Background,Centre,"SB\DIV\pixel.png",0,0 L,77505,3 R,19,0,272,0,0.7342829 S,0,76415,,15 F,19,76415,78596,0.5 M,19,76466,77505,177,210,299.2465,123.0759 M,18,78051,78596,299.2465,123.0759,177,210
Sprite,Background,Centre,"SB\DIV\pixel.png",0,0 L,77505,3 R,19,0,272,0,0.1404953 S,0,76415,,14 F,19,76415,78596,0.5 M,19,76471,77505,177,210,249.8065,341.1458 M,18,78051,78596,249.8065,341.1458,177,210
Sprite,Background,Centre,"SB\DIV\pixel.png",0,0 L,77505,3 R,19,0,272,0,1.149798 S,0,76415,,2 F,19,76415,78596,0.5 M,19,76488,77505,177,210,129.7467,67.63734 M,18,78051,78596,129.7467,67.63734,177,210
Sprite,Background,Centre,"SB\DIV\pixel.png",0,0 L,77505,3 R,19,0,272,0,2.361045 S,0,76415,,6 F,19,76415,78596,0.5 M,19,76509,77505,177,210,27.58632,223.2497 M,18,78051,78596,27.58632,223.2497,177,210
Sprite,Background,Centre,"SB\DIV\pixel.png",0,0 L,77505,3 R,19,0,272,0,0.3318061 S,0,76415,,17 F,19,76415,78596,0.5 M,19,76425,77505,177,210,198.1403,61.49717 M,18,78051,78596,198.1403,61.49717,177,210
Sprite,Background,Centre,"SB\DIV\pixel.png",0,0 L,77505,3 R,19,0,272,0,1.709651 S,0,76415,,18 F,19,76415,78596,0.5 M,19,76485,77505,177,210,44.86745,280.9999 M,18,78051,78596,44.86745,280.9999,177,210
Sprite,Background,Centre,"SB\DIV\pixel.png",0,0 L,77505,3 R,19,0,272,0,2.603142 S,0,76415,,4 F,19,76415,78596,0.5 M,19,76502,77505,177,210,186.1975,60.28225 M,18,78051,78596,186.1975,60.28225,177,210
Sprite,Background,Centre,"SB\DIV\pixel.png",0,0 L,77505,3 R,19,0,272,0,0.5909381 S,0,76415,,13 F,19,76415,78596,0.5 M,19,76503,77505,177,210,185.0325,60.21523 M,18,78051,78596,185.0325,60.21523,177,210
Sprite,Background,Centre,"SB\DIV\pixel.png",0,0 L,77505,3 R,19,0,272,0,1.616898 S,0,76415,,10 F,19,76415,78596,0.5 M,19,76478,77505,177,210,112.3249,74.65919 M,18,78051,78596,112.3249,74.65919,177,210
Sprite,Background,Centre,"SB\DIV\pixel.png",0,0 L,77505,3 R,19,0,272,0,0.9484305 S,0,76415,,7 F,19,76415,78596,0.5 M,19,76476,77505,177,210,100.01,81.26564 M,18,78051,78596,100.01,81.26564,177,210
Sprite,Background,Centre,"SB\DIV\pixel.png",0,0 L,77505,3 R,19,0,272,0,3.009094 S,0,76415,,4 F,19,76415,78596,0.5 M,19,76496,77505,177,210,69.12347,314.2241 M,18,78051,78596,69.12347,314.2241,177,210
Sprite,Background,Centre,"SB\DIV\pixel.png",0,0 L,77505,3 R,19,0,272,0,2.202571 S,0,76415,,13 F,19,76415,78596,0.5 M,19,76481,77505,177,210,220.3836,66.41078 M,18,78051,78596,220.3836,66.41078,177,210
Sprite,Background,Centre,"SB\DIV\pixel.png",0,0 L,77505,3 R,19,0,272,0,0.7715461 S,0,76415,,5 F,19,76415,78596,0.5 M,19,76479,77505,177,210,31.72742,247.3615 M,18,78051,78596,31.72742,247.3615,177,210
Sprite,Background,Centre,"SB\DIV\pixel.png",0,0 L,77505,3 R,19,0,272,0,1.616071 S,0,76415,,5 F,19,76415,78596,0.5 M,19,76474,77505,177,210,240.4824,74.09569 M,18,78051,78596,240.4824,74.09569,177,210
Sprite,Background,Centre,"SB\DIV\pixel.png",0,0 L,77505,3 R,19,0,272,0,2.371225 S,0,76415,,2 F,19,76415,78596,0.5 M,19,76447,77505,177,210,55.29571,122.3184 M,18,78051,78596,55.29571,122.3184,177,210
Sprite,Background,Centre,"SB\DIV\pixel.png",0,0 L,77505,3 R,19,0,272,0,0.8947003 S,0,76415,,8 F,19,76415,78596,0.5 M,19,76480,77505,177,210,274.1063,324.3257 M,18,78051,78596,274.1063,324.3257,177,210
Sprite,Background,Centre,"SB\DIV\pixel.png",0,0 L,77505,3 R,19,0,272,0,1.420838 S,0,76415,,13 F,19,76415,78596,0.5 M,19,76458,77505,177,210,225.6379,68.10444 M,18,78051,78596,225.6379,68.10444,177,210
Sprite,Background,Centre,"SB\DIV\pixel.png",0,0 L,77505,3 R,19,0,272,0,2.446637 S,0,76415,,5 F,19,76415,78596,0.5 M,19,76488,77505,177,210,317.0343,156.2375 M,18,78051,78596,317.0343,156.2375,177,210
Sprite,Background,Centre,"SB\DIV\pixel.png",0,0 L,77505,3 R,19,0,272,0,1.297853 S,0,76415,,18 F,19,76415,78596,0.5 M,19,76441,77505,177,210,301.175,294.1462 M,18,78051,78596,301.175,294.1462,177,210
Sprite,Background,Centre,"SB\DIV\pixel.png",0,0 L,77505,3 R,19,0,272,0,1.045851 S,0,76415,,5 F,19,76415,78596,0.5 M,19,76461,77505,177,210,323.6122,241.6994 M,18,78051,78596,323.6122,241.6994,177,210
Sprite,Background,Centre,"SB\DIV\pixel.png",0,0 L,77505,3 R,19,0,272,0,0.07720734 S,0,76415,,15 F,19,76415,78596,0.5 M,19,76457,77505,177,210,314.2288,270.5662 M,18,78051,78596,314.2288,270.5662,177,210
Sprite,Background,Centre,"SB\DIV\pixel.png",0,0 L,77505,3 R,19,0,272,0,2.032837 S,0,76415,,8 F,19,76415,78596,0.5 M,19,76492,77505,177,210,319.8736,255.6851 M,18,78051,78596,319.8736,255.6851,177,210
Sprite,Background,Centre,"SB\DIV\pixel.png",0,0 L,77505,3 R,19,0,272,0,2.615967 S,0,76415,,8 F,19,76415,78596,0.5 M,19,76447,77505,177,210,271.1913,326.739 M,18,78051,78596,271.1913,326.739,177,210
Sprite,Background,Centre,"SB\DIV\pixel.png",0,0 L,77505,3 R,19,0,272,0,2.589303 S,0,76415,,14 F,19,76415,78596,0.5 M,19,76417,77505,177,210,324.416,237.722 M,18,78051,78596,324.416,237.722,177,210
Sprite,Background,Centre,"SB\DIV\pixel.png",0,0 L,77505,3 R,19,0,272,0,1.443653 S,0,76415,,9 F,19,76415,78596,0.5 M,19,76457,77505,177,210,308.3484,282.4404 M,18,78051,78596,308.3484,282.4404,177,210
Sprite,Background,Centre,"SB\DIV\pixel.png",0,0 L,79686,3 R,19,0,272,0,0.684746 S,0,78596,,13 F,19,78596,80777,0.5 M,19,78637,79686,345,218,270.7807,348.3514 M,18,80232,80777,270.7807,348.3514,345,218
Sprite,Background,Centre,"SB\DIV\pixel.png",0,0 L,79686,3 R,19,0,272,0,0.8906925 S,0,78596,,2 F,19,78596,80777,0.5 M,19,78641,79686,345,218,273.9756,85.88064 M,18,80232,80777,273.9756,85.88064,345,218
Sprite,Background,Centre,"SB\DIV\pixel.png",0,0 L,79686,3 R,19,0,272,0,3.014979 S,0,78596,,12 F,19,78596,80777,0.5 M,19,78662,79686,345,218,235.3805,320.3893 M,18,80232,80777,235.3805,320.3893,345,218
Sprite,Background,Centre,"SB\DIV\pixel.png",0,0 L,79686,3 R,19,0,272,0,2.723462 S,0,78596,,11 F,19,78596,80777,0.5 M,19,78631,79686,345,218,416.6808,349.7644 M,18,80232,80777,416.6808,349.7644,345,218
Sprite,Background,Centre,"SB\DIV\pixel.png",0,0 L,79686,3 R,19,0,272,0,1.38448 S,0,78596,,3 F,19,78596,80777,0.5 M,19,78689,79686,345,218,360.6418,68.81778 M,18,80232,80777,360.6418,68.81778,345,218
Sprite,Background,Centre,"SB\DIV\pixel.png",0,0 L,79686,3 R,19,0,272,0,0.2915173 S,0,78596,,8 F,19,78596,80777,0.5 M,19,78671,79686,345,218,494.7711,226.284 M,18,80232,80777,494.7711,226.284,345,218
Sprite,Background,Centre,"SB\DIV\pixel.png",0,0 L,79686,3 R,19,0,272,0,2.645358 S,0,78596,,7 M,19,78596,79686,345,218,251.1002,101.0264 F,19,78596,80777,0.5 M,18,80232,80777,251.1002,101.0264,345,218
Sprite,Background,Centre,"SB\DIV\pixel.png",0,0 L,79686,3 R,19,0,272,0,1.163048 S,0,78596,,5 F,19,78596,80777,0.5 M,19,78609,79686,345,218,245.3475,105.8867 M,18,80232,80777,245.3475,105.8867,345,218
Sprite,Background,Centre,"SB\DIV\pixel.png",0,0 L,79686,3 R,19,0,272,0,0.09558966 S,0,78596,,2 F,19,78596,80777,0.5 M,19,78628,79686,345,218,291.3488,77.92304 M,18,80232,80777,291.3488,77.92304,345,218
Sprite,Background,Centre,"SB\DIV\pixel.png",0,0 L,79686,3 R,19,0,272,0,1.42021 S,0,78596,,15 F,19,78596,80777,0.5 M,19,78638,79686,345,218,246.6028,331.2166 M,18,80232,80777,246.6028,331.2166,345,218
Sprite,Background,Centre,"SB\DIV\pixel.png",0,0 L,79686,3 R,19,0,272,0,1.71718 S,0,78596,,11 F,19,78596,80777,0.5 M,19,78685,79686,345,218,322.6578,69.67324 M,18,80232,80777,322.6578,69.67324,345,218
Sprite,Background,Centre,"SB\DIV\pixel.png",0,0 L,79686,3 R,19,0,272,0,2.2328 S,0,78596,,5 F,19,78596,80777,0.5 M,19,78629,79686,345,218,223.5495,306.0328 M,18,80232,80777,223.5495,306.0328,345,218
Sprite,Background,Centre,"SB\DIV\pixel.png",0,0 L,79686,3 R,19,0,272,0,1.138687 S,0,78596,,18 F,19,78596,80777,0.5 M,19,78602,79686,345,218,476.8644,146.5033 M,18,80232,80777,476.8644,146.5033,345,218
Sprite,Background,Centre,"SB\DIV\pixel.png",0,0 L,79686,3 R,19,0,272,0,2.511727 S,0,78596,,15 F,19,78596,80777,0.5 M,19,78632,79686,345,218,238.0421,323.1665 M,18,80232,80777,238.0421,323.1665,345,218
Sprite,Background,Centre,"SB\DIV\pixel.png",0,0 L,79686,3 R,19,0,272,0,1.968261 S,0,78596,,4 F,19,78596,80777,0.5 M,19,78614,79686,345,218,491.6335,249.601 M,18,80232,80777,491.6335,249.601,345,218
Sprite,Background,Centre,"SB\DIV\pixel.png",0,0 L,79686,3 R,19,0,272,0,2.666249 S,0,78596,,2 F,19,78596,80777,0.5 M,19,78684,79686,345,218,205.1409,272.2165 M,18,80232,80777,205.1409,272.2165,345,218
Sprite,Background,Centre,"SB\DIV\pixel.png",0,0 L,79686,3 R,19,0,272,0,0.07346681 S,0,78596,,18 F,19,78596,80777,0.5 M,19,78695,79686,345,218,213.1872,146.4082 M,18,80232,80777,213.1872,146.4082,345,218
Sprite,Background,Centre,"SB\DIV\pixel.png",0,0 L,79686,3 R,19,0,272,0,1.338752 S,0,78596,,15 F,19,78596,80777,0.5 M,19,78641,79686,345,218,340.9756,68.05399 M,18,80232,80777,340.9756,68.05399,345,218
Sprite,Background,Centre,"SB\DIV\pixel.png",0,0 L,79686,3 R,19,0,272,0,0.3208865 S,0,78596,,10 F,19,78596,80777,0.5 M,19,78690,79686,345,218,298.336,360.5569 M,18,80232,80777,298.336,360.5569,345,218
Sprite,Background,Centre,"SB\DIV\pixel.png",0,0 L,79686,3 R,19,0,272,0,2.734794 S,0,78596,,14 F,19,78596,80777,0.5 M,19,78637,79686,345,218,236.9576,113.9479 M,18,80232,80777,236.9576,113.9479,345,218
Sprite,Background,Centre,"SB\DIV\pixel.png",0,0 L,79686,3 R,19,0,272,0,2.244 S,0,78596,,19 F,19,78596,80777,0.5 M,19,78663,79686,345,218,494.9683,221.0847 M,18,80232,80777,494.9683,221.0847,345,218
Sprite,Background,Centre,"SB\DIV\pixel.png",0,0 L,79686,3 R,19,0,272,0,1.022421 S,0,78596,,18 F,19,78596,80777,0.5 M,19,78669,79686,345,218,199.6101,181.0978 M,18,80232,80777,199.6101,181.0978,345,218
Sprite,Background,Centre,"SB\DIV\pixel.png",0,0 L,79686,3 R,19,0,272,0,1.782401 S,0,78596,,8 F,19,78596,80777,0.5 M,19,78624,79686,345,218,196.095,199.9086 M,18,80232,80777,196.095,199.9086,345,218
Sprite,Background,Centre,"SB\DIV\pixel.png",0,0 L,79686,3 R,19,0,272,0,0.5265311 S,0,78596,,17 F,19,78596,80777,0.5 M,19,78610,79686,345,218,479.2983,151.1871 M,18,80232,80777,479.2983,151.1871,345,218
Sprite,Background,Centre,"SB\DIV\pixel.png",0,0 L,79686,3 R,19,0,272,0,0.1240742 S,0,78596,,7 F,19,78596,80777,0.5 M,19,78656,79686,345,218,477.9626,148.5669 M,18,80232,80777,477.9626,148.5669,345,218
Sprite,Background,Centre,"SB\DIV\pixel.png",0,0 L,79686,3 R,19,0,272,0,0.9646435 S,0,78596,,2 F,19,78596,80777,0.5 M,19,78669,79686,345,218,471.5477,298.5338 M,18,80232,80777,471.5477,298.5338,345,218
Sprite,Background,Centre,"SB\DIV\pixel.png",0,0 L,79686,3 R,19,0,272,0,1.988746 S,0,78596,,5 F,19,78596,80777,0.5 M,19,78615,79686,345,218,493.0728,241.9679 M,18,80232,80777,493.0728,241.9679,345,218
Sprite,Background,Centre,"SB\DIV\pixel.png",0,0 L,79686,3 R,19,0,272,0,3.103141 S,0,78596,,5 F,19,78596,80777,0.5 M,19,78599,79686,345,218,468.0084,132.1574 M,18,80232,80777,468.0084,132.1574,345,218
Sprite,Background,Centre,"SB\DIV\pixel.png",0,0 L,79686,3 R,19,0,272,0,1.418035 S,0,78596,,9 F,19,78596,80777,0.5 M,19,78648,79686,345,218,494.8901,223.7407 M,18,80232,80777,494.8901,223.7407,345,218
Sprite,Background,Centre,"SB\DIV\pixel.png",0,0 L,79686,3 R,19,0,272,0,1.298298 S,0,78596,,18 F,19,78596,80777,0.5 M,19,78655,79686,345,218,494.1642,233.8122 M,18,80232,80777,494.1642,233.8122,345,218
Sprite,Background,Centre,"SB\DIV\pixel.png",0,0 L,79686,3 R,19,0,272,0,1.433591 S,0,78596,,11 F,19,78596,80777,0.5 M,19,78648,79686,345,218,196.1193,236.2901 M,18,80232,80777,196.1193,236.2901,345,218
Sprite,Background,Centre,"SB\DIV\pixel.png",0,0 L,79686,3 R,19,0,272,0,0.8697667 S,0,78596,,18 F,19,78596,80777,0.5 M,19,78630,79686,345,218,222.9913,305.2575 M,18,80232,80777,222.9913,305.2575,345,218
Sprite,Background,Centre,"SB\DIV\pixel.png",0,0 L,79686,3 R,19,0,272,0,2.281751 S,0,78596,,13 F,19,78596,80777,0.5 M,19,78664,79686,345,218,399.8304,78.38042 M,18,80232,80777,399.8304,78.38042,345,218
Sprite,Background,Centre,"SB\DIV\pixel.png",0,0 L,79686,3 R,19,0,272,0,1.342285 S,0,78596,,14 F,19,78596,80777,0.5 M,19,78606,79686,345,218,275.1276,350.7322 M,18,80232,80777,275.1276,350.7322,345,218
Sprite,Background,Centre,"SB\DIV\pixel.png",0,0 L,79686,3 R,19,0,272,0,1.609455 S,0,78596,,18 F,19,78596,80777,0.5 M,19,78688,79686,345,218,459.8474,121.5113 M,18,80232,80777,459.8474,121.5113,345,218
Sprite,Background,Centre,"SB\DIV\pixel.png",0,0 L,79686,3 R,19,0,272,0,2.509263 S,0,78596,,17 F,19,78596,80777,0.5 M,19,78612,79686,345,218,226.4209,309.864 M,18,80232,80777,226.4209,309.864,345,218
Sprite,Background,Centre,"SB\DIV\pixel.png",0,0 L,79686,3 R,19,0,272,0,2.871797 S,0,78596,,13 F,19,78596,80777,0.5 M,19,78680,79686,345,218,195.2259,226.2286 M,18,80232,80777,195.2259,226.2286,345,218
Sprite,Background,Centre,"SB\DIV\pixel.png",0,0 L,79686,3 R,19,0,272,0,1.070618 S,0,78596,,15 F,19,78596,80777,0.5 M,19,78663,79686,345,218,195.0376,221.3588 M,18,80232,80777,195.0376,221.3588,345,218
Sprite,Background,Centre,"SB\DIV\pixel.png",0,0 L,79686,3 R,19,0,272,0,0.1330036 S,0,78596,,18 F,19,78596,80777,0.5 M,19,78608,79686,345,218,203.6072,167.9193 M,18,80232,80777,203.6072,167.9193,345,218
Sprite,Background,Centre,"SB\DIV\pixel.png",0,0 L,79686,3 R,19,0,272,0,1.577555 S,0,78596,,14 F,19,78596,80777,0.5 M,19,78687,79686,345,218,280.0322,353.2005 M,18,80232,80777,280.0322,353.2005,345,218
Sprite,Background,Centre,"SB\DIV\pixel.png",0,0 L,81868,3 R,19,0,272,0,1.971066 S,0,80778,,10 F,19,80778,82959,0.5 M,19,80866,81868,127,365,255.2518,287.2088 M,18,82414,82959,255.2518,287.2088,127,365
Sprite,Background,Centre,"SB\DIV\pixel.png",0,0 L,81868,3 R,19,0,272,0,0.151529 S,0,80778,,2 F,19,80778,82959,0.5 M,19,80841,81868,127,365,-14.72402,315.8644 M,18,82414,82959,-14.72402,315.8644,127,365
Sprite,Background,Centre,"SB\DIV\pixel.png",0,0 L,81868,3 R,19,0,272,0,2.689931 S,0,80778,,4 F,19,80778,82959,0.5 M,19,80825,81868,127,365,143.7616,514.0605 M,18,82414,82959,143.7616,514.0605,127,365
Sprite,Background,Centre,"SB\DIV\pixel.png",0,0 L,81868,3 R,19,0,272,0,1.909166 S,0,80778,,14 F,19,80778,82959,0.5 M,19,80782,81868,127,365,274.1342,335.8192 M,18,82414,82959,274.1342,335.8192,127,365
Sprite,Background,Centre,"SB\DIV\pixel.png",0,0 L,81868,3 R,19,0,272,0,2.162546 S,0,80778,,8 F,19,80778,82959,0.5 M,19,80815,81868,127,365,43.63184,240.3014 M,18,82414,82959,43.63184,240.3014,127,365
Sprite,Background,Centre,"SB\DIV\pixel.png",0,0 L,81868,3 R,19,0,272,0,2.094085 S,0,80778,,17 F,19,80778,82959,0.5 M,19,80877,81868,127,365,144.1379,215.9822 M,18,82414,82959,144.1379,215.9822,127,365
Sprite,Background,Centre,"SB\DIV\pixel.png",0,0 L,81868,3 R,19,0,272,0,2.780535 S,0,80778,,8 F,19,80778,82959,0.5 M,19,80824,81868,127,365,-22.27617,379.7181 M,18,82414,82959,-22.27617,379.7181,127,365
Sprite,Background,Centre,"SB\DIV\pixel.png",0,0 L,81868,3 R,19,0,272,0,1.287985 S,0,80778,,2 F,19,80778,82959,0.5 M,19,80815,81868,127,365,7.865395,273.8575 M,18,82414,82959,7.865395,273.8575,127,365
Sprite,Background,Centre,"SB\DIV\pixel.png",0,0 L,81868,3 R,19,0,272,0,1.393722 S,0,80778,,14 F,19,80778,82959,0.5 M,19,80844,81868,127,365,226.95,253.1519 M,18,82414,82959,226.95,253.1519,127,365
Sprite,Background,Centre,"SB\DIV\pixel.png",0,0 L,81868,3 R,19,0,272,0,1.847813 S,0,80778,,3 M,19,80778,81868,127,365,257.8698,438.3014 F,19,80778,82959,0.5 M,18,82414,82959,257.8698,438.3014,127,365
Sprite,Background,Centre,"SB\DIV\pixel.png",0,0 L,81868,3 R,19,0,272,0,0.155081 S,0,80778,,3 F,19,80778,82959,0.5 M,19,80798,81868,127,365,100.6806,512.6729 M,18,82414,82959,100.6806,512.6729,127,365
Sprite,Background,Centre,"SB\DIV\pixel.png",0,0 L,81868,3 R,19,0,272,0,1.243242 S,0,80778,,15 F,19,80778,82959,0.5 M,19,80829,81868,127,365,-19.73425,333.8703 M,18,82414,82959,-19.73425,333.8703,127,365
Sprite,Background,Centre,"SB\DIV\pixel.png",0,0 L,81868,3 R,19,0,272,0,3.020432 S,0,80778,,8 F,19,80778,82959,0.5 M,19,80855,81868,127,365,-11.45174,307.2842 M,18,82414,82959,-11.45174,307.2842,127,365
Sprite,Background,Centre,"SB\DIV\pixel.png",0,0 L,81868,3 R,19,0,272,0,1.095893 S,0,80778,,6 F,19,80778,82959,0.5 M,19,80787,81868,127,365,145.7363,216.1748 M,18,82414,82959,145.7363,216.1748,127,365
Sprite,Background,Centre,"SB\DIV\pixel.png",0,0 L,81868,3 R,19,0,272,0,0.1326506 S,0,80778,,7 F,19,80778,82959,0.5 M,19,80780,81868,127,365,0.4240643,284.5107 M,18,82414,82959,0.4240643,284.5107,127,365
Sprite,Background,Centre,"SB\DIV\pixel.png",0,0 L,81868,3 R,19,0,272,0,0.5706244 S,0,80778,,18 F,19,80778,82959,0.5 M,19,80848,81868,127,365,276.9005,359.538 M,18,82414,82959,276.9005,359.538,127,365
Sprite,Background,Centre,"SB\DIV\pixel.png",0,0 L,81868,3 R,19,0,272,0,2.480821 S,0,80778,,6 F,19,80778,82959,0.5 M,19,80868,81868,127,365,142.1499,215.767 M,18,82414,82959,142.1499,215.767,127,365
Sprite,Background,Centre,"SB\DIV\pixel.png",0,0 L,81868,3 R,19,0,272,0,1.971754 S,0,80778,,7 F,19,80778,82959,0.5 M,19,80814,81868,127,365,101.6096,512.8355 M,18,82414,82959,101.6096,512.8355,127,365
Sprite,Background,Centre,"SB\DIV\pixel.png",0,0 L,81868,3 R,19,0,272,0,2.117619 S,0,80778,,13 F,19,80778,82959,0.5 M,19,80838,81868,127,365,254.9307,443.3182 M,18,82414,82959,254.9307,443.3182,127,365
Sprite,Background,Centre,"SB\DIV\pixel.png",0,0 L,81868,3 R,19,0,272,0,0.09689131 S,0,80778,,14 F,19,80778,82959,0.5 M,19,80809,81868,127,365,252.5766,447.0397 M,18,82414,82959,252.5766,447.0397,127,365
Sprite,Background,Centre,"SB\DIV\pixel.png",0,0 L,81868,3 R,19,0,272,0,2.318354 S,0,80778,,15 F,19,80778,82959,0.5 M,19,80854,81868,127,365,276.055,348.1887 M,18,82414,82959,276.055,348.1887,127,365
Sprite,Background,Centre,"SB\DIV\pixel.png",0,0 L,81868,3 R,19,0,272,0,1.453442 S,0,80778,,3 F,19,80778,82959,0.5 M,19,80869,81868,127,365,127.928,514.9971 M,18,82414,82959,127.928,514.9971,127,365
Sprite,Background,Centre,"SB\DIV\pixel.png",0,0 L,81868,3 R,19,0,272,0,0.7707031 S,0,80778,,12 F,19,80778,82959,0.5 M,19,80836,81868,127,365,198.1986,232.9744 M,18,82414,82959,198.1986,232.9744,127,365
Sprite,Background,Centre,"SB\DIV\pixel.png",0,0 L,81868,3 R,19,0,272,0,0.4797365 S,0,80778,,11 F,19,80778,82959,0.5 M,19,80828,81868,127,365,41.55961,241.712 M,18,82414,82959,41.55961,241.712,127,365
Sprite,Background,Centre,"SB\DIV\pixel.png",0,0 L,81868,3 R,19,0,272,0,1.177176 S,0,80778,,12 F,19,80778,82959,0.5 M,19,80855,81868,127,365,2.020971,447.9472 M,18,82414,82959,2.020971,447.9472,127,365
Sprite,Background,Centre,"SB\DIV\pixel.png",0,0 L,81868,3 R,19,0,272,0,0.1244115 S,0,80778,,13 F,19,80778,82959,0.5 M,19,80819,81868,127,365,276.3443,350.9905 M,18,82414,82959,276.3443,350.9905,127,365
Sprite,Background,Centre,"SB\DIV\pixel.png",0,0 L,81868,3 R,19,0,272,0,1.397515 S,0,80778,,18 F,19,80778,82959,0.5 M,19,80877,81868,127,365,58.51275,231.5478 M,18,82414,82959,58.51275,231.5478,127,365
Sprite,Background,Centre,"SB\DIV\pixel.png",0,0 L,81868,3 R,19,0,272,0,1.579959 S,0,80778,,11 F,19,80778,82959,0.5 M,19,80795,81868,127,365,276.9793,362.5067 M,18,82414,82959,276.9793,362.5067,127,365
Sprite,Background,Centre,"SB\DIV\pixel.png",0,0 L,81868,3 R,19,0,272,0,1.144762 S,0,80778,,17 F,19,80778,82959,0.5 M,19,80808,81868,127,365,29.04343,478.598 M,18,82414,82959,29.04343,478.598,127,365
Sprite,Background,Centre,"SB\DIV\pixel.png",0,0 L,81868,3 R,19,0,272,0,2.212441 S,0,80778,,8 F,19,80778,82959,0.5 M,19,80779,81868,127,365,-22.98939,366.7843 M,18,82414,82959,-22.98939,366.7843,127,365
Sprite,Background,Centre,"SB\DIV\pixel.png",0,0 L,81868,3 R,19,0,272,0,2.812095 S,0,80778,,12 F,19,80778,82959,0.5 M,19,80854,81868,127,365,-1.454587,287.5441 M,18,82414,82959,-1.454587,287.5441,127,365
Sprite,Background,Centre,"SB\DIV\pixel.png",0,0 L,81868,3 R,19,0,272,0,3.063563 S,0,80778,,8 F,19,80778,82959,0.5 M,19,80794,81868,127,365,166.6638,509.6609 M,18,82414,82959,166.6638,509.6609,127,365
Sprite,Background,Centre,"SB\DIV\pixel.png",0,0 L,81868,3 R,19,0,272,0,3.04115 S,0,80778,,2 F,19,80778,82959,0.5 M,19,80807,81868,127,365,206.0888,237.5443 M,18,82414,82959,206.0888,237.5443,127,365
Sprite,Background,Centre,"SB\DIV\pixel.png",0,0 L,81868,3 R,19,0,272,0,0.2420085 S,0,80778,,4 F,19,80778,82959,0.5 M,19,80847,81868,127,365,205.8719,237.4099 M,18,82414,82959,205.8719,237.4099,127,365
Sprite,Background,Centre,"SB\DIV\pixel.png",0,0 L,81868,3 R,19,0,272,0,1.862938 S,0,80778,,2 F,19,80778,82959,0.5 M,19,80875,81868,127,365,-21.34656,387.2103 M,18,82414,82959,-21.34656,387.2103,127,365
Sprite,Background,Centre,"SB\DIV\pixel.png",0,0 L,81868,3 R,19,0,272,0,0.7203478 S,0,80778,,6 F,19,80778,82959,0.5 M,19,80869,81868,127,365,248.1341,453.4677 M,18,82414,82959,248.1341,453.4677,127,365
Sprite,Background,Centre,"SB\DIV\pixel.png",0,0 L,81868,3 R,19,0,272,0,2.169356 S,0,80778,,18 F,19,80778,82959,0.5 M,19,80781,81868,127,365,274.7028,338.849 M,18,82414,82959,274.7028,338.849,127,365
Sprite,Background,Centre,"SB\DIV\pixel.png",0,0 L,81868,3 R,19,0,272,0,0.3606395 S,0,80778,,2 F,19,80778,82959,0.5 M,19,80820,81868,127,365,252.3912,282.6772 M,18,82414,82959,252.3912,282.6772,127,365
Sprite,Background,Centre,"SB\DIV\pixel.png",0,0 L,81868,3 R,19,0,272,0,0.6323313 S,0,80778,,11 F,19,80778,82959,0.5 M,19,80859,81868,127,365,202.83,235.5789 M,18,82414,82959,202.83,235.5789,127,365
Sprite,Background,Centre,"SB\DIV\pixel.png",0,0 L,81868,3 R,19,0,272,0,2.43689 S,0,80778,,18 F,19,80778,82959,0.5 M,19,80806,81868,127,365,263.1817,427.8852 M,18,82414,82959,263.1817,427.8852,127,365
Sprite,Background,Centre,"SB\DIV\pixel.png",0,0 L,84050,3 R,19,0,272,0,2.298951 S,0,82960,,7 F,19,82960,85141,0.5 M,19,83046,84050,467,299,517.9234,157.9085 M,18,84596,85141,517.9234,157.9085,467,299
Sprite,Background,Centre,"SB\DIV\pixel.png",0,0 L,84050,3 R,19,0,272,0,0.3853099 S,0,82960,,19 F,19,82960,85141,0.5 M,19,83031,84050,467,299,351.9563,202.7454 M,18,84596,85141,351.9563,202.7454,467,299
Sprite,Background,Centre,"SB\DIV\pixel.png",0,0 L,84050,3 R,19,0,272,0,2.232028 S,0,82960,,4 F,19,82960,85141,0.5 M,19,83052,84050,467,299,425.6346,443.1836 M,18,84596,85141,425.6346,443.1836,467,299
Sprite,Background,Centre,"SB\DIV\pixel.png",0,0 L,84050,3 R,19,0,272,0,0.1877744 S,0,82960,,7 F,19,82960,85141,0.5 M,19,82997,84050,467,299,514.1343,156.5979 M,18,84596,85141,514.1343,156.5979,467,299
Sprite,Background,Centre,"SB\DIV\pixel.png",0,0 L,84050,3 R,19,0,272,0,0.3649079 S,0,82960,,2 F,19,82960,85141,0.5 M,19,83029,84050,467,299,340.9693,380.3405 M,18,84596,85141,340.9693,380.3405,467,299
Sprite,Background,Centre,"SB\DIV\pixel.png",0,0 L,84050,3 R,19,0,272,0,2.738427 S,0,82960,,17 F,19,82960,85141,0.5 M,19,83002,84050,467,299,383.899,174.1232 M,18,84596,85141,383.899,174.1232,467,299
Sprite,Background,Centre,"SB\DIV\pixel.png",0,0 L,84050,3 R,19,0,272,0,2.896549 S,0,82960,,10 F,19,82960,85141,0.5 M,19,82961,84050,467,299,523.3354,159.9808 M,18,84596,85141,523.3354,159.9808,467,299
Sprite,Background,Centre,"SB\DIV\pixel.png",0,0 L,84050,3 R,19,0,272,0,2.569196 S,0,82960,,5 F,19,82960,85141,0.5 M,19,83034,84050,467,299,584.7729,391.8954 M,18,84596,85141,584.7729,391.8954,467,299
Sprite,Background,Centre,"SB\DIV\pixel.png",0,0 L,84050,3 R,19,0,272,0,2.780753 S,0,82960,,17 F,19,82960,85141,0.5 M,19,83006,84050,467,299,521.962,438.5678 M,18,84596,85141,521.962,438.5678,467,299
Sprite,Background,Centre,"SB\DIV\pixel.png",0,0 L,84050,3 R,19,0,272,0,2.738678 S,0,82960,,17 F,19,82960,85141,0.5 M,19,83029,84050,467,299,594.9974,220.7909 M,18,84596,85141,594.9974,220.7909,467,299
Sprite,Background,Centre,"SB\DIV\pixel.png",0,0 L,84050,3 R,19,0,272,0,0.2969505 S,0,82960,,17 F,19,82960,85141,0.5 M,19,83056,84050,467,299,411.4471,159.6663 M,18,84596,85141,411.4471,159.6663,467,299
Sprite,Background,Centre,"SB\DIV\pixel.png",0,0 L,84050,3 R,19,0,272,0,1.865063 S,0,82960,,5 F,19,82960,85141,0.5 M,19,83043,84050,467,299,580.5248,397.0414 M,18,84596,85141,580.5248,397.0414,467,299
Sprite,Background,Centre,"SB\DIV\pixel.png",0,0 L,84050,3 R,19,0,272,0,1.316418 S,0,82960,,3 F,19,82960,85141,0.5 M,19,83046,84050,467,299,521.7658,438.6449 M,18,84596,85141,521.7658,438.6449,467,299
Sprite,Background,Centre,"SB\DIV\pixel.png",0,0 L,84050,3 R,19,0,272,0,0.7882825 S,0,82960,,5 F,19,82960,85141,0.5 M,19,83005,84050,467,299,443.2841,447.1133 M,18,84596,85141,443.2841,447.1133,467,299
Sprite,Background,Centre,"SB\DIV\pixel.png",0,0 L,84050,3 R,19,0,272,0,2.395142 S,0,82960,,11 F,19,82960,85141,0.5 M,19,82979,84050,467,299,606.6633,353.719 M,18,84596,85141,606.6633,353.719,467,299
Sprite,Background,Centre,"SB\DIV\pixel.png",0,0 L,84050,3 R,19,0,272,0,1.4129 S,0,82960,,4 F,19,82960,85141,0.5 M,19,83041,84050,467,299,608.9774,250.6016 M,18,84596,85141,608.9774,250.6016,467,299
Sprite,Background,Centre,"SB\DIV\pixel.png",0,0 L,84050,3 R,19,0,272,0,2.988339 S,0,82960,,19 F,19,82960,85141,0.5 M,19,83017,84050,467,299,613.3588,266.1503 M,18,84596,85141,613.3588,266.1503,467,299
Sprite,Background,Centre,"SB\DIV\pixel.png",0,0 L,84050,3 R,19,0,272,0,0.07379384 S,0,82960,,8 F,19,82960,85141,0.5 M,19,82978,84050,467,299,554.3007,177.0222 M,18,84596,85141,554.3007,177.0222,467,299
Sprite,Background,Centre,"SB\DIV\pixel.png",0,0 L,84050,3 R,19,0,272,0,1.890054 S,0,82960,,12 F,19,82960,85141,0.5 M,19,83016,84050,467,299,445.525,447.4548 M,18,84596,85141,445.525,447.4548,467,299
Sprite,Background,Centre,"SB\DIV\pixel.png",0,0 L,84050,3 R,19,0,272,0,1.466381 S,0,82960,,10 F,19,82960,85141,0.5 M,19,82996,84050,467,299,401.8387,434.1074 M,18,84596,85141,401.8387,434.1074,467,299
Sprite,Background,Centre,"SB\DIV\pixel.png",0,0 L,84050,3 R,19,0,272,0,2.037359 S,0,82960,,12 F,19,82960,85141,0.5 M,19,83008,84050,467,299,322.5096,339.2804 M,18,84596,85141,322.5096,339.2804,467,299
Sprite,Background,Centre,"SB\DIV\pixel.png",0,0 L,84050,3 R,19,0,272,0,1.896426 S,0,82960,,3 F,19,82960,85141,0.5 M,19,83005,84050,467,299,317.1146,304.8623 M,18,84596,85141,317.1146,304.8623,467,299
Sprite,Background,Centre,"SB\DIV\pixel.png",0,0 L,84050,3 R,19,0,272,0,1.156933 S,0,82960,,15 F,19,82960,85141,0.5 M,19,83028,84050,467,299,420.4714,441.6012 M,18,84596,85141,420.4714,441.6012,467,299
Sprite,Background,Centre,"SB\DIV\pixel.png",0,0 L,84050,3 R,19,0,272,0,1.272434 S,0,82960,,4 F,19,82960,85141,0.5 M,19,83049,84050,467,299,354.3449,199.9605 M,18,84596,85141,354.3449,199.9605,467,299
Sprite,Background,Centre,"SB\DIV\pixel.png",0,0 L,84050,3 R,19,0,272,0,2.842301 S,0,82960,,5 F,19,82960,85141,0.5 M,19,82968,84050,467,299,593.6252,379.4118 M,18,84596,85141,593.6252,379.4118,467,299
Sprite,Background,Centre,"SB\DIV\pixel.png",0,0 L,84050,3 R,19,0,272,0,2.059442 S,0,82960,,18 F,19,82960,85141,0.5 M,19,83020,84050,467,299,317.013,300.9716 M,18,84596,85141,317.013,300.9716,467,299
Sprite,Background,Centre,"SB\DIV\pixel.png",0,0 L,84050,3 R,19,0,272,0,0.1840846 S,0,82960,,14 F,19,82960,85141,0.5 M,19,82995,84050,467,299,337.0522,224.0763 M,18,84596,85141,337.0522,224.0763,467,299
Sprite,Background,Centre,"SB\DIV\pixel.png",0,0 L,84050,3 R,19,0,272,0,0.2833649 S,0,82960,,7 F,19,82960,85141,0.5 M,19,83058,84050,467,299,318.2692,318.4718 M,18,84596,85141,318.2692,318.4718,467,299
Sprite,Background,Centre,"SB\DIV\pixel.png",0,0 L,84050,3 R,19,0,272,0,0.2283639 S,0,82960,,15 F,19,82960,85141,0.5 M,19,82971,84050,467,299,348.2683,390.6667 M,18,84596,85141,348.2683,390.6667,467,299
Sprite,Background,Centre,"SB\DIV\pixel.png",0,0 L,84050,3 R,19,0,272,0,1.100517 S,0,82960,,5 F,19,82960,85141,0.5 M,19,83043,84050,467,299,338.7043,221.2811 M,18,84596,85141,338.7043,221.2811,467,299
Sprite,Background,Centre,"SB\DIV\pixel.png",0,0 L,84050,3 R,19,0,272,0,2.818799 S,0,82960,,2 F,19,82960,85141,0.5 M,19,82981,84050,467,299,331.4869,363.3133 M,18,84596,85141,331.4869,363.3133,467,299
Sprite,Background,Centre,"SB\DIV\pixel.png",0,0 L,84050,3 R,19,0,272,0,2.193269 S,0,82960,,14 F,19,82960,85141,0.5 M,19,82990,84050,467,299,363.0186,407.1104 M,18,84596,85141,363.0186,407.1104,467,299
Sprite,Background,Centre,"SB\DIV\pixel.png",0,0 L,84050,3 R,19,0,272,0,1.364397 S,0,82960,,9 F,19,82960,85141,0.5 M,19,83014,84050,467,299,581.1603,201.6993 M,18,84596,85141,581.1603,201.6993,467,299
Sprite,Background,Centre,"SB\DIV\pixel.png",0,0 L,84050,3 R,19,0,272,0,1.883663 S,0,82960,,14 M,19,82960,84050,467,299,608.626,249.5826 F,19,82960,85141,0.5 M,18,84596,85141,608.626,249.5826,467,299
Sprite,Background,Centre,"SB\DIV\pixel.png",0,0 L,84050,3 R,19,0,272,0,2.779701 S,0,82960,,2 F,19,82960,85141,0.5 M,19,83016,84050,467,299,366.2227,187.8967 M,18,84596,85141,366.2227,187.8967,467,299
Sprite,Background,Centre,"SB\DIV\pixel.png",0,0 L,84050,3 R,19,0,272,0,2.697822 S,0,82960,,3 F,19,82960,85141,0.5 M,19,82991,84050,467,299,615.3544,276.842 M,18,84596,85141,615.3544,276.842,467,299
Sprite,Background,Centre,"SB\DIV\pixel.png",0,0 L,84050,3 R,19,0,272,0,0.5135306 S,0,82960,,12 F,19,82960,85141,0.5 M,19,82998,84050,467,299,391.9181,169.1435 M,18,84596,85141,391.9181,169.1435,467,299
Sprite,Background,Centre,"SB\DIV\pixel.png",0,0 L,84050,3 R,19,0,272,0,2.379754 S,0,82960,,16 F,19,82960,85141,0.5 M,19,82989,84050,467,299,368.4073,412.0464 M,18,84596,85141,368.4073,412.0464,467,299
Sprite,Background,Centre,"SB\DIV\pixel.png",0,0 L,84050,3 R,19,0,272,0,2.284207 S,0,82960,,13 F,19,82960,85141,0.5 M,19,82989,84050,467,299,533.9861,433.212 M,18,84596,85141,533.9861,433.212,467,299
Sprite,Background,Centre,"SB\DIV\pixel.png",0,0 L,84050,3 R,19,0,272,0,2.215236 S,0,82960,,7 F,19,82960,85141,0.5 M,19,83029,84050,467,299,554.5109,177.1729 M,18,84596,85141,554.5109,177.1729,467,299
Sprite,Background,Centre,"SB\DIV\pixel.png",0,0 L,86232,3 R,19,0,272,0,1.816688 S,0,85142,,13 F,19,85142,87323,0.5 M,19,85157,86232,348,213,217.0067,139.9196 M,18,86778,87323,217.0067,139.9196,348,213
Sprite,Background,Centre,"SB\DIV\pixel.png",0,0 L,86232,3 R,19,0,272,0,2.271689 S,0,85142,,5 F,19,85142,87323,0.5 M,19,85158,86232,348,213,447.6524,100.8867 M,18,86778,87323,447.6524,100.8867,348,213
Sprite,Background,Centre,"SB\DIV\pixel.png",0,0 L,86232,3 R,19,0,272,0,1.050712 S,0,85142,,16 F,19,85142,87323,0.5 M,19,85161,86232,348,213,489.2687,263.4296 M,18,86778,87323,489.2687,263.4296,348,213
Sprite,Background,Centre,"SB\DIV\pixel.png",0,0 L,86232,3 R,19,0,272,0,2.181608 S,0,85142,,6 F,19,85142,87323,0.5 M,19,85240,86232,348,213,198.0268,210.1652 M,18,86778,87323,198.0268,210.1652,348,213
Sprite,Background,Centre,"SB\DIV\pixel.png",0,0 L,86232,3 R,19,0,272,0,0.6371642 S,0,85142,,18 F,19,85142,87323,0.5 M,19,85164,86232,348,213,257.9073,93.06957 M,18,86778,87323,257.9073,93.06957,348,213
Sprite,Background,Centre,"SB\DIV\pixel.png",0,0 L,86232,3 R,19,0,272,0,0.7924556 S,0,85142,,7 F,19,85142,87323,0.5 M,19,85235,86232,348,213,267.8635,339.7996 M,18,86778,87323,267.8635,339.7996,348,213
Sprite,Background,Centre,"SB\DIV\pixel.png",0,0 L,86232,3 R,19,0,272,0,2.385483 S,0,85142,,9 F,19,85142,87323,0.5 M,19,85240,86232,348,213,321.0082,360.5515 M,18,86778,87323,321.0082,360.5515,348,213
Sprite,Background,Centre,"SB\DIV\pixel.png",0,0 L,86232,3 R,19,0,272,0,0.9554626 S,0,85142,,19 F,19,85142,87323,0.5 M,19,85218,86232,348,213,198.1373,206.5846 M,18,86778,87323,198.1373,206.5846,348,213
Sprite,Background,Centre,"SB\DIV\pixel.png",0,0 L,86232,3 R,19,0,272,0,1.359699 S,0,85142,,3 F,19,85142,87323,0.5 M,19,85154,86232,348,213,394.1397,355.7275 M,18,86778,87323,394.1397,355.7275,348,213
Sprite,Background,Centre,"SB\DIV\pixel.png",0,0 L,86232,3 R,19,0,272,0,0.0959441 S,0,85142,,7 F,19,85142,87323,0.5 M,19,85188,86232,348,213,497.1742,197.282 M,18,86778,87323,497.1742,197.282,348,213
Sprite,Background,Centre,"SB\DIV\pixel.png",0,0 L,86232,3 R,19,0,272,0,2.204518 S,0,85142,,13 F,19,85142,87323,0.5 M,19,85186,86232,348,213,443.5388,97.36115 M,18,86778,87323,443.5388,97.36115,348,213
Sprite,Background,Centre,"SB\DIV\pixel.png",0,0 L,86232,3 R,19,0,272,0,3.08679 S,0,85142,,9 F,19,85142,87323,0.5 M,19,85166,86232,348,213,253.4569,329.4543 M,18,86778,87323,253.4569,329.4543,348,213
Sprite,Background,Centre,"SB\DIV\pixel.png",0,0 L,86232,3 R,19,0,272,0,1.250639 S,0,85142,,18 F,19,85142,87323,0.5 M,19,85225,86232,348,213,484.4731,150.7497 M,18,86778,87323,484.4731,150.7497,348,213
Sprite,Background,Centre,"SB\DIV\pixel.png",0,0 L,86232,3 R,19,0,272,0,1.733392 S,0,85142,,3 F,19,85142,87323,0.5 M,19,85220,86232,348,213,483.5492,277.2372 M,18,86778,87323,483.5492,277.2372,348,213
Sprite,Background,Centre,"SB\DIV\pixel.png",0,0 L,86232,3 R,19,0,272,0,2.576733 S,0,85142,,19 F,19,85142,87323,0.5 M,19,85143,86232,348,213,338.7943,63.28275 M,18,86778,87323,338.7943,63.28275,348,213
Sprite,Background,Centre,"SB\DIV\pixel.png",0,0 L,86232,3 R,19,0,272,0,2.703697 S,0,85142,,10 F,19,85142,87323,0.5 M,19,85158,86232,348,213,198.9654,196.0089 M,18,86778,87323,198.9654,196.0089,348,213
Sprite,Background,Centre,"SB\DIV\pixel.png",0,0 L,86232,3 R,19,0,272,0,0.385457 S,0,85142,,7 F,19,85142,87323,0.5 M,19,85205,86232,348,213,455.3172,108.2001 M,18,86778,87323,455.3172,108.2001,348,213
Sprite,Background,Centre,"SB\DIV\pixel.png",0,0 L,86232,3 R,19,0,272,0,0.9656081 S,0,85142,,14 F,19,85142,87323,0.5 M,19,85176,86232,348,213,423.3512,83.29956 M,18,86778,87323,423.3512,83.29956,348,213
Sprite,Background,Centre,"SB\DIV\pixel.png",0,0 L,86232,3 R,19,0,272,0,2.464599 S,0,85142,,19 F,19,85142,87323,0.5 M,19,85176,86232,348,213,337.5121,362.6329 M,18,86778,87323,337.5121,362.6329,348,213
Sprite,Background,Centre,"SB\DIV\pixel.png",0,0 L,86232,3 R,19,0,272,0,1.215508 S,0,85142,,13 F,19,85142,87323,0.5 M,19,85163,86232,348,213,249.2112,325.8751 M,18,86778,87323,249.2112,325.8751,348,213
Sprite,Background,Centre,"SB\DIV\pixel.png",0,0 L,86232,3 R,19,0,272,0,2.641461 S,0,85142,,15 F,19,85142,87323,0.5 M,19,85181,86232,348,213,398.7574,354.1513 M,18,86778,87323,398.7574,354.1513,348,213
Sprite,Background,Centre,"SB\DIV\pixel.png",0,0 L,86232,3 R,19,0,272,0,2.822865 S,0,85142,,16 F,19,85142,87323,0.5 M,19,85191,86232,348,213,435.6805,91.29493 M,18,86778,87323,435.6805,91.29493,348,213
Sprite,Background,Centre,"SB\DIV\pixel.png",0,0 L,86232,3 R,19,0,272,0,1.16281 S,0,85142,,12 F,19,85142,87323,0.5 M,19,85218,86232,348,213,397.7415,354.5125 M,18,86778,87323,397.7415,354.5125,348,213
Sprite,Background,Centre,"SB\DIV\pixel.png",0,0 L,86232,3 R,19,0,272,0,2.931035 S,0,85142,,16 F,19,85142,87323,0.5 M,19,85195,86232,348,213,307.2759,357.366 M,18,86778,87323,307.2759,357.366,348,213
Sprite,Background,Centre,"SB\DIV\pixel.png",0,0 L,86232,3 R,19,0,272,0,0.4008399 S,0,85142,,15 F,19,85142,87323,0.5 M,19,85150,86232,348,213,324.5968,64.83694 M,18,86778,87323,324.5968,64.83694,348,213
Sprite,Background,Centre,"SB\DIV\pixel.png",0,0 L,86232,3 R,19,0,272,0,2.757885 S,0,85142,,4 F,19,85142,87323,0.5 M,19,85143,86232,348,213,228.6146,303.8137 M,18,86778,87323,228.6146,303.8137,348,213
Sprite,Background,Centre,"SB\DIV\pixel.png",0,0 L,86232,3 R,19,0,272,0,1.849913 S,0,85142,,3 F,19,85142,87323,0.5 M,19,85192,86232,348,213,296.1792,353.7643 M,18,86778,87323,296.1792,353.7643,348,213
Sprite,Background,Centre,"SB\DIV\pixel.png",0,0 L,86232,3 R,19,0,272,0,2.303948 S,0,85142,,10 F,19,85142,87323,0.5 M,19,85231,86232,348,213,198.6667,227.1271 M,18,86778,87323,198.6667,227.1271,348,213
Sprite,Background,Centre,"SB\DIV\pixel.png",0,0 L,86232,3 R,19,0,272,0,1.173289 S,0,85142,,16 F,19,85142,87323,0.5 M,19,85194,86232,348,213,269.8876,341.0565 M,18,86778,87323,269.8876,341.0565,348,213
Sprite,Background,Centre,"SB\DIV\pixel.png",0,0 L,86232,3 R,19,0,272,0,0.445377 S,0,85142,,13 F,19,85142,87323,0.5 M,19,85220,86232,348,213,198.0314,216.0677 M,18,86778,87323,198.0314,216.0677,348,213
Sprite,Background,Centre,"SB\DIV\pixel.png",0,0 L,86232,3 R,19,0,272,0,0.5490702 S,0,85142,,15 F,19,85142,87323,0.5 M,19,85183,86232,348,213,417.0764,79.85178 M,18,86778,87323,417.0764,79.85178,348,213
Sprite,Background,Centre,"SB\DIV\pixel.png",0,0 L,86232,3 R,19,0,272,0,2.865772 S,0,85142,,13 F,19,85142,87323,0.5 M,19,85204,86232,348,213,463.6334,308.5454 M,18,86778,87323,463.6334,308.5454,348,213
Sprite,Background,Centre,"SB\DIV\pixel.png",0,0 L,86232,3 R,19,0,272,0,1.444491 S,0,85142,,18 F,19,85142,87323,0.5 M,19,85175,86232,348,213,424.3394,83.87873 M,18,86778,87323,424.3394,83.87873,348,213
Sprite,Background,Centre,"SB\DIV\pixel.png",0,0 L,86232,3 R,19,0,272,0,2.993221 S,0,85142,,19 F,19,85142,87323,0.5 M,19,85209,86232,348,213,298.0048,71.57694 M,18,86778,87323,298.0048,71.57694,348,213
Sprite,Background,Centre,"SB\DIV\pixel.png",0,0 L,86232,3 R,19,0,272,0,0.9965948 S,0,85142,,3 F,19,85142,87323,0.5 M,19,85150,86232,348,213,226.9279,301.5526 M,18,86778,87323,226.9279,301.5526,348,213
Sprite,Background,Centre,"SB\DIV\pixel.png",0,0 L,86232,3 R,19,0,272,0,2.826274 S,0,85142,,9 F,19,85142,87323,0.5 M,19,85170,86232,348,213,395.903,355.1454 M,18,86778,87323,395.903,355.1454,348,213
Sprite,Background,Centre,"SB\DIV\pixel.png",0,0 L,86232,3 R,19,0,272,0,0.7203141 S,0,85142,,2 F,19,85142,87323,0.5 M,19,85180,86232,348,213,233.1598,116.5027 M,18,86778,87323,233.1598,116.5027,348,213
Sprite,Background,Centre,"SB\DIV\pixel.png",0,0 L,86232,3 R,19,0,272,0,0.1324007 S,0,85142,,18 F,19,85142,87323,0.5 M,19,85219,86232,348,213,462.9662,116.6529 M,18,86778,87323,462.9662,116.6529,348,213
Sprite,Background,Centre,"SB\DIV\pixel.png",0,0 L,86232,3 R,19,0,272,0,2.326493 S,0,85142,,11 F,19,85142,87323,0.5 M,19,85169,86232,348,213,441.1513,95.42948 M,18,86778,87323,441.1513,95.42948,348,213
Sprite,Background,Centre,"SB\DIV\pixel.png",0,0 L,86232,3 R,19,0,272,0,2.342738 S,0,85142,,8 F,19,85142,87323,0.5 M,19,85200,86232,348,213,497.9395,217.2586 M,18,86778,87323,497.9395,217.2586,348,213
Sprite,Background,Centre,"SB\DIV\pixel.png",0,0 L,88414,3 R,19,0,272,0,3.091384 S,0,87324,,14 F,19,87324,89505,0.5 M,19,87405,88414,268,198,337.5426,65.09466 M,18,88960,89505,337.5426,65.09466,268,198
Sprite,Background,Centre,"SB\DIV\pixel.png",0,0 L,88414,3 R,19,0,272,0,0.9418951 S,0,87324,,9 F,19,87324,89505,0.5 M,19,87359,88414,268,198,262.9708,48.08434 M,18,88960,89505,262.9708,48.08434,268,198
Sprite,Background,Centre,"SB\DIV\pixel.png",0,0 L,88414,3 R,19,0,272,0,1.50906 S,0,87324,,14 F,19,87324,89505,0.5 M,19,87347,88414,268,198,339.6711,66.23027 M,18,88960,89505,339.6711,66.23027,268,198
Sprite,Background,Centre,"SB\DIV\pixel.png",0,0 L,88414,3 R,19,0,272,0,2.661595 S,0,87324,,14 F,19,87324,89505,0.5 M,19,87355,88414,268,198,126.3595,247.3758 M,18,88960,89505,126.3595,247.3758,268,198
Sprite,Background,Centre,"SB\DIV\pixel.png",0,0 L,88414,3 R,19,0,272,0,2.02732 S,0,87324,,18 F,19,87324,89505,0.5 M,19,87399,88414,268,198,401.5214,129.6477 M,18,88960,89505,401.5214,129.6477,268,198
Sprite,Background,Centre,"SB\DIV\pixel.png",0,0 L,88414,3 R,19,0,272,0,1.685319 S,0,87324,,7 F,19,87324,89505,0.5 M,19,87377,88414,268,198,376.3681,301.7129 M,18,88960,89505,376.3681,301.7129,268,198
Sprite,Background,Centre,"SB\DIV\pixel.png",0,0 L,88414,3 R,19,0,272,0,1.154815 S,0,87324,,13 F,19,87324,89505,0.5 M,19,87417,88414,268,198,153.7401,100.8163 M,18,88960,89505,153.7401,100.8163,268,198
Sprite,Background,Centre,"SB\DIV\pixel.png",0,0 L,88414,3 R,19,0,272,0,3.079386 S,0,87324,,2 F,19,87324,89505,0.5 M,19,87395,88414,268,198,310.3353,54.09823 M,18,88960,89505,310.3353,54.09823,268,198
Sprite,Background,Centre,"SB\DIV\pixel.png",0,0 L,88414,3 R,19,0,272,0,2.179356 S,0,87324,,13 F,19,87324,89505,0.5 M,19,87359,88414,268,198,121.2591,166.9019 M,18,88960,89505,121.2591,166.9019,268,198
Sprite,Background,Centre,"SB\DIV\pixel.png",0,0 L,88414,3 R,19,0,272,0,1.127653 S,0,87324,,3 F,19,87324,89505,0.5 M,19,87380,88414,268,198,157.6085,96.44358 M,18,88960,89505,157.6085,96.44358,268,198
Sprite,Background,Centre,"SB\DIV\pixel.png",0,0 L,88414,3 R,19,0,272,0,0.02183865 S,0,87324,,10 F,19,87324,89505,0.5 M,19,87411,88414,268,198,216.3321,57.17945 M,18,88960,89505,216.3321,57.17945,268,198
Sprite,Background,Centre,"SB\DIV\pixel.png",0,0 L,88414,3 R,19,0,272,0,2.145414 S,0,87324,,2 F,19,87324,89505,0.5 M,19,87412,88414,268,198,401.0898,267.1888 M,18,88960,89505,401.0898,267.1888,268,198
Sprite,Background,Centre,"SB\DIV\pixel.png",0,0 L,88414,3 R,19,0,272,0,1.348917 S,0,87324,,17 F,19,87324,89505,0.5 M,19,87327,88414,268,198,307.3911,342.7354 M,18,88960,89505,307.3911,342.7354,268,198
Sprite,Background,Centre,"SB\DIV\pixel.png",0,0 L,88414,3 R,19,0,272,0,2.749579 S,0,87324,,8 F,19,87324,89505,0.5 M,19,87383,88414,268,198,385.5921,104.876 M,18,88960,89505,385.5921,104.876,268,198
Sprite,Background,Centre,"SB\DIV\pixel.png",0,0 L,88414,3 R,19,0,272,0,3.076534 S,0,87324,,15 F,19,87324,89505,0.5 M,19,87351,88414,268,198,250.6015,49.01245 M,18,88960,89505,250.6015,49.01245,268,198
Sprite,Background,Centre,"SB\DIV\pixel.png",0,0 L,88414,3 R,19,0,272,0,0.5250998 S,0,87324,,6 F,19,87324,89505,0.5 M,19,87337,88414,268,198,130.4551,138.1553 M,18,88960,89505,130.4551,138.1553,268,198
Sprite,Background,Centre,"SB\DIV\pixel.png",0,0 L,88414,3 R,19,0,272,0,0.6355339 S,0,87324,,19 F,19,87324,89505,0.5 M,19,87371,88414,268,198,128.5908,142.6369 M,18,88960,89505,128.5908,142.6369,268,198
Sprite,Background,Centre,"SB\DIV\pixel.png",0,0 L,88414,3 R,19,0,272,0,2.38838 S,0,87324,,13 F,19,87324,89505,0.5 M,19,87367,88414,268,198,256.2361,48.46201 M,18,88960,89505,256.2361,48.46201,268,198
Sprite,Background,Centre,"SB\DIV\pixel.png",0,0 L,88414,3 R,19,0,272,0,2.678591 S,0,87324,,8 F,19,87324,89505,0.5 M,19,87392,88414,268,198,393.2721,115.496 M,18,88960,89505,393.2721,115.496,268,198
Sprite,Background,Centre,"SB\DIV\pixel.png",0,0 L,88414,3 R,19,0,272,0,3.007921 S,0,87324,,5 F,19,87324,89505,0.5 M,19,87372,88414,268,198,118.0081,199.5599 M,18,88960,89505,118.0081,199.5599,268,198
Sprite,Background,Centre,"SB\DIV\pixel.png",0,0 L,88414,3 R,19,0,272,0,2.428068 S,0,87324,,5 F,19,87324,89505,0.5 M,19,87345,88414,268,198,416.2314,220.9664 M,18,88960,89505,416.2314,220.9664,268,198
Sprite,Background,Centre,"SB\DIV\pixel.png",0,0 L,88414,3 R,19,0,272,0,2.517745 S,0,87324,,11 F,19,87324,89505,0.5 M,19,87338,88414,268,198,135.7918,268.8589 M,18,88960,89505,135.7918,268.8589,268,198
Sprite,Background,Centre,"SB\DIV\pixel.png",0,0 L,88414,3 R,19,0,272,0,0.0005169089 S,0,87324,,17 F,19,87324,89505,0.5 M,19,87389,88414,268,198,409.3417,147.7753 M,18,88960,89505,409.3417,147.7753,268,198
Sprite,Background,Centre,"SB\DIV\pixel.png",0,0 L,88414,3 R,19,0,272,0,0.794713 S,0,87324,,14 F,19,87324,89505,0.5 M,19,87331,88414,268,198,253.8423,48.66963 M,18,88960,89505,253.8423,48.66963,268,198
Sprite,Background,Centre,"SB\DIV\pixel.png",0,0 L,88414,3 R,19,0,272,0,1.088213 S,0,87324,,12 F,19,87324,89505,0.5 M,19,87419,88414,268,198,123.9462,239.815 M,18,88960,89505,123.9462,239.815,268,198
Sprite,Background,Centre,"SB\DIV\pixel.png",0,0 L,88414,3 R,19,0,272,0,1.002417 S,0,87324,,17 F,19,87324,89505,0.5 M,19,87415,88414,268,198,412.2238,239.2249 M,18,88960,89505,412.2238,239.2249,268,198
Sprite,Background,Centre,"SB\DIV\pixel.png",0,0 L,88414,3 R,19,0,272,0,1.829573 S,0,87324,,6 F,19,87324,89505,0.5 M,19,87418,88414,268,198,398.8434,271.3486 M,18,88960,89505,398.8434,271.3486,268,198
Sprite,Background,Centre,"SB\DIV\pixel.png",0,0 L,88414,3 R,19,0,272,0,1.883817 S,0,87324,,5 F,19,87324,89505,0.5 M,19,87352,88414,268,198,181.4573,320.5168 M,18,88960,89505,181.4573,320.5168,268,198
Sprite,Background,Centre,"SB\DIV\pixel.png",0,0 L,88414,3 R,19,0,272,0,2.256343 S,0,87324,,17 F,19,87324,89505,0.5 M,19,87416,88414,268,198,143.4425,114.4211 M,18,88960,89505,143.4425,114.4211,268,198
Sprite,Background,Centre,"SB\DIV\pixel.png",0,0 L,88414,3 R,19,0,272,0,0.8960138 S,0,87324,,8 F,19,87324,89505,0.5 M,19,87406,88414,268,198,265.3398,347.9764 M,18,88960,89505,265.3398,347.9764,268,198
Sprite,Background,Centre,"SB\DIV\pixel.png",0,0 L,88414,3 R,19,0,272,0,3.011834 S,0,87324,,18 F,19,87324,89505,0.5 M,19,87405,88414,268,198,134.1923,265.7901 M,18,88960,89505,134.1923,265.7901,268,198
Sprite,Background,Centre,"SB\DIV\pixel.png",0,0 L,88414,3 R,19,0,272,0,0.2956931 S,0,87324,,17 F,19,87324,89505,0.5 M,19,87386,88414,268,198,404.5269,260.1323 M,18,88960,89505,404.5269,260.1323,268,198
Sprite,Background,Centre,"SB\DIV\pixel.png",0,0 L,88414,3 R,19,0,272,0,0.2960638 S,0,87324,,5 F,19,87324,89505,0.5 M,19,87350,88414,268,198,118.0627,193.6639 M,18,88960,89505,118.0627,193.6639,268,198
Sprite,Background,Centre,"SB\DIV\pixel.png",0,0 L,88414,3 R,19,0,272,0,1.074069 S,0,87324,,7 F,19,87324,89505,0.5 M,19,87361,88414,268,198,417.9128,203.1155 M,18,88960,89505,417.9128,203.1155,268,198
Sprite,Background,Centre,"SB\DIV\pixel.png",0,0 L,88414,3 R,19,0,272,0,1.565304 S,0,87324,,3 F,19,87324,89505,0.5 M,19,87412,88414,268,198,125.0002,243.2885 M,18,88960,89505,125.0002,243.2885,268,198
Sprite,Background,Centre,"SB\DIV\pixel.png",0,0 L,88414,3 R,19,0,272,0,2.397726 S,0,87324,,17 F,19,87324,89505,0.5 M,19,87336,88414,268,198,121.5938,165.362 M,18,88960,89505,121.5938,165.362,268,198
Sprite,Background,Centre,"SB\DIV\pixel.png",0,0 L,88414,3 R,19,0,272,0,1.237231 S,0,87324,,12 F,19,87324,89505,0.5 M,19,87380,88414,268,198,298.0391,344.9614 M,18,88960,89505,298.0391,344.9614,268,198
Sprite,Background,Centre,"SB\DIV\pixel.png",0,0 L,88414,3 R,19,0,272,0,1.421995 S,0,87324,,7 M,19,87324,88414,268,198,248.8189,346.7686 F,19,87324,89505,0.5 M,18,88960,89505,248.8189,346.7686,268,198
Sprite,Background,Centre,"SB\DIV\pixel.png",0,0 L,88414,3 R,19,0,272,0,0.1297157 S,0,87324,,3 F,19,87324,89505,0.5 M,19,87368,88414,268,198,243.9805,49.93561 M,18,88960,89505,243.9805,49.93561,268,198
Sprite,Background,Centre,"SB\DIV\pixel.png",0,0 L,88414,3 R,19,0,272,0,2.379772 S,0,87324,,15 F,19,87324,89505,0.5 M,19,87396,88414,268,198,196.3833,329.7993 M,18,88960,89505,196.3833,329.7993,268,198
Sprite,Background,Centre,"SB\DIV\pixel.png",0,0 L,90595,3 R,19,0,272,0,0.2063301 S,0,89505,,2 F,19,89505,91686,0.5 M,19,89559,90595,350,216,455.8184,109.687 M,18,91141,91686,455.8184,109.687,350,216
Sprite,Background,Centre,"SB\DIV\pixel.png",0,0 L,90595,3 R,19,0,272,0,1.740452 S,0,89505,,9 F,19,89505,91686,0.5 M,19,89578,90595,350,216,205.0526,177.3963 M,18,91141,91686,205.0526,177.3963,350,216
Sprite,Background,Centre,"SB\DIV\pixel.png",0,0 L,90595,3 R,19,0,272,0,2.099176 S,0,89505,,3 F,19,89505,91686,0.5 M,19,89580,90595,350,216,491.9033,167.3845 M,18,91141,91686,491.9033,167.3845,350,216
Sprite,Background,Centre,"SB\DIV\pixel.png",0,0 L,90595,3 R,19,0,272,0,2.552305 S,0,89505,,16 F,19,89505,91686,0.5 M,19,89572,90595,350,216,490.3453,163.0547 M,18,91141,91686,490.3453,163.0547,350,216
Sprite,Background,Centre,"SB\DIV\pixel.png",0,0 L,90595,3 R,19,0,272,0,2.361162 S,0,89505,,16 F,19,89505,91686,0.5 M,19,89511,90595,350,216,499.9793,218.4892 M,18,91141,91686,499.9793,218.4892,350,216
Sprite,Background,Centre,"SB\DIV\pixel.png",0,0 L,90595,3 R,19,0,272,0,0.7795532 S,0,89505,,2 F,19,89505,91686,0.5 M,19,89583,90595,350,216,499.7034,225.4276 M,18,91141,91686,499.7034,225.4276,350,216
Sprite,Background,Centre,"SB\DIV\pixel.png",0,0 L,90595,3 R,19,0,272,0,0.5827008 S,0,89505,,4 F,19,89505,91686,0.5 M,19,89542,90595,350,216,408.6499,77.94136 M,18,91141,91686,408.6499,77.94136,350,216
Sprite,Background,Centre,"SB\DIV\pixel.png",0,0 L,90595,3 R,19,0,272,0,2.889488 S,0,89505,,11 F,19,89505,91686,0.5 M,19,89559,90595,350,216,277.6749,84.58813 M,18,91141,91686,277.6749,84.58813,350,216
Sprite,Background,Centre,"SB\DIV\pixel.png",0,0 L,90595,3 R,19,0,272,0,2.694885 S,0,89505,,15 F,19,89505,91686,0.5 M,19,89561,90595,350,216,203.2028,185.1685 M,18,91141,91686,203.2028,185.1685,350,216
Sprite,Background,Centre,"SB\DIV\pixel.png",0,0 L,90595,3 R,19,0,272,0,2.201793 S,0,89505,,9 F,19,89505,91686,0.5 M,19,89541,90595,350,216,497.6056,189.3056 M,18,91141,91686,497.6056,189.3056,350,216
Sprite,Background,Centre,"SB\DIV\pixel.png",0,0 L,90595,3 R,19,0,272,0,0.2111184 S,0,89505,,18 F,19,89505,91686,0.5 M,19,89596,90595,350,216,267.8582,90.49015 M,18,91141,91686,267.8582,90.49015,350,216
Sprite,Background,Centre,"SB\DIV\pixel.png",0,0 L,90595,3 R,19,0,272,0,1.79243 S,0,89505,,6 F,19,89505,91686,0.5 M,19,89577,90595,350,216,408.7326,77.97654 M,18,91141,91686,408.7326,77.97654,350,216
Sprite,Background,Centre,"SB\DIV\pixel.png",0,0 L,90595,3 R,19,0,272,0,1.503341 S,0,89505,,5 F,19,89505,91686,0.5 M,19,89575,90595,350,216,352.2614,66.01704 M,18,91141,91686,352.2614,66.01704,350,216
Sprite,Background,Centre,"SB\DIV\pixel.png",0,0 L,90595,3 R,19,0,272,0,0.3672023 S,0,89505,,18 F,19,89505,91686,0.5 M,19,89568,90595,350,216,213.7646,153.2311 M,18,91141,91686,213.7646,153.2311,350,216
Sprite,Background,Centre,"SB\DIV\pixel.png",0,0 L,90595,3 R,19,0,272,0,0.2263008 S,0,89505,,17 F,19,89505,91686,0.5 M,19,89519,90595,350,216,232.195,308.8547 M,18,91141,91686,232.195,308.8547,350,216
Sprite,Background,Centre,"SB\DIV\pixel.png",0,0 L,90595,3 R,19,0,272,0,0.3416301 S,0,89505,,19 F,19,89505,91686,0.5 M,19,89534,90595,350,216,210.867,272.0535 M,18,91141,91686,210.867,272.0535,350,216
Sprite,Background,Centre,"SB\DIV\pixel.png",0,0 L,90595,3 R,19,0,272,0,2.955025 S,0,89505,,7 F,19,89505,91686,0.5 M,19,89541,90595,350,216,260.4712,95.64802 M,18,91141,91686,260.4712,95.64802,350,216
Sprite,Background,Centre,"SB\DIV\pixel.png",0,0 L,90595,3 R,19,0,272,0,1.917566 S,0,89505,,2 F,19,89505,91686,0.5 M,19,89549,90595,350,216,470.3997,126.5354 M,18,91141,91686,470.3997,126.5354,350,216
Sprite,Background,Centre,"SB\DIV\pixel.png",0,0 L,90595,3 R,19,0,272,0,1.431597 S,0,89505,,19 F,19,89505,91686,0.5 M,19,89533,90595,350,216,491.9795,167.6076 M,18,91141,91686,491.9795,167.6076,350,216
Sprite,Background,Centre,"SB\DIV\pixel.png",0,0 L,90595,3 R,19,0,272,0,0.2416416 S,0,89505,,7 F,19,89505,91686,0.5 M,19,89542,90595,350,216,420.3137,83.50098 M,18,91141,91686,420.3137,83.50098,350,216
Sprite,Background,Centre,"SB\DIV\pixel.png",0,0 L,90595,3 R,19,0,272,0,0.09531596 S,0,89505,,7 F,19,89505,91686,0.5 M,19,89551,90595,350,216,276.3081,346.6503 M,18,91141,91686,276.3081,346.6503,350,216
Sprite,Background,Centre,"SB\DIV\pixel.png",0,0 L,90595,3 R,19,0,272,0,2.858364 S,0,89505,,17 F,19,89505,91686,0.5 M,19,89508,90595,350,216,200.5828,202.7905 M,18,91141,91686,200.5828,202.7905,350,216
Sprite,Background,Centre,"SB\DIV\pixel.png",0,0 L,90595,3 R,19,0,272,0,0.147479 S,0,89505,,4 F,19,89505,91686,0.5 M,19,89580,90595,350,216,200.8574,199.9851 M,18,91141,91686,200.8574,199.9851,350,216
Sprite,Background,Centre,"SB\DIV\pixel.png",0,0 L,90595,3 R,19,0,272,0,0.1910767 S,0,89505,,6 F,19,89505,91686,0.5 M,19,89542,90595,350,216,234.3637,311.5419 M,18,91141,91686,234.3637,311.5419,350,216
Sprite,Background,Centre,"SB\DIV\pixel.png",0,0 L,90595,3 R,19,0,272,0,1.192581 S,0,89505,,7 F,19,89505,91686,0.5 M,19,89564,90595,350,216,459.8047,318.1907 M,18,91141,91686,459.8047,318.1907,350,216
Sprite,Background,Centre,"SB\DIV\pixel.png",0,0 L,90595,3 R,19,0,272,0,0.2640293 S,0,89505,,9 F,19,89505,91686,0.5 M,19,89523,90595,350,216,467.6223,309.0859 M,18,91141,91686,467.6223,309.0859,350,216
Sprite,Background,Centre,"SB\DIV\pixel.png",0,0 L,90595,3 R,19,0,272,0,0.1087687 S,0,89505,,18 F,19,89505,91686,0.5 M,19,89506,90595,350,216,487.0941,276.8705 M,18,91141,91686,487.0941,276.8705,350,216
Sprite,Background,Centre,"SB\DIV\pixel.png",0,0 L,90595,3 R,19,0,272,0,0.08435286 S,0,89505,,7 F,19,89505,91686,0.5 M,19,89510,90595,350,216,413.6104,351.8445 M,18,91141,91686,413.6104,351.8445,350,216
Sprite,Background,Centre,"SB\DIV\pixel.png",0,0 L,90595,3 R,19,0,272,0,1.490144 S,0,89505,,4 F,19,89505,91686,0.5 M,19,89564,90595,350,216,451.4586,105.5185 M,18,91141,91686,451.4586,105.5185,350,216
Sprite,Background,Centre,"SB\DIV\pixel.png",0,0 L,90595,3 R,19,0,272,0,2.010111 S,0,89505,,18 F,19,89505,91686,0.5 M,19,89518,90595,350,216,402.1525,356.6418 M,18,91141,91686,402.1525,356.6418,350,216
Sprite,Background,Centre,"SB\DIV\pixel.png",0,0 L,90595,3 R,19,0,272,0,0.6104676 S,0,89505,,6 F,19,89505,91686,0.5 M,19,89517,90595,350,216,206.3139,259.0616 M,18,91141,91686,206.3139,259.0616,350,216
Sprite,Background,Centre,"SB\DIV\pixel.png",0,0 L,90595,3 R,19,0,272,0,0.9661855 S,0,89505,,18 F,19,89505,91686,0.5 M,19,89523,90595,350,216,338.5457,66.43797 M,18,91141,91686,338.5457,66.43797,350,216
Sprite,Background,Centre,"SB\DIV\pixel.png",0,0 L,90595,3 R,19,0,272,0,1.82256 S,0,89505,,15 F,19,89505,91686,0.5 M,19,89565,90595,350,216,279.8383,348.5796 M,18,91141,91686,279.8383,348.5796,350,216
Sprite,Background,Centre,"SB\DIV\pixel.png",0,0 L,90595,3 R,19,0,272,0,2.686298 S,0,89505,,4 F,19,89505,91686,0.5 M,19,89591,90595,350,216,200.0765,211.21 M,18,91141,91686,200.0765,211.21,350,216
Sprite,Background,Centre,"SB\DIV\pixel.png",0,0 L,90595,3 R,19,0,272,0,0.493698 S,0,89505,,6 F,19,89505,91686,0.5 M,19,89512,90595,350,216,271.5128,343.8271 M,18,91141,91686,271.5128,343.8271,350,216
Sprite,Background,Centre,"SB\DIV\pixel.png",0,0 L,90595,3 R,19,0,272,0,0.5006483 S,0,89505,,16 F,19,89505,91686,0.5 M,19,89550,90595,350,216,202.1771,190.5363 M,18,91141,91686,202.1771,190.5363,350,216
Sprite,Background,Centre,"SB\DIV\pixel.png",0,0 L,90595,3 R,19,0,272,0,1.527289 S,0,89505,,16 F,19,89505,91686,0.5 M,19,89532,90595,350,216,497.7181,189.9353 M,18,91141,91686,497.7181,189.9353,350,216
Sprite,Background,Centre,"SB\DIV\pixel.png",0,0 L,90595,3 R,19,0,272,0,0.250656 S,0,89505,,14 F,19,89505,91686,0.5 M,19,89583,90595,350,216,490.94,164.6589 M,18,91141,91686,490.94,164.6589,350,216
Sprite,Background,Centre,"SB\DIV\pixel.png",0,0 L,90595,3 R,19,0,272,0,0.6900101 S,0,89505,,19 F,19,89505,91686,0.5 M,19,89517,90595,350,216,499.9504,212.1439 M,18,91141,91686,499.9504,212.1439,350,216
Sprite,Background,Centre,"SB\DIV\pixel.png",0,0 L,90595,3 R,19,0,272,0,1.271649 S,0,89505,,12 F,19,89505,91686,0.5 M,19,89586,90595,350,216,333.0234,365.0362 M,18,91141,91686,333.0234,365.0362,350,216
//Storyboard Layer 1 (Fail)
//Storyboard Layer 2 (Pass)
//Storyboard Layer 3 (Foreground)
//Storyboard Sound Samples

[TimingPoints]
4415,545.454545454546,4,2,22,50,1,0
22005,-100,4,2,22,10,0,0
39324,-66.6666666666667,4,2,22,40,0,0
56778,-52.6315789473684,4,2,22,80,0,0
126596,-100,4,2,22,40,0,0
144051,-52.6315789473684,4,2,22,80,0,0
187824,-100,4,2,22,40,0,0
214005,-100,4,2,22,5,0,0
216051,-100,4,2,22,40,0,0
216187,-100,4,2,22,5,0,0
218233,-100,4,2,22,40,0,0
218369,-100,4,2,22,5,0,0
220415,-100,4,2,22,40,0,0
220551,-100,4,2,22,5,0,0
222596,-100,4,2,22,60,0,0

[Colours]
Combo1 : 186,139,89
Combo2 : 206,54,28
Combo3 : 245,234,98
Combo4 : 164,30,22
SliderBorder : 255,228,145
SliderTrackOverride : 48,22,14

[HitObjects]
280,204,4415,5,4,1:0:0:0:
150,129,21869,6,0,B|121:93|147:50|198:38|235:57|258:107|247:170|219:207|174:214|129:212|129:212|195:250|258:229|258:229|218:248|213:303,1,540,4|0,1:0|0:0,0:0:0:0:
438,292,24051,6,0,B|364:278|296:321|296:321|324:249|295:185|295:185|366:203|451:175|451:175|392:177|351:128,1,540,2|0,0:0|0:0,0:0:0:0:
336,58,25960,1,2,0:0:0:0:
336,58,26233,6,0,B|278:74|226:55|226:55|270:108|340:121|340:121|406:70|481:75|481:75|415:123|438:236,1,540,2|0,0:0|0:0,0:0:0:0:
410,286,28415,6,0,L|271:271,2,135,2|2|2,0:0|0:0|0:0,0:0:0:0:
410,286,29505,1,2,0:0:0:0:
150,286,30051,1,2,0:0:0:0:
280,60,30596,6,0,B|233:112|260:201|260:201|307:152|391:158|391:158|331:206|313:276|336:345|394:350|421:309|405:262|365:291,1,540,0|2,0:0|0:0,0:0:0:0:
157,250,32778,6,0,B|122:206|138:142|138:142|82:223|105:312|105:312|157:321|194:370|194:370|216:318|266:303|320:309,1,540,2|2,0:0|0:0,0:0:0:0:
440,364,34687,1,0,0:0:0:0:
440,364,34960,6,0,B|474:301|460:253|460:253|423:224|423:224|456:147|432:80|432:80|393:141|347:169|315:179|269:160|266:111|310:90|331:114|328:142,1,540,2|0,0:0|0:0,0:0:0:0:
201,154,36869,1,2,0:0:0:0:
201,154,37142,6,0,L|63:143,2,135,2|2|2,0:0|0:0|0:0,0:0:0:0:
201,154,38233,1,2,0:0:0:0:
359,154,38778,1,2,0:0:0:0:
280,290,39324,6,0,B|214:316|214:316|133:298,1,135.000005149842,4|0,1:0|0:0,0:0:0:0:
91,246,39733,1,0,0:0:0:0:
91,246,39869,2,0,L|96:174,1,67.5000025749208,0|0,0:0|0:0,0:0:0:0:
162,131,40142,2,0,L|157:59,1,67.5000025749208,0|0,0:0|0:0,0:0:0:0:
235,42,40415,6,0,B|304:19|307:73|375:39,1,135.000005149842,0|0,0:0|0:0,0:0:0:0:
447,35,40824,1,0,0:0:0:0:
447,35,40960,2,0,P|487:78|485:160,1,135.000005149842,0|0,0:0|0:0,0:0:0:0:
439,216,41369,1,0,0:0:0:0:
439,216,41505,6,0,L|295:204,1,135.000005149842,0|0,0:0|0:0,0:0:0:0:
264,133,41915,1,0,0:0:0:0:
264,133,42051,2,0,L|120:145,1,135.000005149842,0|0,0:0|0:0,0:0:0:0:
48,152,42460,1,0,0:0:0:0:
48,152,42596,6,0,P|95:163|118:261,1,135.000005149842,0|0,0:0|0:0,0:0:0:0:
65,290,43005,1,0,0:0:0:0:
65,290,43142,2,0,P|82:352|144:375,1,135.000005149842,0|0,0:0|0:0,0:0:0:0:
223,355,43551,1,0,0:0:0:0:
223,355,43687,6,0,B|229:314|216:290|216:290|256:250|256:250|237:210|252:169|252:169|210:164|181:135,1,270.000010299683,0|0,0:0|0:0,0:0:0:0:
112,137,44369,1,0,0:0:0:0:
112,137,44505,2,0,L|30:129,1,67.5000025749208,0|0,0:0|0:0,0:0:0:0:
160,71,44778,6,0,L|242:63,2,67.5000025749208,0|0|0,0:0|0:0|0:0,0:0:0:0:
194,146,45187,2,0,L|358:162,1,135.000005149842,0|0,0:0|0:0,0:0:0:0:
376,224,45596,2,0,L|443:217,1,67.5000025749208,0|0,0:0|0:0,0:0:0:0:
327,288,45869,6,0,B|247:278|247:278|205:298|205:298|111:284|111:284|169:257,1,270.000010299683,0|0,0:0|0:0,0:0:0:0:
199,196,46551,1,0,0:0:0:0:
199,196,46687,2,0,P|198:154|176:115,1,67.5000025749208,0|0,0:0|0:0,0:0:0:0:
146,60,46960,6,0,P|186:102|275:102,2,135.000005149842,0|0|0,0:0|0:0|0:0,0:0:0:0:
70,29,47642,1,0,0:0:0:0:
70,29,47778,2,0,P|63:66|75:101,1,67.5000025749208,0|0,0:0|0:0,0:0:0:0:
132,147,48051,6,0,L|125:222,2,67.5000025749208,0|0|0,0:0|0:0|0:0,0:0:0:0:
181,82,48460,2,0,P|228:38|305:49,1,135.000005149842,0|0,0:0|0:0,0:0:0:0:
358,93,48869,2,0,L|354:173,1,67.5000025749208,0|0,0:0|0:0,0:0:0:0:
316,232,49142,6,0,L|320:312,1,67.5000025749208,0|0,0:0|0:0,0:0:0:0:
253,183,49415,2,0,L|257:103,1,67.5000025749208,0|0,0:0|0:0,0:0:0:0:
215,255,49687,2,0,L|219:335,1,67.5000025749208,0|0,0:0|0:0,0:0:0:0:
152,206,49961,2,0,L|156:126,1,67.5000025749208,0|0,0:0|0:0,0:0:0:0:
177,60,50233,6,0,B|241:17|241:17|360:55|360:55|378:135,1,270.000010299683,0|0,0:0|0:0,0:0:0:0:
305,164,50915,1,0,0:0:0:0:
305,164,51051,2,0,L|226:156,1,67.5000025749208,0|0,0:0|0:0,0:0:0:0:
376,202,51324,6,0,L|455:194,1,67.5000025749208,0|0,0:0|0:0,0:0:0:0:
307,245,51596,2,0,L|228:237,1,67.5000025749208,0|0,0:0|0:0,0:0:0:0:
378,283,51869,2,0,L|457:275,1,67.5000025749208,0|0,0:0|0:0,0:0:0:0:
309,326,52142,2,0,L|230:318,1,67.5000025749208,0|0,0:0|0:0,0:0:0:0:
172,361,52415,6,0,B|234:316|234:316|214:200|214:200|153:246,1,270.000010299683,0|0,0:0|0:0,0:0:0:0:
75,266,53096,1,0,0:0:0:0:
75,266,53233,2,0,L|69:353,1,67.5000025749208,0|0,0:0|0:0,0:0:0:0:
154,246,53505,6,0,L|142:84,1,135.000005149842,0|0,0:0|0:0,0:0:0:0:
224,130,53915,1,0,0:0:0:0:
224,130,54051,2,0,L|230:217,1,67.5000025749208,0|0,0:0|0:0,0:0:0:0:
309,194,54324,2,0,L|304:126,1,67.5000025749208,0|0,0:0|0:0,0:0:0:0:
338,53,54596,6,0,L|423:58,2,67.5000025749208,0|0|0,0:0|0:0|0:0,0:0:0:0:
304,126,55005,2,0,L|141:135,1,135.000005149842,0|0,0:0|0:0,0:0:0:0:
89,116,55415,1,0,0:0:0:0:
145,57,55551,1,0,0:0:0:0:
169,133,55687,6,0,L|163:212,1,67.5000025749208,0|0,0:0|0:0,0:0:0:0:
156,281,55960,1,0,0:0:0:0:
90,235,56096,1,0,0:0:0:0:
229,246,56232,1,8,0:0:0:0:
229,246,56778,6,0,L|400:264,1,170.999995433807,6|2,1:0|0:0,0:0:0:0:
469,214,57187,1,2,0:0:0:0:
389,182,57324,2,0,P|385:232|411:279,1,85.4999977169037,8|2,0:0|0:0,0:0:0:0:
452,131,57596,2,0,P|410:102|359:106,1,85.4999977169037,2|2,0:0|0:0,0:0:0:0:
313,152,57869,6,0,P|353:179|406:178,1,85.4999977169037,2|0,1:0|0:0,0:0:0:0:
298,67,58142,1,2,0:0:0:0:
232,119,58278,1,2,0:0:0:0:
376,100,58415,2,0,L|468:96,1,85.4999977169037,8|2,0:0|0:0,0:0:0:0:
246,202,58687,2,0,L|153:198,1,85.4999977169037,2|2,0:0|0:0,0:0:0:0:
313,152,58960,6,0,P|331:200|255:288,1,170.999995433807,2|2,1:0|0:0,0:0:0:0:
232,119,59369,1,2,0:0:0:0:
298,67,59505,2,0,L|390:63,1,85.4999977169037,8|2,0:0|0:0,0:0:0:0:
246,202,59778,2,0,L|153:198,1,85.4999977169037,2|2,0:0|0:0,0:0:0:0:
90,242,60051,5,2,1:0:0:0:
132,314,60187,1,0,0:0:0:0:
204,272,60324,1,2,0:0:0:0:
248,344,60460,1,2,0:0:0:0:
320,300,60596,2,0,L|409:296,1,85.4999977169037,8|2,0:0|0:0,0:0:0:0:
278,228,60869,1,2,0:0:0:0:
248,344,61005,1,2,0:0:0:0:
405,296,61142,6,0,B|436:201|436:201|407:131,1,170.999995433807,2|2,1:0|0:0,0:0:0:0:
325,130,61551,1,2,0:0:0:0:
376,63,61687,2,0,P|416:57|466:79,1,85.4999977169037,8|2,0:0|0:0,0:0:0:0:
358,207,61960,2,0,P|315:211|269:192,1,85.4999977169037,2|2,0:0|0:0,0:0:0:0:
294,53,62233,6,0,P|319:87|324:136,1,85.4999977169037,2|0,1:0|0:0,0:0:0:0:
275,196,62505,1,2,0:0:0:0:
241,122,62642,1,2,0:0:0:0:
229,267,62778,2,0,P|272:281|315:273,1,85.4999977169037,8|2,0:0|0:0,0:0:0:0:
194,192,63051,1,2,0:0:0:0:
147,260,63187,1,2,0:0:0:0:
275,196,63324,6,0,L|446:205,1,170.999995433807,2|2,1:0|0:0,0:0:0:0:
407,131,63733,1,2,0:0:0:0:
310,274,63869,2,0,L|419:279,1,85.4999977169037,8|2,0:0|0:0,0:0:0:0:
275,196,64142,1,2,0:0:0:0:
229,267,64278,1,2,0:0:0:0:
359,204,64415,6,0,L|355:98,1,85.4999977169037,2|0,1:0|0:0,0:0:0:0:
241,122,64687,1,2,0:0:0:0:
275,196,64824,1,2,0:0:0:0:
288,54,64960,2,0,P|242:39|194:51,1,85.4999977169037,10|2,0:0|0:0,0:0:0:0:
192,188,65233,1,2,0:0:0:0:
241,122,65370,1,2,0:0:0:0:
64,141,65505,6,0,B|45:203|45:203|63:243|63:243|39:330,1,170.999995433807,4|0,1:0|0:0,0:0:0:0:
47,304,66051,1,10,0:0:0:0:
113,356,66187,1,0,0:0:0:0:
165,293,66324,1,2,0:0:0:0:
229,344,66460,1,2,0:0:0:0:
281,279,66596,2,0,L|380:291,1,85.4999977169037,0|0,1:0|0:0,0:0:0:0:
217,228,66869,2,0,L|120:215,1,85.4999977169037,2|0,0:0|0:0,0:0:0:0:
269,165,67142,1,10,0:0:0:0:
281,279,67278,1,2,0:0:0:0:
333,216,67415,2,0,L|345:119,1,85.4999977169037,2|0,0:0|0:0,0:0:0:0:
259,48,67687,6,0,B|183:96|174:13|76:64,1,170.999995433807,2|0,1:0|0:0,0:0:0:0:
94,55,68233,1,10,0:0:0:0:
61,132,68369,1,0,0:0:0:0:
144,123,68505,1,2,0:0:0:0:
109,199,68642,1,2,0:0:0:0:
192,192,68778,2,0,L|290:197,1,85.4999977169037,0|0,1:0|0:0,0:0:0:0:
157,268,69051,2,0,L|102:349,1,85.4999977169037,2|0,0:0|0:0,0:0:0:0:
109,199,69324,1,10,0:0:0:0:
192,192,69460,1,2,0:0:0:0:
240,259,69596,1,2,0:0:0:0:
240,259,69732,1,2,0:0:0:0:
157,268,69869,6,0,L|142:74,1,170.999995433807,2|2,1:0|0:0,0:0:0:0:
143,97,70415,1,10,0:0:0:0:
223,37,70551,1,2,0:0:0:0:
280,120,70687,1,2,0:0:0:0:
200,178,70824,1,2,0:0:0:0:
143,97,70960,2,0,L|52:90,1,85.4999977169037,0|0,1:0|0:0,0:0:0:0:
259,264,71233,2,0,L|348:257,1,85.4999977169037,2|0,0:0|0:0,0:0:0:0:
200,178,71505,1,10,0:0:0:0:
177,322,71641,1,0,0:0:0:0:
259,264,71777,1,2,0:0:0:0:
121,241,71914,1,2,0:0:0:0:
268,363,72051,6,0,L|446:350,1,170.999995433807,2|2,1:0|0:0,0:0:0:0:
414,264,72460,1,2,0:0:0:0:
287,250,72596,2,0,L|107:237,1,170.999995433807,10|2,0:0|0:0,0:0:0:0:
39,202,73005,1,2,0:0:0:0:
110,155,73142,2,0,P|123:211|110:247,1,85.4999977169037,2|0,1:0|0:0,0:0:0:0:
39,121,73415,2,0,P|80:81|118:73,1,85.4999977169037,2|2,0:0|0:0,0:0:0:0:
180,109,73687,1,10,0:0:0:0:
248,58,73824,1,2,0:0:0:0:
324,90,73960,1,2,0:0:0:0:
390,41,74096,1,2,0:0:0:0:
333,174,74233,6,0,L|248:183,1,85.4999977169037,6|0,1:0|0:0,0:0:0:0:
400,125,74505,2,0,L|484:115,1,85.4999977169037,2|0,0:0|0:0,0:0:0:0:
410,209,74778,1,10,0:0:0:0:
333,174,74915,2,0,L|323:89,1,85.4999977169037,2|0,0:0|0:0,0:0:0:0:
342,258,75187,1,0,0:0:0:0:
266,223,75324,2,0,L|256:138,1,85.4999977169037,2|0,1:0|0:0,0:0:0:0:
200,272,75596,2,0,L|190:356,1,85.4999977169037,2|0,0:0|0:0,0:0:0:0:
123,239,75869,2,0,L|113:154,1,85.4999977169037,10|0,0:0|0:0,0:0:0:0:
200,272,76142,5,2,0:0:0:0:
56,288,76278,1,2,0:0:0:0:
113,154,76415,6,0,L|200:157,1,85.4999977169037,6|0,1:0|0:0,0:0:0:0:
202,75,76687,2,0,L|111:70,1,85.4999977169037,2|0,0:0|0:0,0:0:0:0:
198,156,76960,1,10,0:0:0:0:
287,79,77096,2,0,L|186:74,1,85.4999977169037,2|0,0:0|0:0,0:0:0:0:
281,162,77369,1,0,0:0:0:0:
372,83,77505,2,0,L|279:78,1,85.4999977169037,2|0,1:0|0:0,0:0:0:0:
363,165,77778,2,0,L|464:167,1,85.4999977169037,2|0,0:0|0:0,0:0:0:0:
457,87,78051,2,0,L|364:82,1,85.4999977169037,10|0,0:0|0:0,0:0:0:0:
286,78,78324,5,2,0:0:0:0:
448,167,78460,1,2,0:0:0:0:
281,162,78596,6,0,L|163:156,1,85.4999977169037,6|0,1:0|0:0,0:0:0:0:
318,235,78869,2,0,L|419:237,1,85.4999977169037,2|0,0:0|0:0,0:0:0:0:
281,162,79142,1,10,0:0:0:0:
235,232,79278,2,0,L|230:330,1,85.4999977169037,2|0,0:0|0:0,0:0:0:0:
197,158,79551,1,0,0:0:0:0:
151,228,79687,2,0,L|146:319,1,85.4999977169037,2|0,1:0|0:0,0:0:0:0:
113,154,79960,2,0,L|108:64,1,85.4999977169037,2|0,0:0|0:0,0:0:0:0:
65,222,80233,2,0,L|63:311,1,85.4999977169037,10|0,0:0|0:0,0:0:0:0:
151,228,80505,5,2,0:0:0:0:
29,150,80642,1,2,0:0:0:0:
63,309,80778,6,0,L|167:314,1,85.4999977169037,6|0,1:0|0:0,0:0:0:0:
151,228,81051,2,0,L|54:222,1,85.4999977169037,2|0,0:0|0:0,0:0:0:0:
148,313,81324,1,10,0:0:0:0:
236,233,81460,2,0,L|131:226,1,85.4999977169037,2|0,0:0|0:0,0:0:0:0:
230,316,81733,1,2,0:0:0:0:
321,238,81869,2,0,L|221:232,1,85.4999977169037,2|0,1:0|0:0,0:0:0:0:
314,321,82142,2,0,L|405:324,1,85.4999977169037,2|0,0:0|0:0,0:0:0:0:
403,243,82415,5,10,0:0:0:0:
321,238,82552,1,2,0:0:0:0:
314,321,82688,1,2,0:0:0:0:
399,323,82824,1,2,0:0:0:0:
403,243,82960,6,0,P|393:196|363:164,1,85.4999977169037,6|0,1:0|0:0,0:0:0:0:
417,99,83233,2,0,P|371:83|329:93,1,85.4999977169037,2|0,0:0|0:0,0:0:0:0:
284,157,83506,1,8,0:0:0:0:
303,14,83642,2,0,P|266:44|254:86,1,85.4999977169037,2|0,0:0|0:0,0:0:0:0:
284,157,83915,1,0,0:0:0:0:
170,72,84051,2,0,P|179:118|209:150,1,85.4999977169037,2|0,1:0|0:0,0:0:0:0:
151,214,84324,2,0,P|195:228|236:221,1,85.4999977169037,2|0,0:0|0:0,0:0:0:0:
267,298,84596,2,0,P|302:266|315:227,1,85.4999977169037,10|0,0:0|0:0,0:0:0:0:
255,78,84869,5,2,0:0:0:0:
232,222,85005,1,2,0:0:0:0:
284,157,85142,6,0,P|238:139|191:148,1,85.4999977169037,6|0,1:0|0:0,0:0:0:0:
175,64,85415,2,0,P|136:93|121:139,1,85.4999977169037,2|0,0:0|0:0,0:0:0:0:
149,207,85687,1,8,0:0:0:0:
40,115,85824,2,0,P|47:162|78:198,1,85.4999977169037,2|0,0:0|0:0,0:0:0:0:
149,207,86096,1,0,0:0:0:0:
15,256,86233,2,0,P|60:273|107:264,1,85.4999977169037,2|0,1:0|0:0,0:0:0:0:
125,348,86505,2,0,P|162:317|177:271,1,85.4999977169037,2|0,0:0|0:0,0:0:0:0:
259,298,86778,2,0,P|250:249|219:213,1,85.4999977169037,10|0,0:0|0:0,0:0:0:0:
68,191,87051,5,2,0:0:0:0:
176,284,87187,1,2,0:0:0:0:
204,142,87324,6,0,L|197:46,1,85.4999977169037,6|0,1:0|0:0,0:0:0:0:
286,161,87596,2,0,L|292:65,1,85.4999977169037,2|0,0:0|0:0,0:0:0:0:
230,221,87869,1,8,0:0:0:0:
149,204,88005,2,0,L|142:108,1,85.4999977169037,2|0,0:0|0:0,0:0:0:0:
175,283,88278,1,0,0:0:0:0:
230,221,88415,2,0,L|236:125,1,85.4999977169037,2|0,1:0|0:0,0:0:0:0:
94,266,88687,2,0,L|87:170,1,85.4999977169037,2|0,0:0|0:0,0:0:0:0:
256,300,88960,2,0,L|262:204,1,85.4999977169037,10|0,0:0|0:0,0:0:0:0:
123,125,89233,5,2,0:0:0:0:
175,283,89369,1,2,0:0:0:0:
286,160,89505,6,0,L|391:148,1,85.4999977169037,6|0,1:0|0:0,0:0:0:0:
230,221,89778,2,0,L|335:232,1,85.4999977169037,2|0,0:0|0:0,0:0:0:0:
204,142,90051,1,10,0:0:0:0:
260,81,90187,2,0,L|365:69,1,85.4999977169037,2|0,0:0|0:0,0:0:0:0:
178,63,90460,1,2,0:0:0:0:
204,142,90596,2,0,L|309:153,1,85.4999977169037,2|0,1:0|0:0,0:0:0:0:
93,72,90869,2,0,L|198:60,1,85.4999977169037,2|0,0:0|0:0,0:0:0:0:
260,81,91142,5,10,0:0:0:0:
204,142,91278,1,2,0:0:0:0:
287,161,91415,1,2,0:0:0:0:
231,222,91551,1,2,0:0:0:0:
260,81,91687,6,0,L|445:66,1,170.999995433807,4|0,1:0|0:0,0:0:0:0:
430,67,92233,1,10,0:0:0:0:
459,144,92369,1,2,0:0:0:0:
375,132,92505,1,2,0:0:0:0:
430,67,92642,1,2,0:0:0:0:
459,144,92778,6,0,P|485:181|480:242,1,85.4999977169037,0|0,1:0|0:0,0:0:0:0:
430,282,93051,2,0,P|403:244|408:183,1,85.4999977169037,2|0,0:0|0:0,0:0:0:0:
430,67,93324,1,10,0:0:0:0:
459,144,93460,1,2,0:0:0:0:
375,132,93596,2,0,L|269:125,1,85.4999977169037,2|0,0:0|0:0,0:0:0:0:
227,62,93869,6,0,B|274:107|274:107|251:228,1,170.999995433807,2|0,1:0|0:0,0:0:0:0:
254,211,94415,1,10,0:0:0:0:
192,267,94551,1,2,0:0:0:0:
176,184,94687,1,2,0:0:0:0:
270,295,94824,1,2,0:0:0:0:
333,240,94960,6,0,L|328:139,1,85.4999977169037,0|0,1:0|0:0,0:0:0:0:
192,267,95233,2,0,L|195:365,1,85.4999977169037,2|0,0:0|0:0,0:0:0:0:
113,352,95505,1,10,0:0:0:0:
109,271,95642,1,2,0:0:0:0:
192,267,95778,1,2,0:0:0:0:
194,352,95915,1,2,0:0:0:0:
113,352,96051,6,0,L|23:354,1,85.4999977169037,2|0,1:0|0:0,0:0:0:0:
24,273,96324,2,0,L|109:270,1,85.4999977169037,2|0,0:0|0:0,0:0:0:0:
192,267,96596,1,10,0:0:0:0:
194,352,96733,1,2,0:0:0:0:
109,269,96869,1,2,0:0:0:0:
280,347,97005,1,2,0:0:0:0:
276,264,97142,6,0,L|271:159,1,85.4999977169037,0|0,1:0|0:0,0:0:0:0:
188,182,97415,2,0,L|192:267,1,85.4999977169037,2|0,0:0|0:0,0:0:0:0:
194,352,97687,1,10,0:0:0:0:
280,347,97824,1,2,0:0:0:0:
276,264,97959,1,2,0:0:0:0:
192,267,98096,1,2,0:0:0:0:
194,352,98233,6,0,L|382:342,1,170.999995433807,2|0,1:0|0:0,0:0:0:0:
364,342,98778,1,10,0:0:0:0:
413,271,98915,1,2,0:0:0:0:
347,216,99051,1,2,0:0:0:0:
392,144,99188,1,2,0:0:0:0:
329,90,99324,6,0,L|236:81,1,85.4999977169037,2|0,1:0|0:0,0:0:0:0:
196,154,99596,2,0,L|310:163,1,85.4999977169037,2|2,0:0|0:0,0:0:0:0:
156,79,99869,1,10,0:0:0:0:
111,150,100005,1,2,0:0:0:0:
150,225,100142,2,0,L|244:233,1,85.4999977169037,2|0,0:0|0:0,0:0:0:0:
111,150,100415,6,0,P|77:185|106:294,1,170.999995433807,6|0,1:0|0:0,0:0:0:0:
104,292,100960,1,10,0:0:0:0:
140,366,101096,1,2,0:0:0:0:
187,298,101232,1,2,0:0:0:0:
223,372,101369,1,2,0:0:0:0:
270,304,101505,6,0,L|368:299,1,85.4999977169037,0|0,1:0|0:0,0:0:0:0:
234,230,101778,2,0,L|136:225,1,85.4999977169037,2|0,0:0|0:0,0:0:0:0:
281,162,102051,1,10,0:0:0:0:
245,88,102187,1,2,0:0:0:0:
292,20,102324,2,0,L|390:15,1,85.4999977169037,2|0,0:0|0:0,0:0:0:0:
462,16,102596,6,0,B|403:51|403:51|425:167,1,170.999995433807,2|0,1:0|0:0,0:0:0:0:
422,151,103142,1,10,0:0:0:0:
421,236,103278,1,2,0:0:0:0:
336,235,103415,1,2,0:0:0:0:
337,150,103552,1,2,0:0:0:0:
422,151,103687,6,0,L|524:153,1,85.4999977169037,0|0,1:0|0:0,0:0:0:0:
336,235,103960,2,0,L|250:233,1,85.4999977169037,2|0,0:0|0:0,0:0:0:0:
422,151,104233,1,10,0:0:0:0:
421,236,104369,1,2,0:0:0:0:
420,321,104505,1,2,0:0:0:0:
420,321,104641,1,2,0:0:0:0:
336,235,104778,6,0,L|337:149,1,85.4999977169037,2|0,1:0|0:0,0:0:0:0:
252,148,105051,2,0,L|250:233,1,85.4999977169037,2|0,0:0|0:0,0:0:0:0:
334,320,105324,1,10,0:0:0:0:
337,149,105460,1,2,0:0:0:0:
250,233,105596,1,2,0:0:0:0:
421,236,105732,1,2,0:0:0:0:
250,233,105869,6,0,L|164:231,1,85.4999977169037,0|0,1:0|0:0,0:0:0:0:
166,146,106142,2,0,L|251:147,1,85.4999977169037,2|0,0:0|0:0,0:0:0:0:
164,231,106415,1,10,0:0:0:0:
80,144,106551,1,0,0:0:0:0:
78,229,106687,1,2,0:0:0:0:
166,146,106823,1,2,0:0:0:0:
250,233,106960,6,0,L|63:229,1,170.999995433807,2|2,1:0|0:0,0:0:0:0:
166,146,107369,1,2,0:0:0:0:
166,146,107505,2,0,L|336:149,1,170.999995433807,10|2,0:0|0:0,0:0:0:0:
420,236,107915,1,2,0:0:0:0:
420,236,108051,2,0,L|249:232,1,170.999995433807,2|2,1:0|0:0,0:0:0:0:
164,247,108460,1,2,0:0:0:0:
164,247,108596,5,10,0:0:0:0:
179,332,108731,1,0,0:0:0:0:
264,317,108869,1,2,0:0:0:0:
249,232,109006,1,2,0:0:0:0:
97,302,109142,5,4,1:0:0:0:
435,46,126596,6,0,L|382:42,1,45,4|0,1:0|0:0,0:0:0:0:
323,103,126869,1,0,0:0:0:0:
323,103,127005,2,0,L|225:110,1,90,0|0,0:0|0:0,0:0:0:0:
149,73,127415,1,0,0:0:0:0:
149,73,127551,1,0,0:0:0:0:
107,152,127687,6,0,L|103:211,1,45,0|0,0:0|0:0,0:0:0:0:
164,268,127960,1,0,0:0:0:0:
164,268,128096,2,0,L|170:365,1,90,0|0,0:0|0:0,0:0:0:0:
260,355,128505,1,0,0:0:0:0:
260,355,128642,1,0,0:0:0:0:
255,265,128778,6,0,L|251:220,2,45,0|0|0,0:0|0:0|0:0,0:0:0:0:
334,307,129187,2,0,P|357:326|425:342,1,90,0|0,0:0|0:0,0:0:0:0:
482,283,129596,1,0,0:0:0:0:
482,283,129733,1,0,0:0:0:0:
411,227,129869,6,0,L|357:223,2,45,0|0|0,0:0|0:0|0:0,0:0:0:0:
479,168,130278,1,0,0:0:0:0:
408,112,130415,2,0,L|354:108,1,45,0|0,0:0|0:0,0:0:0:0:
297,47,130687,2,0,L|243:51,1,45,0|0,0:0|0:0,0:0:0:0:
186,112,130960,6,0,L|85:104,1,90,0|0,0:0|0:0,0:0:0:0:
31,168,131369,1,0,0:0:0:0:
31,168,131505,2,0,P|22:211|39:273,1,90,0|0,0:0|0:0,0:0:0:0:
98,316,131915,1,0,0:0:0:0:
98,316,132051,6,0,P|133:316|156:306,1,45,0|0,0:0|0:0,0:0:0:0:
207,375,132324,2,0,P|224:344|226:285,1,90,0|0,0:0|0:0,0:0:0:0:
164,226,132733,1,0,0:0:0:0:
164,226,132869,2,0,P|159:201|163:173,1,45,0|0,0:0|0:0,0:0:0:0:
228,122,133142,6,0,P|233:97|229:69,2,45,0|0|0,0:0|0:0|0:0,0:0:0:0:
269,202,133551,2,0,P|295:219|363:228,1,90,0|0,0:0|0:0,0:0:0:0:
441,213,133960,1,0,0:0:0:0:
441,213,134096,1,0,0:0:0:0:
383,143,134233,6,0,L|385:89,2,45,0|0|0,0:0|0:0|0:0,0:0:0:0:
352,229,134642,2,0,L|355:328,1,90,0|0,0:0|0:0,0:0:0:0:
274,359,135051,1,0,0:0:0:0:
274,359,135187,1,0,0:0:0:0:
212,292,135324,6,0,L|106:286,1,90,2|0,1:0|0:0,0:0:0:0:
32,275,135733,1,0,0:0:0:0:
32,275,135869,2,0,L|35:213,1,45,2|0,0:0|0:0,0:0:0:0:
107,176,136142,2,0,L|103:114,1,45,0|0,0:0|0:0,0:0:0:0:
105,40,136415,6,0,P|132:60|197:64,1,90,2|0,0:0|0:0,0:0:0:0:
252,128,136824,1,0,0:0:0:0:
252,128,136960,2,0,P|279:108|344:104,1,90,2|0,0:0|0:0,0:0:0:0:
416,137,137369,1,0,0:0:0:0:
416,137,137505,6,0,L|422:242,1,90,2|0,0:0|0:0,0:0:0:0:
344,275,137915,1,0,0:0:0:0:
344,275,138051,2,0,L|340:339,1,45,0|0,0:0|0:0,0:0:0:0:
259,358,138324,1,2,0:0:0:0:
259,358,138460,1,2,0:0:0:0:
177,320,138596,6,0,L|174:275,2,45,2|2|2,0:0|0:0|0:0,0:0:0:0:
95,359,139005,1,2,0:0:0:0:
13,321,139142,2,0,L|10:276,1,45,2|2,0:0|0:0,0:0:0:0:
75,212,139415,2,0,L|77:167,1,45,2|2,0:0|0:0,0:0:0:0:
83,77,139687,6,0,P|122:52|182:53,1,90,2|0,1:0|0:0,0:0:0:0:
227,113,140096,1,0,0:0:0:0:
227,113,140233,2,0,L|281:122,1,45,2|0,0:0|0:0,0:0:0:0:
324,48,140505,2,0,L|378:39,1,45,0|0,0:0|0:0,0:0:0:0:
446,85,140778,6,0,L|451:148,1,45,2|0,0:0|0:0,0:0:0:0:
369,172,141051,2,0,L|361:263,1,90,2|0,0:0|0:0,0:0:0:0:
280,302,141460,1,0,0:0:0:0:
280,302,141596,2,0,L|285:365,1,45,2|0,0:0|0:0,0:0:0:0:
193,346,141869,6,0,L|130:351,1,45,0|0,0:0|0:0,0:0:0:0:
58,357,142142,1,0,0:0:0:0:
23,274,142278,2,0,P|24:227|54:181,1,90,0|0,0:0|0:0,0:0:0:0:
110,127,142687,1,0,0:0:0:0:
110,127,142824,1,0,0:0:0:0:
165,197,142960,6,0,L|163:253,1,45,2|0,0:0|0:0,0:0:0:0:
231,134,143233,1,2,0:0:0:0:
286,204,143369,1,0,0:0:0:0:
110,127,143505,1,8,0:0:0:0:
110,127,144051,6,0,B|144:71|144:71|258:63,1,170.999995433807,6|0,1:0|0:0,0:0:0:0:
318,114,144460,1,0,0:0:0:0:
318,114,144596,2,0,P|338:161|331:206,1,85.4999977169037,10|0,0:0|0:0,0:0:0:0:
271,251,144869,2,0,P|251:204|258:159,1,85.4999977169037,0|0,0:0|0:0,0:0:0:0:
353,278,145142,6,0,L|160:285,1,170.999995433807,2|0,1:0|0:0,0:0:0:0:
100,258,145551,1,0,0:0:0:0:
166,203,145687,2,0,P|185:247|178:294,1,85.4999977169037,10|0,0:0|0:0,0:0:0:0:
116,339,145960,2,0,P|97:295|104:248,1,85.4999977169037,0|0,0:0|0:0,0:0:0:0:
166,203,146233,6,0,P|132:225|35:148,1,170.999995433807,2|0,1:0|0:0,0:0:0:0:
53,79,146642,1,0,0:0:0:0:
134,103,146778,2,0,L|226:108,1,85.4999977169037,10|2,0:0|0:0,0:0:0:0:
301,81,147051,1,2,0:0:0:0:
236,25,147187,1,2,0:0:0:0:
284,163,147324,5,2,1:0:0:0:
219,107,147460,1,2,0:0:0:0:
366,137,147596,1,2,0:0:0:0:
301,81,147733,1,2,0:0:0:0:
267,245,147869,5,10,0:0:0:0:
284,163,148005,1,2,0:0:0:0:
349,219,148142,1,2,0:0:0:0:
366,137,148278,1,2,0:0:0:0:
366,137,148415,6,0,L|175:127,1,170.999995433807,6|0,1:0|0:0,0:0:0:0:
129,183,148824,1,0,0:0:0:0:
184,247,148960,2,0,L|269:242,1,85.4999977169037,10|0,0:0|0:0,0:0:0:0:
118,302,149233,2,0,L|32:297,1,85.4999977169037,0|0,0:0|0:0,0:0:0:0:
173,366,149505,6,0,L|258:361,1,85.4999977169037,2|0,1:0|0:0,0:0:0:0:
327,309,149778,2,0,L|412:313,1,85.4999977169037,2|0,0:0|0:0,0:0:0:0:
482,363,150051,1,8,0:0:0:0:
482,363,150324,2,0,L|491:267,1,85.4999977169037,2|0,0:0|0:0,0:0:0:0:
498,193,150596,6,0,B|462:250|462:250|345:224,1,170.999995433807,2|0,1:0|0:0,0:0:0:0:
285,187,151005,1,0,0:0:0:0:
336,117,151142,2,0,L|433:96,1,85.4999977169037,10|0,0:0|0:0,0:0:0:0:
261,77,151415,2,0,L|164:56,1,85.4999977169037,0|0,0:0|0:0,0:0:0:0:
93,41,151687,6,0,P|69:88|65:140,1,85.4999977169037,2|0,1:0|0:0,0:0:0:0:
48,204,151960,2,0,P|89:159|206:171,1,170.999995433807,2|10,0:0|0:0,0:0:0:0:
236,235,152369,1,2,0:0:0:0:
236,235,152505,2,0,L|229:333,1,85.4999977169037,2|2,0:0|0:0,0:0:0:0:
334,244,152778,6,0,B|328:181|328:181|299:152|299:152|294:76,1,170.999995433807,2|0,1:0|0:0,0:0:0:0:
348,18,153187,1,0,0:0:0:0:
402,84,153324,2,0,L|419:262,1,170.999995433807,10|0,0:0|0:0,0:0:0:0:
368,324,153733,1,0,0:0:0:0:
334,244,153869,5,2,1:0:0:0:
418,254,154005,1,2,0:0:0:0:
384,174,154142,1,2,0:0:0:0:
468,184,154278,1,2,0:0:0:0:
434,104,154415,2,0,B|362:69|362:69|282:113|282:113|190:68,1,256.499993150711,10|0,0:0|0:0,0:0:0:0:
133,30,154960,6,0,B|182:76|182:76|158:197,1,170.999995433807,2|0,1:0|0:0,0:0:0:0:
138,260,155369,1,0,0:0:0:0:
77,199,155505,2,0,L|71:102,1,85.4999977169037,10|2,0:0|0:0,0:0:0:0:
138,260,155778,1,2,0:0:0:0:
161,177,155915,1,2,0:0:0:0:
222,238,156051,5,2,1:0:0:0:
161,177,156188,1,2,0:0:0:0:
306,216,156324,1,2,0:0:0:0:
245,155,156461,1,2,0:0:0:0:
283,299,156596,5,10,0:0:0:0:
306,216,156733,1,2,0:0:0:0:
199,321,156869,1,2,0:0:0:0:
222,238,157006,1,2,0:0:0:0:
222,238,157142,6,0,B|42:220,1,170.999995433807,6|0,1:0|0:0,0:0:0:0:
10,145,157551,1,0,0:0:0:0:
91,119,157687,2,0,B|191:108,1,85.4999977169037,10|0,0:0|0:0,0:0:0:0:
232,45,157960,2,0,B|332:55,1,85.4999977169037,0|0,0:0|0:0,0:0:0:0:
402,50,158233,6,0,L|416:158,1,85.4999977169037,2|0,1:0|0:0,0:0:0:0:
477,190,158505,2,0,L|463:298,1,85.4999977169037,2|0,0:0|0:0,0:0:0:0:
418,346,158778,1,8,0:0:0:0:
418,346,159051,2,0,L|317:337,1,85.4999977169037,2|0,0:0|0:0,0:0:0:0:
250,361,159324,6,0,B|308:331|308:331|291:203,1,170.999995433807,2|0,1:0|0:0,0:0:0:0:
264,145,159733,1,0,0:0:0:0:
204,205,159869,2,0,L|200:310,1,85.4999977169037,10|0,0:0|0:0,0:0:0:0:
174,124,160142,2,0,L|177:38,1,85.4999977169037,0|0,0:0|0:0,0:0:0:0:
114,184,160415,2,0,L|28:180,1,85.4999977169037,2|0,1:0|0:0,0:0:0:0:
264,145,160687,2,0,L|349:148,1,85.4999977169037,2|0,0:0|0:0,0:0:0:0:
352,63,160960,5,10,0:0:0:0:
267,60,161096,1,2,0:0:0:0:
264,145,161233,1,2,0:0:0:0:
349,148,161369,1,2,0:0:0:0:
191,99,161505,5,2,1:0:0:0:
191,99,161778,2,0,L|95:92,1,85.4999977169037,2|0,3:0|0:0,0:0:0:0:
264,145,162051,2,0,L|349:138,1,85.4999977169037,10|0,0:0|0:0,0:0:0:0:
188,184,162324,1,2,3:0:0:0:
188,184,162596,6,0,L|183:281,1,85.4999977169037,2|0,1:0|0:0,0:0:0:0:
264,145,162869,2,0,L|259:59,1,85.4999977169037,2|0,3:0|0:0,0:0:0:0:
327,202,163142,2,0,L|322:299,1,85.4999977169037,10|0,0:0|0:0,0:0:0:0:
403,163,163415,2,0,L|398:77,1,85.4999977169037,2|0,3:0|0:0,0:0:0:0:
440,3,163687,6,0,B|395:53|395:53|281:24,1,170.999995433807,0|2,1:0|3:0,0:0:0:0:
208,24,164096,1,0,0:0:0:0:
208,24,164233,2,0,P|192:73|200:114,1,85.4999977169037,10|0,0:0|0:0,0:0:0:0:
265,156,164505,2,0,P|281:205|273:246,1,85.4999977169037,2|0,3:0|0:0,0:0:0:0:
207,289,164778,6,0,P|191:240|199:199,1,85.4999977169037,0|0,1:0|0:0,0:0:0:0:
287,323,165051,2,0,P|252:361|213:374,1,85.4999977169037,2|0,3:0|0:0,0:0:0:0:
276,237,165324,2,0,P|326:247|357:275,1,85.4999977169037,10|0,0:0|0:0,0:0:0:0:
363,354,165596,2,0,P|312:343|281:315,1,85.4999977169037,2|0,3:0|0:0,0:0:0:0:
276,237,165869,6,0,P|249:288|141:290,1,170.999995433807,0|2,1:0|3:0,0:0:0:0:
88,228,166278,1,0,0:0:0:0:
88,228,166415,2,0,L|93:130,1,85.4999977169037,10|0,0:0|0:0,0:0:0:0:
159,90,166687,2,0,L|154:-8,1,85.4999977169037,2|0,3:0|0:0,0:0:0:0:
218,153,166960,5,0,1:0:0:0:
218,153,167233,2,0,L|322:148,1,85.4999977169037,2|0,3:0|0:0,0:0:0:0:
159,90,167505,2,0,L|55:85,1,85.4999977169037,10|0,0:0|0:0,0:0:0:0:
192,235,167778,2,0,L|296:230,1,85.4999977169037,2|0,3:0|0:0,0:0:0:0:
133,172,168051,6,0,B|101:228|101:228|138:338,1,170.999995433807,0|2,1:0|3:0,0:0:0:0:
224,356,168460,1,0,0:0:0:0:
224,356,168596,2,0,L|259:250,1,85.4999977169037,10|0,0:0|0:0,0:0:0:0:
30,258,168869,2,0,L|65:364,1,85.4999977169037,2|0,3:0|0:0,0:0:0:0:
56,339,169142,1,0,1:0:0:0:
56,339,169415,5,2,3:0:0:0:
137,188,169687,1,10,0:0:0:0:
56,36,169960,1,2,3:0:0:0:
156,188,170233,6,0,B|210:156|210:156|340:182,1,170.999995433807,6|0,1:0|0:0,0:0:0:0:
316,177,170778,1,10,0:0:0:0:
344,257,170915,1,2,0:0:0:0:
316,177,171051,1,2,0:0:0:0:
344,257,171188,1,2,0:0:0:0:
399,192,171324,6,0,B|404:86|404:86|328:21,1,170.999995433807,2|0,1:0|0:0,0:0:0:0:
354,43,171869,1,10,0:0:0:0:
273,70,172005,1,2,0:0:0:0:
354,43,172142,1,2,0:0:0:0:
273,70,172278,1,2,0:0:0:0:
337,127,172415,6,0,B|447:143|447:143|481:207,1,170.999995433807,2|0,1:0|0:0,0:0:0:0:
475,195,172960,1,10,0:0:0:0:
461,279,173096,1,2,0:0:0:0:
475,195,173233,1,2,0:0:0:0:
461,279,173369,1,2,0:0:0:0:
395,224,173505,6,0,B|371:170|371:170|249:153,1,170.999995433807,2|0,1:0|0:0,0:0:0:0:
260,154,174051,1,10,0:0:0:0:
178,179,174187,1,2,0:0:0:0:
260,154,174324,1,2,0:0:0:0:
178,179,174460,1,2,0:0:0:0:
241,238,174596,6,0,B|346:254|346:254|403:200,1,170.999995433807,2|0,1:0|0:0,0:0:0:0:
393,209,175142,1,10,0:0:0:0:
431,132,175278,1,2,0:0:0:0:
356,94,175415,1,2,0:0:0:0:
316,169,175551,1,2,0:0:0:0:
393,209,175687,6,0,B|452:239|452:239|469:352,1,170.999995433807,2|0,1:0|0:0,0:0:0:0:
467,342,176233,1,10,0:0:0:0:
385,365,176369,1,2,0:0:0:0:
361,283,176505,1,2,0:0:0:0:
279,306,176641,1,2,0:0:0:0:
255,224,176778,6,0,B|271:117|271:117|222:63,1,170.999995433807,2|0,1:0|0:0,0:0:0:0:
228,70,177324,1,10,0:0:0:0:
142,74,177460,1,2,0:0:0:0:
187,146,177596,1,2,0:0:0:0:
228,70,177733,1,2,0:0:0:0:
142,74,177869,6,0,B|98:113|98:113|114:252,1,170.999995433807,2|2,1:0|0:0,0:0:0:0:
110,224,178415,1,10,0:0:0:0:
178,330,178551,1,2,0:0:0:0:
197,242,178687,1,2,0:0:0:0:
91,311,178823,1,2,0:0:0:0:
263,302,178960,6,0,B|373:322|373:322|432:260,1,170.999995433807,6|0,1:0|0:0,0:0:0:0:
428,194,179369,1,0,0:0:0:0:
347,219,179505,2,0,B|237:199|237:199|178:261,1,170.999995433807,10|0,0:0|3:0,0:0:0:0:
167,323,179915,1,0,0:0:0:0:
88,288,180051,6,0,L|82:190,1,85.4999977169037,2|0,1:0|0:0,0:0:0:0:
13,152,180324,2,0,L|19:54,1,85.4999977169037,0|0,0:0|0:0,0:0:0:0:
92,24,180596,2,0,B|121:72|121:72|260:89,1,170.999995433807,10|0,0:0|3:0,0:0:0:0:
300,30,181005,1,0,0:0:0:0:
373,74,181142,6,0,L|388:254,1,170.999995433807,2|0,1:0|0:0,0:0:0:0:
376,329,181551,1,0,0:0:0:0:
296,297,181687,2,0,B|242:255|242:255|120:269,1,170.999995433807,10|0,0:0|3:0,0:0:0:0:
55,250,182096,1,0,0:0:0:0:
88,170,182233,6,0,L|191:158,1,85.4999977169037,2|0,1:0|0:0,0:0:0:0:
211,83,182505,2,0,L|314:95,1,85.4999977169037,0|0,0:0|0:0,0:0:0:0:
373,55,182778,2,0,B|320:97|320:97|350:223,1,170.999995433807,10|0,0:0|3:0,0:0:0:0:
377,276,183187,1,2,0:0:0:0:
302,319,183324,6,0,B|236:305|236:305|206:320|206:320|119:303,1,170.999995433807,2|0,1:0|0:0,0:0:0:0:
66,254,183733,1,0,0:0:0:0:
140,212,183869,2,0,B|195:182|195:182|201:60,1,170.999995433807,10|0,0:0|3:0,0:0:0:0:
270,23,184278,1,0,0:0:0:0:
329,85,184415,6,0,L|334:176,1,85.4999977169037,2|0,1:0|0:0,0:0:0:0:
404,217,184687,2,0,L|399:308,1,85.4999977169037,0|0,0:0|0:0,0:0:0:0:
333,357,184960,2,0,B|279:313|279:313|167:337,1,170.999995433807,10|0,0:0|3:0,0:0:0:0:
96,353,185369,1,0,0:0:0:0:
42,286,185505,6,0,L|51:104,1,170.999995433807,2|0,1:0|0:0,0:0:0:0:
93,40,185915,1,0,0:0:0:0:
162,89,186051,2,0,B|180:150|180:150|310:168,1,170.999995433807,10|0,0:0|3:0,0:0:0:0:
369,141,186460,1,0,0:0:0:0:
397,221,186596,6,0,L|406:314,1,85.4999977169037,2|0,1:0|0:0,0:0:0:0:
330,348,186869,2,0,L|321:262,1,85.4999977169037,0|0,3:0|0:0,0:0:0:0:
236,248,187142,2,0,B|218:310|218:310|96:330,1,170.999995433807,10|0,0:0|3:0,0:0:0:0:
28,312,187551,1,0,0:0:0:0:
46,228,187687,5,4,1:0:0:0:
46,228,188778,5,0,0:0:0:0:
69,189,189051,1,0,0:0:0:0:
108,167,189324,1,0,0:0:0:0:
152,166,189596,1,0,0:0:0:0:
193,182,189869,1,2,0:0:0:0:
193,182,190687,1,0,0:0:0:0:
281,238,190960,5,0,0:0:0:0:
284,193,191233,1,0,0:0:0:0:
287,148,191505,1,0,0:0:0:0:
291,103,191778,1,0,0:0:0:0:
295,58,192051,1,2,0:0:0:0:
295,58,193142,6,0,B|218:20|191:90|116:45,1,180,0|2,0:0|0:0,0:0:0:0:
120,47,193960,1,2,0:0:0:0:
37,83,194233,2,0,P|29:206|240:218,1,360,2|2,0:0|0:0,0:0:0:0:
224,237,196415,6,0,B|283:254|333:218|333:218|294:280|243:302|243:302|179:261|106:214|53:223|23:246|20:318|91:356|140:337|146:251|141:215|146:192|146:192|171:149|226:145,1,720,2|2,0:0|0:0,0:0:0:0:
210,147,199687,1,2,0:0:0:0:
210,147,200778,6,0,B|243:120|299:126|299:126|243:120|177:63|177:63|137:87|111:120|117:180|148:196,1,360,2|0,0:0|0:0,0:0:0:0:
127,168,202960,1,2,0:0:0:0:
127,168,204051,2,0,B|212:130|228:212|315:155,1,180,2|2,0:0|0:0,0:0:0:0:
300,163,204869,1,2,0:0:0:0:
346,85,205142,1,2,0:0:0:0:
346,85,206233,5,2,0:0:0:0:
309,59,206505,1,2,0:0:0:0:
264,50,206778,1,2,0:0:0:0:
220,62,207051,1,2,0:0:0:0:
188,93,207324,1,2,0:0:0:0:
188,93,208415,5,2,0:0:0:0:
188,137,208687,1,2,0:0:0:0:
189,182,208960,1,2,0:0:0:0:
190,227,209233,1,2,0:0:0:0:
191,271,209505,1,2,0:0:0:0:
191,271,210596,6,0,B|253:257|253:257|303:282|303:282|377:263,1,180,2|2,0:0|0:0,0:0:0:0:
361,266,211415,1,2,0:0:0:0:
423,201,211687,2,0,B|417:142|454:113|454:113|416:97|405:52|405:52|368:78|354:126|354:126|339:79|285:70,1,360,2|2,0:0|0:0,0:0:0:0:
289,70,213869,6,0,B|235:69|198:125|198:125|137:154|86:138|55:90|89:28|157:18|201:53|196:131|151:184|151:184|213:175|261:193|294:230|294:230|258:224|216:248,1,675,6|0,0:0|0:0,0:0:0:0:
169,298,216051,6,0,B|104:286|61:230|61:230|105:336|200:355|200:355|271:311|326:310|326:310|371:351|468:348|468:348|424:347|396:313,1,675,0|0,0:0|0:0,0:0:0:0:
398,235,218233,6,0,B|392:205|366:187|366:187|405:150|418:86|418:86|342:119|265:64|265:64|255:122|199:151|199:151|180:88|120:33|120:33|133:80|105:128,1,675,0|0,0:0|0:0,0:0:0:0:
41,164,220415,6,0,B|67:197|108:208|140:196|140:196|81:229|63:310|63:310|125:273|205:309|205:309|205:243|243:217|243:217|268:281|312:309|312:309|305:277|315:253,1,675,0|0,0:0|0:0,0:0:0:0:
378,200,222596,5,4,1:0:0:0:
