osu file format v14

[General]
AudioFilename: edit.mp3
AudioLeadIn: 0
PreviewTime: 143983
Countdown: 0
SampleSet: Soft
StackLeniency: 0.4
Mode: 0
LetterboxInBreaks: 0
EpilepsyWarning: 1
WidescreenStoryboard: 1

[Editor]
Bookmarks: 4415,21869,39324,56778,74233,91687,109142,126596,144051,170233,187687,205142,222596,240051
DistanceSpacing: 1.8
BeatDivisor: 8
GridSize: 32
TimelineZoom: 2.1

[Metadata]
Title:Immortal Flame (feat. Anna Yvette)
TitleUnicode:Immortal Flame (feat. Anna Yvette)
Artist:Panda Eyes & Teminite
ArtistUnicode:Panda Eyes & Teminite
Creator:Sotarks
Version:Mir's Extra
Source:
Tags:DubstepGutter DSG Akitoshi corinn Kin SnowNiNo_ corinn ascendance hareimu Mir PoNo Ponoyoshi
BeatmapID:1519137
BeatmapSetID:703957

[Difficulty]
HPDrainRate:5
CircleSize:3.5
OverallDifficulty:8.7
ApproachRate:9.3
SliderMultiplier:2.2
SliderTickRate:1

[Events]
//Background and Video events
0,0,"BG.jpg",0,0
//Break Periods
2,126796,134754
//Storyboard Layer 0 (Background)
Sprite,Background,Centre,"SB\BG\BG_BW_B.jpg",320,240 F,0,56778,57323,0.5,0 S,4,56778,57323,0.4528302,0.4444444 F,0,57323,57868,0.5,0 S,4,57323,57868,0.4528302,0.4444444 F,0,57868,58414,0.5,0 S,4,57868,58414,0.4528302,0.4444444 F,0,58414,58959,0.5,0 S,4,58414,58959,0.4528302,0.4444444 F,0,58959,59505,0.5,0 S,4,58959,59505,0.4528302,0.4444444 F,0,59505,60050,0.5,0 S,4,59505,60050,0.4528302,0.4444444 F,0,60050,60596,0.5,0 S,4,60050,60596,0.4528302,0.4444444 F,0,60596,61141,0.5,0 S,4,60596,61141,0.4528302,0.4444444 F,0,61141,61687,0.5,0 S,4,61141,61687,0.4528302,0.4444444 F,0,61687,62232,0.5,0 S,4,61687,62232,0.4528302,0.4444444 F,0,62232,62777,0.5,0 S,4,62232,62777,0.4528302,0.4444444 F,0,62777,63323,0.5,0 S,4,62777,63323,0.4528302,0.4444444 F,0,63323,63868,0.5,0 S,4,63323,63868,0.4528302,0.4444444 F,0,63868,64414,0.5,0 S,4,63868,64414,0.4528302,0.4444444 F,0,64414,64959,0.5,0 S,4,64414,64959,0.4528302,0.4444444 F,0,64959,65505,0.5,0 S,4,64959,65505,0.4528302,0.4444444 F,0,65505,66050,0.5,0 S,4,65505,66050,0.4528302,0.4444444 F,0,66050,66596,0.5,0 S,4,66050,66596,0.4528302,0.4444444 F,0,66596,67141,0.5,0 S,4,66596,67141,0.4528302,0.4444444 F,0,67141,67687,0.5,0 S,4,67141,67687,0.4528302,0.4444444 F,0,67687,68232,0.5,0 S,4,67687,68232,0.4528302,0.4444444 F,0,68232,68777,0.5,0 S,4,68232,68777,0.4528302,0.4444444 F,0,68777,69323,0.5,0 S,4,68777,69323,0.4528302,0.4444444 F,0,69323,69868,0.5,0 S,4,69323,69868,0.4528302,0.4444444 F,0,69868,70414,0.5,0 S,4,69868,70414,0.4528302,0.4444444 F,0,70414,70959,0.5,0 S,4,70414,70959,0.4528302,0.4444444 F,0,70959,71505,0.5,0 S,4,70959,71505,0.4528302,0.4444444 F,0,71505,72050,0.5,0 S,4,71505,72050,0.4528302,0.4444444 F,0,72050,72596,0.5,0 S,4,72050,72596,0.4528302,0.4444444 F,0,72596,73141,0.5,0 S,4,72596,73141,0.4528302,0.4444444 F,0,73141,73687,0.5,0 S,4,73141,73687,0.4528302,0.4444444 F,0,73687,74232,0.5,0 S,4,73687,74232,0.4528302,0.4444444
Sprite,Background,Centre,"SB\BG\BG_BW_B.jpg",320,240 F,0,91687,92232,0.5,0 S,4,91687,92232,0.4528302,0.4444444 F,0,92232,92777,0.5,0 S,4,92232,92777,0.4528302,0.4444444 F,0,92777,93323,0.5,0 S,4,92777,93323,0.4528302,0.4444444 F,0,93323,93868,0.5,0 S,4,93323,93868,0.4528302,0.4444444 F,0,93868,94414,0.5,0 S,4,93868,94414,0.4528302,0.4444444 F,0,94414,94959,0.5,0 S,4,94414,94959,0.4528302,0.4444444 F,0,94959,95505,0.5,0 S,4,94959,95505,0.4528302,0.4444444 F,0,95505,96050,0.5,0 S,4,95505,96050,0.4528302,0.4444444 F,0,96050,96596,0.5,0 S,4,96050,96596,0.4528302,0.4444444 F,0,96596,97141,0.5,0 S,4,96596,97141,0.4528302,0.4444444 F,0,97141,97686,0.5,0 S,4,97141,97686,0.4528302,0.4444444 F,0,97686,98232,0.5,0 S,4,97686,98232,0.4528302,0.4444444 F,0,98232,98777,0.5,0 S,4,98232,98777,0.4528302,0.4444444 F,0,98777,99323,0.5,0 S,4,98777,99323,0.4528302,0.4444444 F,0,99323,99868,0.5,0 S,4,99323,99868,0.4528302,0.4444444 F,0,99868,100414,0.5,0 S,4,99868,100414,0.4528302,0.4444444 F,0,100414,100959,0.5,0 S,4,100414,100959,0.4528302,0.4444444 F,0,100959,101505,0.5,0 S,4,100959,101505,0.4528302,0.4444444 F,0,101505,102050,0.5,0 S,4,101505,102050,0.4528302,0.4444444 F,0,102050,102596,0.5,0 S,4,102050,102596,0.4528302,0.4444444 F,0,102596,103141,0.5,0 S,4,102596,103141,0.4528302,0.4444444 F,0,103141,103686,0.5,0 S,4,103141,103686,0.4528302,0.4444444 F,0,103686,104232,0.5,0 S,4,103686,104232,0.4528302,0.4444444 F,0,104232,104777,0.5,0 S,4,104232,104777,0.4528302,0.4444444 F,0,104777,105323,0.5,0 S,4,104777,105323,0.4528302,0.4444444 F,0,105323,105868,0.5,0 S,4,105323,105868,0.4528302,0.4444444 F,0,105868,106414,0.5,0 S,4,105868,106414,0.4528302,0.4444444 F,0,106414,106959,0.5,0 S,4,106414,106959,0.4528302,0.4444444 F,0,106959,107505,0.5,0 S,4,106959,107505,0.4528302,0.4444444 F,0,107505,108050,0.5,0 S,4,107505,108050,0.4528302,0.4444444 F,0,108050,108596,0.5,0 S,4,108050,108596,0.4528302,0.4444444 F,0,108596,109141,0.5,0 S,4,108596,109141,0.4528302,0.4444444
Sprite,Background,Centre,"SB\BG\BG_BW_B.jpg",320,240 F,0,144051,144596,0.5,0 S,4,144051,144596,0.4528302,0.4444444 F,0,144596,145141,0.5,0 S,4,144596,145141,0.4528302,0.4444444 F,0,145141,145687,0.5,0 S,4,145141,145687,0.4528302,0.4444444 F,0,145687,146232,0.5,0 S,4,145687,146232,0.4528302,0.4444444 F,0,146232,146778,0.5,0 S,4,146232,146778,0.4528302,0.4444444 F,0,146778,147323,0.5,0 S,4,146778,147323,0.4528302,0.4444444 F,0,147323,147869,0.5,0 S,4,147323,147869,0.4528302,0.4444444 F,0,147869,148414,0.5,0 S,4,147869,148414,0.4528302,0.4444444 F,0,148414,148960,0.5,0 S,4,148414,148960,0.4528302,0.4444444 F,0,148960,149505,0.5,0 S,4,148960,149505,0.4528302,0.4444444 F,0,149505,150051,0.5,0 S,4,149505,150051,0.4528302,0.4444444 F,0,150051,150596,0.5,0 S,4,150051,150596,0.4528302,0.4444444 F,0,150596,151141,0.5,0 S,4,150596,151141,0.4528302,0.4444444 F,0,151141,151687,0.5,0 S,4,151141,151687,0.4528302,0.4444444 F,0,151687,152232,0.5,0 S,4,151687,152232,0.4528302,0.4444444 F,0,152232,152778,0.5,0 S,4,152232,152778,0.4528302,0.4444444 F,0,152778,153323,0.5,0 S,4,152778,153323,0.4528302,0.4444444 F,0,153323,153869,0.5,0 S,4,153323,153869,0.4528302,0.4444444 F,0,153869,154414,0.5,0 S,4,153869,154414,0.4528302,0.4444444 F,0,154414,154960,0.5,0 S,4,154414,154960,0.4528302,0.4444444 F,0,154960,155505,0.5,0 S,4,154960,155505,0.4528302,0.4444444 F,0,155505,156051,0.5,0 S,4,155505,156051,0.4528302,0.4444444 F,0,156051,156596,0.5,0 S,4,156051,156596,0.4528302,0.4444444 F,0,156596,157141,0.5,0 S,4,156596,157141,0.4528302,0.4444444 F,0,157141,157687,0.5,0 S,4,157141,157687,0.4528302,0.4444444 F,0,157687,158232,0.5,0 S,4,157687,158232,0.4528302,0.4444444 F,0,158232,158778,0.5,0 S,4,158232,158778,0.4528302,0.4444444 F,0,158778,159323,0.5,0 S,4,158778,159323,0.4528302,0.4444444 F,0,159323,159869,0.5,0 S,4,159323,159869,0.4528302,0.4444444 F,0,159869,160414,0.5,0 S,4,159869,160414,0.4528302,0.4444444 F,0,160414,160960,0.5,0 S,4,160414,160960,0.4528302,0.4444444 F,0,160960,161505,0.5,0 S,4,160960,161505,0.4528302,0.4444444 F,0,161505,162051,0.5,0 S,4,161505,162051,0.4528302,0.4444444 F,0,162051,162596,0.5,0 S,4,162051,162596,0.4528302,0.4444444 F,0,162596,163141,0.5,0 S,4,162596,163141,0.4528302,0.4444444 F,0,163141,163687,0.5,0 S,4,163141,163687,0.4528302,0.4444444 F,0,163687,164232,0.5,0 S,4,163687,164232,0.4528302,0.4444444 F,0,164232,164778,0.5,0 S,4,164232,164778,0.4528302,0.4444444 F,0,164778,165323,0.5,0 S,4,164778,165323,0.4528302,0.4444444 F,0,165323,165869,0.5,0 S,4,165323,165869,0.4528302,0.4444444 F,0,165869,166414,0.5,0 S,4,165869,166414,0.4528302,0.4444444 F,0,166414,166960,0.5,0 S,4,166414,166960,0.4528302,0.4444444 F,0,166960,167505,0.5,0 S,4,166960,167505,0.4528302,0.4444444 F,0,167505,168051,0.5,0 S,4,167505,168051,0.4528302,0.4444444 F,0,168051,168596,0.5,0 S,4,168051,168596,0.4528302,0.4444444 F,0,168596,169141,0.5,0 S,4,168596,169141,0.4528302,0.4444444 F,0,169141,169687,0.5,0 S,4,169141,169687,0.4528302,0.4444444 F,0,169687,170232,0.5,0 S,4,169687,170232,0.4528302,0.4444444 F,0,170232,170778,0.5,0 S,4,170232,170778,0.4528302,0.4444444 F,0,170778,171323,0.5,0 S,4,170778,171323,0.4528302,0.4444444 F,0,171323,171869,0.5,0 S,4,171323,171869,0.4528302,0.4444444 F,0,171869,172414,0.5,0 S,4,171869,172414,0.4528302,0.4444444 F,0,172414,172960,0.5,0 S,4,172414,172960,0.4528302,0.4444444 F,0,172960,173505,0.5,0 S,4,172960,173505,0.4528302,0.4444444 F,0,173505,174051,0.5,0 S,4,173505,174051,0.4528302,0.4444444 F,0,174051,174596,0.5,0 S,4,174051,174596,0.4528302,0.4444444 F,0,174596,175141,0.5,0 S,4,174596,175141,0.4528302,0.4444444 F,0,175141,175687,0.5,0 S,4,175141,175687,0.4528302,0.4444444 F,0,175687,176232,0.5,0 S,4,175687,176232,0.4528302,0.4444444 F,0,176232,176778,0.5,0 S,4,176232,176778,0.4528302,0.4444444 F,0,176778,177323,0.5,0 S,4,176778,177323,0.4528302,0.4444444 F,0,177323,177869,0.5,0 S,4,177323,177869,0.4528302,0.4444444 F,0,177869,178414,0.5,0 S,4,177869,178414,0.4528302,0.4444444 F,0,178414,178960,0.5,0 S,4,178414,178960,0.4528302,0.4444444 F,0,178960,179505,0.5,0 S,4,178960,179505,0.4528302,0.4444444 F,0,179505,180051,0.5,0 S,4,179505,180051,0.4528302,0.4444444 F,0,180051,180596,0.5,0 S,4,180051,180596,0.4528302,0.4444444 F,0,180596,181141,0.5,0 S,4,180596,181141,0.4528302,0.4444444 F,0,181141,181687,0.5,0 S,4,181141,181687,0.4528302,0.4444444 F,0,181687,182232,0.5,0 S,4,181687,182232,0.4528302,0.4444444 F,0,182232,182778,0.5,0 S,4,182232,182778,0.4528302,0.4444444 F,0,182778,183323,0.5,0 S,4,182778,183323,0.4528302,0.4444444 F,0,183323,183869,0.5,0 S,4,183323,183869,0.4528302,0.4444444 F,0,183869,184414,0.5,0 S,4,183869,184414,0.4528302,0.4444444 F,0,184414,184960,0.5,0 S,4,184414,184960,0.4528302,0.4444444 F,0,184960,185505,0.5,0 S,4,184960,185505,0.4528302,0.4444444 F,0,185505,186051,0.5,0 S,4,185505,186051,0.4528302,0.4444444 F,0,186051,186596,0.5,0 S,4,186051,186596,0.4528302,0.4444444 F,0,186596,187141,0.5,0 S,4,186596,187141,0.4528302,0.4444444 F,0,187141,187687,0.5,0 S,4,187141,187687,0.4528302,0.4444444
Sprite,Background,Centre,"SB\BG\BG_BW_B.jpg",320,240 S,0,1142,,0.4444444 F,0,1142,4414,0,0.2 F,0,4414,6596,0.6,0.2 F,0,21869,39324,0.2,0.5 F,0,39324,41505,0.5,0 F,0,109142,126596,0.2 F,0,126596,128778,0.2,0 F,0,135324,144051,0,0.8 F,0,187687,189869,0.5,0.2 F,0,189869,213869,0.2 F,0,213869,222596,0.2,0 F,0,222596,240051,0.2,0
Sprite,Background,Centre,"SB\BG\BG_BW.jpg",320,240 S,0,39324,,0.4444444 F,0,39324,54596,0.3 F,0,54596,56233,0.3,0
Sprite,Background,Centre,"BG.jpg",320,240 S,4,56778,57323,0.4528302,0.4444444 F,0,56778,74233,0.8 S,4,57323,57868,0.4528302,0.4444444 S,4,57868,58414,0.4528302,0.4444444 S,4,58414,58959,0.4528302,0.4444444 S,4,58959,59505,0.4528302,0.4444444 S,4,59505,60050,0.4528302,0.4444444 S,4,60050,60596,0.4528302,0.4444444 S,4,60596,61141,0.4528302,0.4444444 S,4,61141,61687,0.4528302,0.4444444 S,4,61687,62232,0.4528302,0.4444444 S,4,62232,62777,0.4528302,0.4444444 S,4,62777,63323,0.4528302,0.4444444 S,4,63323,63868,0.4528302,0.4444444 S,4,63868,64414,0.4528302,0.4444444 S,4,64414,64959,0.4528302,0.4444444 S,4,64959,65505,0.4528302,0.4444444 S,4,65505,66050,0.4528302,0.4444444 S,4,66050,66596,0.4528302,0.4444444 S,4,66596,67141,0.4528302,0.4444444 S,4,67141,67687,0.4528302,0.4444444 S,4,67687,68232,0.4528302,0.4444444 S,4,68232,68777,0.4528302,0.4444444 S,4,68777,69323,0.4528302,0.4444444 S,4,69323,69868,0.4528302,0.4444444 S,4,69868,70414,0.4528302,0.4444444 S,4,70414,70959,0.4528302,0.4444444 S,4,70959,71505,0.4528302,0.4444444 S,4,71505,72050,0.4528302,0.4444444 S,4,72050,72596,0.4528302,0.4444444 S,4,72596,73141,0.4528302,0.4444444 S,4,73141,73687,0.4528302,0.4444444 S,4,73687,74232,0.4528302,0.4444444
Sprite,Background,Centre,"BG.jpg",320,240 S,4,91687,92232,0.4528302,0.4444444 F,0,91687,109142,0.8 S,4,92232,92777,0.4528302,0.4444444 S,4,92777,93323,0.4528302,0.4444444 S,4,93323,93868,0.4528302,0.4444444 S,4,93868,94414,0.4528302,0.4444444 S,4,94414,94959,0.4528302,0.4444444 S,4,94959,95505,0.4528302,0.4444444 S,4,95505,96050,0.4528302,0.4444444 S,4,96050,96596,0.4528302,0.4444444 S,4,96596,97141,0.4528302,0.4444444 S,4,97141,97686,0.4528302,0.4444444 S,4,97686,98232,0.4528302,0.4444444 S,4,98232,98777,0.4528302,0.4444444 S,4,98777,99323,0.4528302,0.4444444 S,4,99323,99868,0.4528302,0.4444444 S,4,99868,100414,0.4528302,0.4444444 S,4,100414,100959,0.4528302,0.4444444 S,4,100959,101505,0.4528302,0.4444444 S,4,101505,102050,0.4528302,0.4444444 S,4,102050,102596,0.4528302,0.4444444 S,4,102596,103141,0.4528302,0.4444444 S,4,103141,103686,0.4528302,0.4444444 S,4,103686,104232,0.4528302,0.4444444 S,4,104232,104777,0.4528302,0.4444444 S,4,104777,105323,0.4528302,0.4444444 S,4,105323,105868,0.4528302,0.4444444 S,4,105868,106414,0.4528302,0.4444444 S,4,106414,106959,0.4528302,0.4444444 S,4,106959,107505,0.4528302,0.4444444 S,4,107505,108050,0.4528302,0.4444444 S,4,108050,108596,0.4528302,0.4444444 S,4,108596,109141,0.4528302,0.4444444
Sprite,Background,Centre,"BG.jpg",320,240 S,4,144051,144596,0.4528302,0.4444444 F,0,144051,187687,0.8 S,4,144596,145141,0.4528302,0.4444444 S,4,145141,145687,0.4528302,0.4444444 S,4,145687,146232,0.4528302,0.4444444 S,4,146232,146778,0.4528302,0.4444444 S,4,146778,147323,0.4528302,0.4444444 S,4,147323,147869,0.4528302,0.4444444 S,4,147869,148414,0.4528302,0.4444444 S,4,148414,148960,0.4528302,0.4444444 S,4,148960,149505,0.4528302,0.4444444 S,4,149505,150051,0.4528302,0.4444444 S,4,150051,150596,0.4528302,0.4444444 S,4,150596,151141,0.4528302,0.4444444 S,4,151141,151687,0.4528302,0.4444444 S,4,151687,152232,0.4528302,0.4444444 S,4,152232,152778,0.4528302,0.4444444 S,4,152778,153323,0.4528302,0.4444444 S,4,153323,153869,0.4528302,0.4444444 S,4,153869,154414,0.4528302,0.4444444 S,4,154414,154960,0.4528302,0.4444444 S,4,154960,155505,0.4528302,0.4444444 S,4,155505,156051,0.4528302,0.4444444 S,4,156051,156596,0.4528302,0.4444444 S,4,156596,157141,0.4528302,0.4444444 S,4,157141,157687,0.4528302,0.4444444 S,4,157687,158232,0.4528302,0.4444444 S,4,158232,158778,0.4528302,0.4444444 S,4,158778,159323,0.4528302,0.4444444 S,4,159323,159869,0.4528302,0.4444444 S,4,159869,160414,0.4528302,0.4444444 S,4,160414,160960,0.4528302,0.4444444 S,4,160960,161505,0.4528302,0.4444444 S,4,161505,162051,0.4528302,0.4444444 S,4,162051,162596,0.4528302,0.4444444 S,4,162596,163141,0.4528302,0.4444444 S,4,163141,163687,0.4528302,0.4444444 S,4,163687,164232,0.4528302,0.4444444 S,4,164232,164778,0.4528302,0.4444444 S,4,164778,165323,0.4528302,0.4444444 S,4,165323,165869,0.4528302,0.4444444 S,4,165869,166414,0.4528302,0.4444444 S,4,166414,166960,0.4528302,0.4444444 S,4,166960,167505,0.4528302,0.4444444 S,4,167505,168051,0.4528302,0.4444444 S,4,168051,168596,0.4528302,0.4444444 S,4,168596,169141,0.4528302,0.4444444 S,4,169141,169687,0.4528302,0.4444444 S,4,169687,170232,0.4528302,0.4444444 S,4,170232,170778,0.4528302,0.4444444 S,4,170778,171323,0.4528302,0.4444444 S,4,171323,171869,0.4528302,0.4444444 S,4,171869,172414,0.4528302,0.4444444 S,4,172414,172960,0.4528302,0.4444444 S,4,172960,173505,0.4528302,0.4444444 S,4,173505,174051,0.4528302,0.4444444 S,4,174051,174596,0.4528302,0.4444444 S,4,174596,175141,0.4528302,0.4444444 S,4,175141,175687,0.4528302,0.4444444 S,4,175687,176232,0.4528302,0.4444444 S,4,176232,176778,0.4528302,0.4444444 S,4,176778,177323,0.4528302,0.4444444 S,4,177323,177869,0.4528302,0.4444444 S,4,177869,178414,0.4528302,0.4444444 S,4,178414,178960,0.4528302,0.4444444 S,4,178960,179505,0.4528302,0.4444444 S,4,179505,180051,0.4528302,0.4444444 S,4,180051,180596,0.4528302,0.4444444 S,4,180596,181141,0.4528302,0.4444444 S,4,181141,181687,0.4528302,0.4444444 S,4,181687,182232,0.4528302,0.4444444 S,4,182232,182778,0.4528302,0.4444444 S,4,182778,183323,0.4528302,0.4444444 S,4,183323,183869,0.4528302,0.4444444 S,4,183869,184414,0.4528302,0.4444444 S,4,184414,184960,0.4528302,0.4444444 S,4,184960,185505,0.4528302,0.4444444 S,4,185505,186051,0.4528302,0.4444444 S,4,186051,186596,0.4528302,0.4444444 S,4,186596,187141,0.4528302,0.4444444 S,4,187141,187687,0.4528302,0.4444444
Sprite,Background,Centre,"SB\BG\BG_BW.jpg",320,240 S,0,74233,,0.4444444 F,0,74233,91687,0.2
Sprite,Background,Centre,"SB\NAMES\mir.png",0,0 M,0,56778,,500,100 S,0,56778,,0.3 F,0,56778,74233,1 R,0,56778,74233,-0.2,-0.1
Sprite,Background,Centre,"SB\NAMES\mir.png",0,0 M,0,91687,,500,100 S,0,91687,,0.3 F,0,91687,109142,1 R,0,91687,109142,-0.2,-0.1
Sprite,Background,Centre,"SB\NAMES\mir.png",0,0 M,0,144051,,500,100 S,0,144051,,0.3 F,0,144051,187687,1 R,0,144051,187687,-0.2,-0.1
Sprite,Background,Centre,"SB\DIV\pixel.png",0,0 L,75323,3 R,19,0,272,0,0.09279197 S,0,74233,,12 F,19,74233,76414,0.5 M,19,74253,75323,533,379,566.757,525.1522 M,18,75869,76414,566.757,525.1522,533,379
Sprite,Background,Centre,"SB\DIV\pixel.png",0,0 L,75323,3 R,19,0,272,0,3.088621 S,0,74233,,18 F,19,74233,76414,0.5 M,19,74313,75323,533,379,384.4525,399.8237 M,18,75869,76414,384.4525,399.8237,533,379
Sprite,Background,Centre,"SB\DIV\pixel.png",0,0 L,75323,3 R,19,0,272,0,1.787745 S,0,74233,,18 F,19,74233,76414,0.5 M,19,74309,75323,533,379,501.231,525.5972 M,18,75869,76414,501.231,525.5972,533,379
Sprite,Background,Centre,"SB\DIV\pixel.png",0,0 L,75323,3 R,19,0,272,0,0.2726582 S,0,74233,,14 F,19,74233,76414,0.5 M,19,74265,75323,533,379,389.172,421.5852 M,18,75869,76414,389.172,421.5852,533,379
Sprite,Background,Centre,"SB\DIV\pixel.png",0,0 L,75323,3 R,19,0,272,0,0.7341629 S,0,74233,,16 F,19,74233,76414,0.5 M,19,74255,75323,533,379,383.1401,385.4813 M,18,75869,76414,383.1401,385.4813,533,379
Sprite,Background,Centre,"SB\DIV\pixel.png",0,0 L,75323,3 R,19,0,272,0,1.632623 S,0,74233,,7 F,19,74233,76414,0.5 M,19,74312,75323,533,379,452.7019,252.3027 M,18,75869,76414,452.7019,252.3027,533,379
Sprite,Background,Centre,"SB\DIV\pixel.png",0,0 L,75323,3 R,19,0,272,0,2.01157 S,0,74233,,12 F,19,74233,76414,0.5 M,19,74321,75323,533,379,663.5891,305.1996 M,18,75869,76414,663.5891,305.1996,533,379
Sprite,Background,Centre,"SB\DIV\pixel.png",0,0 L,75323,3 R,19,0,272,0,0.6853305 S,0,74233,,5 F,19,74233,76414,0.5 M,19,74324,75323,533,379,633.3371,490.501 M,18,75869,76414,633.3371,490.501,533,379
Sprite,Background,Centre,"SB\DIV\pixel.png",0,0 L,75323,3 R,19,0,272,0,2.251404 S,0,74233,,7 F,19,74233,76414,0.5 M,19,74273,75323,533,379,682.6874,388.6794 M,18,75869,76414,682.6874,388.6794,533,379
Sprite,Background,Centre,"SB\DIV\pixel.png",0,0 L,75323,3 R,19,0,272,0,1.412117 S,0,74233,,2 F,19,74233,76414,0.5 M,19,74331,75323,533,379,487.8747,522.0514 M,18,75869,76414,487.8747,522.0514,533,379
Sprite,Background,Centre,"SB\DIV\pixel.png",0,0 L,75323,3 R,19,0,272,0,0.6701114 S,0,74233,,11 F,19,74233,76414,0.5 M,19,74331,75323,533,379,643.2566,480.7029 M,18,75869,76414,643.2566,480.7029,533,379
Sprite,Background,Centre,"SB\DIV\pixel.png",0,0 L,75323,3 R,19,0,272,0,0.6778296 S,0,74233,,8 F,19,74233,76414,0.5 M,19,74272,75323,533,379,682.8839,373.1 M,18,75869,76414,682.8839,373.1,533,379
Sprite,Background,Centre,"SB\DIV\pixel.png",0,0 L,75323,3 R,19,0,272,0,2.211018 S,0,74233,,9 F,19,74233,76414,0.5 M,19,74284,75323,533,379,472.2144,241.8683 M,18,75869,76414,472.2144,241.8683,533,379
Sprite,Background,Centre,"SB\DIV\pixel.png",0,0 L,75323,3 R,19,0,272,0,1.515439 S,0,74233,,7 F,19,74233,76414,0.5 M,19,74252,75323,533,379,410.715,465.8699 M,18,75869,76414,410.715,465.8699,533,379
Sprite,Background,Centre,"SB\DIV\pixel.png",0,0 L,75323,3 R,19,0,272,0,0.5389467 S,0,74233,,10 F,19,74233,76414,0.5 M,19,74243,75323,533,379,387.3675,343.0671 M,18,75869,76414,387.3675,343.0671,533,379
Sprite,Background,Centre,"SB\DIV\pixel.png",0,0 L,75323,3 R,19,0,272,0,2.336945 S,0,74233,,3 F,19,74233,76414,0.5 M,19,74324,75323,533,379,658.4309,461.2623 M,18,75869,76414,658.4309,461.2623,533,379
Sprite,Background,Centre,"SB\DIV\pixel.png",0,0 L,75323,3 R,19,0,272,0,0.8079442 S,0,74233,,16 F,19,74233,76414,0.5 M,19,74311,75323,533,379,461.1482,247.3288 M,18,75869,76414,461.1482,247.3288,533,379
Sprite,Background,Centre,"SB\DIV\pixel.png",0,0 L,75323,3 R,19,0,272,0,0.6016439 S,0,74233,,8 F,19,74233,76414,0.5 M,19,74268,75323,533,379,668.6321,314.938 M,18,75869,76414,668.6321,314.938,533,379
Sprite,Background,Centre,"SB\DIV\pixel.png",0,0 L,75323,3 R,19,0,272,0,2.896351 S,0,74233,,2 F,19,74233,76414,0.5 M,19,74288,75323,533,379,521.4973,229.4417 M,18,75869,76414,521.4973,229.4417,533,379
Sprite,Background,Centre,"SB\DIV\pixel.png",0,0 L,75323,3 R,19,0,272,0,0.37503 S,0,74233,,12 F,19,74233,76414,0.5 M,19,74330,75323,533,379,383.2125,386.9809 M,18,75869,76414,383.2125,386.9809,533,379
Sprite,Background,Centre,"SB\DIV\pixel.png",0,0 L,75323,3 R,19,0,272,0,2.76329 S,0,74233,,11 F,19,74233,76414,0.5 M,19,74302,75323,533,379,650.6564,472.0429 M,18,75869,76414,650.6564,472.0429,533,379
Sprite,Background,Centre,"SB\DIV\pixel.png",0,0 L,75323,3 R,19,0,272,0,1.907497 S,0,74233,,8 F,19,74233,76414,0.5 M,19,74283,75323,533,379,682.3312,393.1486 M,18,75869,76414,682.3312,393.1486,533,379
Sprite,Background,Centre,"SB\DIV\pixel.png",0,0 L,75323,3 R,19,0,272,0,2.20105 S,0,74233,,13 F,19,74233,76414,0.5 M,19,74263,75323,533,379,665.6294,449.0675 M,18,75869,76414,665.6294,449.0675,533,379
Sprite,Background,Centre,"SB\DIV\pixel.png",0,0 L,75323,3 R,19,0,272,0,1.705947 S,0,74233,,4 F,19,74233,76414,0.5 M,19,74301,75323,533,379,653.947,290.2767 M,18,75869,76414,653.947,290.2767,533,379
Sprite,Background,Centre,"SB\DIV\pixel.png",0,0 L,75323,3 R,19,0,272,0,1.223461 S,0,74233,,3 F,19,74233,76414,0.5 M,19,74315,75323,533,379,676.3075,423.3053 M,18,75869,76414,676.3075,423.3053,533,379
Sprite,Background,Centre,"SB\DIV\pixel.png",0,0 L,75323,3 R,19,0,272,0,2.952811 S,0,74233,,12 F,19,74233,76414,0.5 M,19,74243,75323,533,379,682.6028,368.0911 M,18,75869,76414,682.6028,368.0911,533,379
Sprite,Background,Centre,"SB\DIV\pixel.png",0,0 L,75323,3 R,19,0,272,0,2.060099 S,0,74233,,19 F,19,74233,76414,0.5 M,19,74264,75323,533,379,646.1556,477.4673 M,18,75869,76414,646.1556,477.4673,533,379
Sprite,Background,Centre,"SB\DIV\pixel.png",0,0 L,75323,3 R,19,0,272,0,1.675014 S,0,74233,,19 F,19,74233,76414,0.5 M,19,74258,75323,533,379,681.3738,356.9726 M,18,75869,76414,681.3738,356.9726,533,379
Sprite,Background,Centre,"SB\DIV\pixel.png",0,0 L,75323,3 R,19,0,272,0,2.623544 S,0,74233,,15 F,19,74233,76414,0.5 M,19,74332,75323,533,379,398.7179,445.8455 M,18,75869,76414,398.7179,445.8455,533,379
Sprite,Background,Centre,"SB\DIV\pixel.png",0,0 L,75323,3 R,19,0,272,0,0.9306161 S,0,74233,,7 F,19,74233,76414,0.5 M,19,74325,75323,533,379,396.9663,442.2046 M,18,75869,76414,396.9663,442.2046,533,379
Sprite,Background,Centre,"SB\DIV\pixel.png",0,0 L,75323,3 R,19,0,272,0,1.419618 S,0,74233,,3 F,19,74233,76414,0.5 M,19,74314,75323,533,379,584.3674,238.0696 M,18,75869,76414,584.3674,238.0696,533,379
Sprite,Background,Centre,"SB\DIV\pixel.png",0,0 L,75323,3 R,19,0,272,0,0.1490924 S,0,74233,,4 F,19,74233,76414,0.5 M,19,74291,75323,533,379,507.2871,526.7797 M,18,75869,76414,507.2871,526.7797,533,379
Sprite,Background,Centre,"SB\DIV\pixel.png",0,0 L,75323,3 R,19,0,272,0,1.54747 S,0,74233,,9 F,19,74233,76414,0.5 M,19,74327,75323,533,379,661.2438,301.1955 M,18,75869,76414,661.2438,301.1955,533,379
Sprite,Background,Centre,"SB\DIV\pixel.png",0,0 L,75323,3 R,19,0,272,0,0.9172304 S,0,74233,,19 F,19,74233,76414,0.5 M,19,74266,75323,533,379,543.2936,229.3536 M,18,75869,76414,543.2936,229.3536,533,379
Sprite,Background,Centre,"SB\DIV\pixel.png",0,0 L,75323,3 R,19,0,272,0,1.248108 S,0,74233,,13 F,19,74233,76414,0.5 M,19,74306,75323,533,379,439.2004,261.946 M,18,75869,76414,439.2004,261.946,533,379
Sprite,Background,Centre,"SB\DIV\pixel.png",0,0 L,75323,3 R,19,0,272,0,1.174496 S,0,74233,,6 F,19,74233,76414,0.5 M,19,74240,75323,533,379,675.5151,425.7913 M,18,75869,76414,675.5151,425.7913,533,379
Sprite,Background,Centre,"SB\DIV\pixel.png",0,0 L,75323,3 R,19,0,272,0,1.90863 S,0,74233,,6 F,19,74233,76414,0.5 M,19,74313,75323,533,379,672.4467,434.2685 M,18,75869,76414,672.4467,434.2685,533,379
Sprite,Background,Centre,"SB\DIV\pixel.png",0,0 L,75323,3 R,19,0,272,0,1.933174 S,0,74233,,11 F,19,74233,76414,0.5 M,19,74258,75323,533,379,486.0164,521.4519 M,18,75869,76414,486.0164,521.4519,533,379
Sprite,Background,Centre,"SB\DIV\pixel.png",0,0 L,75323,3 R,19,0,272,0,2.505689 S,0,74233,,18 F,19,74233,76414,0.5 M,19,74244,75323,533,379,419.4157,476.9724 M,18,75869,76414,419.4157,476.9724,533,379
Sprite,Background,Centre,"SB\DIV\pixel.png",0,0 L,75323,3 R,19,0,272,0,1.861903 S,0,74233,,6 F,19,74233,76414,0.5 M,19,74291,75323,533,379,383.5515,391.8507 M,18,75869,76414,383.5515,391.8507,533,379
Sprite,Background,Centre,"SB\DIV\pixel.png",0,0 L,77505,3 R,19,0,272,0,2.032783 S,0,76415,,2 F,19,76415,78596,0.5 M,19,76511,77505,338,381,463.1214,463.7323 M,18,78051,78596,463.1214,463.7323,338,381
Sprite,Background,Centre,"SB\DIV\pixel.png",0,0 L,77505,3 R,19,0,272,0,0.6624678 S,0,76415,,13 F,19,76415,78596,0.5 M,19,76433,77505,338,381,472.4979,447.4102 M,18,78051,78596,472.4979,447.4102,338,381
Sprite,Background,Centre,"SB\DIV\pixel.png",0,0 L,77505,3 R,19,0,272,0,2.029809 S,0,76415,,15 F,19,76415,78596,0.5 M,19,76447,77505,338,381,380.5402,524.8413 M,18,78051,78596,380.5402,524.8413,338,381
Sprite,Background,Centre,"SB\DIV\pixel.png",0,0 L,77505,3 R,19,0,272,0,0.5768073 S,0,76415,,16 F,19,76415,78596,0.5 M,19,76482,77505,338,381,452.0684,478.4084 M,18,78051,78596,452.0684,478.4084,338,381
Sprite,Background,Centre,"SB\DIV\pixel.png",0,0 L,77505,3 R,19,0,272,0,0.5049444 S,0,76415,,8 F,19,76415,78596,0.5 M,19,76497,77505,338,381,188.0062,379.634 M,18,78051,78596,188.0062,379.634,338,381
Sprite,Background,Centre,"SB\DIV\pixel.png",0,0 L,77505,3 R,19,0,272,0,0.5176063 S,0,76415,,17 F,19,76415,78596,0.5 M,19,76497,77505,338,381,189.6727,358.6616 M,18,78051,78596,189.6727,358.6616,338,381
Sprite,Background,Centre,"SB\DIV\pixel.png",0,0 L,77505,3 R,19,0,272,0,0.3744724 S,0,76415,,14 F,19,76415,78596,0.5 M,19,76495,77505,338,381,190.6406,409.0215 M,18,78051,78596,190.6406,409.0215,338,381
Sprite,Background,Centre,"SB\DIV\pixel.png",0,0 L,77505,3 R,19,0,272,0,2.882866 S,0,76415,,13 F,19,76415,78596,0.5 M,19,76494,77505,338,381,460.6272,467.3862 M,18,78051,78596,460.6272,467.3862,338,381
Sprite,Background,Centre,"SB\DIV\pixel.png",0,0 L,77505,3 R,19,0,272,0,1.964866 S,0,76415,,7 F,19,76415,78596,0.5 M,19,76474,77505,338,381,447.7245,483.2767 M,18,78051,78596,447.7245,483.2767,338,381
Sprite,Background,Centre,"SB\DIV\pixel.png",0,0 L,77505,3 R,19,0,272,0,0.3834448 S,0,76415,,6 F,19,76415,78596,0.5 M,19,76450,77505,338,381,475.3096,441.3828 M,18,78051,78596,475.3096,441.3828,338,381
Sprite,Background,Centre,"SB\DIV\pixel.png",0,0 L,77505,3 R,19,0,272,0,2.044952 S,0,76415,,3 F,19,76415,78596,0.5 M,19,76492,77505,338,381,395.9465,242.6446 M,18,78051,78596,395.9465,242.6446,338,381
Sprite,Background,Centre,"SB\DIV\pixel.png",0,0 L,77505,3 R,19,0,272,0,1.208285 S,0,76415,,17 F,19,76415,78596,0.5 M,19,76476,77505,338,381,316.8444,529.5007 M,18,78051,78596,316.8444,529.5007,338,381
Sprite,Background,Centre,"SB\DIV\pixel.png",0,0 L,77505,3 R,19,0,272,0,1.433225 S,0,76415,,10 F,19,76415,78596,0.5 M,19,76449,77505,338,381,341.6067,530.9566 M,18,78051,78596,341.6067,530.9566,338,381
Sprite,Background,Centre,"SB\DIV\pixel.png",0,0 L,77505,3 R,19,0,272,0,1.061044 S,0,76415,,13 F,19,76415,78596,0.5 M,19,76479,77505,338,381,219.8417,473.4046 M,18,78051,78596,219.8417,473.4046,338,381
Sprite,Background,Centre,"SB\DIV\pixel.png",0,0 L,77505,3 R,19,0,272,0,2.97706 S,0,76415,,18 F,19,76415,78596,0.5 M,19,76420,77505,338,381,273.3599,516.3575 M,18,78051,78596,273.3599,516.3575,338,381
Sprite,Background,Centre,"SB\DIV\pixel.png",0,0 L,77505,3 R,19,0,272,0,0.7342829 S,0,76415,,15 F,19,76415,78596,0.5 M,19,76466,77505,338,381,460.2465,294.0759 M,18,78051,78596,460.2465,294.0759,338,381
Sprite,Background,Centre,"SB\DIV\pixel.png",0,0 L,77505,3 R,19,0,272,0,0.1404953 S,0,76415,,14 F,19,76415,78596,0.5 M,19,76471,77505,338,381,410.8065,512.1458 M,18,78051,78596,410.8065,512.1458,338,381
Sprite,Background,Centre,"SB\DIV\pixel.png",0,0 L,77505,3 R,19,0,272,0,1.149798 S,0,76415,,2 F,19,76415,78596,0.5 M,19,76488,77505,338,381,290.7467,238.6373 M,18,78051,78596,290.7467,238.6373,338,381
Sprite,Background,Centre,"SB\DIV\pixel.png",0,0 L,77505,3 R,19,0,272,0,2.361045 S,0,76415,,6 F,19,76415,78596,0.5 M,19,76509,77505,338,381,188.5863,394.2497 M,18,78051,78596,188.5863,394.2497,338,381
Sprite,Background,Centre,"SB\DIV\pixel.png",0,0 L,77505,3 R,19,0,272,0,0.3318061 S,0,76415,,17 F,19,76415,78596,0.5 M,19,76425,77505,338,381,359.1403,232.4972 M,18,78051,78596,359.1403,232.4972,338,381
Sprite,Background,Centre,"SB\DIV\pixel.png",0,0 L,77505,3 R,19,0,272,0,1.709651 S,0,76415,,18 F,19,76415,78596,0.5 M,19,76485,77505,338,381,205.8674,451.9999 M,18,78051,78596,205.8674,451.9999,338,381
Sprite,Background,Centre,"SB\DIV\pixel.png",0,0 L,77505,3 R,19,0,272,0,2.603142 S,0,76415,,4 F,19,76415,78596,0.5 M,19,76502,77505,338,381,347.1975,231.2822 M,18,78051,78596,347.1975,231.2822,338,381
Sprite,Background,Centre,"SB\DIV\pixel.png",0,0 L,77505,3 R,19,0,272,0,0.5909381 S,0,76415,,13 F,19,76415,78596,0.5 M,19,76503,77505,338,381,346.0326,231.2152 M,18,78051,78596,346.0326,231.2152,338,381
Sprite,Background,Centre,"SB\DIV\pixel.png",0,0 L,77505,3 R,19,0,272,0,1.616898 S,0,76415,,10 F,19,76415,78596,0.5 M,19,76478,77505,338,381,273.3249,245.6592 M,18,78051,78596,273.3249,245.6592,338,381
Sprite,Background,Centre,"SB\DIV\pixel.png",0,0 L,77505,3 R,19,0,272,0,0.9484305 S,0,76415,,7 F,19,76415,78596,0.5 M,19,76476,77505,338,381,261.01,252.2656 M,18,78051,78596,261.01,252.2656,338,381
Sprite,Background,Centre,"SB\DIV\pixel.png",0,0 L,77505,3 R,19,0,272,0,3.009094 S,0,76415,,4 F,19,76415,78596,0.5 M,19,76496,77505,338,381,230.1235,485.2241 M,18,78051,78596,230.1235,485.2241,338,381
Sprite,Background,Centre,"SB\DIV\pixel.png",0,0 L,77505,3 R,19,0,272,0,2.202571 S,0,76415,,13 F,19,76415,78596,0.5 M,19,76481,77505,338,381,381.3836,237.4108 M,18,78051,78596,381.3836,237.4108,338,381
Sprite,Background,Centre,"SB\DIV\pixel.png",0,0 L,77505,3 R,19,0,272,0,0.7715461 S,0,76415,,5 F,19,76415,78596,0.5 M,19,76479,77505,338,381,192.7274,418.3615 M,18,78051,78596,192.7274,418.3615,338,381
Sprite,Background,Centre,"SB\DIV\pixel.png",0,0 L,77505,3 R,19,0,272,0,1.616071 S,0,76415,,5 F,19,76415,78596,0.5 M,19,76474,77505,338,381,401.4824,245.0957 M,18,78051,78596,401.4824,245.0957,338,381
Sprite,Background,Centre,"SB\DIV\pixel.png",0,0 L,77505,3 R,19,0,272,0,2.371225 S,0,76415,,2 F,19,76415,78596,0.5 M,19,76447,77505,338,381,216.2957,293.3184 M,18,78051,78596,216.2957,293.3184,338,381
Sprite,Background,Centre,"SB\DIV\pixel.png",0,0 L,77505,3 R,19,0,272,0,0.8947003 S,0,76415,,8 F,19,76415,78596,0.5 M,19,76480,77505,338,381,435.1063,495.3257 M,18,78051,78596,435.1063,495.3257,338,381
Sprite,Background,Centre,"SB\DIV\pixel.png",0,0 L,77505,3 R,19,0,272,0,1.420838 S,0,76415,,13 F,19,76415,78596,0.5 M,19,76458,77505,338,381,386.6379,239.1044 M,18,78051,78596,386.6379,239.1044,338,381
Sprite,Background,Centre,"SB\DIV\pixel.png",0,0 L,77505,3 R,19,0,272,0,2.446637 S,0,76415,,5 F,19,76415,78596,0.5 M,19,76488,77505,338,381,478.0343,327.2375 M,18,78051,78596,478.0343,327.2375,338,381
Sprite,Background,Centre,"SB\DIV\pixel.png",0,0 L,77505,3 R,19,0,272,0,1.297853 S,0,76415,,18 F,19,76415,78596,0.5 M,19,76441,77505,338,381,462.175,465.1462 M,18,78051,78596,462.175,465.1462,338,381
Sprite,Background,Centre,"SB\DIV\pixel.png",0,0 L,77505,3 R,19,0,272,0,1.045851 S,0,76415,,5 F,19,76415,78596,0.5 M,19,76461,77505,338,381,484.6122,412.6994 M,18,78051,78596,484.6122,412.6994,338,381
Sprite,Background,Centre,"SB\DIV\pixel.png",0,0 L,77505,3 R,19,0,272,0,0.07720734 S,0,76415,,15 F,19,76415,78596,0.5 M,19,76457,77505,338,381,475.2288,441.5662 M,18,78051,78596,475.2288,441.5662,338,381
Sprite,Background,Centre,"SB\DIV\pixel.png",0,0 L,77505,3 R,19,0,272,0,2.032837 S,0,76415,,8 F,19,76415,78596,0.5 M,19,76492,77505,338,381,480.8736,426.6851 M,18,78051,78596,480.8736,426.6851,338,381
Sprite,Background,Centre,"SB\DIV\pixel.png",0,0 L,77505,3 R,19,0,272,0,2.615967 S,0,76415,,8 F,19,76415,78596,0.5 M,19,76447,77505,338,381,432.1913,497.739 M,18,78051,78596,432.1913,497.739,338,381
Sprite,Background,Centre,"SB\DIV\pixel.png",0,0 L,77505,3 R,19,0,272,0,2.589303 S,0,76415,,14 F,19,76415,78596,0.5 M,19,76417,77505,338,381,485.416,408.722 M,18,78051,78596,485.416,408.722,338,381
Sprite,Background,Centre,"SB\DIV\pixel.png",0,0 L,77505,3 R,19,0,272,0,1.443653 S,0,76415,,9 F,19,76415,78596,0.5 M,19,76457,77505,338,381,469.3484,453.4404 M,18,78051,78596,469.3484,453.4404,338,381
Sprite,Background,Centre,"SB\DIV\pixel.png",0,0 L,79686,3 R,19,0,272,0,0.684746 S,0,78596,,13 F,19,78596,80777,0.5 M,19,78637,79686,442,313,367.7807,443.3514 M,18,80232,80777,367.7807,443.3514,442,313
Sprite,Background,Centre,"SB\DIV\pixel.png",0,0 L,79686,3 R,19,0,272,0,0.8906925 S,0,78596,,2 F,19,78596,80777,0.5 M,19,78641,79686,442,313,370.9756,180.8806 M,18,80232,80777,370.9756,180.8806,442,313
Sprite,Background,Centre,"SB\DIV\pixel.png",0,0 L,79686,3 R,19,0,272,0,3.014979 S,0,78596,,12 F,19,78596,80777,0.5 M,19,78662,79686,442,313,332.3805,415.3893 M,18,80232,80777,332.3805,415.3893,442,313
Sprite,Background,Centre,"SB\DIV\pixel.png",0,0 L,79686,3 R,19,0,272,0,2.723462 S,0,78596,,11 F,19,78596,80777,0.5 M,19,78631,79686,442,313,513.6808,444.7644 M,18,80232,80777,513.6808,444.7644,442,313
Sprite,Background,Centre,"SB\DIV\pixel.png",0,0 L,79686,3 R,19,0,272,0,1.38448 S,0,78596,,3 F,19,78596,80777,0.5 M,19,78689,79686,442,313,457.6418,163.8178 M,18,80232,80777,457.6418,163.8178,442,313
Sprite,Background,Centre,"SB\DIV\pixel.png",0,0 L,79686,3 R,19,0,272,0,0.2915173 S,0,78596,,8 F,19,78596,80777,0.5 M,19,78671,79686,442,313,591.7711,321.284 M,18,80232,80777,591.7711,321.284,442,313
Sprite,Background,Centre,"SB\DIV\pixel.png",0,0 L,79686,3 R,19,0,272,0,2.645358 S,0,78596,,7 M,19,78596,79686,442,313,348.1002,196.0264 F,19,78596,80777,0.5 M,18,80232,80777,348.1002,196.0264,442,313
Sprite,Background,Centre,"SB\DIV\pixel.png",0,0 L,79686,3 R,19,0,272,0,1.163048 S,0,78596,,5 F,19,78596,80777,0.5 M,19,78609,79686,442,313,342.3476,200.8867 M,18,80232,80777,342.3476,200.8867,442,313
Sprite,Background,Centre,"SB\DIV\pixel.png",0,0 L,79686,3 R,19,0,272,0,0.09558966 S,0,78596,,2 F,19,78596,80777,0.5 M,19,78628,79686,442,313,388.3488,172.923 M,18,80232,80777,388.3488,172.923,442,313
Sprite,Background,Centre,"SB\DIV\pixel.png",0,0 L,79686,3 R,19,0,272,0,1.42021 S,0,78596,,15 F,19,78596,80777,0.5 M,19,78638,79686,442,313,343.6028,426.2166 M,18,80232,80777,343.6028,426.2166,442,313
Sprite,Background,Centre,"SB\DIV\pixel.png",0,0 L,79686,3 R,19,0,272,0,1.71718 S,0,78596,,11 F,19,78596,80777,0.5 M,19,78685,79686,442,313,419.6578,164.6732 M,18,80232,80777,419.6578,164.6732,442,313
Sprite,Background,Centre,"SB\DIV\pixel.png",0,0 L,79686,3 R,19,0,272,0,2.2328 S,0,78596,,5 F,19,78596,80777,0.5 M,19,78629,79686,442,313,320.5495,401.0328 M,18,80232,80777,320.5495,401.0328,442,313
Sprite,Background,Centre,"SB\DIV\pixel.png",0,0 L,79686,3 R,19,0,272,0,1.138687 S,0,78596,,18 F,19,78596,80777,0.5 M,19,78602,79686,442,313,573.8644,241.5033 M,18,80232,80777,573.8644,241.5033,442,313
Sprite,Background,Centre,"SB\DIV\pixel.png",0,0 L,79686,3 R,19,0,272,0,2.511727 S,0,78596,,15 F,19,78596,80777,0.5 M,19,78632,79686,442,313,335.0421,418.1665 M,18,80232,80777,335.0421,418.1665,442,313
Sprite,Background,Centre,"SB\DIV\pixel.png",0,0 L,79686,3 R,19,0,272,0,1.968261 S,0,78596,,4 F,19,78596,80777,0.5 M,19,78614,79686,442,313,588.6335,344.601 M,18,80232,80777,588.6335,344.601,442,313
Sprite,Background,Centre,"SB\DIV\pixel.png",0,0 L,79686,3 R,19,0,272,0,2.666249 S,0,78596,,2 F,19,78596,80777,0.5 M,19,78684,79686,442,313,302.1409,367.2165 M,18,80232,80777,302.1409,367.2165,442,313
Sprite,Background,Centre,"SB\DIV\pixel.png",0,0 L,79686,3 R,19,0,272,0,0.07346681 S,0,78596,,18 F,19,78596,80777,0.5 M,19,78695,79686,442,313,310.1872,241.4082 M,18,80232,80777,310.1872,241.4082,442,313
Sprite,Background,Centre,"SB\DIV\pixel.png",0,0 L,79686,3 R,19,0,272,0,1.338752 S,0,78596,,15 F,19,78596,80777,0.5 M,19,78641,79686,442,313,437.9756,163.054 M,18,80232,80777,437.9756,163.054,442,313
Sprite,Background,Centre,"SB\DIV\pixel.png",0,0 L,79686,3 R,19,0,272,0,0.3208865 S,0,78596,,10 F,19,78596,80777,0.5 M,19,78690,79686,442,313,395.336,455.5569 M,18,80232,80777,395.336,455.5569,442,313
Sprite,Background,Centre,"SB\DIV\pixel.png",0,0 L,79686,3 R,19,0,272,0,2.734794 S,0,78596,,14 F,19,78596,80777,0.5 M,19,78637,79686,442,313,333.9576,208.9479 M,18,80232,80777,333.9576,208.9479,442,313
Sprite,Background,Centre,"SB\DIV\pixel.png",0,0 L,79686,3 R,19,0,272,0,2.244 S,0,78596,,19 F,19,78596,80777,0.5 M,19,78663,79686,442,313,591.9683,316.0847 M,18,80232,80777,591.9683,316.0847,442,313
Sprite,Background,Centre,"SB\DIV\pixel.png",0,0 L,79686,3 R,19,0,272,0,1.022421 S,0,78596,,18 F,19,78596,80777,0.5 M,19,78669,79686,442,313,296.6101,276.0978 M,18,80232,80777,296.6101,276.0978,442,313
Sprite,Background,Centre,"SB\DIV\pixel.png",0,0 L,79686,3 R,19,0,272,0,1.782401 S,0,78596,,8 F,19,78596,80777,0.5 M,19,78624,79686,442,313,293.095,294.9086 M,18,80232,80777,293.095,294.9086,442,313
Sprite,Background,Centre,"SB\DIV\pixel.png",0,0 L,79686,3 R,19,0,272,0,0.5265311 S,0,78596,,17 F,19,78596,80777,0.5 M,19,78610,79686,442,313,576.2983,246.1871 M,18,80232,80777,576.2983,246.1871,442,313
Sprite,Background,Centre,"SB\DIV\pixel.png",0,0 L,79686,3 R,19,0,272,0,0.1240742 S,0,78596,,7 F,19,78596,80777,0.5 M,19,78656,79686,442,313,574.9626,243.5669 M,18,80232,80777,574.9626,243.5669,442,313
Sprite,Background,Centre,"SB\DIV\pixel.png",0,0 L,79686,3 R,19,0,272,0,0.9646435 S,0,78596,,2 F,19,78596,80777,0.5 M,19,78669,79686,442,313,568.5477,393.5338 M,18,80232,80777,568.5477,393.5338,442,313
Sprite,Background,Centre,"SB\DIV\pixel.png",0,0 L,79686,3 R,19,0,272,0,1.988746 S,0,78596,,5 F,19,78596,80777,0.5 M,19,78615,79686,442,313,590.0728,336.9679 M,18,80232,80777,590.0728,336.9679,442,313
Sprite,Background,Centre,"SB\DIV\pixel.png",0,0 L,79686,3 R,19,0,272,0,3.103141 S,0,78596,,5 F,19,78596,80777,0.5 M,19,78599,79686,442,313,565.0084,227.1574 M,18,80232,80777,565.0084,227.1574,442,313
Sprite,Background,Centre,"SB\DIV\pixel.png",0,0 L,79686,3 R,19,0,272,0,1.418035 S,0,78596,,9 F,19,78596,80777,0.5 M,19,78648,79686,442,313,591.8901,318.7407 M,18,80232,80777,591.8901,318.7407,442,313
Sprite,Background,Centre,"SB\DIV\pixel.png",0,0 L,79686,3 R,19,0,272,0,1.298298 S,0,78596,,18 F,19,78596,80777,0.5 M,19,78655,79686,442,313,591.1642,328.8122 M,18,80232,80777,591.1642,328.8122,442,313
Sprite,Background,Centre,"SB\DIV\pixel.png",0,0 L,79686,3 R,19,0,272,0,1.433591 S,0,78596,,11 F,19,78596,80777,0.5 M,19,78648,79686,442,313,293.1193,331.2901 M,18,80232,80777,293.1193,331.2901,442,313
Sprite,Background,Centre,"SB\DIV\pixel.png",0,0 L,79686,3 R,19,0,272,0,0.8697667 S,0,78596,,18 F,19,78596,80777,0.5 M,19,78630,79686,442,313,319.9913,400.2575 M,18,80232,80777,319.9913,400.2575,442,313
Sprite,Background,Centre,"SB\DIV\pixel.png",0,0 L,79686,3 R,19,0,272,0,2.281751 S,0,78596,,13 F,19,78596,80777,0.5 M,19,78664,79686,442,313,496.8304,173.3804 M,18,80232,80777,496.8304,173.3804,442,313
Sprite,Background,Centre,"SB\DIV\pixel.png",0,0 L,79686,3 R,19,0,272,0,1.342285 S,0,78596,,14 F,19,78596,80777,0.5 M,19,78606,79686,442,313,372.1276,445.7322 M,18,80232,80777,372.1276,445.7322,442,313
Sprite,Background,Centre,"SB\DIV\pixel.png",0,0 L,79686,3 R,19,0,272,0,1.609455 S,0,78596,,18 F,19,78596,80777,0.5 M,19,78688,79686,442,313,556.8474,216.5113 M,18,80232,80777,556.8474,216.5113,442,313
Sprite,Background,Centre,"SB\DIV\pixel.png",0,0 L,79686,3 R,19,0,272,0,2.509263 S,0,78596,,17 F,19,78596,80777,0.5 M,19,78612,79686,442,313,323.4209,404.864 M,18,80232,80777,323.4209,404.864,442,313
Sprite,Background,Centre,"SB\DIV\pixel.png",0,0 L,79686,3 R,19,0,272,0,2.871797 S,0,78596,,13 F,19,78596,80777,0.5 M,19,78680,79686,442,313,292.2259,321.2286 M,18,80232,80777,292.2259,321.2286,442,313
Sprite,Background,Centre,"SB\DIV\pixel.png",0,0 L,79686,3 R,19,0,272,0,1.070618 S,0,78596,,15 F,19,78596,80777,0.5 M,19,78663,79686,442,313,292.0376,316.3588 M,18,80232,80777,292.0376,316.3588,442,313
Sprite,Background,Centre,"SB\DIV\pixel.png",0,0 L,79686,3 R,19,0,272,0,0.1330036 S,0,78596,,18 F,19,78596,80777,0.5 M,19,78608,79686,442,313,300.6072,262.9193 M,18,80232,80777,300.6072,262.9193,442,313
Sprite,Background,Centre,"SB\DIV\pixel.png",0,0 L,79686,3 R,19,0,272,0,1.577555 S,0,78596,,14 F,19,78596,80777,0.5 M,19,78687,79686,442,313,377.0322,448.2005 M,18,80232,80777,377.0322,448.2005,442,313
Sprite,Background,Centre,"SB\DIV\pixel.png",0,0 L,81868,3 R,19,0,272,0,1.971066 S,0,80778,,10 F,19,80778,82959,0.5 M,19,80866,81868,237,277,365.2518,199.2088 M,18,82414,82959,365.2518,199.2088,237,277
Sprite,Background,Centre,"SB\DIV\pixel.png",0,0 L,81868,3 R,19,0,272,0,0.151529 S,0,80778,,2 F,19,80778,82959,0.5 M,19,80841,81868,237,277,95.27598,227.8645 M,18,82414,82959,95.27598,227.8645,237,277
Sprite,Background,Centre,"SB\DIV\pixel.png",0,0 L,81868,3 R,19,0,272,0,2.689931 S,0,80778,,4 F,19,80778,82959,0.5 M,19,80825,81868,237,277,253.7616,426.0605 M,18,82414,82959,253.7616,426.0605,237,277
Sprite,Background,Centre,"SB\DIV\pixel.png",0,0 L,81868,3 R,19,0,272,0,1.909166 S,0,80778,,14 F,19,80778,82959,0.5 M,19,80782,81868,237,277,384.1342,247.8192 M,18,82414,82959,384.1342,247.8192,237,277
Sprite,Background,Centre,"SB\DIV\pixel.png",0,0 L,81868,3 R,19,0,272,0,2.162546 S,0,80778,,8 F,19,80778,82959,0.5 M,19,80815,81868,237,277,153.6318,152.3014 M,18,82414,82959,153.6318,152.3014,237,277
Sprite,Background,Centre,"SB\DIV\pixel.png",0,0 L,81868,3 R,19,0,272,0,2.094085 S,0,80778,,17 F,19,80778,82959,0.5 M,19,80877,81868,237,277,254.1379,127.9822 M,18,82414,82959,254.1379,127.9822,237,277
Sprite,Background,Centre,"SB\DIV\pixel.png",0,0 L,81868,3 R,19,0,272,0,2.780535 S,0,80778,,8 F,19,80778,82959,0.5 M,19,80824,81868,237,277,87.72382,291.7181 M,18,82414,82959,87.72382,291.7181,237,277
Sprite,Background,Centre,"SB\DIV\pixel.png",0,0 L,81868,3 R,19,0,272,0,1.287985 S,0,80778,,2 F,19,80778,82959,0.5 M,19,80815,81868,237,277,117.8654,185.8576 M,18,82414,82959,117.8654,185.8576,237,277
Sprite,Background,Centre,"SB\DIV\pixel.png",0,0 L,81868,3 R,19,0,272,0,1.393722 S,0,80778,,14 F,19,80778,82959,0.5 M,19,80844,81868,237,277,336.95,165.1519 M,18,82414,82959,336.95,165.1519,237,277
Sprite,Background,Centre,"SB\DIV\pixel.png",0,0 L,81868,3 R,19,0,272,0,1.847813 S,0,80778,,3 M,19,80778,81868,237,277,367.8698,350.3014 F,19,80778,82959,0.5 M,18,82414,82959,367.8698,350.3014,237,277
Sprite,Background,Centre,"SB\DIV\pixel.png",0,0 L,81868,3 R,19,0,272,0,0.155081 S,0,80778,,3 F,19,80778,82959,0.5 M,19,80798,81868,237,277,210.6806,424.6729 M,18,82414,82959,210.6806,424.6729,237,277
Sprite,Background,Centre,"SB\DIV\pixel.png",0,0 L,81868,3 R,19,0,272,0,1.243242 S,0,80778,,15 F,19,80778,82959,0.5 M,19,80829,81868,237,277,90.26575,245.8703 M,18,82414,82959,90.26575,245.8703,237,277
Sprite,Background,Centre,"SB\DIV\pixel.png",0,0 L,81868,3 R,19,0,272,0,3.020432 S,0,80778,,8 F,19,80778,82959,0.5 M,19,80855,81868,237,277,98.54826,219.2842 M,18,82414,82959,98.54826,219.2842,237,277
Sprite,Background,Centre,"SB\DIV\pixel.png",0,0 L,81868,3 R,19,0,272,0,1.095893 S,0,80778,,6 F,19,80778,82959,0.5 M,19,80787,81868,237,277,255.7363,128.1748 M,18,82414,82959,255.7363,128.1748,237,277
Sprite,Background,Centre,"SB\DIV\pixel.png",0,0 L,81868,3 R,19,0,272,0,0.1326506 S,0,80778,,7 F,19,80778,82959,0.5 M,19,80780,81868,237,277,110.4241,196.5107 M,18,82414,82959,110.4241,196.5107,237,277
Sprite,Background,Centre,"SB\DIV\pixel.png",0,0 L,81868,3 R,19,0,272,0,0.5706244 S,0,80778,,18 F,19,80778,82959,0.5 M,19,80848,81868,237,277,386.9005,271.538 M,18,82414,82959,386.9005,271.538,237,277
Sprite,Background,Centre,"SB\DIV\pixel.png",0,0 L,81868,3 R,19,0,272,0,2.480821 S,0,80778,,6 F,19,80778,82959,0.5 M,19,80868,81868,237,277,252.1499,127.767 M,18,82414,82959,252.1499,127.767,237,277
Sprite,Background,Centre,"SB\DIV\pixel.png",0,0 L,81868,3 R,19,0,272,0,1.971754 S,0,80778,,7 F,19,80778,82959,0.5 M,19,80814,81868,237,277,211.6096,424.8355 M,18,82414,82959,211.6096,424.8355,237,277
Sprite,Background,Centre,"SB\DIV\pixel.png",0,0 L,81868,3 R,19,0,272,0,2.117619 S,0,80778,,13 F,19,80778,82959,0.5 M,19,80838,81868,237,277,364.9307,355.3182 M,18,82414,82959,364.9307,355.3182,237,277
Sprite,Background,Centre,"SB\DIV\pixel.png",0,0 L,81868,3 R,19,0,272,0,0.09689131 S,0,80778,,14 F,19,80778,82959,0.5 M,19,80809,81868,237,277,362.5766,359.0397 M,18,82414,82959,362.5766,359.0397,237,277
Sprite,Background,Centre,"SB\DIV\pixel.png",0,0 L,81868,3 R,19,0,272,0,2.318354 S,0,80778,,15 F,19,80778,82959,0.5 M,19,80854,81868,237,277,386.055,260.1887 M,18,82414,82959,386.055,260.1887,237,277
Sprite,Background,Centre,"SB\DIV\pixel.png",0,0 L,81868,3 R,19,0,272,0,1.453442 S,0,80778,,3 F,19,80778,82959,0.5 M,19,80869,81868,237,277,237.9281,426.9971 M,18,82414,82959,237.9281,426.9971,237,277
Sprite,Background,Centre,"SB\DIV\pixel.png",0,0 L,81868,3 R,19,0,272,0,0.7707031 S,0,80778,,12 F,19,80778,82959,0.5 M,19,80836,81868,237,277,308.1986,144.9744 M,18,82414,82959,308.1986,144.9744,237,277
Sprite,Background,Centre,"SB\DIV\pixel.png",0,0 L,81868,3 R,19,0,272,0,0.4797365 S,0,80778,,11 F,19,80778,82959,0.5 M,19,80828,81868,237,277,151.5596,153.712 M,18,82414,82959,151.5596,153.712,237,277
Sprite,Background,Centre,"SB\DIV\pixel.png",0,0 L,81868,3 R,19,0,272,0,1.177176 S,0,80778,,12 F,19,80778,82959,0.5 M,19,80855,81868,237,277,112.021,359.9472 M,18,82414,82959,112.021,359.9472,237,277
Sprite,Background,Centre,"SB\DIV\pixel.png",0,0 L,81868,3 R,19,0,272,0,0.1244115 S,0,80778,,13 F,19,80778,82959,0.5 M,19,80819,81868,237,277,386.3443,262.9905 M,18,82414,82959,386.3443,262.9905,237,277
Sprite,Background,Centre,"SB\DIV\pixel.png",0,0 L,81868,3 R,19,0,272,0,1.397515 S,0,80778,,18 F,19,80778,82959,0.5 M,19,80877,81868,237,277,168.5128,143.5478 M,18,82414,82959,168.5128,143.5478,237,277
Sprite,Background,Centre,"SB\DIV\pixel.png",0,0 L,81868,3 R,19,0,272,0,1.579959 S,0,80778,,11 F,19,80778,82959,0.5 M,19,80795,81868,237,277,386.9793,274.5067 M,18,82414,82959,386.9793,274.5067,237,277
Sprite,Background,Centre,"SB\DIV\pixel.png",0,0 L,81868,3 R,19,0,272,0,1.144762 S,0,80778,,17 F,19,80778,82959,0.5 M,19,80808,81868,237,277,139.0434,390.598 M,18,82414,82959,139.0434,390.598,237,277
Sprite,Background,Centre,"SB\DIV\pixel.png",0,0 L,81868,3 R,19,0,272,0,2.212441 S,0,80778,,8 F,19,80778,82959,0.5 M,19,80779,81868,237,277,87.01061,278.7843 M,18,82414,82959,87.01061,278.7843,237,277
Sprite,Background,Centre,"SB\DIV\pixel.png",0,0 L,81868,3 R,19,0,272,0,2.812095 S,0,80778,,12 F,19,80778,82959,0.5 M,19,80854,81868,237,277,108.5454,199.5441 M,18,82414,82959,108.5454,199.5441,237,277
Sprite,Background,Centre,"SB\DIV\pixel.png",0,0 L,81868,3 R,19,0,272,0,3.063563 S,0,80778,,8 F,19,80778,82959,0.5 M,19,80794,81868,237,277,276.6638,421.6609 M,18,82414,82959,276.6638,421.6609,237,277
Sprite,Background,Centre,"SB\DIV\pixel.png",0,0 L,81868,3 R,19,0,272,0,3.04115 S,0,80778,,2 F,19,80778,82959,0.5 M,19,80807,81868,237,277,316.0888,149.5443 M,18,82414,82959,316.0888,149.5443,237,277
Sprite,Background,Centre,"SB\DIV\pixel.png",0,0 L,81868,3 R,19,0,272,0,0.2420085 S,0,80778,,4 F,19,80778,82959,0.5 M,19,80847,81868,237,277,315.8719,149.4099 M,18,82414,82959,315.8719,149.4099,237,277
Sprite,Background,Centre,"SB\DIV\pixel.png",0,0 L,81868,3 R,19,0,272,0,1.862938 S,0,80778,,2 F,19,80778,82959,0.5 M,19,80875,81868,237,277,88.65344,299.2103 M,18,82414,82959,88.65344,299.2103,237,277
Sprite,Background,Centre,"SB\DIV\pixel.png",0,0 L,81868,3 R,19,0,272,0,0.7203478 S,0,80778,,6 F,19,80778,82959,0.5 M,19,80869,81868,237,277,358.1341,365.4677 M,18,82414,82959,358.1341,365.4677,237,277
Sprite,Background,Centre,"SB\DIV\pixel.png",0,0 L,81868,3 R,19,0,272,0,2.169356 S,0,80778,,18 F,19,80778,82959,0.5 M,19,80781,81868,237,277,384.7028,250.849 M,18,82414,82959,384.7028,250.849,237,277
Sprite,Background,Centre,"SB\DIV\pixel.png",0,0 L,81868,3 R,19,0,272,0,0.3606395 S,0,80778,,2 F,19,80778,82959,0.5 M,19,80820,81868,237,277,362.3912,194.6772 M,18,82414,82959,362.3912,194.6772,237,277
Sprite,Background,Centre,"SB\DIV\pixel.png",0,0 L,81868,3 R,19,0,272,0,0.6323313 S,0,80778,,11 F,19,80778,82959,0.5 M,19,80859,81868,237,277,312.83,147.5789 M,18,82414,82959,312.83,147.5789,237,277
Sprite,Background,Centre,"SB\DIV\pixel.png",0,0 L,81868,3 R,19,0,272,0,2.43689 S,0,80778,,18 F,19,80778,82959,0.5 M,19,80806,81868,237,277,373.1817,339.8852 M,18,82414,82959,373.1817,339.8852,237,277
Sprite,Background,Centre,"SB\DIV\pixel.png",0,0 L,84050,3 R,19,0,272,0,2.298951 S,0,82960,,7 F,19,82960,85141,0.5 M,19,83046,84050,332,306,382.9234,164.9085 M,18,84596,85141,382.9234,164.9085,332,306
Sprite,Background,Centre,"SB\DIV\pixel.png",0,0 L,84050,3 R,19,0,272,0,0.3853099 S,0,82960,,19 F,19,82960,85141,0.5 M,19,83031,84050,332,306,216.9563,209.7454 M,18,84596,85141,216.9563,209.7454,332,306
Sprite,Background,Centre,"SB\DIV\pixel.png",0,0 L,84050,3 R,19,0,272,0,2.232028 S,0,82960,,4 F,19,82960,85141,0.5 M,19,83052,84050,332,306,290.6346,450.1836 M,18,84596,85141,290.6346,450.1836,332,306
Sprite,Background,Centre,"SB\DIV\pixel.png",0,0 L,84050,3 R,19,0,272,0,0.1877744 S,0,82960,,7 F,19,82960,85141,0.5 M,19,82997,84050,332,306,379.1343,163.5979 M,18,84596,85141,379.1343,163.5979,332,306
Sprite,Background,Centre,"SB\DIV\pixel.png",0,0 L,84050,3 R,19,0,272,0,0.3649079 S,0,82960,,2 F,19,82960,85141,0.5 M,19,83029,84050,332,306,205.9693,387.3405 M,18,84596,85141,205.9693,387.3405,332,306
Sprite,Background,Centre,"SB\DIV\pixel.png",0,0 L,84050,3 R,19,0,272,0,2.738427 S,0,82960,,17 F,19,82960,85141,0.5 M,19,83002,84050,332,306,248.899,181.1232 M,18,84596,85141,248.899,181.1232,332,306
Sprite,Background,Centre,"SB\DIV\pixel.png",0,0 L,84050,3 R,19,0,272,0,2.896549 S,0,82960,,10 F,19,82960,85141,0.5 M,19,82961,84050,332,306,388.3354,166.9808 M,18,84596,85141,388.3354,166.9808,332,306
Sprite,Background,Centre,"SB\DIV\pixel.png",0,0 L,84050,3 R,19,0,272,0,2.569196 S,0,82960,,5 F,19,82960,85141,0.5 M,19,83034,84050,332,306,449.7729,398.8954 M,18,84596,85141,449.7729,398.8954,332,306
Sprite,Background,Centre,"SB\DIV\pixel.png",0,0 L,84050,3 R,19,0,272,0,2.780753 S,0,82960,,17 F,19,82960,85141,0.5 M,19,83006,84050,332,306,386.962,445.5678 M,18,84596,85141,386.962,445.5678,332,306
Sprite,Background,Centre,"SB\DIV\pixel.png",0,0 L,84050,3 R,19,0,272,0,2.738678 S,0,82960,,17 F,19,82960,85141,0.5 M,19,83029,84050,332,306,459.9974,227.7909 M,18,84596,85141,459.9974,227.7909,332,306
Sprite,Background,Centre,"SB\DIV\pixel.png",0,0 L,84050,3 R,19,0,272,0,0.2969505 S,0,82960,,17 F,19,82960,85141,0.5 M,19,83056,84050,332,306,276.4471,166.6663 M,18,84596,85141,276.4471,166.6663,332,306
Sprite,Background,Centre,"SB\DIV\pixel.png",0,0 L,84050,3 R,19,0,272,0,1.865063 S,0,82960,,5 F,19,82960,85141,0.5 M,19,83043,84050,332,306,445.5248,404.0414 M,18,84596,85141,445.5248,404.0414,332,306
Sprite,Background,Centre,"SB\DIV\pixel.png",0,0 L,84050,3 R,19,0,272,0,1.316418 S,0,82960,,3 F,19,82960,85141,0.5 M,19,83046,84050,332,306,386.7658,445.6449 M,18,84596,85141,386.7658,445.6449,332,306
Sprite,Background,Centre,"SB\DIV\pixel.png",0,0 L,84050,3 R,19,0,272,0,0.7882825 S,0,82960,,5 F,19,82960,85141,0.5 M,19,83005,84050,332,306,308.2841,454.1133 M,18,84596,85141,308.2841,454.1133,332,306
Sprite,Background,Centre,"SB\DIV\pixel.png",0,0 L,84050,3 R,19,0,272,0,2.395142 S,0,82960,,11 F,19,82960,85141,0.5 M,19,82979,84050,332,306,471.6633,360.719 M,18,84596,85141,471.6633,360.719,332,306
Sprite,Background,Centre,"SB\DIV\pixel.png",0,0 L,84050,3 R,19,0,272,0,1.4129 S,0,82960,,4 F,19,82960,85141,0.5 M,19,83041,84050,332,306,473.9774,257.6016 M,18,84596,85141,473.9774,257.6016,332,306
Sprite,Background,Centre,"SB\DIV\pixel.png",0,0 L,84050,3 R,19,0,272,0,2.988339 S,0,82960,,19 F,19,82960,85141,0.5 M,19,83017,84050,332,306,478.3588,273.1503 M,18,84596,85141,478.3588,273.1503,332,306
Sprite,Background,Centre,"SB\DIV\pixel.png",0,0 L,84050,3 R,19,0,272,0,0.07379384 S,0,82960,,8 F,19,82960,85141,0.5 M,19,82978,84050,332,306,419.3007,184.0222 M,18,84596,85141,419.3007,184.0222,332,306
Sprite,Background,Centre,"SB\DIV\pixel.png",0,0 L,84050,3 R,19,0,272,0,1.890054 S,0,82960,,12 F,19,82960,85141,0.5 M,19,83016,84050,332,306,310.525,454.4548 M,18,84596,85141,310.525,454.4548,332,306
Sprite,Background,Centre,"SB\DIV\pixel.png",0,0 L,84050,3 R,19,0,272,0,1.466381 S,0,82960,,10 F,19,82960,85141,0.5 M,19,82996,84050,332,306,266.8387,441.1074 M,18,84596,85141,266.8387,441.1074,332,306
Sprite,Background,Centre,"SB\DIV\pixel.png",0,0 L,84050,3 R,19,0,272,0,2.037359 S,0,82960,,12 F,19,82960,85141,0.5 M,19,83008,84050,332,306,187.5096,346.2804 M,18,84596,85141,187.5096,346.2804,332,306
Sprite,Background,Centre,"SB\DIV\pixel.png",0,0 L,84050,3 R,19,0,272,0,1.896426 S,0,82960,,3 F,19,82960,85141,0.5 M,19,83005,84050,332,306,182.1146,311.8623 M,18,84596,85141,182.1146,311.8623,332,306
Sprite,Background,Centre,"SB\DIV\pixel.png",0,0 L,84050,3 R,19,0,272,0,1.156933 S,0,82960,,15 F,19,82960,85141,0.5 M,19,83028,84050,332,306,285.4714,448.6012 M,18,84596,85141,285.4714,448.6012,332,306
Sprite,Background,Centre,"SB\DIV\pixel.png",0,0 L,84050,3 R,19,0,272,0,1.272434 S,0,82960,,4 F,19,82960,85141,0.5 M,19,83049,84050,332,306,219.3449,206.9605 M,18,84596,85141,219.3449,206.9605,332,306
Sprite,Background,Centre,"SB\DIV\pixel.png",0,0 L,84050,3 R,19,0,272,0,2.842301 S,0,82960,,5 F,19,82960,85141,0.5 M,19,82968,84050,332,306,458.6252,386.4118 M,18,84596,85141,458.6252,386.4118,332,306
Sprite,Background,Centre,"SB\DIV\pixel.png",0,0 L,84050,3 R,19,0,272,0,2.059442 S,0,82960,,18 F,19,82960,85141,0.5 M,19,83020,84050,332,306,182.013,307.9716 M,18,84596,85141,182.013,307.9716,332,306
Sprite,Background,Centre,"SB\DIV\pixel.png",0,0 L,84050,3 R,19,0,272,0,0.1840846 S,0,82960,,14 F,19,82960,85141,0.5 M,19,82995,84050,332,306,202.0521,231.0763 M,18,84596,85141,202.0521,231.0763,332,306
Sprite,Background,Centre,"SB\DIV\pixel.png",0,0 L,84050,3 R,19,0,272,0,0.2833649 S,0,82960,,7 F,19,82960,85141,0.5 M,19,83058,84050,332,306,183.2692,325.4718 M,18,84596,85141,183.2692,325.4718,332,306
Sprite,Background,Centre,"SB\DIV\pixel.png",0,0 L,84050,3 R,19,0,272,0,0.2283639 S,0,82960,,15 F,19,82960,85141,0.5 M,19,82971,84050,332,306,213.2683,397.6667 M,18,84596,85141,213.2683,397.6667,332,306
Sprite,Background,Centre,"SB\DIV\pixel.png",0,0 L,84050,3 R,19,0,272,0,1.100517 S,0,82960,,5 F,19,82960,85141,0.5 M,19,83043,84050,332,306,203.7044,228.2811 M,18,84596,85141,203.7044,228.2811,332,306
Sprite,Background,Centre,"SB\DIV\pixel.png",0,0 L,84050,3 R,19,0,272,0,2.818799 S,0,82960,,2 F,19,82960,85141,0.5 M,19,82981,84050,332,306,196.4869,370.3133 M,18,84596,85141,196.4869,370.3133,332,306
Sprite,Background,Centre,"SB\DIV\pixel.png",0,0 L,84050,3 R,19,0,272,0,2.193269 S,0,82960,,14 F,19,82960,85141,0.5 M,19,82990,84050,332,306,228.0186,414.1104 M,18,84596,85141,228.0186,414.1104,332,306
Sprite,Background,Centre,"SB\DIV\pixel.png",0,0 L,84050,3 R,19,0,272,0,1.364397 S,0,82960,,9 F,19,82960,85141,0.5 M,19,83014,84050,332,306,446.1603,208.6993 M,18,84596,85141,446.1603,208.6993,332,306
Sprite,Background,Centre,"SB\DIV\pixel.png",0,0 L,84050,3 R,19,0,272,0,1.883663 S,0,82960,,14 M,19,82960,84050,332,306,473.626,256.5826 F,19,82960,85141,0.5 M,18,84596,85141,473.626,256.5826,332,306
Sprite,Background,Centre,"SB\DIV\pixel.png",0,0 L,84050,3 R,19,0,272,0,2.779701 S,0,82960,,2 F,19,82960,85141,0.5 M,19,83016,84050,332,306,231.2227,194.8967 M,18,84596,85141,231.2227,194.8967,332,306
Sprite,Background,Centre,"SB\DIV\pixel.png",0,0 L,84050,3 R,19,0,272,0,2.697822 S,0,82960,,3 F,19,82960,85141,0.5 M,19,82991,84050,332,306,480.3544,283.842 M,18,84596,85141,480.3544,283.842,332,306
Sprite,Background,Centre,"SB\DIV\pixel.png",0,0 L,84050,3 R,19,0,272,0,0.5135306 S,0,82960,,12 F,19,82960,85141,0.5 M,19,82998,84050,332,306,256.9181,176.1435 M,18,84596,85141,256.9181,176.1435,332,306
Sprite,Background,Centre,"SB\DIV\pixel.png",0,0 L,84050,3 R,19,0,272,0,2.379754 S,0,82960,,16 F,19,82960,85141,0.5 M,19,82989,84050,332,306,233.4073,419.0464 M,18,84596,85141,233.4073,419.0464,332,306
Sprite,Background,Centre,"SB\DIV\pixel.png",0,0 L,84050,3 R,19,0,272,0,2.284207 S,0,82960,,13 F,19,82960,85141,0.5 M,19,82989,84050,332,306,398.9861,440.212 M,18,84596,85141,398.9861,440.212,332,306
Sprite,Background,Centre,"SB\DIV\pixel.png",0,0 L,84050,3 R,19,0,272,0,2.215236 S,0,82960,,7 F,19,82960,85141,0.5 M,19,83029,84050,332,306,419.511,184.1729 M,18,84596,85141,419.511,184.1729,332,306
Sprite,Background,Centre,"SB\DIV\pixel.png",0,0 L,86232,3 R,19,0,272,0,1.816688 S,0,85142,,13 F,19,85142,87323,0.5 M,19,85157,86232,83,260,-47.99333,186.9196 M,18,86778,87323,-47.99333,186.9196,83,260
Sprite,Background,Centre,"SB\DIV\pixel.png",0,0 L,86232,3 R,19,0,272,0,2.271689 S,0,85142,,5 F,19,85142,87323,0.5 M,19,85158,86232,83,260,182.6524,147.8867 M,18,86778,87323,182.6524,147.8867,83,260
Sprite,Background,Centre,"SB\DIV\pixel.png",0,0 L,86232,3 R,19,0,272,0,1.050712 S,0,85142,,16 F,19,85142,87323,0.5 M,19,85161,86232,83,260,224.2687,310.4296 M,18,86778,87323,224.2687,310.4296,83,260
Sprite,Background,Centre,"SB\DIV\pixel.png",0,0 L,86232,3 R,19,0,272,0,2.181608 S,0,85142,,6 F,19,85142,87323,0.5 M,19,85240,86232,83,260,-66.97321,257.1652 M,18,86778,87323,-66.97321,257.1652,83,260
Sprite,Background,Centre,"SB\DIV\pixel.png",0,0 L,86232,3 R,19,0,272,0,0.6371642 S,0,85142,,18 F,19,85142,87323,0.5 M,19,85164,86232,83,260,-7.09269,140.0696 M,18,86778,87323,-7.09269,140.0696,83,260
Sprite,Background,Centre,"SB\DIV\pixel.png",0,0 L,86232,3 R,19,0,272,0,0.7924556 S,0,85142,,7 F,19,85142,87323,0.5 M,19,85235,86232,83,260,2.863504,386.7996 M,18,86778,87323,2.863504,386.7996,83,260
Sprite,Background,Centre,"SB\DIV\pixel.png",0,0 L,86232,3 R,19,0,272,0,2.385483 S,0,85142,,9 F,19,85142,87323,0.5 M,19,85240,86232,83,260,56.00821,407.5515 M,18,86778,87323,56.00821,407.5515,83,260
Sprite,Background,Centre,"SB\DIV\pixel.png",0,0 L,86232,3 R,19,0,272,0,0.9554626 S,0,85142,,19 F,19,85142,87323,0.5 M,19,85218,86232,83,260,-66.86275,253.5846 M,18,86778,87323,-66.86275,253.5846,83,260
Sprite,Background,Centre,"SB\DIV\pixel.png",0,0 L,86232,3 R,19,0,272,0,1.359699 S,0,85142,,3 F,19,85142,87323,0.5 M,19,85154,86232,83,260,129.1397,402.7275 M,18,86778,87323,129.1397,402.7275,83,260
Sprite,Background,Centre,"SB\DIV\pixel.png",0,0 L,86232,3 R,19,0,272,0,0.0959441 S,0,85142,,7 F,19,85142,87323,0.5 M,19,85188,86232,83,260,232.1742,244.282 M,18,86778,87323,232.1742,244.282,83,260
Sprite,Background,Centre,"SB\DIV\pixel.png",0,0 L,86232,3 R,19,0,272,0,2.204518 S,0,85142,,13 F,19,85142,87323,0.5 M,19,85186,86232,83,260,178.5388,144.3611 M,18,86778,87323,178.5388,144.3611,83,260
Sprite,Background,Centre,"SB\DIV\pixel.png",0,0 L,86232,3 R,19,0,272,0,3.08679 S,0,85142,,9 F,19,85142,87323,0.5 M,19,85166,86232,83,260,-11.54307,376.4543 M,18,86778,87323,-11.54307,376.4543,83,260
Sprite,Background,Centre,"SB\DIV\pixel.png",0,0 L,86232,3 R,19,0,272,0,1.250639 S,0,85142,,18 F,19,85142,87323,0.5 M,19,85225,86232,83,260,219.4731,197.7497 M,18,86778,87323,219.4731,197.7497,83,260
Sprite,Background,Centre,"SB\DIV\pixel.png",0,0 L,86232,3 R,19,0,272,0,1.733392 S,0,85142,,3 F,19,85142,87323,0.5 M,19,85220,86232,83,260,218.5492,324.2372 M,18,86778,87323,218.5492,324.2372,83,260
Sprite,Background,Centre,"SB\DIV\pixel.png",0,0 L,86232,3 R,19,0,272,0,2.576733 S,0,85142,,19 F,19,85142,87323,0.5 M,19,85143,86232,83,260,73.79431,110.2827 M,18,86778,87323,73.79431,110.2827,83,260
Sprite,Background,Centre,"SB\DIV\pixel.png",0,0 L,86232,3 R,19,0,272,0,2.703697 S,0,85142,,10 F,19,85142,87323,0.5 M,19,85158,86232,83,260,-66.03458,243.0089 M,18,86778,87323,-66.03458,243.0089,83,260
Sprite,Background,Centre,"SB\DIV\pixel.png",0,0 L,86232,3 R,19,0,272,0,0.385457 S,0,85142,,7 F,19,85142,87323,0.5 M,19,85205,86232,83,260,190.3172,155.2001 M,18,86778,87323,190.3172,155.2001,83,260
Sprite,Background,Centre,"SB\DIV\pixel.png",0,0 L,86232,3 R,19,0,272,0,0.9656081 S,0,85142,,14 F,19,85142,87323,0.5 M,19,85176,86232,83,260,158.3512,130.2996 M,18,86778,87323,158.3512,130.2996,83,260
Sprite,Background,Centre,"SB\DIV\pixel.png",0,0 L,86232,3 R,19,0,272,0,2.464599 S,0,85142,,19 F,19,85142,87323,0.5 M,19,85176,86232,83,260,72.51211,409.6329 M,18,86778,87323,72.51211,409.6329,83,260
Sprite,Background,Centre,"SB\DIV\pixel.png",0,0 L,86232,3 R,19,0,272,0,1.215508 S,0,85142,,13 F,19,85142,87323,0.5 M,19,85163,86232,83,260,-15.78877,372.8751 M,18,86778,87323,-15.78877,372.8751,83,260
Sprite,Background,Centre,"SB\DIV\pixel.png",0,0 L,86232,3 R,19,0,272,0,2.641461 S,0,85142,,15 F,19,85142,87323,0.5 M,19,85181,86232,83,260,133.7574,401.1513 M,18,86778,87323,133.7574,401.1513,83,260
Sprite,Background,Centre,"SB\DIV\pixel.png",0,0 L,86232,3 R,19,0,272,0,2.822865 S,0,85142,,16 F,19,85142,87323,0.5 M,19,85191,86232,83,260,170.6805,138.2949 M,18,86778,87323,170.6805,138.2949,83,260
Sprite,Background,Centre,"SB\DIV\pixel.png",0,0 L,86232,3 R,19,0,272,0,1.16281 S,0,85142,,12 F,19,85142,87323,0.5 M,19,85218,86232,83,260,132.7415,401.5125 M,18,86778,87323,132.7415,401.5125,83,260
Sprite,Background,Centre,"SB\DIV\pixel.png",0,0 L,86232,3 R,19,0,272,0,2.931035 S,0,85142,,16 F,19,85142,87323,0.5 M,19,85195,86232,83,260,42.27594,404.366 M,18,86778,87323,42.27594,404.366,83,260
Sprite,Background,Centre,"SB\DIV\pixel.png",0,0 L,86232,3 R,19,0,272,0,0.4008399 S,0,85142,,15 F,19,85142,87323,0.5 M,19,85150,86232,83,260,59.5968,111.8369 M,18,86778,87323,59.5968,111.8369,83,260
Sprite,Background,Centre,"SB\DIV\pixel.png",0,0 L,86232,3 R,19,0,272,0,2.757885 S,0,85142,,4 F,19,85142,87323,0.5 M,19,85143,86232,83,260,-36.38543,350.8137 M,18,86778,87323,-36.38543,350.8137,83,260
Sprite,Background,Centre,"SB\DIV\pixel.png",0,0 L,86232,3 R,19,0,272,0,1.849913 S,0,85142,,3 F,19,85142,87323,0.5 M,19,85192,86232,83,260,31.17917,400.7643 M,18,86778,87323,31.17917,400.7643,83,260
Sprite,Background,Centre,"SB\DIV\pixel.png",0,0 L,86232,3 R,19,0,272,0,2.303948 S,0,85142,,10 F,19,85142,87323,0.5 M,19,85231,86232,83,260,-66.33327,274.1271 M,18,86778,87323,-66.33327,274.1271,83,260
Sprite,Background,Centre,"SB\DIV\pixel.png",0,0 L,86232,3 R,19,0,272,0,1.173289 S,0,85142,,16 F,19,85142,87323,0.5 M,19,85194,86232,83,260,4.887627,388.0565 M,18,86778,87323,4.887627,388.0565,83,260
Sprite,Background,Centre,"SB\DIV\pixel.png",0,0 L,86232,3 R,19,0,272,0,0.445377 S,0,85142,,13 F,19,85142,87323,0.5 M,19,85220,86232,83,260,-66.96863,263.0677 M,18,86778,87323,-66.96863,263.0677,83,260
Sprite,Background,Centre,"SB\DIV\pixel.png",0,0 L,86232,3 R,19,0,272,0,0.5490702 S,0,85142,,15 F,19,85142,87323,0.5 M,19,85183,86232,83,260,152.0764,126.8518 M,18,86778,87323,152.0764,126.8518,83,260
Sprite,Background,Centre,"SB\DIV\pixel.png",0,0 L,86232,3 R,19,0,272,0,2.865772 S,0,85142,,13 F,19,85142,87323,0.5 M,19,85204,86232,83,260,198.6334,355.5454 M,18,86778,87323,198.6334,355.5454,83,260
Sprite,Background,Centre,"SB\DIV\pixel.png",0,0 L,86232,3 R,19,0,272,0,1.444491 S,0,85142,,18 F,19,85142,87323,0.5 M,19,85175,86232,83,260,159.3394,130.8787 M,18,86778,87323,159.3394,130.8787,83,260
Sprite,Background,Centre,"SB\DIV\pixel.png",0,0 L,86232,3 R,19,0,272,0,2.993221 S,0,85142,,19 F,19,85142,87323,0.5 M,19,85209,86232,83,260,33.00482,118.5769 M,18,86778,87323,33.00482,118.5769,83,260
Sprite,Background,Centre,"SB\DIV\pixel.png",0,0 L,86232,3 R,19,0,272,0,0.9965948 S,0,85142,,3 F,19,85142,87323,0.5 M,19,85150,86232,83,260,-38.07206,348.5526 M,18,86778,87323,-38.07206,348.5526,83,260
Sprite,Background,Centre,"SB\DIV\pixel.png",0,0 L,86232,3 R,19,0,272,0,2.826274 S,0,85142,,9 F,19,85142,87323,0.5 M,19,85170,86232,83,260,130.903,402.1454 M,18,86778,87323,130.903,402.1454,83,260
Sprite,Background,Centre,"SB\DIV\pixel.png",0,0 L,86232,3 R,19,0,272,0,0.7203141 S,0,85142,,2 F,19,85142,87323,0.5 M,19,85180,86232,83,260,-31.84018,163.5027 M,18,86778,87323,-31.84018,163.5027,83,260
Sprite,Background,Centre,"SB\DIV\pixel.png",0,0 L,86232,3 R,19,0,272,0,0.1324007 S,0,85142,,18 F,19,85142,87323,0.5 M,19,85219,86232,83,260,197.9662,163.6529 M,18,86778,87323,197.9662,163.6529,83,260
Sprite,Background,Centre,"SB\DIV\pixel.png",0,0 L,86232,3 R,19,0,272,0,2.326493 S,0,85142,,11 F,19,85142,87323,0.5 M,19,85169,86232,83,260,176.1514,142.4295 M,18,86778,87323,176.1514,142.4295,83,260
Sprite,Background,Centre,"SB\DIV\pixel.png",0,0 L,86232,3 R,19,0,272,0,2.342738 S,0,85142,,8 F,19,85142,87323,0.5 M,19,85200,86232,83,260,232.9395,264.2585 M,18,86778,87323,232.9395,264.2585,83,260
Sprite,Background,Centre,"SB\DIV\pixel.png",0,0 L,88414,3 R,19,0,272,0,3.091384 S,0,87324,,14 F,19,87324,89505,0.5 M,19,87405,88414,321,171,390.5426,38.09466 M,18,88960,89505,390.5426,38.09466,321,171
Sprite,Background,Centre,"SB\DIV\pixel.png",0,0 L,88414,3 R,19,0,272,0,0.9418951 S,0,87324,,9 F,19,87324,89505,0.5 M,19,87359,88414,321,171,315.9708,21.08434 M,18,88960,89505,315.9708,21.08434,321,171
Sprite,Background,Centre,"SB\DIV\pixel.png",0,0 L,88414,3 R,19,0,272,0,1.50906 S,0,87324,,14 F,19,87324,89505,0.5 M,19,87347,88414,321,171,392.6711,39.23027 M,18,88960,89505,392.6711,39.23027,321,171
Sprite,Background,Centre,"SB\DIV\pixel.png",0,0 L,88414,3 R,19,0,272,0,2.661595 S,0,87324,,14 F,19,87324,89505,0.5 M,19,87355,88414,321,171,179.3595,220.3758 M,18,88960,89505,179.3595,220.3758,321,171
Sprite,Background,Centre,"SB\DIV\pixel.png",0,0 L,88414,3 R,19,0,272,0,2.02732 S,0,87324,,18 F,19,87324,89505,0.5 M,19,87399,88414,321,171,454.5214,102.6477 M,18,88960,89505,454.5214,102.6477,321,171
Sprite,Background,Centre,"SB\DIV\pixel.png",0,0 L,88414,3 R,19,0,272,0,1.685319 S,0,87324,,7 F,19,87324,89505,0.5 M,19,87377,88414,321,171,429.3681,274.7129 M,18,88960,89505,429.3681,274.7129,321,171
Sprite,Background,Centre,"SB\DIV\pixel.png",0,0 L,88414,3 R,19,0,272,0,1.154815 S,0,87324,,13 F,19,87324,89505,0.5 M,19,87417,88414,321,171,206.7401,73.8163 M,18,88960,89505,206.7401,73.8163,321,171
Sprite,Background,Centre,"SB\DIV\pixel.png",0,0 L,88414,3 R,19,0,272,0,3.079386 S,0,87324,,2 F,19,87324,89505,0.5 M,19,87395,88414,321,171,363.3353,27.09823 M,18,88960,89505,363.3353,27.09823,321,171
Sprite,Background,Centre,"SB\DIV\pixel.png",0,0 L,88414,3 R,19,0,272,0,2.179356 S,0,87324,,13 F,19,87324,89505,0.5 M,19,87359,88414,321,171,174.259,139.9019 M,18,88960,89505,174.259,139.9019,321,171
Sprite,Background,Centre,"SB\DIV\pixel.png",0,0 L,88414,3 R,19,0,272,0,1.127653 S,0,87324,,3 F,19,87324,89505,0.5 M,19,87380,88414,321,171,210.6085,69.44358 M,18,88960,89505,210.6085,69.44358,321,171
Sprite,Background,Centre,"SB\DIV\pixel.png",0,0 L,88414,3 R,19,0,272,0,0.02183865 S,0,87324,,10 F,19,87324,89505,0.5 M,19,87411,88414,321,171,269.3321,30.17945 M,18,88960,89505,269.3321,30.17945,321,171
Sprite,Background,Centre,"SB\DIV\pixel.png",0,0 L,88414,3 R,19,0,272,0,2.145414 S,0,87324,,2 F,19,87324,89505,0.5 M,19,87412,88414,321,171,454.0898,240.1888 M,18,88960,89505,454.0898,240.1888,321,171
Sprite,Background,Centre,"SB\DIV\pixel.png",0,0 L,88414,3 R,19,0,272,0,1.348917 S,0,87324,,17 F,19,87324,89505,0.5 M,19,87327,88414,321,171,360.3911,315.7354 M,18,88960,89505,360.3911,315.7354,321,171
Sprite,Background,Centre,"SB\DIV\pixel.png",0,0 L,88414,3 R,19,0,272,0,2.749579 S,0,87324,,8 F,19,87324,89505,0.5 M,19,87383,88414,321,171,438.5921,77.87595 M,18,88960,89505,438.5921,77.87595,321,171
Sprite,Background,Centre,"SB\DIV\pixel.png",0,0 L,88414,3 R,19,0,272,0,3.076534 S,0,87324,,15 F,19,87324,89505,0.5 M,19,87351,88414,321,171,303.6015,22.01245 M,18,88960,89505,303.6015,22.01245,321,171
Sprite,Background,Centre,"SB\DIV\pixel.png",0,0 L,88414,3 R,19,0,272,0,0.5250998 S,0,87324,,6 F,19,87324,89505,0.5 M,19,87337,88414,321,171,183.4551,111.1553 M,18,88960,89505,183.4551,111.1553,321,171
Sprite,Background,Centre,"SB\DIV\pixel.png",0,0 L,88414,3 R,19,0,272,0,0.6355339 S,0,87324,,19 F,19,87324,89505,0.5 M,19,87371,88414,321,171,181.5908,115.6369 M,18,88960,89505,181.5908,115.6369,321,171
Sprite,Background,Centre,"SB\DIV\pixel.png",0,0 L,88414,3 R,19,0,272,0,2.38838 S,0,87324,,13 F,19,87324,89505,0.5 M,19,87367,88414,321,171,309.2361,21.46201 M,18,88960,89505,309.2361,21.46201,321,171
Sprite,Background,Centre,"SB\DIV\pixel.png",0,0 L,88414,3 R,19,0,272,0,2.678591 S,0,87324,,8 F,19,87324,89505,0.5 M,19,87392,88414,321,171,446.2721,88.49599 M,18,88960,89505,446.2721,88.49599,321,171
Sprite,Background,Centre,"SB\DIV\pixel.png",0,0 L,88414,3 R,19,0,272,0,3.007921 S,0,87324,,5 F,19,87324,89505,0.5 M,19,87372,88414,321,171,171.0081,172.5599 M,18,88960,89505,171.0081,172.5599,321,171
Sprite,Background,Centre,"SB\DIV\pixel.png",0,0 L,88414,3 R,19,0,272,0,2.428068 S,0,87324,,5 F,19,87324,89505,0.5 M,19,87345,88414,321,171,469.2314,193.9664 M,18,88960,89505,469.2314,193.9664,321,171
Sprite,Background,Centre,"SB\DIV\pixel.png",0,0 L,88414,3 R,19,0,272,0,2.517745 S,0,87324,,11 F,19,87324,89505,0.5 M,19,87338,88414,321,171,188.7918,241.8589 M,18,88960,89505,188.7918,241.8589,321,171
Sprite,Background,Centre,"SB\DIV\pixel.png",0,0 L,88414,3 R,19,0,272,0,0.0005169089 S,0,87324,,17 F,19,87324,89505,0.5 M,19,87389,88414,321,171,462.3417,120.7753 M,18,88960,89505,462.3417,120.7753,321,171
Sprite,Background,Centre,"SB\DIV\pixel.png",0,0 L,88414,3 R,19,0,272,0,0.794713 S,0,87324,,14 F,19,87324,89505,0.5 M,19,87331,88414,321,171,306.8423,21.66963 M,18,88960,89505,306.8423,21.66963,321,171
Sprite,Background,Centre,"SB\DIV\pixel.png",0,0 L,88414,3 R,19,0,272,0,1.088213 S,0,87324,,12 F,19,87324,89505,0.5 M,19,87419,88414,321,171,176.9462,212.815 M,18,88960,89505,176.9462,212.815,321,171
Sprite,Background,Centre,"SB\DIV\pixel.png",0,0 L,88414,3 R,19,0,272,0,1.002417 S,0,87324,,17 F,19,87324,89505,0.5 M,19,87415,88414,321,171,465.2238,212.2249 M,18,88960,89505,465.2238,212.2249,321,171
Sprite,Background,Centre,"SB\DIV\pixel.png",0,0 L,88414,3 R,19,0,272,0,1.829573 S,0,87324,,6 F,19,87324,89505,0.5 M,19,87418,88414,321,171,451.8434,244.3486 M,18,88960,89505,451.8434,244.3486,321,171
Sprite,Background,Centre,"SB\DIV\pixel.png",0,0 L,88414,3 R,19,0,272,0,1.883817 S,0,87324,,5 F,19,87324,89505,0.5 M,19,87352,88414,321,171,234.4573,293.5168 M,18,88960,89505,234.4573,293.5168,321,171
Sprite,Background,Centre,"SB\DIV\pixel.png",0,0 L,88414,3 R,19,0,272,0,2.256343 S,0,87324,,17 F,19,87324,89505,0.5 M,19,87416,88414,321,171,196.4425,87.42113 M,18,88960,89505,196.4425,87.42113,321,171
Sprite,Background,Centre,"SB\DIV\pixel.png",0,0 L,88414,3 R,19,0,272,0,0.8960138 S,0,87324,,8 F,19,87324,89505,0.5 M,19,87406,88414,321,171,318.3398,320.9764 M,18,88960,89505,318.3398,320.9764,321,171
Sprite,Background,Centre,"SB\DIV\pixel.png",0,0 L,88414,3 R,19,0,272,0,3.011834 S,0,87324,,18 F,19,87324,89505,0.5 M,19,87405,88414,321,171,187.1923,238.7901 M,18,88960,89505,187.1923,238.7901,321,171
Sprite,Background,Centre,"SB\DIV\pixel.png",0,0 L,88414,3 R,19,0,272,0,0.2956931 S,0,87324,,17 F,19,87324,89505,0.5 M,19,87386,88414,321,171,457.5269,233.1323 M,18,88960,89505,457.5269,233.1323,321,171
Sprite,Background,Centre,"SB\DIV\pixel.png",0,0 L,88414,3 R,19,0,272,0,0.2960638 S,0,87324,,5 F,19,87324,89505,0.5 M,19,87350,88414,321,171,171.0627,166.6639 M,18,88960,89505,171.0627,166.6639,321,171
Sprite,Background,Centre,"SB\DIV\pixel.png",0,0 L,88414,3 R,19,0,272,0,1.074069 S,0,87324,,7 F,19,87324,89505,0.5 M,19,87361,88414,321,171,470.9128,176.1155 M,18,88960,89505,470.9128,176.1155,321,171
Sprite,Background,Centre,"SB\DIV\pixel.png",0,0 L,88414,3 R,19,0,272,0,1.565304 S,0,87324,,3 F,19,87324,89505,0.5 M,19,87412,88414,321,171,178.0002,216.2885 M,18,88960,89505,178.0002,216.2885,321,171
Sprite,Background,Centre,"SB\DIV\pixel.png",0,0 L,88414,3 R,19,0,272,0,2.397726 S,0,87324,,17 F,19,87324,89505,0.5 M,19,87336,88414,321,171,174.5938,138.362 M,18,88960,89505,174.5938,138.362,321,171
Sprite,Background,Centre,"SB\DIV\pixel.png",0,0 L,88414,3 R,19,0,272,0,1.237231 S,0,87324,,12 F,19,87324,89505,0.5 M,19,87380,88414,321,171,351.0391,317.9614 M,18,88960,89505,351.0391,317.9614,321,171
Sprite,Background,Centre,"SB\DIV\pixel.png",0,0 L,88414,3 R,19,0,272,0,1.421995 S,0,87324,,7 M,19,87324,88414,321,171,301.8189,319.7686 F,19,87324,89505,0.5 M,18,88960,89505,301.8189,319.7686,321,171
Sprite,Background,Centre,"SB\DIV\pixel.png",0,0 L,88414,3 R,19,0,272,0,0.1297157 S,0,87324,,3 F,19,87324,89505,0.5 M,19,87368,88414,321,171,296.9805,22.93561 M,18,88960,89505,296.9805,22.93561,321,171
Sprite,Background,Centre,"SB\DIV\pixel.png",0,0 L,88414,3 R,19,0,272,0,2.379772 S,0,87324,,15 F,19,87324,89505,0.5 M,19,87396,88414,321,171,249.3833,302.7993 M,18,88960,89505,249.3833,302.7993,321,171
Sprite,Background,Centre,"SB\DIV\pixel.png",0,0 L,90595,3 R,19,0,272,0,0.2063301 S,0,89505,,2 F,19,89505,91686,0.5 M,19,89559,90595,313,298,418.8184,191.687 M,18,91141,91686,418.8184,191.687,313,298
Sprite,Background,Centre,"SB\DIV\pixel.png",0,0 L,90595,3 R,19,0,272,0,1.740452 S,0,89505,,9 F,19,89505,91686,0.5 M,19,89578,90595,313,298,168.0526,259.3962 M,18,91141,91686,168.0526,259.3962,313,298
Sprite,Background,Centre,"SB\DIV\pixel.png",0,0 L,90595,3 R,19,0,272,0,2.099176 S,0,89505,,3 F,19,89505,91686,0.5 M,19,89580,90595,313,298,454.9033,249.3845 M,18,91141,91686,454.9033,249.3845,313,298
Sprite,Background,Centre,"SB\DIV\pixel.png",0,0 L,90595,3 R,19,0,272,0,2.552305 S,0,89505,,16 F,19,89505,91686,0.5 M,19,89572,90595,313,298,453.3453,245.0547 M,18,91141,91686,453.3453,245.0547,313,298
Sprite,Background,Centre,"SB\DIV\pixel.png",0,0 L,90595,3 R,19,0,272,0,2.361162 S,0,89505,,16 F,19,89505,91686,0.5 M,19,89511,90595,313,298,462.9793,300.4892 M,18,91141,91686,462.9793,300.4892,313,298
Sprite,Background,Centre,"SB\DIV\pixel.png",0,0 L,90595,3 R,19,0,272,0,0.7795532 S,0,89505,,2 F,19,89505,91686,0.5 M,19,89583,90595,313,298,462.7034,307.4276 M,18,91141,91686,462.7034,307.4276,313,298
Sprite,Background,Centre,"SB\DIV\pixel.png",0,0 L,90595,3 R,19,0,272,0,0.5827008 S,0,89505,,4 F,19,89505,91686,0.5 M,19,89542,90595,313,298,371.6499,159.9414 M,18,91141,91686,371.6499,159.9414,313,298
Sprite,Background,Centre,"SB\DIV\pixel.png",0,0 L,90595,3 R,19,0,272,0,2.889488 S,0,89505,,11 F,19,89505,91686,0.5 M,19,89559,90595,313,298,240.6749,166.5881 M,18,91141,91686,240.6749,166.5881,313,298
Sprite,Background,Centre,"SB\DIV\pixel.png",0,0 L,90595,3 R,19,0,272,0,2.694885 S,0,89505,,15 F,19,89505,91686,0.5 M,19,89561,90595,313,298,166.2028,267.1685 M,18,91141,91686,166.2028,267.1685,313,298
Sprite,Background,Centre,"SB\DIV\pixel.png",0,0 L,90595,3 R,19,0,272,0,2.201793 S,0,89505,,9 F,19,89505,91686,0.5 M,19,89541,90595,313,298,460.6056,271.3056 M,18,91141,91686,460.6056,271.3056,313,298
Sprite,Background,Centre,"SB\DIV\pixel.png",0,0 L,90595,3 R,19,0,272,0,0.2111184 S,0,89505,,18 F,19,89505,91686,0.5 M,19,89596,90595,313,298,230.8582,172.4902 M,18,91141,91686,230.8582,172.4902,313,298
Sprite,Background,Centre,"SB\DIV\pixel.png",0,0 L,90595,3 R,19,0,272,0,1.79243 S,0,89505,,6 F,19,89505,91686,0.5 M,19,89577,90595,313,298,371.7326,159.9765 M,18,91141,91686,371.7326,159.9765,313,298
Sprite,Background,Centre,"SB\DIV\pixel.png",0,0 L,90595,3 R,19,0,272,0,1.503341 S,0,89505,,5 F,19,89505,91686,0.5 M,19,89575,90595,313,298,315.2614,148.017 M,18,91141,91686,315.2614,148.017,313,298
Sprite,Background,Centre,"SB\DIV\pixel.png",0,0 L,90595,3 R,19,0,272,0,0.3672023 S,0,89505,,18 F,19,89505,91686,0.5 M,19,89568,90595,313,298,176.7646,235.2311 M,18,91141,91686,176.7646,235.2311,313,298
Sprite,Background,Centre,"SB\DIV\pixel.png",0,0 L,90595,3 R,19,0,272,0,0.2263008 S,0,89505,,17 F,19,89505,91686,0.5 M,19,89519,90595,313,298,195.195,390.8547 M,18,91141,91686,195.195,390.8547,313,298
Sprite,Background,Centre,"SB\DIV\pixel.png",0,0 L,90595,3 R,19,0,272,0,0.3416301 S,0,89505,,19 F,19,89505,91686,0.5 M,19,89534,90595,313,298,173.867,354.0535 M,18,91141,91686,173.867,354.0535,313,298
Sprite,Background,Centre,"SB\DIV\pixel.png",0,0 L,90595,3 R,19,0,272,0,2.955025 S,0,89505,,7 F,19,89505,91686,0.5 M,19,89541,90595,313,298,223.4712,177.648 M,18,91141,91686,223.4712,177.648,313,298
Sprite,Background,Centre,"SB\DIV\pixel.png",0,0 L,90595,3 R,19,0,272,0,1.917566 S,0,89505,,2 F,19,89505,91686,0.5 M,19,89549,90595,313,298,433.3997,208.5354 M,18,91141,91686,433.3997,208.5354,313,298
Sprite,Background,Centre,"SB\DIV\pixel.png",0,0 L,90595,3 R,19,0,272,0,1.431597 S,0,89505,,19 F,19,89505,91686,0.5 M,19,89533,90595,313,298,454.9795,249.6076 M,18,91141,91686,454.9795,249.6076,313,298
Sprite,Background,Centre,"SB\DIV\pixel.png",0,0 L,90595,3 R,19,0,272,0,0.2416416 S,0,89505,,7 F,19,89505,91686,0.5 M,19,89542,90595,313,298,383.3137,165.501 M,18,91141,91686,383.3137,165.501,313,298
Sprite,Background,Centre,"SB\DIV\pixel.png",0,0 L,90595,3 R,19,0,272,0,0.09531596 S,0,89505,,7 F,19,89505,91686,0.5 M,19,89551,90595,313,298,239.3081,428.6503 M,18,91141,91686,239.3081,428.6503,313,298
Sprite,Background,Centre,"SB\DIV\pixel.png",0,0 L,90595,3 R,19,0,272,0,2.858364 S,0,89505,,17 F,19,89505,91686,0.5 M,19,89508,90595,313,298,163.5828,284.7905 M,18,91141,91686,163.5828,284.7905,313,298
Sprite,Background,Centre,"SB\DIV\pixel.png",0,0 L,90595,3 R,19,0,272,0,0.147479 S,0,89505,,4 F,19,89505,91686,0.5 M,19,89580,90595,313,298,163.8574,281.985 M,18,91141,91686,163.8574,281.985,313,298
Sprite,Background,Centre,"SB\DIV\pixel.png",0,0 L,90595,3 R,19,0,272,0,0.1910767 S,0,89505,,6 F,19,89505,91686,0.5 M,19,89542,90595,313,298,197.3637,393.5419 M,18,91141,91686,197.3637,393.5419,313,298
Sprite,Background,Centre,"SB\DIV\pixel.png",0,0 L,90595,3 R,19,0,272,0,1.192581 S,0,89505,,7 F,19,89505,91686,0.5 M,19,89564,90595,313,298,422.8047,400.1907 M,18,91141,91686,422.8047,400.1907,313,298
Sprite,Background,Centre,"SB\DIV\pixel.png",0,0 L,90595,3 R,19,0,272,0,0.2640293 S,0,89505,,9 F,19,89505,91686,0.5 M,19,89523,90595,313,298,430.6223,391.0859 M,18,91141,91686,430.6223,391.0859,313,298
Sprite,Background,Centre,"SB\DIV\pixel.png",0,0 L,90595,3 R,19,0,272,0,0.1087687 S,0,89505,,18 F,19,89505,91686,0.5 M,19,89506,90595,313,298,450.0941,358.8705 M,18,91141,91686,450.0941,358.8705,313,298
Sprite,Background,Centre,"SB\DIV\pixel.png",0,0 L,90595,3 R,19,0,272,0,0.08435286 S,0,89505,,7 F,19,89505,91686,0.5 M,19,89510,90595,313,298,376.6104,433.8445 M,18,91141,91686,376.6104,433.8445,313,298
Sprite,Background,Centre,"SB\DIV\pixel.png",0,0 L,90595,3 R,19,0,272,0,1.490144 S,0,89505,,4 F,19,89505,91686,0.5 M,19,89564,90595,313,298,414.4586,187.5185 M,18,91141,91686,414.4586,187.5185,313,298
Sprite,Background,Centre,"SB\DIV\pixel.png",0,0 L,90595,3 R,19,0,272,0,2.010111 S,0,89505,,18 F,19,89505,91686,0.5 M,19,89518,90595,313,298,365.1525,438.6418 M,18,91141,91686,365.1525,438.6418,313,298
Sprite,Background,Centre,"SB\DIV\pixel.png",0,0 L,90595,3 R,19,0,272,0,0.6104676 S,0,89505,,6 F,19,89505,91686,0.5 M,19,89517,90595,313,298,169.3139,341.0616 M,18,91141,91686,169.3139,341.0616,313,298
Sprite,Background,Centre,"SB\DIV\pixel.png",0,0 L,90595,3 R,19,0,272,0,0.9661855 S,0,89505,,18 F,19,89505,91686,0.5 M,19,89523,90595,313,298,301.5457,148.438 M,18,91141,91686,301.5457,148.438,313,298
Sprite,Background,Centre,"SB\DIV\pixel.png",0,0 L,90595,3 R,19,0,272,0,1.82256 S,0,89505,,15 F,19,89505,91686,0.5 M,19,89565,90595,313,298,242.8383,430.5796 M,18,91141,91686,242.8383,430.5796,313,298
Sprite,Background,Centre,"SB\DIV\pixel.png",0,0 L,90595,3 R,19,0,272,0,2.686298 S,0,89505,,4 F,19,89505,91686,0.5 M,19,89591,90595,313,298,163.0765,293.21 M,18,91141,91686,163.0765,293.21,313,298
Sprite,Background,Centre,"SB\DIV\pixel.png",0,0 L,90595,3 R,19,0,272,0,0.493698 S,0,89505,,6 F,19,89505,91686,0.5 M,19,89512,90595,313,298,234.5129,425.8271 M,18,91141,91686,234.5129,425.8271,313,298
Sprite,Background,Centre,"SB\DIV\pixel.png",0,0 L,90595,3 R,19,0,272,0,0.5006483 S,0,89505,,16 F,19,89505,91686,0.5 M,19,89550,90595,313,298,165.1771,272.5363 M,18,91141,91686,165.1771,272.5363,313,298
Sprite,Background,Centre,"SB\DIV\pixel.png",0,0 L,90595,3 R,19,0,272,0,1.527289 S,0,89505,,16 F,19,89505,91686,0.5 M,19,89532,90595,313,298,460.7181,271.9353 M,18,91141,91686,460.7181,271.9353,313,298
Sprite,Background,Centre,"SB\DIV\pixel.png",0,0 L,90595,3 R,19,0,272,0,0.250656 S,0,89505,,14 F,19,89505,91686,0.5 M,19,89583,90595,313,298,453.94,246.6589 M,18,91141,91686,453.94,246.6589,313,298
Sprite,Background,Centre,"SB\DIV\pixel.png",0,0 L,90595,3 R,19,0,272,0,0.6900101 S,0,89505,,19 F,19,89505,91686,0.5 M,19,89517,90595,313,298,462.9504,294.1439 M,18,91141,91686,462.9504,294.1439,313,298
Sprite,Background,Centre,"SB\DIV\pixel.png",0,0 L,90595,3 R,19,0,272,0,1.271649 S,0,89505,,12 F,19,89505,91686,0.5 M,19,89586,90595,313,298,296.0234,447.0362 M,18,91141,91686,296.0234,447.0362,313,298
//Storyboard Layer 1 (Fail)
//Storyboard Layer 2 (Pass)
//Storyboard Layer 3 (Foreground)
//Storyboard Sound Samples

[TimingPoints]
4415,545.454545454546,4,2,22,50,1,0
21869,-200,4,2,22,50,0,0
39324,-133.333333333333,4,2,22,50,0,0
55687,-117.647058823529,4,2,22,50,0,0
56233,-66.6666666666667,4,2,22,50,0,0
56778,-66.6666666666667,4,2,22,90,0,1
65505,-100,4,2,22,90,0,0
66051,-66.6666666666667,4,2,22,90,0,1
73142,-100,4,2,22,70,0,0
74233,-58.8235294117647,4,2,22,90,0,0
74505,-142.857142857143,4,2,22,90,0,0
76415,-58.8235294117647,4,2,22,90,0,0
76687,-142.857142857143,4,2,22,90,0,0
78596,-58.8235294117647,4,2,22,90,0,0
78868,-142.857142857143,4,2,22,90,0,0
80778,-58.8235294117647,4,2,22,90,0,0
81050,-142.857142857143,4,2,22,90,0,0
82960,-58.8235294117647,4,2,22,90,0,0
83232,-111.111111111111,4,2,22,90,0,0
85142,-58.8235294117647,4,2,22,90,0,0
85414,-111.111111111111,4,2,22,90,0,0
87324,-58.8235294117647,4,2,22,90,0,0
87596,-111.111111111111,4,2,22,90,0,0
89505,-58.8235294117647,4,2,22,90,0,0
89777,-111.111111111111,4,2,22,90,0,0
91687,-58.8235294117647,4,2,22,90,0,0
92233,-66.6666666666667,4,2,22,90,0,0
93869,-58.8235294117647,4,2,22,90,0,0
94415,-66.6666666666667,4,2,22,90,0,0
96051,-58.8235294117647,4,2,22,90,0,0
96597,-66.6666666666667,4,2,22,90,0,0
98233,-58.8235294117647,4,2,22,90,0,0
98779,-66.6666666666667,4,2,22,90,0,0
100415,-58.8235294117647,4,2,22,90,0,0
100961,-66.6666666666667,4,2,22,90,0,0
102596,-58.8235294117647,4,2,22,90,0,0
103142,-66.6666666666667,4,2,22,90,0,0
104778,-58.8235294117647,4,2,22,90,0,0
105324,-66.6666666666667,4,2,22,90,0,0
106960,-58.8235294117647,4,2,22,90,0,0
107506,-66.6666666666667,4,2,22,90,0,0
109142,-133.333333333333,4,2,22,50,0,0
143505,-66.6666666666667,4,2,22,50,0,0
144051,-66.6666666666667,4,2,22,90,0,0
169142,-50,4,2,22,90,0,0
170233,-66.6666666666667,4,2,22,90,0,0
171324,-133.333333333333,4,2,22,90,0,0
171869,-66.6666666666667,4,2,22,90,0,0
172415,-133.333333333333,4,2,22,90,0,0
172960,-66.6666666666667,4,2,22,90,0,0
173505,-133.333333333333,4,2,22,90,0,0
174050,-66.6666666666667,4,2,22,90,0,0
174596,-133.333333333333,4,2,22,90,0,0
175141,-66.6666666666667,4,2,22,90,0,0
175687,-133.333333333333,4,2,22,90,0,0
176232,-66.6666666666667,4,2,22,90,0,0
176778,-133.333333333333,4,2,22,90,0,0
177323,-66.6666666666667,4,2,22,90,0,0
177869,-133.333333333333,4,2,22,90,0,0
178414,-66.6666666666667,4,2,22,90,0,0
178960,-66.6666666666667,4,2,22,90,0,0
187687,-133.333333333333,4,2,22,50,0,0
196415,-200,4,2,22,50,0,0

[Colours]
Combo1 : 186,139,89
Combo2 : 206,54,28
Combo3 : 245,234,98
Combo4 : 164,30,22

[HitObjects]
96,160,21869,6,0,L|215:153,1,110,4|2,1:0|0:0,0:0:0:0:
274,104,22960,1,2,0:0:0:0:
274,104,23505,2,0,P|290:139|264:217,1,110,0|2,0:0|0:0,0:0:0:0:
274,206,24869,2,0,L|265:275,2,55,2|0|2,0:0|0:0|0:0,0:0:0:0:
352,158,25687,2,0,P|403:157|418:160,1,55,0|2,0:0|0:0,0:0:0:0:
422,288,26233,6,0,L|458:50,1,220,2|0,0:0|0:0,0:0:0:0:
131,86,28415,6,0,P|89:81|41:63,2,82.5,2|2|2,0:0|0:0|0:0,0:0:0:0:
201,40,29505,2,0,P|216:83|187:151,1,110,2|2,0:0|0:0,0:0:0:0:
195,141,30596,1,0,0:0:0:0:
20,217,31142,6,0,P|64:223|130:189,1,110,2|2,0:0|0:0,0:0:0:0:
195,141,32233,1,2,0:0:0:0:
195,141,32778,2,0,L|176:309,1,165,2|2,0:0|0:0,0:0:0:0:
176,304,33869,2,0,P|228:309|250:307,2,55,2|0|2,0:0|0:0|0:0,0:0:0:0:
99,266,34687,1,0,0:0:0:0:
99,266,34960,5,2,0:0:0:0:
298,256,35505,2,0,P|316:298|296:368,2,110,2|2|0,0:0|0:0|0:0,0:0:0:0:
255,183,36869,1,2,0:0:0:0:
255,183,37142,6,0,P|293:170|342:181,2,82.5,2|2|2,0:0|0:0|0:0,0:0:0:0:
172,213,38233,2,0,P|131:219|69:190,1,110,2|2,0:0|0:0,0:0:0:0:
410,39,39324,6,0,L|404:147,1,82.5000031471254,4|0,1:0|0:0,0:0:0:0:
432,217,39733,2,0,P|374:203|329:213,1,82.5000031471254,0|0,0:0|0:0,0:0:0:0:
282,253,40142,1,0,0:0:0:0:
118,343,40415,2,0,L|109:211,1,123.750004720688,0|0,0:0|0:0,0:0:0:0:
44,162,40960,2,0,P|104:179|165:132,1,123.750004720688,0|0,0:0|0:0,0:0:0:0:
263,133,41505,6,0,P|210:103|152:121,1,123.750004720688,0|0,0:0|0:0,0:0:0:0:
318,200,42051,2,0,P|347:147|329:89,1,123.750004720688,0|0,0:0|0:0,0:0:0:0:
257,263,42596,2,0,P|309:292|367:274,1,123.750004720688,0|0,0:0|0:0,0:0:0:0:
197,201,43142,2,0,P|167:253|185:311,1,123.750004720688,0|0,0:0|0:0,0:0:0:0:
39,377,43687,6,0,L|128:366,1,82.5000031471254,0|0,0:0|0:0,0:0:0:0:
185,311,44096,2,0,P|232:339|273:336,1,82.5000031471254,0|0,0:0|0:0,0:0:0:0:
349,318,44505,2,0,L|357:265,1,41.2500015735627,0|0,0:0|0:0,0:0:0:0:
318,201,44778,6,0,L|306:86,1,82.5000031471254,0|0,0:0|0:0,0:0:0:0:
309,25,45187,2,0,P|235:62|206:58,1,82.5000031471254,0|0,0:0|0:0,0:0:0:0:
162,37,45596,1,0,0:0:0:0:
32,253,45869,6,0,L|39:70,1,165.000006294251,0|0,0:0|0:0,0:0:0:0:
38,88,46687,1,0,0:0:0:0:
137,154,46960,2,0,P|140:175|130:218,1,41.2500015735627,0|0,0:0|0:0,0:0:0:0:
210,232,47233,2,0,P|197:248|159:272,1,41.2500015735627,0|0,0:0|0:0,0:0:0:0:
211,343,47505,2,0,P|190:346|147:336,1,41.2500015735627,0|0,0:0|0:0,0:0:0:0:
104,298,47778,1,0,0:0:0:0:
104,298,47915,1,0,0:0:0:0:
104,298,48051,6,0,L|-1:294,1,82.5000031471254,0|0,0:0|0:0,0:0:0:0:
55,198,48460,2,0,L|160:194,1,82.5000031471254,0|0,0:0|0:0,0:0:0:0:
209,139,48869,2,0,P|216:117|215:86,1,41.2500015735627,0|0,0:0|0:0,0:0:0:0:
77,31,49142,5,0,0:0:0:0:
137,194,49415,1,0,0:0:0:0:
248,22,49687,1,0,0:0:0:0:
103,111,49960,1,0,0:0:0:0:
274,193,50233,2,0,B|318:178|354:193|354:196|353:199|386:219|457:185,1,165.000006294251,0|0,0:0|0:0,0:0:0:0:
435,194,51051,1,0,0:0:0:0:
235,102,51324,5,0,0:0:0:0:
315,275,51596,1,0,0:0:0:0:
392,117,51869,1,0,0:0:0:0:
257,197,52142,1,0,0:0:0:0:
442,317,52415,6,0,L|432:162,1,123.750004720688,0|0,0:0|0:0,0:0:0:0:
391,259,52960,2,0,P|348:265|273:209,1,123.750004720688,0|0,0:0|0:0,0:0:0:0:
212,182,53505,6,0,L|360:170,1,123.750004720688,0|0,0:0|0:0,0:0:0:0:
404,105,54051,1,0,0:0:0:0:
322,286,54324,1,0,0:0:0:0:
103,87,54596,6,0,P|169:53|160:200,1,288.750011014939,0|0,0:0|0:0,0:0:0:0:
14,268,55687,2,0,P|34:203|96:174,1,140.250002675057,0|0,0:0|0:0,0:0:0:0:
181,198,56233,6,0,L|175:249,1,41.2500015735627,8|0,0:0|0:0,0:0:0:0:
175,265,56778,5,6,1:0:0:0:
159,369,56915,1,0,0:0:0:0:
191,275,57051,1,2,0:0:0:0:
142,368,57187,5,2,0:0:0:0:
254,337,57324,2,0,P|356:333|374:337,1,82.5000031471254,8|2,0:0|0:0,0:0:0:0:
488,281,57596,2,0,P|446:281|406:274,1,82.5000031471254,2|2,0:0|0:0,0:0:0:0:
324,146,57869,5,2,1:0:0:0:
295,243,58005,1,0,0:0:0:0:
390,199,58142,1,2,0:0:0:0:
312,121,58278,5,2,0:0:0:0:
435,114,58415,2,0,L|455:19,1,82.5000031471254,8|2,0:0|0:0,0:0:0:0:
295,40,58687,2,0,L|311:120,1,82.5000031471254,2|2,0:0|0:0,0:0:0:0:
488,281,58960,5,2,1:0:0:0:
447,139,59096,1,0,0:0:0:0:
384,246,59233,1,2,0:0:0:0:
435,114,59369,5,2,0:0:0:0:
485,262,59505,2,0,L|470:358,1,82.5000031471254,8|2,0:0|0:0,0:0:0:0:
312,350,59778,2,0,L|299:268,1,82.5000031471254,2|2,0:0|0:0,0:0:0:0:
137,132,60051,5,2,1:0:0:0:
223,256,60187,1,0,0:0:0:0:
243,143,60324,1,2,0:0:0:0:
122,243,60460,5,2,0:0:0:0:
135,112,60596,2,0,P|130:72|119:22,1,82.5000031471254,8|2,0:0|0:0,0:0:0:0:
13,182,60869,2,0,P|4:222|0:263,1,82.5000031471254,2|2,0:0|0:0,0:0:0:0:
194,339,61142,5,2,1:0:0:0:
226,167,61278,1,0,0:0:0:0:
210,330,61415,1,2,0:0:0:0:
119,244,61551,5,2,0:0:0:0:
226,320,61687,2,0,P|308:308|331:298,1,82.5000031471254,8|2,0:0|0:0,0:0:0:0:
226,167,61960,2,0,P|144:155|121:145,1,82.5000031471254,2|2,0:0|0:0,0:0:0:0:
325,63,62233,5,2,1:0:0:0:
240,196,62369,1,0,0:0:0:0:
208,41,62505,1,2,0:0:0:0:
337,169,62642,5,2,0:0:0:0:
144,155,62778,2,0,L|152:270,1,82.5000031471254,8|2,0:0|0:0,0:0:0:0:
222,373,63051,2,0,L|227:290,1,82.5000031471254,2|2,0:0|0:0,0:0:0:0:
53,122,63324,5,2,1:0:0:0:
240,196,63460,1,0,0:0:0:0:
202,77,63596,1,2,0:0:0:0:
227,290,63733,5,2,0:0:0:0:
337,169,63869,2,0,L|342:86,1,82.5000031471254,8|2,0:0|0:0,0:0:0:0:
144,155,64142,2,0,L|152:270,1,82.5000031471254,2|2,0:0|0:0,0:0:0:0:
356,372,64415,5,2,1:0:0:0:
387,174,64551,1,0,0:0:0:0:
246,316,64687,1,2,0:0:0:0:
443,284,64824,1,2,0:0:0:0:
265,193,64960,5,10,0:0:0:0:
341,269,65096,1,2,0:0:0:0:
387,174,65233,2,0,L|409:59,1,82.5000031471254,2|2,0:0|0:0,0:0:0:0:
25,253,65505,6,0,P|121:212|180:243,1,165,4|0,1:0|0:0,0:0:0:0:
246,316,66051,1,10,0:0:0:0:
246,316,66187,1,0,0:0:0:0:
265,193,66324,1,2,0:0:0:0:
265,193,66460,1,2,0:0:0:0:
170,234,66596,6,0,B|149:273|149:273|149:341,1,82.5000031471254,0|0,1:0|0:0,0:0:0:0:
265,193,66869,2,0,B|265:154|265:154|244:115,1,82.5000031471254,2|0,0:0|0:0,0:0:0:0:
41,73,67142,1,10,0:0:0:0:
129,134,67278,1,2,0:0:0:0:
193,45,67415,2,0,P|239:28|296:43,1,82.5000031471254,2|0,0:0|0:0,0:0:0:0:
506,177,67687,6,0,B|429:149|384:178|384:182|384:186|337:215|230:185,1,247.500009441376,2|0,1:0|0:0,0:0:0:0:
179,154,68233,1,10,0:0:0:0:
179,154,68369,1,0,0:0:0:0:
220,278,68505,1,2,0:0:0:0:
220,278,68642,1,2,0:0:0:0:
56,249,68778,2,0,L|154:235,1,82.5000031471254,0|0,1:0|0:0,0:0:0:0:
301,289,69051,2,0,L|219:277,1,82.5000031471254,2|0,0:0|0:0,0:0:0:0:
213,51,69324,5,10,0:0:0:0:
164,146,69460,1,2,0:0:0:0:
121,61,69596,1,2,0:0:0:0:
174,135,69733,1,2,0:0:0:0:
232,44,69869,6,0,P|332:47|339:50,1,82.5000031471254,2|0,1:0|0:0,0:0:0:0:
459,121,70142,2,0,P|418:125|377:117,1,82.5000031471254,2|0,0:0|0:0,0:0:0:0:
213,51,70415,5,10,0:0:0:0:
267,261,70551,1,2,0:0:0:0:
313,41,70687,1,2,0:0:0:0:
269,290,70824,1,2,0:0:0:0:
377,117,70960,6,0,L|388:228,1,82.5000031471254,0|0,1:0|0:0,0:0:0:0:
135,304,71233,2,0,L|143:221,1,82.5000031471254,2|0,0:0|0:0,0:0:0:0:
284,123,71505,1,10,0:0:0:0:
269,290,71642,1,0,0:0:0:0:
141,107,71778,1,2,0:0:0:0:
278,205,71915,1,2,0:0:0:0:
72,170,72051,6,0,P|50:86|107:21,1,165.000006294251,2|2,1:0|0:0,0:0:0:0:
141,107,72460,1,2,0:0:0:0:
1,226,72596,2,0,P|70:187|143:221,1,165.000006294251,10|2,0:0|0:0,0:0:0:0:
75,277,73005,1,2,0:0:0:0:
216,176,73142,6,0,P|225:249|185:303,1,110,2|2,1:0|0:0,0:0:0:0:
179,362,73551,1,2,0:0:0:0:
179,362,73687,2,0,L|258:354,1,55,10|2,0:0|0:0,0:0:0:0:
318,346,73960,2,0,L|372:340,1,55,2|2,0:0|0:0,0:0:0:0:
469,323,74233,6,0,B|477:276|477:276|449:200,1,93.500001783371,6|0,1:0|0:0,0:0:0:0:
350,116,74505,2,0,L|359:71,1,38.4999988250733,2|0,0:0|0:0,0:0:0:0:
291,189,74778,1,10,0:0:0:0:
237,113,74915,2,0,L|228:68,1,38.4999988250733,2|0,0:0|0:0,0:0:0:0:
222,123,75324,6,0,L|213:78,1,38.4999988250733,2|0,1:0|0:0,0:0:0:0:
83,148,75596,2,0,L|92:103,1,38.4999988250733,2|0,0:0|0:0,0:0:0:0:
292,234,75869,2,0,L|283:189,1,38.4999988250733,10|0,0:0|0:0,0:0:0:0:
300,30,76142,5,2,0:0:0:0:
181,189,76278,1,2,0:0:0:0:
274,325,76415,2,0,L|295:213,1,93.500001783371,6|0,1:0|0:0,0:0:0:0:
181,189,76687,6,0,L|176:137,1,38.4999988250733,2|0,0:0|0:0,0:0:0:0:
114,283,76960,1,10,0:0:0:0:
42,238,77096,2,0,L|47:186,1,38.4999988250733,2|0,0:0|0:0,0:0:0:0:
53,215,77505,6,0,L|58:163,1,38.4999988250733,2|0,1:0|0:0,0:0:0:0:
132,78,77778,2,0,L|127:26,1,38.4999988250733,2|0,0:0|0:0,0:0:0:0:
254,125,78051,2,0,L|259:73,1,38.4999988250733,10|0,0:0|0:0,0:0:0:0:
395,66,78324,5,2,0:0:0:0:
180,160,78460,1,2,0:0:0:0:
378,257,78596,2,0,L|388:146,1,93.500001783371,6|0,1:0|0:0,0:0:0:0:
257,86,78869,6,0,L|250:31,1,38.4999988250733,2|0,0:0|0:0,0:0:0:0:
276,217,79142,1,10,0:0:0:0:
386,163,79278,2,0,L|393:108,1,38.4999988250733,2|0,0:0|0:0,0:0:0:0:
396,148,79687,6,0,L|403:93,1,38.4999988250733,2|0,1:0|0:0,0:0:0:0:
478,261,79960,2,0,L|471:206,1,38.4999988250733,2|0,0:0|0:0,0:0:0:0:
369,338,80233,2,0,L|376:283,1,38.4999988250733,10|0,0:0|0:0,0:0:0:0:
268,120,80505,5,2,0:0:0:0:
381,209,80642,1,2,0:0:0:0:
173,221,80778,2,0,L|166:112,1,93.500001783371,6|0,1:0|0:0,0:0:0:0:
356,84,81051,6,0,L|363:32,1,38.4999988250733,2|0,0:0|0:0,0:0:0:0:
267,140,81324,1,10,0:0:0:0:
198,47,81460,2,0,L|191:-5,1,38.4999988250733,2|0,0:0|0:0,0:0:0:0:
268,120,81733,1,2,0:0:0:0:
368,98,81869,6,0,L|375:46,1,38.4999988250733,2|0,1:0|0:0,0:0:0:0:
431,215,82142,2,0,L|424:163,1,38.4999988250733,2|0,0:0|0:0,0:0:0:0:
268,120,82415,1,10,0:0:0:0:
190,225,82551,1,2,0:0:0:0:
315,185,82687,1,2,0:0:0:0:
190,145,82824,1,2,0:0:0:0:
268,250,82960,6,0,L|248:367,1,93.500001783371,6|0,1:0|0:0,0:0:0:0:
81,191,83233,2,0,L|84:241,1,49.4999984893799,2|0,0:0|0:0,0:0:0:0:
157,314,83505,1,8,0:0:0:0:
190,145,83642,2,0,L|187:195,1,49.4999984893799,2|0,0:0|0:0,0:0:0:0:
204,125,84051,6,0,L|201:175,1,49.4999984893799,2|0,1:0|0:0,0:0:0:0:
26,65,84324,2,0,L|29:115,1,49.4999984893799,2|0,0:0|0:0,0:0:0:0:
131,37,84596,2,0,L|128:87,1,49.4999984893799,10|0,0:0|0:0,0:0:0:0:
125,255,84869,5,2,0:0:0:0:
221,105,85005,1,2,0:0:0:0:
19,204,85142,2,0,L|33:328,1,93.500001783371,6|0,1:0|0:0,0:0:0:0:
205,320,85415,6,0,L|202:370,1,49.4999984893799,2|0,0:0|0:0,0:0:0:0:
139,240,85687,1,8,0:0:0:0:
250,185,85824,2,0,L|253:235,1,49.4999984893799,2|0,0:0|0:0,0:0:0:0:
266,209,86233,6,0,L|269:259,1,49.4999984893799,2|0,1:0|0:0,0:0:0:0:
471,251,86505,2,0,L|468:301,1,49.4999984893799,2|0,0:0|0:0,0:0:0:0:
368,146,86778,2,0,L|371:196,1,49.4999984893799,10|0,0:0|0:0,0:0:0:0:
361,307,87051,5,2,0:0:0:0:
464,158,87187,1,2,0:0:0:0:
257,115,87324,2,0,L|265:208,1,93.500001783371,6|0,1:0|0:0,0:0:0:0:
435,69,87596,6,0,L|432:19,1,49.4999984893799,2|0,0:0|0:0,0:0:0:0:
368,146,87869,1,8,0:0:0:0:
257,115,88005,2,0,L|254:65,1,49.4999984893799,2|0,0:0|0:0,0:0:0:0:
241,147,88415,6,0,L|238:97,1,49.4999984893799,2|0,1:0|0:0,0:0:0:0:
59,108,88687,2,0,L|56:58,1,49.4999984893799,2|0,0:0|0:0,0:0:0:0:
136,256,88960,2,0,L|133:206,1,49.4999984893799,10|0,0:0|0:0,0:0:0:0:
185,7,89233,5,2,0:0:0:0:
369,100,89369,1,2,0:0:0:0:
249,242,89505,2,0,L|240:146,1,93.500001783371,6|0,1:0|0:0,0:0:0:0:
376,79,89778,6,0,L|383:30,1,49.4999984893799,2|0,0:0|0:0,0:0:0:0:
249,135,90051,1,10,0:0:0:0:
410,228,90187,2,0,L|417:179,1,49.4999984893799,2|0,0:0|0:0,0:0:0:0:
259,116,90460,1,2,0:0:0:0:
124,207,90596,6,0,L|116:158,1,49.4999984893799,2|0,1:0|0:0,0:0:0:0:
38,107,90869,2,0,L|45:58,1,49.4999984893799,2|0,0:0|0:0,0:0:0:0:
288,15,91142,1,10,0:0:0:0:
198,139,91278,1,2,0:0:0:0:
343,92,91415,1,2,0:0:0:0:
198,45,91551,1,2,0:0:0:0:
288,168,91687,6,0,B|341:189|380:169|380:166|380:163|415:140|501:173,1,187.000003566742,4|0,1:0|0:0,0:0:0:0:
165,308,92233,1,10,0:0:0:0:
154,208,92369,1,2,0:0:0:0:
180,327,92505,1,2,0:0:0:0:
129,197,92642,1,2,0:0:0:0:
231,254,92778,6,0,L|332:273,1,82.5000031471254,0|0,1:0|0:0,0:0:0:0:
129,197,93051,2,0,L|28:216,1,82.5000031471254,2|0,0:0|0:0,0:0:0:0:
243,136,93324,1,10,0:0:0:0:
205,24,93460,1,2,0:0:0:0:
256,158,93596,2,0,P|301:154|350:134,1,82.5000031471254,2|0,0:0|0:0,0:0:0:0:
491,52,93869,6,0,P|422:140|509:235,1,187.000003566742,2|0,1:0|0:0,0:0:0:0:
353,349,94415,1,10,0:0:0:0:
418,283,94551,1,2,0:0:0:0:
333,339,94687,1,2,0:0:0:0:
500,315,94824,1,2,0:0:0:0:
336,243,94960,6,0,P|291:249|231:271,1,82.5000031471254,0|0,1:0|0:0,0:0:0:0:
335,142,95233,2,0,P|380:148|440:170,1,82.5000031471254,2|0,0:0|0:0,0:0:0:0:
205,104,95505,1,10,0:0:0:0:
308,39,95642,1,2,0:0:0:0:
302,153,95778,1,2,0:0:0:0:
214,83,95915,1,2,0:0:0:0:
109,121,96051,6,0,L|129:231,1,93.500001783371,2|0,1:0|0:0,0:0:0:0:
238,351,96324,2,0,L|254:259,1,93.500001783371,2|0,0:0|0:0,0:0:0:0:
214,83,96596,1,10,0:0:0:0:
137,241,96733,1,2,0:0:0:0:
214,178,96869,1,2,0:0:0:0:
123,128,97005,1,2,0:0:0:0:
254,259,97142,6,0,P|295:258|336:257,1,82.5000031471254,0|0,1:0|0:0,0:0:0:0:
138,328,97415,2,0,P|96:327|55:326,1,82.5000031471254,2|0,0:0|0:0,0:0:0:0:
109,121,97687,1,10,0:0:0:0:
41,238,97824,1,2,0:0:0:0:
56,57,97960,1,2,0:0:0:0:
49,215,98096,1,2,0:0:0:0:
123,128,98233,6,0,B|161:109|198:113|236:139|236:139|257:130|257:130|301:157|343:156|388:121,1,280.500005350113,2|0,1:0|0:0,0:0:0:0:
434,49,98778,1,10,0:0:0:0:
452,208,98915,1,2,0:0:0:0:
457,73,99051,1,2,0:0:0:0:
426,224,99187,1,2,0:0:0:0:
361,113,99324,6,0,P|346:76|347:17,1,82.5000031471254,2|0,1:0|0:0,0:0:0:0:
457,73,99596,1,2,0:0:0:0:
401,240,99733,1,2,0:0:0:0:
263,122,99869,1,10,0:0:0:0:
301,220,100005,1,2,0:0:0:0:
197,194,100142,2,0,P|109:197|100:200,1,82.5000031471254,2|0,0:0|0:0,0:0:0:0:
260,366,100415,6,0,P|208:291|118:286,1,187.000003566742,6|0,1:0|0:0,0:0:0:0:
362,143,100960,1,10,0:0:0:0:
385,283,101096,1,2,0:0:0:0:
386,162,101233,1,2,0:0:0:0:
359,289,101369,1,2,0:0:0:0:
462,216,101505,6,0,P|473:172|470:117,1,82.5000031471254,0|0,1:0|0:0,0:0:0:0:
351,62,101778,2,0,P|351:103|361:142,1,82.5000031471254,2|0,0:0|0:0,0:0:0:0:
440,20,102051,1,10,0:0:0:0:
386,162,102187,1,2,0:0:0:0:
263,95,102324,2,0,P|263:53|273:14,1,82.5000031471254,2|0,0:0|0:0,0:0:0:0:
261,214,102596,6,0,P|189:157|100:172,1,187.000003566742,2|0,1:0|0:0,0:0:0:0:
307,365,103142,1,10,0:0:0:0:
273,237,103278,1,2,0:0:0:0:
194,352,103415,1,2,0:0:0:0:
283,257,103551,1,2,0:0:0:0:
155,263,103687,6,0,L|21:273,1,82.5000031471254,0|0,1:0|0:0,0:0:0:0:
290,280,103960,2,0,L|424:290,1,82.5000031471254,2|0,0:0|0:0,0:0:0:0:
399,63,104233,1,10,0:0:0:0:
386,178,104369,1,2,0:0:0:0:
468,120,104505,1,2,0:0:0:0:
392,85,104642,1,2,0:0:0:0:
490,95,104778,6,0,L|499:-1,1,93.500001783371,2|0,1:0|0:0,0:0:0:0:
297,30,105051,2,0,L|305:123,1,93.500001783371,2|0,0:0|0:0,0:0:0:0:
317,353,105324,5,10,0:0:0:0:
215,121,105460,1,2,0:0:0:0:
136,342,105596,1,2,0:0:0:0:
215,104,105733,1,2,0:0:0:0:
350,236,105869,6,0,L|432:229,1,82.5000031471254,0|0,1:0|0:0,0:0:0:0:
216,143,106142,2,0,L|133:149,1,82.5000031471254,2|0,0:0|0:0,0:0:0:0:
35,329,106415,1,10,0:0:0:0:
39,144,106551,1,0,0:0:0:0:
167,253,106687,1,2,0:0:0:0:
38,234,106824,1,2,0:0:0:0:
169,283,106960,6,0,P|216:283|323:175,1,187.000003566742,2|2,1:0|0:0,0:0:0:0:
317,97,107369,1,2,0:0:0:0:
466,186,107505,2,0,P|419:185|312:77,1,187.000003566742,10|2,0:0|0:0,0:0:0:0:
326,18,107915,1,2,0:0:0:0:
188,87,108051,6,0,P|234:86|341:-21,1,165.000006294251,2|2,1:0|0:0,0:0:0:0:
160,63,108460,1,2,0:0:0:0:
202,193,108596,1,10,0:0:0:0:
226,2,108733,1,2,0:0:0:0:
118,145,108869,1,2,0:0:0:0:
66,38,109005,1,2,0:0:0:0:
7,141,109142,6,0,B|-2:187|-2:187|31:315,1,165.000006294251,4|0,1:0|0:0,0:0:0:0:
247,248,110233,2,0,L|102:239,2,123.750004720688,2|2|0,0:0|0:0|0:0,0:0:0:0:
397,105,111324,6,0,P|417:197|404:294,1,165.000006294251,2|0,0:0|0:0,0:0:0:0:
411,266,112142,1,0,0:0:0:0:
365,342,112415,2,0,P|447:320|511:353,2,123.750004720688,2|2|2,0:0|0:0|0:0,0:0:0:0:
270,287,113505,6,0,L|90:292,1,165.000006294251,2|0,0:0|0:0,0:0:0:0:
117,64,114596,2,0,P|149:153|21:165,1,247.500009441376,0|0,0:0|0:0,0:0:0:0:
253,90,115687,6,0,B|289:86|319:51|319:51|320:93|295:121,1,123.750004720688,0|0,0:0|0:0,0:0:0:0:
241,175,116233,2,0,B|205:171|175:136|175:136|174:178|199:206,1,123.750004720688,2|0,0:0|0:0,0:0:0:0:
255,267,116778,2,0,B|291:263|321:228|321:228|324:252|314:272,1,123.750004720688,2|0,0:0|0:0,0:0:0:0:
240,354,117324,2,0,B|204:350|174:315|174:315|171:339|181:359,1,123.750004720688,2|0,0:0|0:0,0:0:0:0:
412,310,117869,6,0,B|355:350|295:326|295:321|295:315|247:284|166:319,1,247.500009441376,2|0,0:0|0:0,0:0:0:0:
103,266,118960,2,0,P|87:325|116:378,2,123.750004720688,2|2|2,0:0|0:0|0:0,0:0:0:0:
175,201,120051,6,0,L|195:20,1,165.000006294251,2|0,0:0|0:0,0:0:0:0:
368,227,121142,2,0,P|421:255|479:240,2,123.750004720688,2|2|2,0:0|0:0|0:0,0:0:0:0:
330,145,122233,5,2,0:0:0:0:
256,192,122369,12,4,126596,1:0:0:0:
406,108,135324,5,2,1:0:0:0:
406,108,136142,1,0,0:0:0:0:
305,194,136415,1,2,0:0:0:0:
280,111,136960,1,2,0:0:0:0:
280,111,137778,5,0,0:0:0:0:
139,168,138051,2,0,L|85:161,1,41.2500015735627,0|0,0:0|0:0,0:0:0:0:
334,40,138324,1,2,0:0:0:0:
334,40,139415,1,2,0:0:0:0:
182,16,139687,6,0,L|196:76,1,41.2500015735627,2|0,1:0|0:0,0:0:0:0:
266,119,140233,2,0,L|252:179,1,41.2500015735627,2|0,0:0|0:0,0:0:0:0:
334,40,140505,1,0,0:0:0:0:
343,246,140778,2,0,L|333:205,1,41.2500015735627,2|0,0:0|0:0,0:0:0:0:
333,205,141324,1,0,0:0:0:0:
333,205,142415,5,2,0:0:0:0:
75,39,142687,1,0,0:0:0:0:
202,181,143505,6,0,L|193:236,1,41.2500015735627,8|0,0:0|0:0,0:0:0:0:
196,222,144051,6,0,B|227:236|260:219|260:219|300:239|300:239|334:214|382:202|460:242,1,247.500009441376,6|0,1:0|0:0,0:0:0:0:
141,302,144596,2,0,P|99:215|99:198,1,82.5000031471254,10|0,0:0|0:0,0:0:0:0:
257,309,144869,2,0,P|282:276|296:238,1,82.5000031471254,0|0,0:0|0:0,0:0:0:0:
132,110,145142,6,0,P|218:133|299:79,1,165.000006294251,2|0,1:0|0:0,0:0:0:0:
329,16,145551,1,0,0:0:0:0:
117,28,145687,2,0,L|137:138,1,82.5000031471254,10|0,0:0|0:0,0:0:0:0:
20,239,145960,2,0,L|34:157,1,82.5000031471254,0|0,0:0|0:0,0:0:0:0:
296,238,146233,6,0,B|123:217|123:217|194:261,1,247.500009441376,2|0,1:0|0:0,0:0:0:0:
367,306,146778,2,0,P|390:262|385:207,1,82.5000031471254,10|2,0:0|0:0,0:0:0:0:
383,16,147051,1,2,0:0:0:0:
304,79,147187,6,0,P|308:120|329:156,1,82.5000031471254,2|2,0:0|1:0,0:0:0:0:
483,194,147460,1,2,0:0:0:0:
422,120,147596,1,2,0:0:0:0:
391,229,147733,1,2,0:0:0:0:
491,42,147869,5,10,0:0:0:0:
329,156,148005,1,2,0:0:0:0:
483,194,148142,1,2,0:0:0:0:
394,17,148278,1,2,0:0:0:0:
311,169,148415,6,0,B|248:194|197:163|197:163|202:158|202:158|143:133|69:162,1,247.500009441376,6|0,1:0|0:0,0:0:0:0:
41,243,148960,2,0,P|111:247|135:235,1,82.5000031471254,10|0,0:0|0:0,0:0:0:0:
262,311,149233,2,0,P|222:302|182:311,1,82.5000031471254,0|0,0:0|0:0,0:0:0:0:
360,341,149505,6,0,L|374:246,1,82.5000031471254,2|0,1:0|0:0,0:0:0:0:
298,87,149778,2,0,L|310:168,1,82.5000031471254,2|0,0:0|0:0,0:0:0:0:
404,111,150051,1,8,0:0:0:0:
404,111,150187,1,0,0:0:0:0:
331,3,150324,2,0,P|273:1|238:20,1,82.5000031471254,2|0,0:0|0:0,0:0:0:0:
37,89,150596,6,0,P|115:63|199:187,1,247.500009441376,2|0,1:0|0:0,0:0:0:0:
89,240,151142,2,0,L|107:145,1,82.5000031471254,10|0,0:0|0:0,0:0:0:0:
267,263,151415,1,0,0:0:0:0:
267,263,151551,1,0,0:0:0:0:
189,356,151687,6,0,L|171:261,1,82.5000031471254,2|0,1:0|0:0,0:0:0:0:
308,90,151960,2,0,L|292:171,1,82.5000031471254,2|0,0:0|0:0,0:0:0:0:
344,372,152233,1,10,0:0:0:0:
267,263,152369,1,2,0:0:0:0:
345,346,152505,1,2,0:0:0:0:
269,296,152642,1,2,0:0:0:0:
440,344,152778,6,0,L|465:67,1,247.500009441376,2|0,1:0|0:0,0:0:0:0:
72,344,153324,2,0,L|49:97,1,247.500009441376,10|0,0:0|0:0,0:0:0:0:
184,56,153869,5,2,1:0:0:0:
267,164,154005,1,2,0:0:0:0:
175,149,154142,1,2,0:0:0:0:
280,66,154278,1,2,0:0:0:0:
273,184,154415,2,0,B|261:254|261:254|284:366|284:366|308:273,1,247.500009441376,10|0,0:0|0:0,0:0:0:0:
389,167,154960,6,0,B|440:136|522:164|529:242|529:242|516:197|468:183,1,247.500009441376,2|0,1:0|0:0,0:0:0:0:
425,273,155505,2,0,B|414:306|414:306|424:367,1,82.5000031471254,10|2,0:0|0:0,0:0:0:0:
496,195,155778,1,2,0:0:0:0:
389,167,155915,2,0,L|280:166,1,82.5000031471254,2|2,0:0|1:0,0:0:0:0:
127,187,156187,5,2,0:0:0:0:
171,107,156324,1,2,0:0:0:0:
181,255,156460,1,2,0:0:0:0:
77,112,156596,5,10,0:0:0:0:
258,97,156733,1,2,0:0:0:0:
127,187,156869,1,2,0:0:0:0:
208,29,157005,1,2,0:0:0:0:
306,166,157142,6,0,P|368:173|377:26,1,247.500009441376,6|0,1:0|0:0,0:0:0:0:
507,79,157687,2,0,P|507:120|497:160,1,82.5000031471254,10|0,0:0|0:0,0:0:0:0:
407,258,157960,2,0,P|396:218|396:177,1,82.5000031471254,0|0,0:0|0:0,0:0:0:0:
484,318,158233,1,2,1:0:0:0:
484,318,158369,1,0,0:0:0:0:
350,330,158505,2,0,P|291:319|261:301,1,82.5000031471254,2|0,0:0|0:0,0:0:0:0:
197,193,158778,5,8,0:0:0:0:
197,193,158915,1,0,0:0:0:0:
116,273,159051,2,0,P|50:280|17:272,1,82.5000031471254,2|0,0:0|0:0,0:0:0:0:
172,85,159324,6,0,B|234:48|234:48|361:45|361:45|304:80,1,247.500009441376,2|0,1:0|0:0,0:0:0:0:
259,143,159869,2,0,B|196:175|196:175|81:174,1,165.000006294251,10|0,0:0|0:0,0:0:0:0:
54,96,160278,1,0,0:0:0:0:
91,256,160415,6,0,L|102:166,1,82.5000031471254,2|0,1:0|0:0,0:0:0:0:
11,367,160687,2,0,L|0:277,1,82.5000031471254,2|0,0:0|0:0,0:0:0:0:
180,287,160960,1,10,0:0:0:0:
163,383,161096,1,2,0:0:0:0:
202,263,161233,1,2,0:0:0:0:
136,369,161369,1,2,0:0:0:0:
264,337,161505,6,0,L|465:332,1,165.000006294251,2|2,1:0|3:0,0:0:0:0:
474,236,161915,1,0,0:0:0:0:
391,181,162051,2,0,P|374:121|388:75,1,82.5000031471254,10|0,0:0|0:0,0:0:0:0:
484,0,162324,2,0,P|485:40|469:78,1,82.5000031471254,2|0,3:0|0:0,0:0:0:0:
137,100,162596,6,0,B|194:74|246:94|247:99|247:105|284:140|386:98,1,247.500009441376,2|0,1:0|0:0,0:0:0:0:
196,176,163142,2,0,P|179:233|182:285,1,82.5000031471254,10|0,0:0|0:0,0:0:0:0:
294,353,163415,2,0,P|290:312|276:273,1,82.5000031471254,2|0,3:0|0:0,0:0:0:0:
210,148,163687,5,0,1:0:0:0:
376,204,163960,1,2,3:0:0:0:
160,335,164233,6,0,P|163:294|177:255,1,82.5000031471254,10|0,0:0|0:0,0:0:0:0:
376,204,164505,2,0,P|390:242|393:283,1,82.5000031471254,2|0,3:0|0:0,0:0:0:0:
310,127,164778,2,0,P|353:105|409:113,1,82.5000031471254,0|0,1:0|0:0,0:0:0:0:
458,212,165051,2,0,L|354:201,1,82.5000031471254,2|0,3:0|0:0,0:0:0:0:
135,140,165324,2,0,P|178:118|234:126,1,82.5000031471254,10|0,0:0|0:0,0:0:0:0:
274,38,165596,2,0,P|233:37|197:16,1,82.5000031471254,2|0,3:0|0:0,0:0:0:0:
390,38,165869,6,0,L|373:226,1,165.000006294251,0|2,1:0|3:0,0:0:0:0:
394,302,166278,1,0,0:0:0:0:
220,279,166415,2,0,P|286:263|316:269,1,82.5000031471254,10|0,0:0|0:0,0:0:0:0:
172,360,166687,2,0,P|130:360|92:345,1,82.5000031471254,2|0,3:0|0:0,0:0:0:0:
92,345,166960,1,0,1:0:0:0:
119,176,167233,6,0,L|131:278,1,82.5000031471254,2|0,3:0|0:0,0:0:0:0:
374,202,167505,2,0,L|383:120,1,82.5000031471254,10|0,0:0|0:0,0:0:0:0:
166,21,167778,2,0,L|175:102,1,82.5000031471254,2|0,3:0|0:0,0:0:0:0:
454,219,168051,5,0,1:0:0:0:
454,219,168324,2,0,P|393:201|355:205,1,82.5000031471254,2|0,3:0|0:0,0:0:0:0:
58,219,168596,2,0,P|119:201|157:205,1,82.5000031471254,10|0,0:0|0:0,0:0:0:0:
343,361,168869,2,0,P|340:319|325:281,1,82.5000031471254,2|0,3:0|0:0,0:0:0:0:
169,23,169142,6,0,P|171:64|181:98,1,55,0|0,1:0|0:0,0:0:0:0:
169,23,169415,1,2,3:0:0:0:
447,140,169687,1,10,0:0:0:0:
414,51,169960,1,2,3:0:0:0:
352,356,170233,6,0,L|321:89,1,247.500009441376,6|0,1:0|0:0,0:0:0:0:
125,112,170778,1,10,0:0:0:0:
195,199,170915,1,2,0:0:0:0:
236,86,171051,1,2,0:0:0:0:
173,228,171187,1,2,0:0:0:0:
111,103,171324,2,0,P|72:78|-8:98,1,123.750004720688,2|0,1:0|0:0,0:0:0:0:
50,167,171869,5,10,0:0:0:0:
142,18,172005,1,2,0:0:0:0:
195,199,172142,1,2,0:0:0:0:
166,40,172278,1,2,0:0:0:0:
303,144,172415,6,0,P|363:155|421:114,1,123.750004720688,2|0,1:0|0:0,0:0:0:0:
429,35,172960,1,10,0:0:0:0:
422,240,173096,1,2,0:0:0:0:
401,32,173233,1,2,0:0:0:0:
454,232,173369,1,2,0:0:0:0:
303,144,173505,6,0,B|287:98|287:98|293:20,1,123.750004720688,2|0,1:0|0:0,0:0:0:0:
399,152,174051,1,10,0:0:0:0:
336,246,174187,1,2,0:0:0:0:
303,144,174324,1,2,0:0:0:0:
435,256,174460,1,2,0:0:0:0:
325,370,174596,6,0,L|337:237,1,123.750004720688,2|0,1:0|0:0,0:0:0:0:
172,189,175142,1,10,0:0:0:0:
244,263,175278,1,2,0:0:0:0:
303,144,175415,1,2,0:0:0:0:
191,179,175551,1,2,0:0:0:0:
336,247,175687,6,0,B|373:222|373:222|462:223,1,123.750004720688,2|0,1:0|0:0,0:0:0:0:
448,309,176233,1,10,0:0:0:0:
484,139,176369,1,2,0:0:0:0:
459,331,176505,1,2,0:0:0:0:
464,118,176642,1,2,0:0:0:0:
303,144,176778,6,0,P|253:133|195:66,1,123.750004720688,2|0,1:0|0:0,0:0:0:0:
251,8,177324,1,10,0:0:0:0:
129,130,177460,1,2,0:0:0:0:
130,30,177596,1,2,0:0:0:0:
216,169,177733,1,2,0:0:0:0:
93,130,177869,6,0,P|43:134|-10:189,1,123.750004720688,2|0,1:0|0:0,0:0:0:0:
80,220,178415,1,10,0:0:0:0:
216,169,178551,1,2,0:0:0:0:
74,257,178687,1,2,0:0:0:0:
226,203,178824,1,2,0:0:0:0:
199,342,178960,6,0,L|188:70,1,247.500009441376,6|0,1:0|0:0,0:0:0:0:
359,44,179505,1,10,0:0:0:0:
359,44,179778,1,0,3:0:0:0:
188,94,179915,1,0,0:0:0:0:
313,143,180051,6,0,P|362:102|459:123,1,165.000006294251,2|0,1:0|0:0,0:0:0:0:
510,199,180460,1,0,0:0:0:0:
386,352,180596,2,0,L|395:164,1,165.000006294251,10|0,0:0|3:0,0:0:0:0:
455,119,181005,1,0,0:0:0:0:
290,228,181142,6,0,P|218:239|70:137,1,247.500009441376,2|0,1:0|0:0,0:0:0:0:
51,16,181687,1,10,0:0:0:0:
51,16,181960,1,0,3:0:0:0:
76,150,182096,1,0,0:0:0:0:
161,67,182233,6,0,P|233:56|308:113,1,165.000006294251,2|0,1:0|0:0,0:0:0:0:
212,147,182642,1,0,0:0:0:0:
362,41,182778,2,0,L|478:35,1,82.5000031471254,10|0,0:0|0:0,0:0:0:0:
456,233,183051,1,0,3:0:0:0:
502,125,183187,1,2,0:0:0:0:
443,261,183324,6,0,B|361:226|321:252|321:257|321:263|273:295|178:253,1,247.500009441376,2|0,1:0|0:0,0:0:0:0:
71,182,183869,1,10,0:0:0:0:
71,182,184142,1,0,3:0:0:0:
99,283,184278,1,0,0:0:0:0:
65,159,184415,6,0,L|46:71,1,82.5000031471254,2|0,1:0|0:0,0:0:0:0:
137,22,184687,1,0,0:0:0:0:
137,22,184824,1,0,0:0:0:0:
217,73,184960,2,0,L|199:153,1,82.5000031471254,10|0,0:0|0:0,0:0:0:0:
264,222,185233,1,0,3:0:0:0:
264,222,185369,1,0,0:0:0:0:
330,146,185505,6,0,P|386:124|499:260,1,247.500009441376,2|0,1:0|0:0,0:0:0:0:
412,351,186051,1,10,0:0:0:0:
412,351,186324,1,0,3:0:0:0:
398,225,186460,1,0,0:0:0:0:
302,298,186596,6,0,P|255:302|206:286,1,82.5000031471254,2|0,1:0|0:0,0:0:0:0:
124,187,186869,1,0,3:0:0:0:
124,187,187005,1,0,0:0:0:0:
229,159,187142,1,10,0:0:0:0:
134,285,187278,1,0,0:0:0:0:
219,136,187415,1,0,3:0:0:0:
227,319,187551,1,0,0:0:0:0:
212,111,187687,6,0,L|195:27,1,82.5000031471254,4|0,1:0|0:0,0:0:0:0:
195,30,188778,2,0,P|265:17|290:24,1,82.5000031471254,0|0,0:0|0:0,0:0:0:0:
331,90,189324,2,0,P|401:103|426:96,1,82.5000031471254,0|0,0:0|0:0,0:0:0:0:
471,31,189869,6,0,L|443:209,1,165.000006294251,2|0,0:0|0:0,0:0:0:0:
446,290,190687,1,0,0:0:0:0:
446,290,190960,2,0,P|406:283|373:254,1,82.5000031471254,0|0,0:0|0:0,0:0:0:0:
231,220,191505,2,0,P|271:213|304:184,1,82.5000031471254,0|0,0:0|0:0,0:0:0:0:
229,133,192051,6,0,L|218:303,1,165.000006294251,2|0,0:0|0:0,0:0:0:0:
0,92,193142,2,0,P|49:60|163:85,1,165.000006294251,0|2,0:0|0:0,0:0:0:0:
229,133,193960,1,2,0:0:0:0:
302,64,194233,2,0,P|380:44|441:186,1,247.500009441376,2|0,0:0|0:0,0:0:0:0:
358,144,195324,6,0,P|428:71|448:170,1,247.500009441376,2|0,0:0|0:0,0:0:0:0:
375,233,196415,6,0,B|300:164|213:204|212:207|213:212|139:275|-33:232|0:109|103:113|104:176,2,440,2|2|2,0:0|0:0|0:0,0:0:0:0:
397,188,204051,2,0,P|343:172|289:189,1,110,2|2,0:0|0:0,0:0:0:0:
227,246,204869,1,2,0:0:0:0:
227,246,205142,6,0,P|185:272|75:233,1,165,2|0,0:0|0:0,0:0:0:0:
62,158,206233,2,0,L|54:95,2,55,2|2|2,0:0|0:0|0:0,0:0:0:0:
80,240,207051,1,2,0:0:0:0:
147,181,207324,2,0,P|183:171|260:177,1,110,2|0,0:0|0:0,0:0:0:0:
450,158,208415,6,0,L|458:95,2,55,2|2|2,0:0|0:0|0:0,0:0:0:0:
375,214,209233,1,2,0:0:0:0:
419,304,209505,2,0,P|367:313|280:244,1,165,2|0,0:0|0:0,0:0:0:0:
271,165,210596,6,0,L|154:158,1,110,2|2,0:0|0:0,0:0:0:0:
86,107,211415,1,2,0:0:0:0:
86,107,211687,2,0,P|70:143|90:213,1,110,2|0,0:0|0:0,0:0:0:0:
86,311,212778,2,0,P|103:260|86:208,1,110,2|0,0:0|0:0,0:0:0:0:
86,208,213869,5,6,0:0:0:0:
