osu file format v14

[General]
AudioFilename: edit.mp3
AudioLeadIn: 0
PreviewTime: 143983
Countdown: 0
SampleSet: Soft
StackLeniency: 0.7
Mode: 0
LetterboxInBreaks: 0
EpilepsyWarning: 1
WidescreenStoryboard: 1

[Editor]
Bookmarks: 126596,135324
DistanceSpacing: 0.8
BeatDivisor: 4
GridSize: 4
TimelineZoom: 1.6

[Metadata]
Title:Immortal Flame (feat. Anna Yvette)
TitleUnicode:Immortal Flame (feat. Anna Yvette)
Artist:Panda Eyes & Teminite
ArtistUnicode:Panda Eyes & Teminite
Creator:Sotarks
Version:Akitoshi's Normal
Source:
Tags:DubstepGutter DSG Akitoshi corinn Kin SnowNiNo_ corinn ascendance hareimu Mir PoNo Ponoyoshi
BeatmapID:1511864
BeatmapSetID:703957

[Difficulty]
HPDrainRate:4
CircleSize:2.8
OverallDifficulty:4
ApproachRate:5
SliderMultiplier:1.8
SliderTickRate:1

[Events]
//Background and Video events
0,0,"BG.jpg",0,0
//Break Periods
2,4615,11942
2,13342,20669
2,22069,27215
2,39524,55033
2,126796,134124
2,187887,195215
2,214068,217033
//Storyboard Layer 0 (Background)
Sprite,Background,Centre,"SB\BG\BG_BW_B.jpg",320,240 F,0,56778,57323,0.5,0 S,4,56778,57323,0.4528302,0.4444444 F,0,57323,57868,0.5,0 S,4,57323,57868,0.4528302,0.4444444 F,0,57868,58414,0.5,0 S,4,57868,58414,0.4528302,0.4444444 F,0,58414,58959,0.5,0 S,4,58414,58959,0.4528302,0.4444444 F,0,58959,59505,0.5,0 S,4,58959,59505,0.4528302,0.4444444 F,0,59505,60050,0.5,0 S,4,59505,60050,0.4528302,0.4444444 F,0,60050,60596,0.5,0 S,4,60050,60596,0.4528302,0.4444444 F,0,60596,61141,0.5,0 S,4,60596,61141,0.4528302,0.4444444 F,0,61141,61687,0.5,0 S,4,61141,61687,0.4528302,0.4444444 F,0,61687,62232,0.5,0 S,4,61687,62232,0.4528302,0.4444444 F,0,62232,62777,0.5,0 S,4,62232,62777,0.4528302,0.4444444 F,0,62777,63323,0.5,0 S,4,62777,63323,0.4528302,0.4444444 F,0,63323,63868,0.5,0 S,4,63323,63868,0.4528302,0.4444444 F,0,63868,64414,0.5,0 S,4,63868,64414,0.4528302,0.4444444 F,0,64414,64959,0.5,0 S,4,64414,64959,0.4528302,0.4444444 F,0,64959,65505,0.5,0 S,4,64959,65505,0.4528302,0.4444444 F,0,65505,66050,0.5,0 S,4,65505,66050,0.4528302,0.4444444 F,0,66050,66596,0.5,0 S,4,66050,66596,0.4528302,0.4444444 F,0,66596,67141,0.5,0 S,4,66596,67141,0.4528302,0.4444444 F,0,67141,67687,0.5,0 S,4,67141,67687,0.4528302,0.4444444 F,0,67687,68232,0.5,0 S,4,67687,68232,0.4528302,0.4444444 F,0,68232,68777,0.5,0 S,4,68232,68777,0.4528302,0.4444444 F,0,68777,69323,0.5,0 S,4,68777,69323,0.4528302,0.4444444 F,0,69323,69868,0.5,0 S,4,69323,69868,0.4528302,0.4444444 F,0,69868,70414,0.5,0 S,4,69868,70414,0.4528302,0.4444444 F,0,70414,70959,0.5,0 S,4,70414,70959,0.4528302,0.4444444 F,0,70959,71505,0.5,0 S,4,70959,71505,0.4528302,0.4444444 F,0,71505,72050,0.5,0 S,4,71505,72050,0.4528302,0.4444444 F,0,72050,72596,0.5,0 S,4,72050,72596,0.4528302,0.4444444 F,0,72596,73141,0.5,0 S,4,72596,73141,0.4528302,0.4444444 F,0,73141,73687,0.5,0 S,4,73141,73687,0.4528302,0.4444444 F,0,73687,74232,0.5,0 S,4,73687,74232,0.4528302,0.4444444
Sprite,Background,Centre,"SB\BG\BG_BW_B.jpg",320,240 F,0,91687,92232,0.5,0 S,4,91687,92232,0.4528302,0.4444444 F,0,92232,92777,0.5,0 S,4,92232,92777,0.4528302,0.4444444 F,0,92777,93323,0.5,0 S,4,92777,93323,0.4528302,0.4444444 F,0,93323,93868,0.5,0 S,4,93323,93868,0.4528302,0.4444444 F,0,93868,94414,0.5,0 S,4,93868,94414,0.4528302,0.4444444 F,0,94414,94959,0.5,0 S,4,94414,94959,0.4528302,0.4444444 F,0,94959,95505,0.5,0 S,4,94959,95505,0.4528302,0.4444444 F,0,95505,96050,0.5,0 S,4,95505,96050,0.4528302,0.4444444 F,0,96050,96596,0.5,0 S,4,96050,96596,0.4528302,0.4444444 F,0,96596,97141,0.5,0 S,4,96596,97141,0.4528302,0.4444444 F,0,97141,97686,0.5,0 S,4,97141,97686,0.4528302,0.4444444 F,0,97686,98232,0.5,0 S,4,97686,98232,0.4528302,0.4444444 F,0,98232,98777,0.5,0 S,4,98232,98777,0.4528302,0.4444444 F,0,98777,99323,0.5,0 S,4,98777,99323,0.4528302,0.4444444 F,0,99323,99868,0.5,0 S,4,99323,99868,0.4528302,0.4444444 F,0,99868,100414,0.5,0 S,4,99868,100414,0.4528302,0.4444444 F,0,100414,100959,0.5,0 S,4,100414,100959,0.4528302,0.4444444 F,0,100959,101505,0.5,0 S,4,100959,101505,0.4528302,0.4444444 F,0,101505,102050,0.5,0 S,4,101505,102050,0.4528302,0.4444444 F,0,102050,102596,0.5,0 S,4,102050,102596,0.4528302,0.4444444 F,0,102596,103141,0.5,0 S,4,102596,103141,0.4528302,0.4444444 F,0,103141,103686,0.5,0 S,4,103141,103686,0.4528302,0.4444444 F,0,103686,104232,0.5,0 S,4,103686,104232,0.4528302,0.4444444 F,0,104232,104777,0.5,0 S,4,104232,104777,0.4528302,0.4444444 F,0,104777,105323,0.5,0 S,4,104777,105323,0.4528302,0.4444444 F,0,105323,105868,0.5,0 S,4,105323,105868,0.4528302,0.4444444 F,0,105868,106414,0.5,0 S,4,105868,106414,0.4528302,0.4444444 F,0,106414,106959,0.5,0 S,4,106414,106959,0.4528302,0.4444444 F,0,106959,107505,0.5,0 S,4,106959,107505,0.4528302,0.4444444 F,0,107505,108050,0.5,0 S,4,107505,108050,0.4528302,0.4444444 F,0,108050,108596,0.5,0 S,4,108050,108596,0.4528302,0.4444444 F,0,108596,109141,0.5,0 S,4,108596,109141,0.4528302,0.4444444
Sprite,Background,Centre,"SB\BG\BG_BW_B.jpg",320,240 F,0,144051,144596,0.5,0 S,4,144051,144596,0.4528302,0.4444444 F,0,144596,145141,0.5,0 S,4,144596,145141,0.4528302,0.4444444 F,0,145141,145687,0.5,0 S,4,145141,145687,0.4528302,0.4444444 F,0,145687,146232,0.5,0 S,4,145687,146232,0.4528302,0.4444444 F,0,146232,146778,0.5,0 S,4,146232,146778,0.4528302,0.4444444 F,0,146778,147323,0.5,0 S,4,146778,147323,0.4528302,0.4444444 F,0,147323,147869,0.5,0 S,4,147323,147869,0.4528302,0.4444444 F,0,147869,148414,0.5,0 S,4,147869,148414,0.4528302,0.4444444 F,0,148414,148960,0.5,0 S,4,148414,148960,0.4528302,0.4444444 F,0,148960,149505,0.5,0 S,4,148960,149505,0.4528302,0.4444444 F,0,149505,150051,0.5,0 S,4,149505,150051,0.4528302,0.4444444 F,0,150051,150596,0.5,0 S,4,150051,150596,0.4528302,0.4444444 F,0,150596,151141,0.5,0 S,4,150596,151141,0.4528302,0.4444444 F,0,151141,151687,0.5,0 S,4,151141,151687,0.4528302,0.4444444 F,0,151687,152232,0.5,0 S,4,151687,152232,0.4528302,0.4444444 F,0,152232,152778,0.5,0 S,4,152232,152778,0.4528302,0.4444444 F,0,152778,153323,0.5,0 S,4,152778,153323,0.4528302,0.4444444 F,0,153323,153869,0.5,0 S,4,153323,153869,0.4528302,0.4444444 F,0,153869,154414,0.5,0 S,4,153869,154414,0.4528302,0.4444444 F,0,154414,154960,0.5,0 S,4,154414,154960,0.4528302,0.4444444 F,0,154960,155505,0.5,0 S,4,154960,155505,0.4528302,0.4444444 F,0,155505,156051,0.5,0 S,4,155505,156051,0.4528302,0.4444444 F,0,156051,156596,0.5,0 S,4,156051,156596,0.4528302,0.4444444 F,0,156596,157141,0.5,0 S,4,156596,157141,0.4528302,0.4444444 F,0,157141,157687,0.5,0 S,4,157141,157687,0.4528302,0.4444444 F,0,157687,158232,0.5,0 S,4,157687,158232,0.4528302,0.4444444 F,0,158232,158778,0.5,0 S,4,158232,158778,0.4528302,0.4444444 F,0,158778,159323,0.5,0 S,4,158778,159323,0.4528302,0.4444444 F,0,159323,159869,0.5,0 S,4,159323,159869,0.4528302,0.4444444 F,0,159869,160414,0.5,0 S,4,159869,160414,0.4528302,0.4444444 F,0,160414,160960,0.5,0 S,4,160414,160960,0.4528302,0.4444444 F,0,160960,161505,0.5,0 S,4,160960,161505,0.4528302,0.4444444 F,0,161505,162051,0.5,0 S,4,161505,162051,0.4528302,0.4444444 F,0,162051,162596,0.5,0 S,4,162051,162596,0.4528302,0.4444444 F,0,162596,163141,0.5,0 S,4,162596,163141,0.4528302,0.4444444 F,0,163141,163687,0.5,0 S,4,163141,163687,0.4528302,0.4444444 F,0,163687,164232,0.5,0 S,4,163687,164232,0.4528302,0.4444444 F,0,164232,164778,0.5,0 S,4,164232,164778,0.4528302,0.4444444 F,0,164778,165323,0.5,0 S,4,164778,165323,0.4528302,0.4444444 F,0,165323,165869,0.5,0 S,4,165323,165869,0.4528302,0.4444444 F,0,165869,166414,0.5,0 S,4,165869,166414,0.4528302,0.4444444 F,0,166414,166960,0.5,0 S,4,166414,166960,0.4528302,0.4444444 F,0,166960,167505,0.5,0 S,4,166960,167505,0.4528302,0.4444444 F,0,167505,168051,0.5,0 S,4,167505,168051,0.4528302,0.4444444 F,0,168051,168596,0.5,0 S,4,168051,168596,0.4528302,0.4444444 F,0,168596,169141,0.5,0 S,4,168596,169141,0.4528302,0.4444444 F,0,169141,169687,0.5,0 S,4,169141,169687,0.4528302,0.4444444 F,0,169687,170232,0.5,0 S,4,169687,170232,0.4528302,0.4444444 F,0,170232,170778,0.5,0 S,4,170232,170778,0.4528302,0.4444444 F,0,170778,171323,0.5,0 S,4,170778,171323,0.4528302,0.4444444 F,0,171323,171869,0.5,0 S,4,171323,171869,0.4528302,0.4444444 F,0,171869,172414,0.5,0 S,4,171869,172414,0.4528302,0.4444444 F,0,172414,172960,0.5,0 S,4,172414,172960,0.4528302,0.4444444 F,0,172960,173505,0.5,0 S,4,172960,173505,0.4528302,0.4444444 F,0,173505,174051,0.5,0 S,4,173505,174051,0.4528302,0.4444444 F,0,174051,174596,0.5,0 S,4,174051,174596,0.4528302,0.4444444 F,0,174596,175141,0.5,0 S,4,174596,175141,0.4528302,0.4444444 F,0,175141,175687,0.5,0 S,4,175141,175687,0.4528302,0.4444444 F,0,175687,176232,0.5,0 S,4,175687,176232,0.4528302,0.4444444 F,0,176232,176778,0.5,0 S,4,176232,176778,0.4528302,0.4444444 F,0,176778,177323,0.5,0 S,4,176778,177323,0.4528302,0.4444444 F,0,177323,177869,0.5,0 S,4,177323,177869,0.4528302,0.4444444 F,0,177869,178414,0.5,0 S,4,177869,178414,0.4528302,0.4444444 F,0,178414,178960,0.5,0 S,4,178414,178960,0.4528302,0.4444444 F,0,178960,179505,0.5,0 S,4,178960,179505,0.4528302,0.4444444 F,0,179505,180051,0.5,0 S,4,179505,180051,0.4528302,0.4444444 F,0,180051,180596,0.5,0 S,4,180051,180596,0.4528302,0.4444444 F,0,180596,181141,0.5,0 S,4,180596,181141,0.4528302,0.4444444 F,0,181141,181687,0.5,0 S,4,181141,181687,0.4528302,0.4444444 F,0,181687,182232,0.5,0 S,4,181687,182232,0.4528302,0.4444444 F,0,182232,182778,0.5,0 S,4,182232,182778,0.4528302,0.4444444 F,0,182778,183323,0.5,0 S,4,182778,183323,0.4528302,0.4444444 F,0,183323,183869,0.5,0 S,4,183323,183869,0.4528302,0.4444444 F,0,183869,184414,0.5,0 S,4,183869,184414,0.4528302,0.4444444 F,0,184414,184960,0.5,0 S,4,184414,184960,0.4528302,0.4444444 F,0,184960,185505,0.5,0 S,4,184960,185505,0.4528302,0.4444444 F,0,185505,186051,0.5,0 S,4,185505,186051,0.4528302,0.4444444 F,0,186051,186596,0.5,0 S,4,186051,186596,0.4528302,0.4444444 F,0,186596,187141,0.5,0 S,4,186596,187141,0.4528302,0.4444444 F,0,187141,187687,0.5,0 S,4,187141,187687,0.4528302,0.4444444
Sprite,Background,Centre,"SB\BG\BG_BW_B.jpg",320,240 S,0,1142,,0.4444444 F,0,1142,4414,0,0.2 F,0,4414,6596,0.6,0.2 F,0,21869,39324,0.2,0.5 F,0,39324,41505,0.5,0 F,0,109142,126596,0.2 F,0,126596,128778,0.2,0 F,0,135324,144051,0,0.8 F,0,187687,189869,0.5,0.2 F,0,189869,213869,0.2 F,0,213869,222596,0.2,0 F,0,222596,240051,0.2,0
Sprite,Background,Centre,"SB\BG\BG_BW.jpg",320,240 S,0,39324,,0.4444444 F,0,39324,54596,0.3 F,0,54596,56233,0.3,0
Sprite,Background,Centre,"BG.jpg",320,240 S,4,56778,57323,0.4528302,0.4444444 F,0,56778,74233,0.8 S,4,57323,57868,0.4528302,0.4444444 S,4,57868,58414,0.4528302,0.4444444 S,4,58414,58959,0.4528302,0.4444444 S,4,58959,59505,0.4528302,0.4444444 S,4,59505,60050,0.4528302,0.4444444 S,4,60050,60596,0.4528302,0.4444444 S,4,60596,61141,0.4528302,0.4444444 S,4,61141,61687,0.4528302,0.4444444 S,4,61687,62232,0.4528302,0.4444444 S,4,62232,62777,0.4528302,0.4444444 S,4,62777,63323,0.4528302,0.4444444 S,4,63323,63868,0.4528302,0.4444444 S,4,63868,64414,0.4528302,0.4444444 S,4,64414,64959,0.4528302,0.4444444 S,4,64959,65505,0.4528302,0.4444444 S,4,65505,66050,0.4528302,0.4444444 S,4,66050,66596,0.4528302,0.4444444 S,4,66596,67141,0.4528302,0.4444444 S,4,67141,67687,0.4528302,0.4444444 S,4,67687,68232,0.4528302,0.4444444 S,4,68232,68777,0.4528302,0.4444444 S,4,68777,69323,0.4528302,0.4444444 S,4,69323,69868,0.4528302,0.4444444 S,4,69868,70414,0.4528302,0.4444444 S,4,70414,70959,0.4528302,0.4444444 S,4,70959,71505,0.4528302,0.4444444 S,4,71505,72050,0.4528302,0.4444444 S,4,72050,72596,0.4528302,0.4444444 S,4,72596,73141,0.4528302,0.4444444 S,4,73141,73687,0.4528302,0.4444444 S,4,73687,74232,0.4528302,0.4444444
Sprite,Background,Centre,"BG.jpg",320,240 S,4,91687,92232,0.4528302,0.4444444 F,0,91687,109142,0.8 S,4,92232,92777,0.4528302,0.4444444 S,4,92777,93323,0.4528302,0.4444444 S,4,93323,93868,0.4528302,0.4444444 S,4,93868,94414,0.4528302,0.4444444 S,4,94414,94959,0.4528302,0.4444444 S,4,94959,95505,0.4528302,0.4444444 S,4,95505,96050,0.4528302,0.4444444 S,4,96050,96596,0.4528302,0.4444444 S,4,96596,97141,0.4528302,0.4444444 S,4,97141,97686,0.4528302,0.4444444 S,4,97686,98232,0.4528302,0.4444444 S,4,98232,98777,0.4528302,0.4444444 S,4,98777,99323,0.4528302,0.4444444 S,4,99323,99868,0.4528302,0.4444444 S,4,99868,100414,0.4528302,0.4444444 S,4,100414,100959,0.4528302,0.4444444 S,4,100959,101505,0.4528302,0.4444444 S,4,101505,102050,0.4528302,0.4444444 S,4,102050,102596,0.4528302,0.4444444 S,4,102596,103141,0.4528302,0.4444444 S,4,103141,103686,0.4528302,0.4444444 S,4,103686,104232,0.4528302,0.4444444 S,4,104232,104777,0.4528302,0.4444444 S,4,104777,105323,0.4528302,0.4444444 S,4,105323,105868,0.4528302,0.4444444 S,4,105868,106414,0.4528302,0.4444444 S,4,106414,106959,0.4528302,0.4444444 S,4,106959,107505,0.4528302,0.4444444 S,4,107505,108050,0.4528302,0.4444444 S,4,108050,108596,0.4528302,0.4444444 S,4,108596,109141,0.4528302,0.4444444
Sprite,Background,Centre,"BG.jpg",320,240 S,4,144051,144596,0.4528302,0.4444444 F,0,144051,187687,0.8 S,4,144596,145141,0.4528302,0.4444444 S,4,145141,145687,0.4528302,0.4444444 S,4,145687,146232,0.4528302,0.4444444 S,4,146232,146778,0.4528302,0.4444444 S,4,146778,147323,0.4528302,0.4444444 S,4,147323,147869,0.4528302,0.4444444 S,4,147869,148414,0.4528302,0.4444444 S,4,148414,148960,0.4528302,0.4444444 S,4,148960,149505,0.4528302,0.4444444 S,4,149505,150051,0.4528302,0.4444444 S,4,150051,150596,0.4528302,0.4444444 S,4,150596,151141,0.4528302,0.4444444 S,4,151141,151687,0.4528302,0.4444444 S,4,151687,152232,0.4528302,0.4444444 S,4,152232,152778,0.4528302,0.4444444 S,4,152778,153323,0.4528302,0.4444444 S,4,153323,153869,0.4528302,0.4444444 S,4,153869,154414,0.4528302,0.4444444 S,4,154414,154960,0.4528302,0.4444444 S,4,154960,155505,0.4528302,0.4444444 S,4,155505,156051,0.4528302,0.4444444 S,4,156051,156596,0.4528302,0.4444444 S,4,156596,157141,0.4528302,0.4444444 S,4,157141,157687,0.4528302,0.4444444 S,4,157687,158232,0.4528302,0.4444444 S,4,158232,158778,0.4528302,0.4444444 S,4,158778,159323,0.4528302,0.4444444 S,4,159323,159869,0.4528302,0.4444444 S,4,159869,160414,0.4528302,0.4444444 S,4,160414,160960,0.4528302,0.4444444 S,4,160960,161505,0.4528302,0.4444444 S,4,161505,162051,0.4528302,0.4444444 S,4,162051,162596,0.4528302,0.4444444 S,4,162596,163141,0.4528302,0.4444444 S,4,163141,163687,0.4528302,0.4444444 S,4,163687,164232,0.4528302,0.4444444 S,4,164232,164778,0.4528302,0.4444444 S,4,164778,165323,0.4528302,0.4444444 S,4,165323,165869,0.4528302,0.4444444 S,4,165869,166414,0.4528302,0.4444444 S,4,166414,166960,0.4528302,0.4444444 S,4,166960,167505,0.4528302,0.4444444 S,4,167505,168051,0.4528302,0.4444444 S,4,168051,168596,0.4528302,0.4444444 S,4,168596,169141,0.4528302,0.4444444 S,4,169141,169687,0.4528302,0.4444444 S,4,169687,170232,0.4528302,0.4444444 S,4,170232,170778,0.4528302,0.4444444 S,4,170778,171323,0.4528302,0.4444444 S,4,171323,171869,0.4528302,0.4444444 S,4,171869,172414,0.4528302,0.4444444 S,4,172414,172960,0.4528302,0.4444444 S,4,172960,173505,0.4528302,0.4444444 S,4,173505,174051,0.4528302,0.4444444 S,4,174051,174596,0.4528302,0.4444444 S,4,174596,175141,0.4528302,0.4444444 S,4,175141,175687,0.4528302,0.4444444 S,4,175687,176232,0.4528302,0.4444444 S,4,176232,176778,0.4528302,0.4444444 S,4,176778,177323,0.4528302,0.4444444 S,4,177323,177869,0.4528302,0.4444444 S,4,177869,178414,0.4528302,0.4444444 S,4,178414,178960,0.4528302,0.4444444 S,4,178960,179505,0.4528302,0.4444444 S,4,179505,180051,0.4528302,0.4444444 S,4,180051,180596,0.4528302,0.4444444 S,4,180596,181141,0.4528302,0.4444444 S,4,181141,181687,0.4528302,0.4444444 S,4,181687,182232,0.4528302,0.4444444 S,4,182232,182778,0.4528302,0.4444444 S,4,182778,183323,0.4528302,0.4444444 S,4,183323,183869,0.4528302,0.4444444 S,4,183869,184414,0.4528302,0.4444444 S,4,184414,184960,0.4528302,0.4444444 S,4,184960,185505,0.4528302,0.4444444 S,4,185505,186051,0.4528302,0.4444444 S,4,186051,186596,0.4528302,0.4444444 S,4,186596,187141,0.4528302,0.4444444 S,4,187141,187687,0.4528302,0.4444444
Sprite,Background,Centre,"SB\BG\BG_BW.jpg",320,240 S,0,74233,,0.4444444 F,0,74233,91687,0.2
Sprite,Background,Centre,"SB\NAMES\akitoshi.png",0,0 M,0,56778,,500,100 S,0,56778,,0.3 F,0,56778,74233,1 R,0,56778,74233,-0.2,-0.1
Sprite,Background,Centre,"SB\NAMES\akitoshi.png",0,0 M,0,91687,,500,100 S,0,91687,,0.3 F,0,91687,109142,1 R,0,91687,109142,-0.2,-0.1
Sprite,Background,Centre,"SB\NAMES\akitoshi.png",0,0 M,0,144051,,500,100 S,0,144051,,0.3 F,0,144051,187687,1 R,0,144051,187687,-0.2,-0.1
Sprite,Background,Centre,"SB\DIV\pixel.png",0,0 L,75323,3 R,19,0,272,0,0.09279197 S,0,74233,,12 F,19,74233,76414,0.5 M,19,74253,75323,342,366,375.7569,512.1522 M,18,75869,76414,375.7569,512.1522,342,366
Sprite,Background,Centre,"SB\DIV\pixel.png",0,0 L,75323,3 R,19,0,272,0,3.088621 S,0,74233,,18 F,19,74233,76414,0.5 M,19,74313,75323,342,366,193.4525,386.8237 M,18,75869,76414,193.4525,386.8237,342,366
Sprite,Background,Centre,"SB\DIV\pixel.png",0,0 L,75323,3 R,19,0,272,0,1.787745 S,0,74233,,18 F,19,74233,76414,0.5 M,19,74309,75323,342,366,310.231,512.5972 M,18,75869,76414,310.231,512.5972,342,366
Sprite,Background,Centre,"SB\DIV\pixel.png",0,0 L,75323,3 R,19,0,272,0,0.2726582 S,0,74233,,14 F,19,74233,76414,0.5 M,19,74265,75323,342,366,198.172,408.5852 M,18,75869,76414,198.172,408.5852,342,366
Sprite,Background,Centre,"SB\DIV\pixel.png",0,0 L,75323,3 R,19,0,272,0,0.7341629 S,0,74233,,16 F,19,74233,76414,0.5 M,19,74255,75323,342,366,192.1401,372.4813 M,18,75869,76414,192.1401,372.4813,342,366
Sprite,Background,Centre,"SB\DIV\pixel.png",0,0 L,75323,3 R,19,0,272,0,1.632623 S,0,74233,,7 F,19,74233,76414,0.5 M,19,74312,75323,342,366,261.7019,239.3027 M,18,75869,76414,261.7019,239.3027,342,366
Sprite,Background,Centre,"SB\DIV\pixel.png",0,0 L,75323,3 R,19,0,272,0,2.01157 S,0,74233,,12 F,19,74233,76414,0.5 M,19,74321,75323,342,366,472.5891,292.1996 M,18,75869,76414,472.5891,292.1996,342,366
Sprite,Background,Centre,"SB\DIV\pixel.png",0,0 L,75323,3 R,19,0,272,0,0.6853305 S,0,74233,,5 F,19,74233,76414,0.5 M,19,74324,75323,342,366,442.3371,477.501 M,18,75869,76414,442.3371,477.501,342,366
Sprite,Background,Centre,"SB\DIV\pixel.png",0,0 L,75323,3 R,19,0,272,0,2.251404 S,0,74233,,7 F,19,74233,76414,0.5 M,19,74273,75323,342,366,491.6874,375.6794 M,18,75869,76414,491.6874,375.6794,342,366
Sprite,Background,Centre,"SB\DIV\pixel.png",0,0 L,75323,3 R,19,0,272,0,1.412117 S,0,74233,,2 F,19,74233,76414,0.5 M,19,74331,75323,342,366,296.8747,509.0514 M,18,75869,76414,296.8747,509.0514,342,366
Sprite,Background,Centre,"SB\DIV\pixel.png",0,0 L,75323,3 R,19,0,272,0,0.6701114 S,0,74233,,11 F,19,74233,76414,0.5 M,19,74331,75323,342,366,452.2566,467.7029 M,18,75869,76414,452.2566,467.7029,342,366
Sprite,Background,Centre,"SB\DIV\pixel.png",0,0 L,75323,3 R,19,0,272,0,0.6778296 S,0,74233,,8 F,19,74233,76414,0.5 M,19,74272,75323,342,366,491.8839,360.1 M,18,75869,76414,491.8839,360.1,342,366
Sprite,Background,Centre,"SB\DIV\pixel.png",0,0 L,75323,3 R,19,0,272,0,2.211018 S,0,74233,,9 F,19,74233,76414,0.5 M,19,74284,75323,342,366,281.2144,228.8683 M,18,75869,76414,281.2144,228.8683,342,366
Sprite,Background,Centre,"SB\DIV\pixel.png",0,0 L,75323,3 R,19,0,272,0,1.515439 S,0,74233,,7 F,19,74233,76414,0.5 M,19,74252,75323,342,366,219.715,452.8699 M,18,75869,76414,219.715,452.8699,342,366
Sprite,Background,Centre,"SB\DIV\pixel.png",0,0 L,75323,3 R,19,0,272,0,0.5389467 S,0,74233,,10 F,19,74233,76414,0.5 M,19,74243,75323,342,366,196.3675,330.0671 M,18,75869,76414,196.3675,330.0671,342,366
Sprite,Background,Centre,"SB\DIV\pixel.png",0,0 L,75323,3 R,19,0,272,0,2.336945 S,0,74233,,3 F,19,74233,76414,0.5 M,19,74324,75323,342,366,467.4309,448.2623 M,18,75869,76414,467.4309,448.2623,342,366
Sprite,Background,Centre,"SB\DIV\pixel.png",0,0 L,75323,3 R,19,0,272,0,0.8079442 S,0,74233,,16 F,19,74233,76414,0.5 M,19,74311,75323,342,366,270.1482,234.3288 M,18,75869,76414,270.1482,234.3288,342,366
Sprite,Background,Centre,"SB\DIV\pixel.png",0,0 L,75323,3 R,19,0,272,0,0.6016439 S,0,74233,,8 F,19,74233,76414,0.5 M,19,74268,75323,342,366,477.6321,301.938 M,18,75869,76414,477.6321,301.938,342,366
Sprite,Background,Centre,"SB\DIV\pixel.png",0,0 L,75323,3 R,19,0,272,0,2.896351 S,0,74233,,2 F,19,74233,76414,0.5 M,19,74288,75323,342,366,330.4973,216.4417 M,18,75869,76414,330.4973,216.4417,342,366
Sprite,Background,Centre,"SB\DIV\pixel.png",0,0 L,75323,3 R,19,0,272,0,0.37503 S,0,74233,,12 F,19,74233,76414,0.5 M,19,74330,75323,342,366,192.2125,373.9809 M,18,75869,76414,192.2125,373.9809,342,366
Sprite,Background,Centre,"SB\DIV\pixel.png",0,0 L,75323,3 R,19,0,272,0,2.76329 S,0,74233,,11 F,19,74233,76414,0.5 M,19,74302,75323,342,366,459.6564,459.0429 M,18,75869,76414,459.6564,459.0429,342,366
Sprite,Background,Centre,"SB\DIV\pixel.png",0,0 L,75323,3 R,19,0,272,0,1.907497 S,0,74233,,8 F,19,74233,76414,0.5 M,19,74283,75323,342,366,491.3312,380.1486 M,18,75869,76414,491.3312,380.1486,342,366
Sprite,Background,Centre,"SB\DIV\pixel.png",0,0 L,75323,3 R,19,0,272,0,2.20105 S,0,74233,,13 F,19,74233,76414,0.5 M,19,74263,75323,342,366,474.6294,436.0675 M,18,75869,76414,474.6294,436.0675,342,366
Sprite,Background,Centre,"SB\DIV\pixel.png",0,0 L,75323,3 R,19,0,272,0,1.705947 S,0,74233,,4 F,19,74233,76414,0.5 M,19,74301,75323,342,366,462.947,277.2767 M,18,75869,76414,462.947,277.2767,342,366
Sprite,Background,Centre,"SB\DIV\pixel.png",0,0 L,75323,3 R,19,0,272,0,1.223461 S,0,74233,,3 F,19,74233,76414,0.5 M,19,74315,75323,342,366,485.3075,410.3053 M,18,75869,76414,485.3075,410.3053,342,366
Sprite,Background,Centre,"SB\DIV\pixel.png",0,0 L,75323,3 R,19,0,272,0,2.952811 S,0,74233,,12 F,19,74233,76414,0.5 M,19,74243,75323,342,366,491.6028,355.0911 M,18,75869,76414,491.6028,355.0911,342,366
Sprite,Background,Centre,"SB\DIV\pixel.png",0,0 L,75323,3 R,19,0,272,0,2.060099 S,0,74233,,19 F,19,74233,76414,0.5 M,19,74264,75323,342,366,455.1556,464.4673 M,18,75869,76414,455.1556,464.4673,342,366
Sprite,Background,Centre,"SB\DIV\pixel.png",0,0 L,75323,3 R,19,0,272,0,1.675014 S,0,74233,,19 F,19,74233,76414,0.5 M,19,74258,75323,342,366,490.3738,343.9726 M,18,75869,76414,490.3738,343.9726,342,366
Sprite,Background,Centre,"SB\DIV\pixel.png",0,0 L,75323,3 R,19,0,272,0,2.623544 S,0,74233,,15 F,19,74233,76414,0.5 M,19,74332,75323,342,366,207.7179,432.8455 M,18,75869,76414,207.7179,432.8455,342,366
Sprite,Background,Centre,"SB\DIV\pixel.png",0,0 L,75323,3 R,19,0,272,0,0.9306161 S,0,74233,,7 F,19,74233,76414,0.5 M,19,74325,75323,342,366,205.9663,429.2046 M,18,75869,76414,205.9663,429.2046,342,366
Sprite,Background,Centre,"SB\DIV\pixel.png",0,0 L,75323,3 R,19,0,272,0,1.419618 S,0,74233,,3 F,19,74233,76414,0.5 M,19,74314,75323,342,366,393.3675,225.0696 M,18,75869,76414,393.3675,225.0696,342,366
Sprite,Background,Centre,"SB\DIV\pixel.png",0,0 L,75323,3 R,19,0,272,0,0.1490924 S,0,74233,,4 F,19,74233,76414,0.5 M,19,74291,75323,342,366,316.2871,513.7797 M,18,75869,76414,316.2871,513.7797,342,366
Sprite,Background,Centre,"SB\DIV\pixel.png",0,0 L,75323,3 R,19,0,272,0,1.54747 S,0,74233,,9 F,19,74233,76414,0.5 M,19,74327,75323,342,366,470.2438,288.1955 M,18,75869,76414,470.2438,288.1955,342,366
Sprite,Background,Centre,"SB\DIV\pixel.png",0,0 L,75323,3 R,19,0,272,0,0.9172304 S,0,74233,,19 F,19,74233,76414,0.5 M,19,74266,75323,342,366,352.2936,216.3536 M,18,75869,76414,352.2936,216.3536,342,366
Sprite,Background,Centre,"SB\DIV\pixel.png",0,0 L,75323,3 R,19,0,272,0,1.248108 S,0,74233,,13 F,19,74233,76414,0.5 M,19,74306,75323,342,366,248.2004,248.946 M,18,75869,76414,248.2004,248.946,342,366
Sprite,Background,Centre,"SB\DIV\pixel.png",0,0 L,75323,3 R,19,0,272,0,1.174496 S,0,74233,,6 F,19,74233,76414,0.5 M,19,74240,75323,342,366,484.5152,412.7913 M,18,75869,76414,484.5152,412.7913,342,366
Sprite,Background,Centre,"SB\DIV\pixel.png",0,0 L,75323,3 R,19,0,272,0,1.90863 S,0,74233,,6 F,19,74233,76414,0.5 M,19,74313,75323,342,366,481.4467,421.2685 M,18,75869,76414,481.4467,421.2685,342,366
Sprite,Background,Centre,"SB\DIV\pixel.png",0,0 L,75323,3 R,19,0,272,0,1.933174 S,0,74233,,11 F,19,74233,76414,0.5 M,19,74258,75323,342,366,295.0164,508.4519 M,18,75869,76414,295.0164,508.4519,342,366
Sprite,Background,Centre,"SB\DIV\pixel.png",0,0 L,75323,3 R,19,0,272,0,2.505689 S,0,74233,,18 F,19,74233,76414,0.5 M,19,74244,75323,342,366,228.4157,463.9724 M,18,75869,76414,228.4157,463.9724,342,366
Sprite,Background,Centre,"SB\DIV\pixel.png",0,0 L,75323,3 R,19,0,272,0,1.861903 S,0,74233,,6 F,19,74233,76414,0.5 M,19,74291,75323,342,366,192.5515,378.8507 M,18,75869,76414,192.5515,378.8507,342,366
Sprite,Background,Centre,"SB\DIV\pixel.png",0,0 L,77505,3 R,19,0,272,0,2.032783 S,0,76415,,2 F,19,76415,78596,0.5 M,19,76511,77505,255,235,380.1214,317.7323 M,18,78051,78596,380.1214,317.7323,255,235
Sprite,Background,Centre,"SB\DIV\pixel.png",0,0 L,77505,3 R,19,0,272,0,0.6624678 S,0,76415,,13 F,19,76415,78596,0.5 M,19,76433,77505,255,235,389.4979,301.4102 M,18,78051,78596,389.4979,301.4102,255,235
Sprite,Background,Centre,"SB\DIV\pixel.png",0,0 L,77505,3 R,19,0,272,0,2.029809 S,0,76415,,15 F,19,76415,78596,0.5 M,19,76447,77505,255,235,297.5402,378.8413 M,18,78051,78596,297.5402,378.8413,255,235
Sprite,Background,Centre,"SB\DIV\pixel.png",0,0 L,77505,3 R,19,0,272,0,0.5768073 S,0,76415,,16 F,19,76415,78596,0.5 M,19,76482,77505,255,235,369.0684,332.4084 M,18,78051,78596,369.0684,332.4084,255,235
Sprite,Background,Centre,"SB\DIV\pixel.png",0,0 L,77505,3 R,19,0,272,0,0.5049444 S,0,76415,,8 F,19,76415,78596,0.5 M,19,76497,77505,255,235,105.0062,233.634 M,18,78051,78596,105.0062,233.634,255,235
Sprite,Background,Centre,"SB\DIV\pixel.png",0,0 L,77505,3 R,19,0,272,0,0.5176063 S,0,76415,,17 F,19,76415,78596,0.5 M,19,76497,77505,255,235,106.6727,212.6616 M,18,78051,78596,106.6727,212.6616,255,235
Sprite,Background,Centre,"SB\DIV\pixel.png",0,0 L,77505,3 R,19,0,272,0,0.3744724 S,0,76415,,14 F,19,76415,78596,0.5 M,19,76495,77505,255,235,107.6406,263.0215 M,18,78051,78596,107.6406,263.0215,255,235
Sprite,Background,Centre,"SB\DIV\pixel.png",0,0 L,77505,3 R,19,0,272,0,2.882866 S,0,76415,,13 F,19,76415,78596,0.5 M,19,76494,77505,255,235,377.6272,321.3862 M,18,78051,78596,377.6272,321.3862,255,235
Sprite,Background,Centre,"SB\DIV\pixel.png",0,0 L,77505,3 R,19,0,272,0,1.964866 S,0,76415,,7 F,19,76415,78596,0.5 M,19,76474,77505,255,235,364.7245,337.2767 M,18,78051,78596,364.7245,337.2767,255,235
Sprite,Background,Centre,"SB\DIV\pixel.png",0,0 L,77505,3 R,19,0,272,0,0.3834448 S,0,76415,,6 F,19,76415,78596,0.5 M,19,76450,77505,255,235,392.3096,295.3828 M,18,78051,78596,392.3096,295.3828,255,235
Sprite,Background,Centre,"SB\DIV\pixel.png",0,0 L,77505,3 R,19,0,272,0,2.044952 S,0,76415,,3 F,19,76415,78596,0.5 M,19,76492,77505,255,235,312.9465,96.64464 M,18,78051,78596,312.9465,96.64464,255,235
Sprite,Background,Centre,"SB\DIV\pixel.png",0,0 L,77505,3 R,19,0,272,0,1.208285 S,0,76415,,17 F,19,76415,78596,0.5 M,19,76476,77505,255,235,233.8444,383.5006 M,18,78051,78596,233.8444,383.5006,255,235
Sprite,Background,Centre,"SB\DIV\pixel.png",0,0 L,77505,3 R,19,0,272,0,1.433225 S,0,76415,,10 F,19,76415,78596,0.5 M,19,76449,77505,255,235,258.6067,384.9566 M,18,78051,78596,258.6067,384.9566,255,235
Sprite,Background,Centre,"SB\DIV\pixel.png",0,0 L,77505,3 R,19,0,272,0,1.061044 S,0,76415,,13 F,19,76415,78596,0.5 M,19,76479,77505,255,235,136.8417,327.4046 M,18,78051,78596,136.8417,327.4046,255,235
Sprite,Background,Centre,"SB\DIV\pixel.png",0,0 L,77505,3 R,19,0,272,0,2.97706 S,0,76415,,18 F,19,76415,78596,0.5 M,19,76420,77505,255,235,190.3599,370.3575 M,18,78051,78596,190.3599,370.3575,255,235
Sprite,Background,Centre,"SB\DIV\pixel.png",0,0 L,77505,3 R,19,0,272,0,0.7342829 S,0,76415,,15 F,19,76415,78596,0.5 M,19,76466,77505,255,235,377.2465,148.0759 M,18,78051,78596,377.2465,148.0759,255,235
Sprite,Background,Centre,"SB\DIV\pixel.png",0,0 L,77505,3 R,19,0,272,0,0.1404953 S,0,76415,,14 F,19,76415,78596,0.5 M,19,76471,77505,255,235,327.8065,366.1458 M,18,78051,78596,327.8065,366.1458,255,235
Sprite,Background,Centre,"SB\DIV\pixel.png",0,0 L,77505,3 R,19,0,272,0,1.149798 S,0,76415,,2 F,19,76415,78596,0.5 M,19,76488,77505,255,235,207.7467,92.63734 M,18,78051,78596,207.7467,92.63734,255,235
Sprite,Background,Centre,"SB\DIV\pixel.png",0,0 L,77505,3 R,19,0,272,0,2.361045 S,0,76415,,6 F,19,76415,78596,0.5 M,19,76509,77505,255,235,105.5863,248.2497 M,18,78051,78596,105.5863,248.2497,255,235
Sprite,Background,Centre,"SB\DIV\pixel.png",0,0 L,77505,3 R,19,0,272,0,0.3318061 S,0,76415,,17 F,19,76415,78596,0.5 M,19,76425,77505,255,235,276.1403,86.49718 M,18,78051,78596,276.1403,86.49718,255,235
Sprite,Background,Centre,"SB\DIV\pixel.png",0,0 L,77505,3 R,19,0,272,0,1.709651 S,0,76415,,18 F,19,76415,78596,0.5 M,19,76485,77505,255,235,122.8675,305.9999 M,18,78051,78596,122.8675,305.9999,255,235
Sprite,Background,Centre,"SB\DIV\pixel.png",0,0 L,77505,3 R,19,0,272,0,2.603142 S,0,76415,,4 F,19,76415,78596,0.5 M,19,76502,77505,255,235,264.1975,85.28224 M,18,78051,78596,264.1975,85.28224,255,235
Sprite,Background,Centre,"SB\DIV\pixel.png",0,0 L,77505,3 R,19,0,272,0,0.5909381 S,0,76415,,13 F,19,76415,78596,0.5 M,19,76503,77505,255,235,263.0326,85.21523 M,18,78051,78596,263.0326,85.21523,255,235
Sprite,Background,Centre,"SB\DIV\pixel.png",0,0 L,77505,3 R,19,0,272,0,1.616898 S,0,76415,,10 F,19,76415,78596,0.5 M,19,76478,77505,255,235,190.3249,99.65919 M,18,78051,78596,190.3249,99.65919,255,235
Sprite,Background,Centre,"SB\DIV\pixel.png",0,0 L,77505,3 R,19,0,272,0,0.9484305 S,0,76415,,7 F,19,76415,78596,0.5 M,19,76476,77505,255,235,178.01,106.2656 M,18,78051,78596,178.01,106.2656,255,235
Sprite,Background,Centre,"SB\DIV\pixel.png",0,0 L,77505,3 R,19,0,272,0,3.009094 S,0,76415,,4 F,19,76415,78596,0.5 M,19,76496,77505,255,235,147.1235,339.2241 M,18,78051,78596,147.1235,339.2241,255,235
Sprite,Background,Centre,"SB\DIV\pixel.png",0,0 L,77505,3 R,19,0,272,0,2.202571 S,0,76415,,13 F,19,76415,78596,0.5 M,19,76481,77505,255,235,298.3836,91.41078 M,18,78051,78596,298.3836,91.41078,255,235
Sprite,Background,Centre,"SB\DIV\pixel.png",0,0 L,77505,3 R,19,0,272,0,0.7715461 S,0,76415,,5 F,19,76415,78596,0.5 M,19,76479,77505,255,235,109.7274,272.3615 M,18,78051,78596,109.7274,272.3615,255,235
Sprite,Background,Centre,"SB\DIV\pixel.png",0,0 L,77505,3 R,19,0,272,0,1.616071 S,0,76415,,5 F,19,76415,78596,0.5 M,19,76474,77505,255,235,318.4824,99.09569 M,18,78051,78596,318.4824,99.09569,255,235
Sprite,Background,Centre,"SB\DIV\pixel.png",0,0 L,77505,3 R,19,0,272,0,2.371225 S,0,76415,,2 F,19,76415,78596,0.5 M,19,76447,77505,255,235,133.2957,147.3184 M,18,78051,78596,133.2957,147.3184,255,235
Sprite,Background,Centre,"SB\DIV\pixel.png",0,0 L,77505,3 R,19,0,272,0,0.8947003 S,0,76415,,8 F,19,76415,78596,0.5 M,19,76480,77505,255,235,352.1063,349.3257 M,18,78051,78596,352.1063,349.3257,255,235
Sprite,Background,Centre,"SB\DIV\pixel.png",0,0 L,77505,3 R,19,0,272,0,1.420838 S,0,76415,,13 F,19,76415,78596,0.5 M,19,76458,77505,255,235,303.6379,93.10444 M,18,78051,78596,303.6379,93.10444,255,235
Sprite,Background,Centre,"SB\DIV\pixel.png",0,0 L,77505,3 R,19,0,272,0,2.446637 S,0,76415,,5 F,19,76415,78596,0.5 M,19,76488,77505,255,235,395.0343,181.2375 M,18,78051,78596,395.0343,181.2375,255,235
Sprite,Background,Centre,"SB\DIV\pixel.png",0,0 L,77505,3 R,19,0,272,0,1.297853 S,0,76415,,18 F,19,76415,78596,0.5 M,19,76441,77505,255,235,379.175,319.1462 M,18,78051,78596,379.175,319.1462,255,235
Sprite,Background,Centre,"SB\DIV\pixel.png",0,0 L,77505,3 R,19,0,272,0,1.045851 S,0,76415,,5 F,19,76415,78596,0.5 M,19,76461,77505,255,235,401.6122,266.6994 M,18,78051,78596,401.6122,266.6994,255,235
Sprite,Background,Centre,"SB\DIV\pixel.png",0,0 L,77505,3 R,19,0,272,0,0.07720734 S,0,76415,,15 F,19,76415,78596,0.5 M,19,76457,77505,255,235,392.2288,295.5662 M,18,78051,78596,392.2288,295.5662,255,235
Sprite,Background,Centre,"SB\DIV\pixel.png",0,0 L,77505,3 R,19,0,272,0,2.032837 S,0,76415,,8 F,19,76415,78596,0.5 M,19,76492,77505,255,235,397.8736,280.6851 M,18,78051,78596,397.8736,280.6851,255,235
Sprite,Background,Centre,"SB\DIV\pixel.png",0,0 L,77505,3 R,19,0,272,0,2.615967 S,0,76415,,8 F,19,76415,78596,0.5 M,19,76447,77505,255,235,349.1913,351.739 M,18,78051,78596,349.1913,351.739,255,235
Sprite,Background,Centre,"SB\DIV\pixel.png",0,0 L,77505,3 R,19,0,272,0,2.589303 S,0,76415,,14 F,19,76415,78596,0.5 M,19,76417,77505,255,235,402.416,262.722 M,18,78051,78596,402.416,262.722,255,235
Sprite,Background,Centre,"SB\DIV\pixel.png",0,0 L,77505,3 R,19,0,272,0,1.443653 S,0,76415,,9 F,19,76415,78596,0.5 M,19,76457,77505,255,235,386.3484,307.4404 M,18,78051,78596,386.3484,307.4404,255,235
Sprite,Background,Centre,"SB\DIV\pixel.png",0,0 L,79686,3 R,19,0,272,0,0.684746 S,0,78596,,13 F,19,78596,80777,0.5 M,19,78637,79686,443,348,368.7807,478.3514 M,18,80232,80777,368.7807,478.3514,443,348
Sprite,Background,Centre,"SB\DIV\pixel.png",0,0 L,79686,3 R,19,0,272,0,0.8906925 S,0,78596,,2 F,19,78596,80777,0.5 M,19,78641,79686,443,348,371.9756,215.8806 M,18,80232,80777,371.9756,215.8806,443,348
Sprite,Background,Centre,"SB\DIV\pixel.png",0,0 L,79686,3 R,19,0,272,0,3.014979 S,0,78596,,12 F,19,78596,80777,0.5 M,19,78662,79686,443,348,333.3805,450.3893 M,18,80232,80777,333.3805,450.3893,443,348
Sprite,Background,Centre,"SB\DIV\pixel.png",0,0 L,79686,3 R,19,0,272,0,2.723462 S,0,78596,,11 F,19,78596,80777,0.5 M,19,78631,79686,443,348,514.6808,479.7644 M,18,80232,80777,514.6808,479.7644,443,348
Sprite,Background,Centre,"SB\DIV\pixel.png",0,0 L,79686,3 R,19,0,272,0,1.38448 S,0,78596,,3 F,19,78596,80777,0.5 M,19,78689,79686,443,348,458.6418,198.8178 M,18,80232,80777,458.6418,198.8178,443,348
Sprite,Background,Centre,"SB\DIV\pixel.png",0,0 L,79686,3 R,19,0,272,0,0.2915173 S,0,78596,,8 F,19,78596,80777,0.5 M,19,78671,79686,443,348,592.7711,356.284 M,18,80232,80777,592.7711,356.284,443,348
Sprite,Background,Centre,"SB\DIV\pixel.png",0,0 L,79686,3 R,19,0,272,0,2.645358 S,0,78596,,7 M,19,78596,79686,443,348,349.1002,231.0264 F,19,78596,80777,0.5 M,18,80232,80777,349.1002,231.0264,443,348
Sprite,Background,Centre,"SB\DIV\pixel.png",0,0 L,79686,3 R,19,0,272,0,1.163048 S,0,78596,,5 F,19,78596,80777,0.5 M,19,78609,79686,443,348,343.3476,235.8867 M,18,80232,80777,343.3476,235.8867,443,348
Sprite,Background,Centre,"SB\DIV\pixel.png",0,0 L,79686,3 R,19,0,272,0,0.09558966 S,0,78596,,2 F,19,78596,80777,0.5 M,19,78628,79686,443,348,389.3488,207.923 M,18,80232,80777,389.3488,207.923,443,348
Sprite,Background,Centre,"SB\DIV\pixel.png",0,0 L,79686,3 R,19,0,272,0,1.42021 S,0,78596,,15 F,19,78596,80777,0.5 M,19,78638,79686,443,348,344.6028,461.2166 M,18,80232,80777,344.6028,461.2166,443,348
Sprite,Background,Centre,"SB\DIV\pixel.png",0,0 L,79686,3 R,19,0,272,0,1.71718 S,0,78596,,11 F,19,78596,80777,0.5 M,19,78685,79686,443,348,420.6578,199.6732 M,18,80232,80777,420.6578,199.6732,443,348
Sprite,Background,Centre,"SB\DIV\pixel.png",0,0 L,79686,3 R,19,0,272,0,2.2328 S,0,78596,,5 F,19,78596,80777,0.5 M,19,78629,79686,443,348,321.5495,436.0328 M,18,80232,80777,321.5495,436.0328,443,348
Sprite,Background,Centre,"SB\DIV\pixel.png",0,0 L,79686,3 R,19,0,272,0,1.138687 S,0,78596,,18 F,19,78596,80777,0.5 M,19,78602,79686,443,348,574.8644,276.5033 M,18,80232,80777,574.8644,276.5033,443,348
Sprite,Background,Centre,"SB\DIV\pixel.png",0,0 L,79686,3 R,19,0,272,0,2.511727 S,0,78596,,15 F,19,78596,80777,0.5 M,19,78632,79686,443,348,336.0421,453.1665 M,18,80232,80777,336.0421,453.1665,443,348
Sprite,Background,Centre,"SB\DIV\pixel.png",0,0 L,79686,3 R,19,0,272,0,1.968261 S,0,78596,,4 F,19,78596,80777,0.5 M,19,78614,79686,443,348,589.6335,379.601 M,18,80232,80777,589.6335,379.601,443,348
Sprite,Background,Centre,"SB\DIV\pixel.png",0,0 L,79686,3 R,19,0,272,0,2.666249 S,0,78596,,2 F,19,78596,80777,0.5 M,19,78684,79686,443,348,303.1409,402.2165 M,18,80232,80777,303.1409,402.2165,443,348
Sprite,Background,Centre,"SB\DIV\pixel.png",0,0 L,79686,3 R,19,0,272,0,0.07346681 S,0,78596,,18 F,19,78596,80777,0.5 M,19,78695,79686,443,348,311.1872,276.4083 M,18,80232,80777,311.1872,276.4083,443,348
Sprite,Background,Centre,"SB\DIV\pixel.png",0,0 L,79686,3 R,19,0,272,0,1.338752 S,0,78596,,15 F,19,78596,80777,0.5 M,19,78641,79686,443,348,438.9756,198.054 M,18,80232,80777,438.9756,198.054,443,348
Sprite,Background,Centre,"SB\DIV\pixel.png",0,0 L,79686,3 R,19,0,272,0,0.3208865 S,0,78596,,10 F,19,78596,80777,0.5 M,19,78690,79686,443,348,396.336,490.5569 M,18,80232,80777,396.336,490.5569,443,348
Sprite,Background,Centre,"SB\DIV\pixel.png",0,0 L,79686,3 R,19,0,272,0,2.734794 S,0,78596,,14 F,19,78596,80777,0.5 M,19,78637,79686,443,348,334.9576,243.9479 M,18,80232,80777,334.9576,243.9479,443,348
Sprite,Background,Centre,"SB\DIV\pixel.png",0,0 L,79686,3 R,19,0,272,0,2.244 S,0,78596,,19 F,19,78596,80777,0.5 M,19,78663,79686,443,348,592.9683,351.0847 M,18,80232,80777,592.9683,351.0847,443,348
Sprite,Background,Centre,"SB\DIV\pixel.png",0,0 L,79686,3 R,19,0,272,0,1.022421 S,0,78596,,18 F,19,78596,80777,0.5 M,19,78669,79686,443,348,297.6101,311.0978 M,18,80232,80777,297.6101,311.0978,443,348
Sprite,Background,Centre,"SB\DIV\pixel.png",0,0 L,79686,3 R,19,0,272,0,1.782401 S,0,78596,,8 F,19,78596,80777,0.5 M,19,78624,79686,443,348,294.095,329.9086 M,18,80232,80777,294.095,329.9086,443,348
Sprite,Background,Centre,"SB\DIV\pixel.png",0,0 L,79686,3 R,19,0,272,0,0.5265311 S,0,78596,,17 F,19,78596,80777,0.5 M,19,78610,79686,443,348,577.2983,281.1871 M,18,80232,80777,577.2983,281.1871,443,348
Sprite,Background,Centre,"SB\DIV\pixel.png",0,0 L,79686,3 R,19,0,272,0,0.1240742 S,0,78596,,7 F,19,78596,80777,0.5 M,19,78656,79686,443,348,575.9626,278.5669 M,18,80232,80777,575.9626,278.5669,443,348
Sprite,Background,Centre,"SB\DIV\pixel.png",0,0 L,79686,3 R,19,0,272,0,0.9646435 S,0,78596,,2 F,19,78596,80777,0.5 M,19,78669,79686,443,348,569.5477,428.5338 M,18,80232,80777,569.5477,428.5338,443,348
Sprite,Background,Centre,"SB\DIV\pixel.png",0,0 L,79686,3 R,19,0,272,0,1.988746 S,0,78596,,5 F,19,78596,80777,0.5 M,19,78615,79686,443,348,591.0728,371.9679 M,18,80232,80777,591.0728,371.9679,443,348
Sprite,Background,Centre,"SB\DIV\pixel.png",0,0 L,79686,3 R,19,0,272,0,3.103141 S,0,78596,,5 F,19,78596,80777,0.5 M,19,78599,79686,443,348,566.0084,262.1574 M,18,80232,80777,566.0084,262.1574,443,348
Sprite,Background,Centre,"SB\DIV\pixel.png",0,0 L,79686,3 R,19,0,272,0,1.418035 S,0,78596,,9 F,19,78596,80777,0.5 M,19,78648,79686,443,348,592.8901,353.7407 M,18,80232,80777,592.8901,353.7407,443,348
Sprite,Background,Centre,"SB\DIV\pixel.png",0,0 L,79686,3 R,19,0,272,0,1.298298 S,0,78596,,18 F,19,78596,80777,0.5 M,19,78655,79686,443,348,592.1642,363.8122 M,18,80232,80777,592.1642,363.8122,443,348
Sprite,Background,Centre,"SB\DIV\pixel.png",0,0 L,79686,3 R,19,0,272,0,1.433591 S,0,78596,,11 F,19,78596,80777,0.5 M,19,78648,79686,443,348,294.1193,366.2901 M,18,80232,80777,294.1193,366.2901,443,348
Sprite,Background,Centre,"SB\DIV\pixel.png",0,0 L,79686,3 R,19,0,272,0,0.8697667 S,0,78596,,18 F,19,78596,80777,0.5 M,19,78630,79686,443,348,320.9913,435.2575 M,18,80232,80777,320.9913,435.2575,443,348
Sprite,Background,Centre,"SB\DIV\pixel.png",0,0 L,79686,3 R,19,0,272,0,2.281751 S,0,78596,,13 F,19,78596,80777,0.5 M,19,78664,79686,443,348,497.8304,208.3804 M,18,80232,80777,497.8304,208.3804,443,348
Sprite,Background,Centre,"SB\DIV\pixel.png",0,0 L,79686,3 R,19,0,272,0,1.342285 S,0,78596,,14 F,19,78596,80777,0.5 M,19,78606,79686,443,348,373.1276,480.7322 M,18,80232,80777,373.1276,480.7322,443,348
Sprite,Background,Centre,"SB\DIV\pixel.png",0,0 L,79686,3 R,19,0,272,0,1.609455 S,0,78596,,18 F,19,78596,80777,0.5 M,19,78688,79686,443,348,557.8474,251.5113 M,18,80232,80777,557.8474,251.5113,443,348
Sprite,Background,Centre,"SB\DIV\pixel.png",0,0 L,79686,3 R,19,0,272,0,2.509263 S,0,78596,,17 F,19,78596,80777,0.5 M,19,78612,79686,443,348,324.4209,439.864 M,18,80232,80777,324.4209,439.864,443,348
Sprite,Background,Centre,"SB\DIV\pixel.png",0,0 L,79686,3 R,19,0,272,0,2.871797 S,0,78596,,13 F,19,78596,80777,0.5 M,19,78680,79686,443,348,293.2259,356.2286 M,18,80232,80777,293.2259,356.2286,443,348
Sprite,Background,Centre,"SB\DIV\pixel.png",0,0 L,79686,3 R,19,0,272,0,1.070618 S,0,78596,,15 F,19,78596,80777,0.5 M,19,78663,79686,443,348,293.0376,351.3588 M,18,80232,80777,293.0376,351.3588,443,348
Sprite,Background,Centre,"SB\DIV\pixel.png",0,0 L,79686,3 R,19,0,272,0,0.1330036 S,0,78596,,18 F,19,78596,80777,0.5 M,19,78608,79686,443,348,301.6072,297.9193 M,18,80232,80777,301.6072,297.9193,443,348
Sprite,Background,Centre,"SB\DIV\pixel.png",0,0 L,79686,3 R,19,0,272,0,1.577555 S,0,78596,,14 F,19,78596,80777,0.5 M,19,78687,79686,443,348,378.0322,483.2005 M,18,80232,80777,378.0322,483.2005,443,348
Sprite,Background,Centre,"SB\DIV\pixel.png",0,0 L,81868,3 R,19,0,272,0,1.971066 S,0,80778,,10 F,19,80778,82959,0.5 M,19,80866,81868,116,369,244.2518,291.2088 M,18,82414,82959,244.2518,291.2088,116,369
Sprite,Background,Centre,"SB\DIV\pixel.png",0,0 L,81868,3 R,19,0,272,0,0.151529 S,0,80778,,2 F,19,80778,82959,0.5 M,19,80841,81868,116,369,-25.72402,319.8644 M,18,82414,82959,-25.72402,319.8644,116,369
Sprite,Background,Centre,"SB\DIV\pixel.png",0,0 L,81868,3 R,19,0,272,0,2.689931 S,0,80778,,4 F,19,80778,82959,0.5 M,19,80825,81868,116,369,132.7616,518.0605 M,18,82414,82959,132.7616,518.0605,116,369
Sprite,Background,Centre,"SB\DIV\pixel.png",0,0 L,81868,3 R,19,0,272,0,1.909166 S,0,80778,,14 F,19,80778,82959,0.5 M,19,80782,81868,116,369,263.1342,339.8192 M,18,82414,82959,263.1342,339.8192,116,369
Sprite,Background,Centre,"SB\DIV\pixel.png",0,0 L,81868,3 R,19,0,272,0,2.162546 S,0,80778,,8 F,19,80778,82959,0.5 M,19,80815,81868,116,369,32.63184,244.3014 M,18,82414,82959,32.63184,244.3014,116,369
Sprite,Background,Centre,"SB\DIV\pixel.png",0,0 L,81868,3 R,19,0,272,0,2.094085 S,0,80778,,17 F,19,80778,82959,0.5 M,19,80877,81868,116,369,133.1379,219.9822 M,18,82414,82959,133.1379,219.9822,116,369
Sprite,Background,Centre,"SB\DIV\pixel.png",0,0 L,81868,3 R,19,0,272,0,2.780535 S,0,80778,,8 F,19,80778,82959,0.5 M,19,80824,81868,116,369,-33.27618,383.7181 M,18,82414,82959,-33.27618,383.7181,116,369
Sprite,Background,Centre,"SB\DIV\pixel.png",0,0 L,81868,3 R,19,0,272,0,1.287985 S,0,80778,,2 F,19,80778,82959,0.5 M,19,80815,81868,116,369,-3.134605,277.8575 M,18,82414,82959,-3.134605,277.8575,116,369
Sprite,Background,Centre,"SB\DIV\pixel.png",0,0 L,81868,3 R,19,0,272,0,1.393722 S,0,80778,,14 F,19,80778,82959,0.5 M,19,80844,81868,116,369,215.95,257.1519 M,18,82414,82959,215.95,257.1519,116,369
Sprite,Background,Centre,"SB\DIV\pixel.png",0,0 L,81868,3 R,19,0,272,0,1.847813 S,0,80778,,3 M,19,80778,81868,116,369,246.8698,442.3014 F,19,80778,82959,0.5 M,18,82414,82959,246.8698,442.3014,116,369
Sprite,Background,Centre,"SB\DIV\pixel.png",0,0 L,81868,3 R,19,0,272,0,0.155081 S,0,80778,,3 F,19,80778,82959,0.5 M,19,80798,81868,116,369,89.68063,516.6729 M,18,82414,82959,89.68063,516.6729,116,369
Sprite,Background,Centre,"SB\DIV\pixel.png",0,0 L,81868,3 R,19,0,272,0,1.243242 S,0,80778,,15 F,19,80778,82959,0.5 M,19,80829,81868,116,369,-30.73425,337.8703 M,18,82414,82959,-30.73425,337.8703,116,369
Sprite,Background,Centre,"SB\DIV\pixel.png",0,0 L,81868,3 R,19,0,272,0,3.020432 S,0,80778,,8 F,19,80778,82959,0.5 M,19,80855,81868,116,369,-22.45174,311.2842 M,18,82414,82959,-22.45174,311.2842,116,369
Sprite,Background,Centre,"SB\DIV\pixel.png",0,0 L,81868,3 R,19,0,272,0,1.095893 S,0,80778,,6 F,19,80778,82959,0.5 M,19,80787,81868,116,369,134.7363,220.1748 M,18,82414,82959,134.7363,220.1748,116,369
Sprite,Background,Centre,"SB\DIV\pixel.png",0,0 L,81868,3 R,19,0,272,0,0.1326506 S,0,80778,,7 F,19,80778,82959,0.5 M,19,80780,81868,116,369,-10.57594,288.5107 M,18,82414,82959,-10.57594,288.5107,116,369
Sprite,Background,Centre,"SB\DIV\pixel.png",0,0 L,81868,3 R,19,0,272,0,0.5706244 S,0,80778,,18 F,19,80778,82959,0.5 M,19,80848,81868,116,369,265.9005,363.538 M,18,82414,82959,265.9005,363.538,116,369
Sprite,Background,Centre,"SB\DIV\pixel.png",0,0 L,81868,3 R,19,0,272,0,2.480821 S,0,80778,,6 F,19,80778,82959,0.5 M,19,80868,81868,116,369,131.1499,219.767 M,18,82414,82959,131.1499,219.767,116,369
Sprite,Background,Centre,"SB\DIV\pixel.png",0,0 L,81868,3 R,19,0,272,0,1.971754 S,0,80778,,7 F,19,80778,82959,0.5 M,19,80814,81868,116,369,90.60965,516.8355 M,18,82414,82959,90.60965,516.8355,116,369
Sprite,Background,Centre,"SB\DIV\pixel.png",0,0 L,81868,3 R,19,0,272,0,2.117619 S,0,80778,,13 F,19,80778,82959,0.5 M,19,80838,81868,116,369,243.9307,447.3182 M,18,82414,82959,243.9307,447.3182,116,369
Sprite,Background,Centre,"SB\DIV\pixel.png",0,0 L,81868,3 R,19,0,272,0,0.09689131 S,0,80778,,14 F,19,80778,82959,0.5 M,19,80809,81868,116,369,241.5766,451.0397 M,18,82414,82959,241.5766,451.0397,116,369
Sprite,Background,Centre,"SB\DIV\pixel.png",0,0 L,81868,3 R,19,0,272,0,2.318354 S,0,80778,,15 F,19,80778,82959,0.5 M,19,80854,81868,116,369,265.055,352.1887 M,18,82414,82959,265.055,352.1887,116,369
Sprite,Background,Centre,"SB\DIV\pixel.png",0,0 L,81868,3 R,19,0,272,0,1.453442 S,0,80778,,3 F,19,80778,82959,0.5 M,19,80869,81868,116,369,116.928,518.9971 M,18,82414,82959,116.928,518.9971,116,369
Sprite,Background,Centre,"SB\DIV\pixel.png",0,0 L,81868,3 R,19,0,272,0,0.7707031 S,0,80778,,12 F,19,80778,82959,0.5 M,19,80836,81868,116,369,187.1986,236.9744 M,18,82414,82959,187.1986,236.9744,116,369
Sprite,Background,Centre,"SB\DIV\pixel.png",0,0 L,81868,3 R,19,0,272,0,0.4797365 S,0,80778,,11 F,19,80778,82959,0.5 M,19,80828,81868,116,369,30.55961,245.712 M,18,82414,82959,30.55961,245.712,116,369
Sprite,Background,Centre,"SB\DIV\pixel.png",0,0 L,81868,3 R,19,0,272,0,1.177176 S,0,80778,,12 F,19,80778,82959,0.5 M,19,80855,81868,116,369,-8.979029,451.9472 M,18,82414,82959,-8.979029,451.9472,116,369
Sprite,Background,Centre,"SB\DIV\pixel.png",0,0 L,81868,3 R,19,0,272,0,0.1244115 S,0,80778,,13 F,19,80778,82959,0.5 M,19,80819,81868,116,369,265.3443,354.9905 M,18,82414,82959,265.3443,354.9905,116,369
Sprite,Background,Centre,"SB\DIV\pixel.png",0,0 L,81868,3 R,19,0,272,0,1.397515 S,0,80778,,18 F,19,80778,82959,0.5 M,19,80877,81868,116,369,47.51275,235.5478 M,18,82414,82959,47.51275,235.5478,116,369
Sprite,Background,Centre,"SB\DIV\pixel.png",0,0 L,81868,3 R,19,0,272,0,1.579959 S,0,80778,,11 F,19,80778,82959,0.5 M,19,80795,81868,116,369,265.9793,366.5067 M,18,82414,82959,265.9793,366.5067,116,369
Sprite,Background,Centre,"SB\DIV\pixel.png",0,0 L,81868,3 R,19,0,272,0,1.144762 S,0,80778,,17 F,19,80778,82959,0.5 M,19,80808,81868,116,369,18.04343,482.598 M,18,82414,82959,18.04343,482.598,116,369
Sprite,Background,Centre,"SB\DIV\pixel.png",0,0 L,81868,3 R,19,0,272,0,2.212441 S,0,80778,,8 F,19,80778,82959,0.5 M,19,80779,81868,116,369,-33.98939,370.7843 M,18,82414,82959,-33.98939,370.7843,116,369
Sprite,Background,Centre,"SB\DIV\pixel.png",0,0 L,81868,3 R,19,0,272,0,2.812095 S,0,80778,,12 F,19,80778,82959,0.5 M,19,80854,81868,116,369,-12.45459,291.5441 M,18,82414,82959,-12.45459,291.5441,116,369
Sprite,Background,Centre,"SB\DIV\pixel.png",0,0 L,81868,3 R,19,0,272,0,3.063563 S,0,80778,,8 F,19,80778,82959,0.5 M,19,80794,81868,116,369,155.6638,513.6609 M,18,82414,82959,155.6638,513.6609,116,369
Sprite,Background,Centre,"SB\DIV\pixel.png",0,0 L,81868,3 R,19,0,272,0,3.04115 S,0,80778,,2 F,19,80778,82959,0.5 M,19,80807,81868,116,369,195.0888,241.5443 M,18,82414,82959,195.0888,241.5443,116,369
Sprite,Background,Centre,"SB\DIV\pixel.png",0,0 L,81868,3 R,19,0,272,0,0.2420085 S,0,80778,,4 F,19,80778,82959,0.5 M,19,80847,81868,116,369,194.8719,241.4099 M,18,82414,82959,194.8719,241.4099,116,369
Sprite,Background,Centre,"SB\DIV\pixel.png",0,0 L,81868,3 R,19,0,272,0,1.862938 S,0,80778,,2 F,19,80778,82959,0.5 M,19,80875,81868,116,369,-32.34656,391.2103 M,18,82414,82959,-32.34656,391.2103,116,369
Sprite,Background,Centre,"SB\DIV\pixel.png",0,0 L,81868,3 R,19,0,272,0,0.7203478 S,0,80778,,6 F,19,80778,82959,0.5 M,19,80869,81868,116,369,237.1341,457.4677 M,18,82414,82959,237.1341,457.4677,116,369
Sprite,Background,Centre,"SB\DIV\pixel.png",0,0 L,81868,3 R,19,0,272,0,2.169356 S,0,80778,,18 F,19,80778,82959,0.5 M,19,80781,81868,116,369,263.7028,342.849 M,18,82414,82959,263.7028,342.849,116,369
Sprite,Background,Centre,"SB\DIV\pixel.png",0,0 L,81868,3 R,19,0,272,0,0.3606395 S,0,80778,,2 F,19,80778,82959,0.5 M,19,80820,81868,116,369,241.3912,286.6772 M,18,82414,82959,241.3912,286.6772,116,369
Sprite,Background,Centre,"SB\DIV\pixel.png",0,0 L,81868,3 R,19,0,272,0,0.6323313 S,0,80778,,11 F,19,80778,82959,0.5 M,19,80859,81868,116,369,191.83,239.5789 M,18,82414,82959,191.83,239.5789,116,369
Sprite,Background,Centre,"SB\DIV\pixel.png",0,0 L,81868,3 R,19,0,272,0,2.43689 S,0,80778,,18 F,19,80778,82959,0.5 M,19,80806,81868,116,369,252.1817,431.8852 M,18,82414,82959,252.1817,431.8852,116,369
Sprite,Background,Centre,"SB\DIV\pixel.png",0,0 L,84050,3 R,19,0,272,0,2.298951 S,0,82960,,7 F,19,82960,85141,0.5 M,19,83046,84050,440,414,490.9234,272.9085 M,18,84596,85141,490.9234,272.9085,440,414
Sprite,Background,Centre,"SB\DIV\pixel.png",0,0 L,84050,3 R,19,0,272,0,0.3853099 S,0,82960,,19 F,19,82960,85141,0.5 M,19,83031,84050,440,414,324.9563,317.7454 M,18,84596,85141,324.9563,317.7454,440,414
Sprite,Background,Centre,"SB\DIV\pixel.png",0,0 L,84050,3 R,19,0,272,0,2.232028 S,0,82960,,4 F,19,82960,85141,0.5 M,19,83052,84050,440,414,398.6346,558.1836 M,18,84596,85141,398.6346,558.1836,440,414
Sprite,Background,Centre,"SB\DIV\pixel.png",0,0 L,84050,3 R,19,0,272,0,0.1877744 S,0,82960,,7 F,19,82960,85141,0.5 M,19,82997,84050,440,414,487.1343,271.5979 M,18,84596,85141,487.1343,271.5979,440,414
Sprite,Background,Centre,"SB\DIV\pixel.png",0,0 L,84050,3 R,19,0,272,0,0.3649079 S,0,82960,,2 F,19,82960,85141,0.5 M,19,83029,84050,440,414,313.9693,495.3405 M,18,84596,85141,313.9693,495.3405,440,414
Sprite,Background,Centre,"SB\DIV\pixel.png",0,0 L,84050,3 R,19,0,272,0,2.738427 S,0,82960,,17 F,19,82960,85141,0.5 M,19,83002,84050,440,414,356.899,289.1232 M,18,84596,85141,356.899,289.1232,440,414
Sprite,Background,Centre,"SB\DIV\pixel.png",0,0 L,84050,3 R,19,0,272,0,2.896549 S,0,82960,,10 F,19,82960,85141,0.5 M,19,82961,84050,440,414,496.3354,274.9808 M,18,84596,85141,496.3354,274.9808,440,414
Sprite,Background,Centre,"SB\DIV\pixel.png",0,0 L,84050,3 R,19,0,272,0,2.569196 S,0,82960,,5 F,19,82960,85141,0.5 M,19,83034,84050,440,414,557.7729,506.8954 M,18,84596,85141,557.7729,506.8954,440,414
Sprite,Background,Centre,"SB\DIV\pixel.png",0,0 L,84050,3 R,19,0,272,0,2.780753 S,0,82960,,17 F,19,82960,85141,0.5 M,19,83006,84050,440,414,494.962,553.5678 M,18,84596,85141,494.962,553.5678,440,414
Sprite,Background,Centre,"SB\DIV\pixel.png",0,0 L,84050,3 R,19,0,272,0,2.738678 S,0,82960,,17 F,19,82960,85141,0.5 M,19,83029,84050,440,414,567.9974,335.7909 M,18,84596,85141,567.9974,335.7909,440,414
Sprite,Background,Centre,"SB\DIV\pixel.png",0,0 L,84050,3 R,19,0,272,0,0.2969505 S,0,82960,,17 F,19,82960,85141,0.5 M,19,83056,84050,440,414,384.4471,274.6663 M,18,84596,85141,384.4471,274.6663,440,414
Sprite,Background,Centre,"SB\DIV\pixel.png",0,0 L,84050,3 R,19,0,272,0,1.865063 S,0,82960,,5 F,19,82960,85141,0.5 M,19,83043,84050,440,414,553.5248,512.0414 M,18,84596,85141,553.5248,512.0414,440,414
Sprite,Background,Centre,"SB\DIV\pixel.png",0,0 L,84050,3 R,19,0,272,0,1.316418 S,0,82960,,3 F,19,82960,85141,0.5 M,19,83046,84050,440,414,494.7658,553.6449 M,18,84596,85141,494.7658,553.6449,440,414
Sprite,Background,Centre,"SB\DIV\pixel.png",0,0 L,84050,3 R,19,0,272,0,0.7882825 S,0,82960,,5 F,19,82960,85141,0.5 M,19,83005,84050,440,414,416.2841,562.1133 M,18,84596,85141,416.2841,562.1133,440,414
Sprite,Background,Centre,"SB\DIV\pixel.png",0,0 L,84050,3 R,19,0,272,0,2.395142 S,0,82960,,11 F,19,82960,85141,0.5 M,19,82979,84050,440,414,579.6633,468.719 M,18,84596,85141,579.6633,468.719,440,414
Sprite,Background,Centre,"SB\DIV\pixel.png",0,0 L,84050,3 R,19,0,272,0,1.4129 S,0,82960,,4 F,19,82960,85141,0.5 M,19,83041,84050,440,414,581.9774,365.6016 M,18,84596,85141,581.9774,365.6016,440,414
Sprite,Background,Centre,"SB\DIV\pixel.png",0,0 L,84050,3 R,19,0,272,0,2.988339 S,0,82960,,19 F,19,82960,85141,0.5 M,19,83017,84050,440,414,586.3588,381.1503 M,18,84596,85141,586.3588,381.1503,440,414
Sprite,Background,Centre,"SB\DIV\pixel.png",0,0 L,84050,3 R,19,0,272,0,0.07379384 S,0,82960,,8 F,19,82960,85141,0.5 M,19,82978,84050,440,414,527.3007,292.0222 M,18,84596,85141,527.3007,292.0222,440,414
Sprite,Background,Centre,"SB\DIV\pixel.png",0,0 L,84050,3 R,19,0,272,0,1.890054 S,0,82960,,12 F,19,82960,85141,0.5 M,19,83016,84050,440,414,418.525,562.4548 M,18,84596,85141,418.525,562.4548,440,414
Sprite,Background,Centre,"SB\DIV\pixel.png",0,0 L,84050,3 R,19,0,272,0,1.466381 S,0,82960,,10 F,19,82960,85141,0.5 M,19,82996,84050,440,414,374.8387,549.1074 M,18,84596,85141,374.8387,549.1074,440,414
Sprite,Background,Centre,"SB\DIV\pixel.png",0,0 L,84050,3 R,19,0,272,0,2.037359 S,0,82960,,12 F,19,82960,85141,0.5 M,19,83008,84050,440,414,295.5096,454.2804 M,18,84596,85141,295.5096,454.2804,440,414
Sprite,Background,Centre,"SB\DIV\pixel.png",0,0 L,84050,3 R,19,0,272,0,1.896426 S,0,82960,,3 F,19,82960,85141,0.5 M,19,83005,84050,440,414,290.1146,419.8623 M,18,84596,85141,290.1146,419.8623,440,414
Sprite,Background,Centre,"SB\DIV\pixel.png",0,0 L,84050,3 R,19,0,272,0,1.156933 S,0,82960,,15 F,19,82960,85141,0.5 M,19,83028,84050,440,414,393.4714,556.6011 M,18,84596,85141,393.4714,556.6011,440,414
Sprite,Background,Centre,"SB\DIV\pixel.png",0,0 L,84050,3 R,19,0,272,0,1.272434 S,0,82960,,4 F,19,82960,85141,0.5 M,19,83049,84050,440,414,327.3449,314.9605 M,18,84596,85141,327.3449,314.9605,440,414
Sprite,Background,Centre,"SB\DIV\pixel.png",0,0 L,84050,3 R,19,0,272,0,2.842301 S,0,82960,,5 F,19,82960,85141,0.5 M,19,82968,84050,440,414,566.6252,494.4118 M,18,84596,85141,566.6252,494.4118,440,414
Sprite,Background,Centre,"SB\DIV\pixel.png",0,0 L,84050,3 R,19,0,272,0,2.059442 S,0,82960,,18 F,19,82960,85141,0.5 M,19,83020,84050,440,414,290.013,415.9716 M,18,84596,85141,290.013,415.9716,440,414
Sprite,Background,Centre,"SB\DIV\pixel.png",0,0 L,84050,3 R,19,0,272,0,0.1840846 S,0,82960,,14 F,19,82960,85141,0.5 M,19,82995,84050,440,414,310.0522,339.0764 M,18,84596,85141,310.0522,339.0764,440,414
Sprite,Background,Centre,"SB\DIV\pixel.png",0,0 L,84050,3 R,19,0,272,0,0.2833649 S,0,82960,,7 F,19,82960,85141,0.5 M,19,83058,84050,440,414,291.2692,433.4718 M,18,84596,85141,291.2692,433.4718,440,414
Sprite,Background,Centre,"SB\DIV\pixel.png",0,0 L,84050,3 R,19,0,272,0,0.2283639 S,0,82960,,15 F,19,82960,85141,0.5 M,19,82971,84050,440,414,321.2683,505.6667 M,18,84596,85141,321.2683,505.6667,440,414
Sprite,Background,Centre,"SB\DIV\pixel.png",0,0 L,84050,3 R,19,0,272,0,1.100517 S,0,82960,,5 F,19,82960,85141,0.5 M,19,83043,84050,440,414,311.7043,336.2811 M,18,84596,85141,311.7043,336.2811,440,414
Sprite,Background,Centre,"SB\DIV\pixel.png",0,0 L,84050,3 R,19,0,272,0,2.818799 S,0,82960,,2 F,19,82960,85141,0.5 M,19,82981,84050,440,414,304.4869,478.3133 M,18,84596,85141,304.4869,478.3133,440,414
Sprite,Background,Centre,"SB\DIV\pixel.png",0,0 L,84050,3 R,19,0,272,0,2.193269 S,0,82960,,14 F,19,82960,85141,0.5 M,19,82990,84050,440,414,336.0186,522.1104 M,18,84596,85141,336.0186,522.1104,440,414
Sprite,Background,Centre,"SB\DIV\pixel.png",0,0 L,84050,3 R,19,0,272,0,1.364397 S,0,82960,,9 F,19,82960,85141,0.5 M,19,83014,84050,440,414,554.1603,316.6993 M,18,84596,85141,554.1603,316.6993,440,414
Sprite,Background,Centre,"SB\DIV\pixel.png",0,0 L,84050,3 R,19,0,272,0,1.883663 S,0,82960,,14 M,19,82960,84050,440,414,581.626,364.5826 F,19,82960,85141,0.5 M,18,84596,85141,581.626,364.5826,440,414
Sprite,Background,Centre,"SB\DIV\pixel.png",0,0 L,84050,3 R,19,0,272,0,2.779701 S,0,82960,,2 F,19,82960,85141,0.5 M,19,83016,84050,440,414,339.2227,302.8967 M,18,84596,85141,339.2227,302.8967,440,414
Sprite,Background,Centre,"SB\DIV\pixel.png",0,0 L,84050,3 R,19,0,272,0,2.697822 S,0,82960,,3 F,19,82960,85141,0.5 M,19,82991,84050,440,414,588.3544,391.842 M,18,84596,85141,588.3544,391.842,440,414
Sprite,Background,Centre,"SB\DIV\pixel.png",0,0 L,84050,3 R,19,0,272,0,0.5135306 S,0,82960,,12 F,19,82960,85141,0.5 M,19,82998,84050,440,414,364.9181,284.1435 M,18,84596,85141,364.9181,284.1435,440,414
Sprite,Background,Centre,"SB\DIV\pixel.png",0,0 L,84050,3 R,19,0,272,0,2.379754 S,0,82960,,16 F,19,82960,85141,0.5 M,19,82989,84050,440,414,341.4073,527.0464 M,18,84596,85141,341.4073,527.0464,440,414
Sprite,Background,Centre,"SB\DIV\pixel.png",0,0 L,84050,3 R,19,0,272,0,2.284207 S,0,82960,,13 F,19,82960,85141,0.5 M,19,82989,84050,440,414,506.9861,548.212 M,18,84596,85141,506.9861,548.212,440,414
Sprite,Background,Centre,"SB\DIV\pixel.png",0,0 L,84050,3 R,19,0,272,0,2.215236 S,0,82960,,7 F,19,82960,85141,0.5 M,19,83029,84050,440,414,527.5109,292.1729 M,18,84596,85141,527.5109,292.1729,440,414
Sprite,Background,Centre,"SB\DIV\pixel.png",0,0 L,86232,3 R,19,0,272,0,1.816688 S,0,85142,,13 F,19,85142,87323,0.5 M,19,85157,86232,234,117,103.0067,43.91959 M,18,86778,87323,103.0067,43.91959,234,117
Sprite,Background,Centre,"SB\DIV\pixel.png",0,0 L,86232,3 R,19,0,272,0,2.271689 S,0,85142,,5 F,19,85142,87323,0.5 M,19,85158,86232,234,117,333.6524,4.88667 M,18,86778,87323,333.6524,4.88667,234,117
Sprite,Background,Centre,"SB\DIV\pixel.png",0,0 L,86232,3 R,19,0,272,0,1.050712 S,0,85142,,16 F,19,85142,87323,0.5 M,19,85161,86232,234,117,375.2687,167.4296 M,18,86778,87323,375.2687,167.4296,234,117
Sprite,Background,Centre,"SB\DIV\pixel.png",0,0 L,86232,3 R,19,0,272,0,2.181608 S,0,85142,,6 F,19,85142,87323,0.5 M,19,85240,86232,234,117,84.02679,114.1652 M,18,86778,87323,84.02679,114.1652,234,117
Sprite,Background,Centre,"SB\DIV\pixel.png",0,0 L,86232,3 R,19,0,272,0,0.6371642 S,0,85142,,18 F,19,85142,87323,0.5 M,19,85164,86232,234,117,143.9073,-2.930426 M,18,86778,87323,143.9073,-2.930426,234,117
Sprite,Background,Centre,"SB\DIV\pixel.png",0,0 L,86232,3 R,19,0,272,0,0.7924556 S,0,85142,,7 F,19,85142,87323,0.5 M,19,85235,86232,234,117,153.8635,243.7996 M,18,86778,87323,153.8635,243.7996,234,117
Sprite,Background,Centre,"SB\DIV\pixel.png",0,0 L,86232,3 R,19,0,272,0,2.385483 S,0,85142,,9 F,19,85142,87323,0.5 M,19,85240,86232,234,117,207.0082,264.5515 M,18,86778,87323,207.0082,264.5515,234,117
Sprite,Background,Centre,"SB\DIV\pixel.png",0,0 L,86232,3 R,19,0,272,0,0.9554626 S,0,85142,,19 F,19,85142,87323,0.5 M,19,85218,86232,234,117,84.13725,110.5846 M,18,86778,87323,84.13725,110.5846,234,117
Sprite,Background,Centre,"SB\DIV\pixel.png",0,0 L,86232,3 R,19,0,272,0,1.359699 S,0,85142,,3 F,19,85142,87323,0.5 M,19,85154,86232,234,117,280.1397,259.7275 M,18,86778,87323,280.1397,259.7275,234,117
Sprite,Background,Centre,"SB\DIV\pixel.png",0,0 L,86232,3 R,19,0,272,0,0.0959441 S,0,85142,,7 F,19,85142,87323,0.5 M,19,85188,86232,234,117,383.1742,101.282 M,18,86778,87323,383.1742,101.282,234,117
Sprite,Background,Centre,"SB\DIV\pixel.png",0,0 L,86232,3 R,19,0,272,0,2.204518 S,0,85142,,13 F,19,85142,87323,0.5 M,19,85186,86232,234,117,329.5388,1.361147 M,18,86778,87323,329.5388,1.361147,234,117
Sprite,Background,Centre,"SB\DIV\pixel.png",0,0 L,86232,3 R,19,0,272,0,3.08679 S,0,85142,,9 F,19,85142,87323,0.5 M,19,85166,86232,234,117,139.4569,233.4543 M,18,86778,87323,139.4569,233.4543,234,117
Sprite,Background,Centre,"SB\DIV\pixel.png",0,0 L,86232,3 R,19,0,272,0,1.250639 S,0,85142,,18 F,19,85142,87323,0.5 M,19,85225,86232,234,117,370.4731,54.74973 M,18,86778,87323,370.4731,54.74973,234,117
Sprite,Background,Centre,"SB\DIV\pixel.png",0,0 L,86232,3 R,19,0,272,0,1.733392 S,0,85142,,3 F,19,85142,87323,0.5 M,19,85220,86232,234,117,369.5492,181.2372 M,18,86778,87323,369.5492,181.2372,234,117
Sprite,Background,Centre,"SB\DIV\pixel.png",0,0 L,86232,3 R,19,0,272,0,2.576733 S,0,85142,,19 F,19,85142,87323,0.5 M,19,85143,86232,234,117,224.7943,-32.71725 M,18,86778,87323,224.7943,-32.71725,234,117
Sprite,Background,Centre,"SB\DIV\pixel.png",0,0 L,86232,3 R,19,0,272,0,2.703697 S,0,85142,,10 F,19,85142,87323,0.5 M,19,85158,86232,234,117,84.96542,100.0089 M,18,86778,87323,84.96542,100.0089,234,117
Sprite,Background,Centre,"SB\DIV\pixel.png",0,0 L,86232,3 R,19,0,272,0,0.385457 S,0,85142,,7 F,19,85142,87323,0.5 M,19,85205,86232,234,117,341.3172,12.20006 M,18,86778,87323,341.3172,12.20006,234,117
Sprite,Background,Centre,"SB\DIV\pixel.png",0,0 L,86232,3 R,19,0,272,0,0.9656081 S,0,85142,,14 F,19,85142,87323,0.5 M,19,85176,86232,234,117,309.3512,-12.70044 M,18,86778,87323,309.3512,-12.70044,234,117
Sprite,Background,Centre,"SB\DIV\pixel.png",0,0 L,86232,3 R,19,0,272,0,2.464599 S,0,85142,,19 F,19,85142,87323,0.5 M,19,85176,86232,234,117,223.5121,266.6329 M,18,86778,87323,223.5121,266.6329,234,117
Sprite,Background,Centre,"SB\DIV\pixel.png",0,0 L,86232,3 R,19,0,272,0,1.215508 S,0,85142,,13 F,19,85142,87323,0.5 M,19,85163,86232,234,117,135.2112,229.8751 M,18,86778,87323,135.2112,229.8751,234,117
Sprite,Background,Centre,"SB\DIV\pixel.png",0,0 L,86232,3 R,19,0,272,0,2.641461 S,0,85142,,15 F,19,85142,87323,0.5 M,19,85181,86232,234,117,284.7574,258.1513 M,18,86778,87323,284.7574,258.1513,234,117
Sprite,Background,Centre,"SB\DIV\pixel.png",0,0 L,86232,3 R,19,0,272,0,2.822865 S,0,85142,,16 F,19,85142,87323,0.5 M,19,85191,86232,234,117,321.6805,-4.705073 M,18,86778,87323,321.6805,-4.705073,234,117
Sprite,Background,Centre,"SB\DIV\pixel.png",0,0 L,86232,3 R,19,0,272,0,1.16281 S,0,85142,,12 F,19,85142,87323,0.5 M,19,85218,86232,234,117,283.7415,258.5125 M,18,86778,87323,283.7415,258.5125,234,117
Sprite,Background,Centre,"SB\DIV\pixel.png",0,0 L,86232,3 R,19,0,272,0,2.931035 S,0,85142,,16 F,19,85142,87323,0.5 M,19,85195,86232,234,117,193.2759,261.366 M,18,86778,87323,193.2759,261.366,234,117
Sprite,Background,Centre,"SB\DIV\pixel.png",0,0 L,86232,3 R,19,0,272,0,0.4008399 S,0,85142,,15 F,19,85142,87323,0.5 M,19,85150,86232,234,117,210.5968,-31.16305 M,18,86778,87323,210.5968,-31.16305,234,117
Sprite,Background,Centre,"SB\DIV\pixel.png",0,0 L,86232,3 R,19,0,272,0,2.757885 S,0,85142,,4 F,19,85142,87323,0.5 M,19,85143,86232,234,117,114.6146,207.8136 M,18,86778,87323,114.6146,207.8136,234,117
Sprite,Background,Centre,"SB\DIV\pixel.png",0,0 L,86232,3 R,19,0,272,0,1.849913 S,0,85142,,3 F,19,85142,87323,0.5 M,19,85192,86232,234,117,182.1792,257.7643 M,18,86778,87323,182.1792,257.7643,234,117
Sprite,Background,Centre,"SB\DIV\pixel.png",0,0 L,86232,3 R,19,0,272,0,2.303948 S,0,85142,,10 F,19,85142,87323,0.5 M,19,85231,86232,234,117,84.66673,131.1271 M,18,86778,87323,84.66673,131.1271,234,117
Sprite,Background,Centre,"SB\DIV\pixel.png",0,0 L,86232,3 R,19,0,272,0,1.173289 S,0,85142,,16 F,19,85142,87323,0.5 M,19,85194,86232,234,117,155.8876,245.0565 M,18,86778,87323,155.8876,245.0565,234,117
Sprite,Background,Centre,"SB\DIV\pixel.png",0,0 L,86232,3 R,19,0,272,0,0.445377 S,0,85142,,13 F,19,85142,87323,0.5 M,19,85220,86232,234,117,84.03137,120.0677 M,18,86778,87323,84.03137,120.0677,234,117
Sprite,Background,Centre,"SB\DIV\pixel.png",0,0 L,86232,3 R,19,0,272,0,0.5490702 S,0,85142,,15 F,19,85142,87323,0.5 M,19,85183,86232,234,117,303.0764,-16.14821 M,18,86778,87323,303.0764,-16.14821,234,117
Sprite,Background,Centre,"SB\DIV\pixel.png",0,0 L,86232,3 R,19,0,272,0,2.865772 S,0,85142,,13 F,19,85142,87323,0.5 M,19,85204,86232,234,117,349.6334,212.5454 M,18,86778,87323,349.6334,212.5454,234,117
Sprite,Background,Centre,"SB\DIV\pixel.png",0,0 L,86232,3 R,19,0,272,0,1.444491 S,0,85142,,18 F,19,85142,87323,0.5 M,19,85175,86232,234,117,310.3394,-12.12127 M,18,86778,87323,310.3394,-12.12127,234,117
Sprite,Background,Centre,"SB\DIV\pixel.png",0,0 L,86232,3 R,19,0,272,0,2.993221 S,0,85142,,19 F,19,85142,87323,0.5 M,19,85209,86232,234,117,184.0048,-24.42306 M,18,86778,87323,184.0048,-24.42306,234,117
Sprite,Background,Centre,"SB\DIV\pixel.png",0,0 L,86232,3 R,19,0,272,0,0.9965948 S,0,85142,,3 F,19,85142,87323,0.5 M,19,85150,86232,234,117,112.9279,205.5526 M,18,86778,87323,112.9279,205.5526,234,117
Sprite,Background,Centre,"SB\DIV\pixel.png",0,0 L,86232,3 R,19,0,272,0,2.826274 S,0,85142,,9 F,19,85142,87323,0.5 M,19,85170,86232,234,117,281.903,259.1454 M,18,86778,87323,281.903,259.1454,234,117
Sprite,Background,Centre,"SB\DIV\pixel.png",0,0 L,86232,3 R,19,0,272,0,0.7203141 S,0,85142,,2 F,19,85142,87323,0.5 M,19,85180,86232,234,117,119.1598,20.50268 M,18,86778,87323,119.1598,20.50268,234,117
Sprite,Background,Centre,"SB\DIV\pixel.png",0,0 L,86232,3 R,19,0,272,0,0.1324007 S,0,85142,,18 F,19,85142,87323,0.5 M,19,85219,86232,234,117,348.9662,20.65287 M,18,86778,87323,348.9662,20.65287,234,117
Sprite,Background,Centre,"SB\DIV\pixel.png",0,0 L,86232,3 R,19,0,272,0,2.326493 S,0,85142,,11 F,19,85142,87323,0.5 M,19,85169,86232,234,117,327.1513,-0.5705167 M,18,86778,87323,327.1513,-0.5705167,234,117
Sprite,Background,Centre,"SB\DIV\pixel.png",0,0 L,86232,3 R,19,0,272,0,2.342738 S,0,85142,,8 F,19,85142,87323,0.5 M,19,85200,86232,234,117,383.9395,121.2586 M,18,86778,87323,383.9395,121.2586,234,117
Sprite,Background,Centre,"SB\DIV\pixel.png",0,0 L,88414,3 R,19,0,272,0,3.091384 S,0,87324,,14 F,19,87324,89505,0.5 M,19,87405,88414,295,319,364.5426,186.0947 M,18,88960,89505,364.5426,186.0947,295,319
Sprite,Background,Centre,"SB\DIV\pixel.png",0,0 L,88414,3 R,19,0,272,0,0.9418951 S,0,87324,,9 F,19,87324,89505,0.5 M,19,87359,88414,295,319,289.9708,169.0843 M,18,88960,89505,289.9708,169.0843,295,319
Sprite,Background,Centre,"SB\DIV\pixel.png",0,0 L,88414,3 R,19,0,272,0,1.50906 S,0,87324,,14 F,19,87324,89505,0.5 M,19,87347,88414,295,319,366.6711,187.2303 M,18,88960,89505,366.6711,187.2303,295,319
Sprite,Background,Centre,"SB\DIV\pixel.png",0,0 L,88414,3 R,19,0,272,0,2.661595 S,0,87324,,14 F,19,87324,89505,0.5 M,19,87355,88414,295,319,153.3595,368.3758 M,18,88960,89505,153.3595,368.3758,295,319
Sprite,Background,Centre,"SB\DIV\pixel.png",0,0 L,88414,3 R,19,0,272,0,2.02732 S,0,87324,,18 F,19,87324,89505,0.5 M,19,87399,88414,295,319,428.5214,250.6477 M,18,88960,89505,428.5214,250.6477,295,319
Sprite,Background,Centre,"SB\DIV\pixel.png",0,0 L,88414,3 R,19,0,272,0,1.685319 S,0,87324,,7 F,19,87324,89505,0.5 M,19,87377,88414,295,319,403.3681,422.7129 M,18,88960,89505,403.3681,422.7129,295,319
Sprite,Background,Centre,"SB\DIV\pixel.png",0,0 L,88414,3 R,19,0,272,0,1.154815 S,0,87324,,13 F,19,87324,89505,0.5 M,19,87417,88414,295,319,180.7401,221.8163 M,18,88960,89505,180.7401,221.8163,295,319
Sprite,Background,Centre,"SB\DIV\pixel.png",0,0 L,88414,3 R,19,0,272,0,3.079386 S,0,87324,,2 F,19,87324,89505,0.5 M,19,87395,88414,295,319,337.3353,175.0982 M,18,88960,89505,337.3353,175.0982,295,319
Sprite,Background,Centre,"SB\DIV\pixel.png",0,0 L,88414,3 R,19,0,272,0,2.179356 S,0,87324,,13 F,19,87324,89505,0.5 M,19,87359,88414,295,319,148.259,287.9019 M,18,88960,89505,148.259,287.9019,295,319
Sprite,Background,Centre,"SB\DIV\pixel.png",0,0 L,88414,3 R,19,0,272,0,1.127653 S,0,87324,,3 F,19,87324,89505,0.5 M,19,87380,88414,295,319,184.6085,217.4436 M,18,88960,89505,184.6085,217.4436,295,319
Sprite,Background,Centre,"SB\DIV\pixel.png",0,0 L,88414,3 R,19,0,272,0,0.02183865 S,0,87324,,10 F,19,87324,89505,0.5 M,19,87411,88414,295,319,243.3321,178.1794 M,18,88960,89505,243.3321,178.1794,295,319
Sprite,Background,Centre,"SB\DIV\pixel.png",0,0 L,88414,3 R,19,0,272,0,2.145414 S,0,87324,,2 F,19,87324,89505,0.5 M,19,87412,88414,295,319,428.0898,388.1888 M,18,88960,89505,428.0898,388.1888,295,319
Sprite,Background,Centre,"SB\DIV\pixel.png",0,0 L,88414,3 R,19,0,272,0,1.348917 S,0,87324,,17 F,19,87324,89505,0.5 M,19,87327,88414,295,319,334.3911,463.7354 M,18,88960,89505,334.3911,463.7354,295,319
Sprite,Background,Centre,"SB\DIV\pixel.png",0,0 L,88414,3 R,19,0,272,0,2.749579 S,0,87324,,8 F,19,87324,89505,0.5 M,19,87383,88414,295,319,412.5921,225.8759 M,18,88960,89505,412.5921,225.8759,295,319
Sprite,Background,Centre,"SB\DIV\pixel.png",0,0 L,88414,3 R,19,0,272,0,3.076534 S,0,87324,,15 F,19,87324,89505,0.5 M,19,87351,88414,295,319,277.6015,170.0125 M,18,88960,89505,277.6015,170.0125,295,319
Sprite,Background,Centre,"SB\DIV\pixel.png",0,0 L,88414,3 R,19,0,272,0,0.5250998 S,0,87324,,6 F,19,87324,89505,0.5 M,19,87337,88414,295,319,157.4551,259.1553 M,18,88960,89505,157.4551,259.1553,295,319
Sprite,Background,Centre,"SB\DIV\pixel.png",0,0 L,88414,3 R,19,0,272,0,0.6355339 S,0,87324,,19 F,19,87324,89505,0.5 M,19,87371,88414,295,319,155.5908,263.6369 M,18,88960,89505,155.5908,263.6369,295,319
Sprite,Background,Centre,"SB\DIV\pixel.png",0,0 L,88414,3 R,19,0,272,0,2.38838 S,0,87324,,13 F,19,87324,89505,0.5 M,19,87367,88414,295,319,283.2361,169.462 M,18,88960,89505,283.2361,169.462,295,319
Sprite,Background,Centre,"SB\DIV\pixel.png",0,0 L,88414,3 R,19,0,272,0,2.678591 S,0,87324,,8 F,19,87324,89505,0.5 M,19,87392,88414,295,319,420.2721,236.496 M,18,88960,89505,420.2721,236.496,295,319
Sprite,Background,Centre,"SB\DIV\pixel.png",0,0 L,88414,3 R,19,0,272,0,3.007921 S,0,87324,,5 F,19,87324,89505,0.5 M,19,87372,88414,295,319,145.0081,320.5599 M,18,88960,89505,145.0081,320.5599,295,319
Sprite,Background,Centre,"SB\DIV\pixel.png",0,0 L,88414,3 R,19,0,272,0,2.428068 S,0,87324,,5 F,19,87324,89505,0.5 M,19,87345,88414,295,319,443.2314,341.9664 M,18,88960,89505,443.2314,341.9664,295,319
Sprite,Background,Centre,"SB\DIV\pixel.png",0,0 L,88414,3 R,19,0,272,0,2.517745 S,0,87324,,11 F,19,87324,89505,0.5 M,19,87338,88414,295,319,162.7918,389.8589 M,18,88960,89505,162.7918,389.8589,295,319
Sprite,Background,Centre,"SB\DIV\pixel.png",0,0 L,88414,3 R,19,0,272,0,0.0005169089 S,0,87324,,17 F,19,87324,89505,0.5 M,19,87389,88414,295,319,436.3417,268.7753 M,18,88960,89505,436.3417,268.7753,295,319
Sprite,Background,Centre,"SB\DIV\pixel.png",0,0 L,88414,3 R,19,0,272,0,0.794713 S,0,87324,,14 F,19,87324,89505,0.5 M,19,87331,88414,295,319,280.8423,169.6696 M,18,88960,89505,280.8423,169.6696,295,319
Sprite,Background,Centre,"SB\DIV\pixel.png",0,0 L,88414,3 R,19,0,272,0,1.088213 S,0,87324,,12 F,19,87324,89505,0.5 M,19,87419,88414,295,319,150.9462,360.815 M,18,88960,89505,150.9462,360.815,295,319
Sprite,Background,Centre,"SB\DIV\pixel.png",0,0 L,88414,3 R,19,0,272,0,1.002417 S,0,87324,,17 F,19,87324,89505,0.5 M,19,87415,88414,295,319,439.2238,360.2249 M,18,88960,89505,439.2238,360.2249,295,319
Sprite,Background,Centre,"SB\DIV\pixel.png",0,0 L,88414,3 R,19,0,272,0,1.829573 S,0,87324,,6 F,19,87324,89505,0.5 M,19,87418,88414,295,319,425.8434,392.3486 M,18,88960,89505,425.8434,392.3486,295,319
Sprite,Background,Centre,"SB\DIV\pixel.png",0,0 L,88414,3 R,19,0,272,0,1.883817 S,0,87324,,5 F,19,87324,89505,0.5 M,19,87352,88414,295,319,208.4573,441.5168 M,18,88960,89505,208.4573,441.5168,295,319
Sprite,Background,Centre,"SB\DIV\pixel.png",0,0 L,88414,3 R,19,0,272,0,2.256343 S,0,87324,,17 F,19,87324,89505,0.5 M,19,87416,88414,295,319,170.4425,235.4211 M,18,88960,89505,170.4425,235.4211,295,319
Sprite,Background,Centre,"SB\DIV\pixel.png",0,0 L,88414,3 R,19,0,272,0,0.8960138 S,0,87324,,8 F,19,87324,89505,0.5 M,19,87406,88414,295,319,292.3398,468.9764 M,18,88960,89505,292.3398,468.9764,295,319
Sprite,Background,Centre,"SB\DIV\pixel.png",0,0 L,88414,3 R,19,0,272,0,3.011834 S,0,87324,,18 F,19,87324,89505,0.5 M,19,87405,88414,295,319,161.1923,386.7901 M,18,88960,89505,161.1923,386.7901,295,319
Sprite,Background,Centre,"SB\DIV\pixel.png",0,0 L,88414,3 R,19,0,272,0,0.2956931 S,0,87324,,17 F,19,87324,89505,0.5 M,19,87386,88414,295,319,431.5269,381.1323 M,18,88960,89505,431.5269,381.1323,295,319
Sprite,Background,Centre,"SB\DIV\pixel.png",0,0 L,88414,3 R,19,0,272,0,0.2960638 S,0,87324,,5 F,19,87324,89505,0.5 M,19,87350,88414,295,319,145.0627,314.6639 M,18,88960,89505,145.0627,314.6639,295,319
Sprite,Background,Centre,"SB\DIV\pixel.png",0,0 L,88414,3 R,19,0,272,0,1.074069 S,0,87324,,7 F,19,87324,89505,0.5 M,19,87361,88414,295,319,444.9128,324.1155 M,18,88960,89505,444.9128,324.1155,295,319
Sprite,Background,Centre,"SB\DIV\pixel.png",0,0 L,88414,3 R,19,0,272,0,1.565304 S,0,87324,,3 F,19,87324,89505,0.5 M,19,87412,88414,295,319,152.0002,364.2885 M,18,88960,89505,152.0002,364.2885,295,319
Sprite,Background,Centre,"SB\DIV\pixel.png",0,0 L,88414,3 R,19,0,272,0,2.397726 S,0,87324,,17 F,19,87324,89505,0.5 M,19,87336,88414,295,319,148.5938,286.362 M,18,88960,89505,148.5938,286.362,295,319
Sprite,Background,Centre,"SB\DIV\pixel.png",0,0 L,88414,3 R,19,0,272,0,1.237231 S,0,87324,,12 F,19,87324,89505,0.5 M,19,87380,88414,295,319,325.0391,465.9614 M,18,88960,89505,325.0391,465.9614,295,319
Sprite,Background,Centre,"SB\DIV\pixel.png",0,0 L,88414,3 R,19,0,272,0,1.421995 S,0,87324,,7 M,19,87324,88414,295,319,275.8189,467.7686 F,19,87324,89505,0.5 M,18,88960,89505,275.8189,467.7686,295,319
Sprite,Background,Centre,"SB\DIV\pixel.png",0,0 L,88414,3 R,19,0,272,0,0.1297157 S,0,87324,,3 F,19,87324,89505,0.5 M,19,87368,88414,295,319,270.9805,170.9356 M,18,88960,89505,270.9805,170.9356,295,319
Sprite,Background,Centre,"SB\DIV\pixel.png",0,0 L,88414,3 R,19,0,272,0,2.379772 S,0,87324,,15 F,19,87324,89505,0.5 M,19,87396,88414,295,319,223.3833,450.7993 M,18,88960,89505,223.3833,450.7993,295,319
Sprite,Background,Centre,"SB\DIV\pixel.png",0,0 L,90595,3 R,19,0,272,0,0.2063301 S,0,89505,,2 F,19,89505,91686,0.5 M,19,89559,90595,394,346,499.8184,239.687 M,18,91141,91686,499.8184,239.687,394,346
Sprite,Background,Centre,"SB\DIV\pixel.png",0,0 L,90595,3 R,19,0,272,0,1.740452 S,0,89505,,9 F,19,89505,91686,0.5 M,19,89578,90595,394,346,249.0526,307.3962 M,18,91141,91686,249.0526,307.3962,394,346
Sprite,Background,Centre,"SB\DIV\pixel.png",0,0 L,90595,3 R,19,0,272,0,2.099176 S,0,89505,,3 F,19,89505,91686,0.5 M,19,89580,90595,394,346,535.9033,297.3845 M,18,91141,91686,535.9033,297.3845,394,346
Sprite,Background,Centre,"SB\DIV\pixel.png",0,0 L,90595,3 R,19,0,272,0,2.552305 S,0,89505,,16 F,19,89505,91686,0.5 M,19,89572,90595,394,346,534.3453,293.0547 M,18,91141,91686,534.3453,293.0547,394,346
Sprite,Background,Centre,"SB\DIV\pixel.png",0,0 L,90595,3 R,19,0,272,0,2.361162 S,0,89505,,16 F,19,89505,91686,0.5 M,19,89511,90595,394,346,543.9794,348.4892 M,18,91141,91686,543.9794,348.4892,394,346
Sprite,Background,Centre,"SB\DIV\pixel.png",0,0 L,90595,3 R,19,0,272,0,0.7795532 S,0,89505,,2 F,19,89505,91686,0.5 M,19,89583,90595,394,346,543.7034,355.4276 M,18,91141,91686,543.7034,355.4276,394,346
Sprite,Background,Centre,"SB\DIV\pixel.png",0,0 L,90595,3 R,19,0,272,0,0.5827008 S,0,89505,,4 F,19,89505,91686,0.5 M,19,89542,90595,394,346,452.6499,207.9414 M,18,91141,91686,452.6499,207.9414,394,346
Sprite,Background,Centre,"SB\DIV\pixel.png",0,0 L,90595,3 R,19,0,272,0,2.889488 S,0,89505,,11 F,19,89505,91686,0.5 M,19,89559,90595,394,346,321.6749,214.5881 M,18,91141,91686,321.6749,214.5881,394,346
Sprite,Background,Centre,"SB\DIV\pixel.png",0,0 L,90595,3 R,19,0,272,0,2.694885 S,0,89505,,15 F,19,89505,91686,0.5 M,19,89561,90595,394,346,247.2028,315.1685 M,18,91141,91686,247.2028,315.1685,394,346
Sprite,Background,Centre,"SB\DIV\pixel.png",0,0 L,90595,3 R,19,0,272,0,2.201793 S,0,89505,,9 F,19,89505,91686,0.5 M,19,89541,90595,394,346,541.6056,319.3056 M,18,91141,91686,541.6056,319.3056,394,346
Sprite,Background,Centre,"SB\DIV\pixel.png",0,0 L,90595,3 R,19,0,272,0,0.2111184 S,0,89505,,18 F,19,89505,91686,0.5 M,19,89596,90595,394,346,311.8582,220.4902 M,18,91141,91686,311.8582,220.4902,394,346
Sprite,Background,Centre,"SB\DIV\pixel.png",0,0 L,90595,3 R,19,0,272,0,1.79243 S,0,89505,,6 F,19,89505,91686,0.5 M,19,89577,90595,394,346,452.7326,207.9765 M,18,91141,91686,452.7326,207.9765,394,346
Sprite,Background,Centre,"SB\DIV\pixel.png",0,0 L,90595,3 R,19,0,272,0,1.503341 S,0,89505,,5 F,19,89505,91686,0.5 M,19,89575,90595,394,346,396.2614,196.017 M,18,91141,91686,396.2614,196.017,394,346
Sprite,Background,Centre,"SB\DIV\pixel.png",0,0 L,90595,3 R,19,0,272,0,0.3672023 S,0,89505,,18 F,19,89505,91686,0.5 M,19,89568,90595,394,346,257.7646,283.2311 M,18,91141,91686,257.7646,283.2311,394,346
Sprite,Background,Centre,"SB\DIV\pixel.png",0,0 L,90595,3 R,19,0,272,0,0.2263008 S,0,89505,,17 F,19,89505,91686,0.5 M,19,89519,90595,394,346,276.195,438.8547 M,18,91141,91686,276.195,438.8547,394,346
Sprite,Background,Centre,"SB\DIV\pixel.png",0,0 L,90595,3 R,19,0,272,0,0.3416301 S,0,89505,,19 F,19,89505,91686,0.5 M,19,89534,90595,394,346,254.867,402.0535 M,18,91141,91686,254.867,402.0535,394,346
Sprite,Background,Centre,"SB\DIV\pixel.png",0,0 L,90595,3 R,19,0,272,0,2.955025 S,0,89505,,7 F,19,89505,91686,0.5 M,19,89541,90595,394,346,304.4712,225.648 M,18,91141,91686,304.4712,225.648,394,346
Sprite,Background,Centre,"SB\DIV\pixel.png",0,0 L,90595,3 R,19,0,272,0,1.917566 S,0,89505,,2 F,19,89505,91686,0.5 M,19,89549,90595,394,346,514.3997,256.5353 M,18,91141,91686,514.3997,256.5353,394,346
Sprite,Background,Centre,"SB\DIV\pixel.png",0,0 L,90595,3 R,19,0,272,0,1.431597 S,0,89505,,19 F,19,89505,91686,0.5 M,19,89533,90595,394,346,535.9795,297.6076 M,18,91141,91686,535.9795,297.6076,394,346
Sprite,Background,Centre,"SB\DIV\pixel.png",0,0 L,90595,3 R,19,0,272,0,0.2416416 S,0,89505,,7 F,19,89505,91686,0.5 M,19,89542,90595,394,346,464.3137,213.501 M,18,91141,91686,464.3137,213.501,394,346
Sprite,Background,Centre,"SB\DIV\pixel.png",0,0 L,90595,3 R,19,0,272,0,0.09531596 S,0,89505,,7 F,19,89505,91686,0.5 M,19,89551,90595,394,346,320.3081,476.6503 M,18,91141,91686,320.3081,476.6503,394,346
Sprite,Background,Centre,"SB\DIV\pixel.png",0,0 L,90595,3 R,19,0,272,0,2.858364 S,0,89505,,17 F,19,89505,91686,0.5 M,19,89508,90595,394,346,244.5828,332.7905 M,18,91141,91686,244.5828,332.7905,394,346
Sprite,Background,Centre,"SB\DIV\pixel.png",0,0 L,90595,3 R,19,0,272,0,0.147479 S,0,89505,,4 F,19,89505,91686,0.5 M,19,89580,90595,394,346,244.8574,329.985 M,18,91141,91686,244.8574,329.985,394,346
Sprite,Background,Centre,"SB\DIV\pixel.png",0,0 L,90595,3 R,19,0,272,0,0.1910767 S,0,89505,,6 F,19,89505,91686,0.5 M,19,89542,90595,394,346,278.3637,441.5419 M,18,91141,91686,278.3637,441.5419,394,346
Sprite,Background,Centre,"SB\DIV\pixel.png",0,0 L,90595,3 R,19,0,272,0,1.192581 S,0,89505,,7 F,19,89505,91686,0.5 M,19,89564,90595,394,346,503.8047,448.1907 M,18,91141,91686,503.8047,448.1907,394,346
Sprite,Background,Centre,"SB\DIV\pixel.png",0,0 L,90595,3 R,19,0,272,0,0.2640293 S,0,89505,,9 F,19,89505,91686,0.5 M,19,89523,90595,394,346,511.6223,439.0859 M,18,91141,91686,511.6223,439.0859,394,346
Sprite,Background,Centre,"SB\DIV\pixel.png",0,0 L,90595,3 R,19,0,272,0,0.1087687 S,0,89505,,18 F,19,89505,91686,0.5 M,19,89506,90595,394,346,531.0941,406.8705 M,18,91141,91686,531.0941,406.8705,394,346
Sprite,Background,Centre,"SB\DIV\pixel.png",0,0 L,90595,3 R,19,0,272,0,0.08435286 S,0,89505,,7 F,19,89505,91686,0.5 M,19,89510,90595,394,346,457.6104,481.8445 M,18,91141,91686,457.6104,481.8445,394,346
Sprite,Background,Centre,"SB\DIV\pixel.png",0,0 L,90595,3 R,19,0,272,0,1.490144 S,0,89505,,4 F,19,89505,91686,0.5 M,19,89564,90595,394,346,495.4586,235.5185 M,18,91141,91686,495.4586,235.5185,394,346
Sprite,Background,Centre,"SB\DIV\pixel.png",0,0 L,90595,3 R,19,0,272,0,2.010111 S,0,89505,,18 F,19,89505,91686,0.5 M,19,89518,90595,394,346,446.1525,486.6418 M,18,91141,91686,446.1525,486.6418,394,346
Sprite,Background,Centre,"SB\DIV\pixel.png",0,0 L,90595,3 R,19,0,272,0,0.6104676 S,0,89505,,6 F,19,89505,91686,0.5 M,19,89517,90595,394,346,250.3139,389.0616 M,18,91141,91686,250.3139,389.0616,394,346
Sprite,Background,Centre,"SB\DIV\pixel.png",0,0 L,90595,3 R,19,0,272,0,0.9661855 S,0,89505,,18 F,19,89505,91686,0.5 M,19,89523,90595,394,346,382.5457,196.438 M,18,91141,91686,382.5457,196.438,394,346
Sprite,Background,Centre,"SB\DIV\pixel.png",0,0 L,90595,3 R,19,0,272,0,1.82256 S,0,89505,,15 F,19,89505,91686,0.5 M,19,89565,90595,394,346,323.8383,478.5796 M,18,91141,91686,323.8383,478.5796,394,346
Sprite,Background,Centre,"SB\DIV\pixel.png",0,0 L,90595,3 R,19,0,272,0,2.686298 S,0,89505,,4 F,19,89505,91686,0.5 M,19,89591,90595,394,346,244.0765,341.21 M,18,91141,91686,244.0765,341.21,394,346
Sprite,Background,Centre,"SB\DIV\pixel.png",0,0 L,90595,3 R,19,0,272,0,0.493698 S,0,89505,,6 F,19,89505,91686,0.5 M,19,89512,90595,394,346,315.5128,473.8271 M,18,91141,91686,315.5128,473.8271,394,346
Sprite,Background,Centre,"SB\DIV\pixel.png",0,0 L,90595,3 R,19,0,272,0,0.5006483 S,0,89505,,16 F,19,89505,91686,0.5 M,19,89550,90595,394,346,246.1771,320.5363 M,18,91141,91686,246.1771,320.5363,394,346
Sprite,Background,Centre,"SB\DIV\pixel.png",0,0 L,90595,3 R,19,0,272,0,1.527289 S,0,89505,,16 F,19,89505,91686,0.5 M,19,89532,90595,394,346,541.7181,319.9353 M,18,91141,91686,541.7181,319.9353,394,346
Sprite,Background,Centre,"SB\DIV\pixel.png",0,0 L,90595,3 R,19,0,272,0,0.250656 S,0,89505,,14 F,19,89505,91686,0.5 M,19,89583,90595,394,346,534.94,294.6589 M,18,91141,91686,534.94,294.6589,394,346
Sprite,Background,Centre,"SB\DIV\pixel.png",0,0 L,90595,3 R,19,0,272,0,0.6900101 S,0,89505,,19 F,19,89505,91686,0.5 M,19,89517,90595,394,346,543.9504,342.1439 M,18,91141,91686,543.9504,342.1439,394,346
Sprite,Background,Centre,"SB\DIV\pixel.png",0,0 L,90595,3 R,19,0,272,0,1.271649 S,0,89505,,12 F,19,89505,91686,0.5 M,19,89586,90595,394,346,377.0234,495.0362 M,18,91141,91686,377.0234,495.0362,394,346
//Storyboard Layer 1 (Fail)
//Storyboard Layer 2 (Pass)
//Storyboard Layer 3 (Foreground)
//Storyboard Sound Samples

[TimingPoints]
4415,545.454545454546,4,2,22,52,1,0
4415,-133.333333333333,4,2,22,52,0,0
12460,-133.333333333333,4,2,22,5,0,0
12596,-133.333333333333,4,2,22,52,0,0
13005,-133.333333333333,4,2,22,5,0,0
13142,-133.333333333333,4,2,22,52,0,0
21733,-133.333333333333,4,2,22,5,0,0
21869,-133.333333333333,4,2,22,62,0,0
26233,-133.333333333333,4,2,22,62,0,0
56233,-100,4,2,22,62,0,0
56778,-100,4,2,22,82,0,0
61142,-100,4,2,22,82,0,0
65505,-100,4,2,22,72,0,0
72051,-100,4,2,22,82,0,0
72596,-100,4,2,22,62,0,0
73142,-100,4,2,22,52,0,0
73687,-100,4,2,22,42,0,0
74233,-100,4,2,22,62,0,0
74505,-100,4,2,22,62,0,0
74915,-100,4,2,22,62,0,0
75324,-100,4,2,22,62,0,0
76415,-100,4,2,22,62,0,0
76687,-100,4,2,22,62,0,0
77096,-100,4,2,22,62,0,0
77505,-100,4,2,22,62,0,0
78596,-100,4,2,22,62,0,0
78869,-100,4,2,22,62,0,0
79278,-100,4,2,22,62,0,0
79687,-100,4,2,22,62,0,0
80778,-100,4,2,22,62,0,0
81051,-100,4,2,22,62,0,0
82960,-100,4,2,22,62,0,0
83233,-100,4,2,22,62,0,0
85142,-100,4,2,22,62,0,0
85415,-100,4,2,22,62,0,0
87324,-100,4,2,22,62,0,0
87596,-100,4,2,22,62,0,0
89505,-100,4,2,22,62,0,0
89778,-100,4,2,22,62,0,0
91687,-100,4,2,22,82,0,0
100415,-100,4,2,22,82,0,0
106415,-100,4,2,22,82,0,0
106960,-100,4,2,22,82,0,0
107505,-100,4,2,22,62,0,0
108051,-100,4,2,22,52,0,0
108596,-100,4,2,22,42,0,0
109142,-133.333333333333,4,2,22,52,0,0
122233,-133.333333333333,4,2,22,52,0,0
124346,-133.333333333333,4,2,22,5,0,0
124415,-133.333333333333,4,2,22,62,0,0
126596,-100,4,2,22,72,0,0
135324,-133.333333333333,4,2,22,72,0,0
144051,-100,4,2,22,92,0,0
144596,-100,4,2,22,92,0,0
146233,-100,4,2,22,92,0,0
148415,-100,4,2,22,92,0,0
150596,-100,4,2,22,92,0,0
151142,-100,4,2,22,92,0,0
152778,-100,4,2,22,92,0,0
153324,-100,4,2,22,92,0,0
154415,-100,4,2,22,92,0,0
154960,-100,4,2,22,92,0,0
157142,-100,4,2,22,92,0,0
159324,-100,4,2,22,92,0,0
161505,-100,4,2,22,82,0,0
164505,-100,4,2,22,82,0,0
165324,-100,4,2,22,82,0,0
165596,-100,4,2,22,82,0,0
166142,-100,4,2,22,82,0,0
166415,-100,4,2,22,82,0,0
166687,-100,4,2,22,82,0,0
166960,-100,4,2,22,82,0,0
167233,-100,4,2,22,82,0,0
167505,-100,4,2,22,82,0,0
167778,-100,4,2,22,82,0,0
168051,-100,4,2,22,82,0,0
168324,-100,4,2,22,82,0,0
168596,-100,4,2,22,82,0,0
168869,-100,4,2,22,82,0,0
169142,-100,4,2,22,82,0,0
169415,-100,4,2,22,82,0,0
169687,-100,4,2,22,82,0,0
169960,-100,4,2,22,82,0,0
170233,-100,4,2,22,82,0,0
171324,-100,4,2,22,82,0,0
172415,-100,4,2,22,82,0,0
173505,-100,4,2,22,82,0,0
174596,-100,4,2,22,82,0,0
175687,-100,4,2,22,82,0,0
176778,-100,4,2,22,82,0,0
177869,-100,4,2,22,82,0,0
178960,-100,4,2,22,82,0,0
179505,-100,4,2,22,82,0,0
180051,-100,4,2,22,82,0,0
180596,-100,4,2,22,82,0,0
181142,-100,4,2,22,82,0,0
181687,-100,4,2,22,82,0,0
182233,-100,4,2,22,82,0,0
182778,-100,4,2,22,82,0,0
183324,-100,4,2,22,82,0,0
183869,-100,4,2,22,82,0,0
184415,-100,4,2,22,82,0,0
184960,-100,4,2,22,82,0,0
185505,-100,4,2,22,82,0,0
186051,-100,4,2,22,82,0,0
187687,-133.333333333333,4,2,22,82,0,0
195187,-133.333333333333,4,2,22,5,0,0
195324,-133.333333333333,4,2,22,42,0,0
196278,-133.333333333333,4,2,22,5,0,0
196415,-133.333333333333,4,2,22,42,0,0
198460,-133.333333333333,4,2,22,5,0,0
198596,-133.333333333333,4,2,22,42,0,0
212642,-133.333333333333,4,2,22,5,0,0
212778,-133.333333333333,4,2,22,42,0,0
213733,-133.333333333333,4,2,22,5,0,0
213869,-133.333333333333,4,2,22,42,0,0

[Colours]
Combo1 : 186,139,89
Combo2 : 206,54,28
Combo3 : 245,234,98
Combo4 : 164,30,22
SliderBorder : 255,228,145
SliderTrackOverride : 48,22,14

[HitObjects]
256,193,4415,5,4,1:0:0:0:
256,193,13142,5,0,0:0:0:0:
256,193,21869,5,4,1:0:0:0:
128,60,28415,6,0,B|92:124|136:188|136:188|120:260,1,202.500007724762,2|2,0:0|0:0,0:0:0:0:
105,305,29505,2,0,P|159:329|238:324,1,135.000005149842,2|2,0:0|0:0,0:0:0:0:
352,261,30596,6,0,L|356:117,1,135.000005149842,0|2,0:0|0:0,0:0:0:0:
260,29,31687,1,2,0:0:0:0:
129,65,32233,2,0,B|74:97|5:60|5:60|50:335,1,405.000015449525,2|2,0:0|0:0,0:0:0:0:
179,368,34415,2,0,P|210:344|303:333,1,135.000005149842,2|2,0:0|0:0,0:0:0:0:
433,366,35505,5,2,0:0:0:0:
489,243,36051,2,0,L|479:92,1,135.000005149842,2|0,0:0|0:0,0:0:0:0:
361,42,37142,2,0,B|228:66|228:66|164:42,1,202.500007724762,2|2,0:0|0:0,0:0:0:0:
113,25,38233,2,0,P|83:89|95:162,1,135.000005149842,2|2,0:0|0:0,0:0:0:0:
155,269,39324,5,4,1:0:0:0:
155,269,56233,5,8,0:0:0:0:
208,97,56778,6,0,L|399:114,1,180,6|8,1:0|0:0,0:0:0:0:
460,165,57596,1,2,0:0:0:0:
477,253,57869,2,0,P|416:272|371:267,1,90,2|2,1:0|0:0,0:0:0:0:
305,239,58415,2,0,P|244:220|199:225,1,90,8|2,0:0|0:0,0:0:0:0:
163,292,58960,6,0,B|200:202|124:203|158:110,1,180,2|8,1:0|0:0,0:0:0:0:
194,37,59778,1,2,0:0:0:0:
282,55,60051,2,0,L|295:148,1,90,2|2,1:0|0:0,0:0:0:0:
374,184,60596,2,0,L|361:277,1,90,8|2,0:0|0:0,0:0:0:0:
314,350,61142,6,0,P|272:322|140:327,1,180,2|8,1:0|0:0,0:0:0:0:
68,368,61960,1,2,0:0:0:0:
10,298,62233,2,0,L|14:201,1,90,2|2,1:0|0:0,0:0:0:0:
88,157,62778,2,0,L|84:60,1,90,8|2,0:0|0:0,0:0:0:0:
167,31,63324,6,0,P|228:76|225:208,1,180,2|8,1:0|0:0,0:0:0:0:
185,244,64142,1,2,0:0:0:0:
203,332,64415,2,0,L|312:337,1,90,2|2,1:0|0:0,0:0:0:0:
376,370,64960,2,0,L|485:365,1,90,10|2,0:0|0:0,0:0:0:0:
508,286,65505,6,0,L|498:164,1,90,4|0,1:0|0:0,0:0:0:0:
457,117,66051,2,0,P|404:110|341:128,1,90,10|2,0:0|0:0,0:0:0:0:
304,180,66596,1,0,1:0:0:0:
213,180,66869,1,2,0:0:0:0:
149,116,67142,2,0,P|104:109|60:116,1,90,10|2,0:0|0:0,0:0:0:0:
16,195,67687,6,0,L|24:310,1,90,2|0,1:0|0:0,0:0:0:0:
93,340,68233,2,0,P|137:319|187:318,1,90,10|2,0:0|0:0,0:0:0:0:
264,339,68778,1,0,1:0:0:0:
352,322,69051,1,2,0:0:0:0:
425,269,69324,2,0,P|434:218|421:162,1,90,10|2,0:0|0:0,0:0:0:0:
396,96,69869,6,0,L|281:102,1,90,2|2,1:0|0:0,0:0:0:0:
241,164,70415,2,0,P|232:215|245:271,1,90,10|2,0:0|0:0,0:0:0:0:
264,339,70960,1,0,1:0:0:0:
182,377,71233,1,2,0:0:0:0:
93,359,71505,2,0,P|67:325|54:279,1,90,10|2,0:0|0:0,0:0:0:0:
102,203,72051,6,0,B|128:115|59:111|104:17,2,180,2|10|2,1:0|0:0|1:0,0:0:0:0:
54,280,73415,1,2,0:0:0:0:
110,350,73687,2,0,L|203:355,1,90,10|2,0:0|0:0,0:0:0:0:
278,310,74233,6,0,B|294:256|294:256|267:116,2,180,6|10|2,1:0|0:0|1:0,0:0:0:0:
199,354,75596,1,2,0:0:0:0:
122,306,75869,2,0,P|108:264|113:209,1,90,10|2,0:0|0:0,0:0:0:0:
191,179,76415,6,0,P|134:133|36:169,2,180,6|10|2,1:0|0:0|1:0,0:0:0:0:
226,261,77778,1,2,0:0:0:0:
217,350,78051,2,0,L|317:345,1,90,10|2,0:0|0:0,0:0:0:0:
379,292,78596,6,0,B|408:201|330:208|375:86,2,180,6|10|2,1:0|0:0|1:0,0:0:0:0:
306,345,79960,1,2,0:0:0:0:
228,298,80233,2,0,P|172:288|129:297,1,90,10|2,0:0|0:0,0:0:0:0:
52,313,80778,6,0,P|25:233|55:128,2,180,6|10|2,1:0|0:0|1:0,0:0:0:0:
114,378,82142,1,2,0:0:0:0:
197,343,82415,2,0,L|300:350,1,90,10|2,0:0|0:0,0:0:0:0:
376,358,82960,6,0,P|381:313|375:258,1,90,6|2,1:0|0:0,0:0:0:0:
298,224,83505,2,0,P|293:179|299:124,1,90,8|0,0:0|0:0,0:0:0:0:
333,51,84051,2,0,P|378:56|433:50,2,90,2|2|10,1:0|0:0|0:0,0:0:0:0:
249,17,84869,1,2,0:0:0:0:
170,61,85142,6,0,L|165:171,1,90,6|2,1:0|0:0,0:0:0:0:
85,191,85687,2,0,L|90:301,1,90,8|0,0:0|0:0,0:0:0:0:
88,371,86233,2,0,P|45:376|-3:369,2,90,2|2|10,1:0|0:0|0:0,0:0:0:0:
166,326,87051,1,2,0:0:0:0:
231,263,87324,6,0,L|235:173,1,90,6|2,1:0|0:0,0:0:0:0:
239,83,87869,2,0,P|283:75|342:90,1,90,8|0,0:0|0:0,0:0:0:0:
400,135,88415,2,0,P|444:127|503:142,2,90,2|2|10,1:0|0:0|0:0,0:0:0:0:
339,201,89233,1,2,0:0:0:0:
330,290,89505,6,0,L|235:286,1,90,6|2,1:0|0:0,0:0:0:0:
199,205,90051,2,0,L|104:209,1,90,10|0,0:0|0:0,0:0:0:0:
40,266,90596,2,0,P|48:311|40:358,2,90,2|2|10,1:0|0:0|0:0,0:0:0:0:
24,176,91415,1,2,0:0:0:0:
63,95,91687,6,0,B|168:63|140:135|248:100,1,180,4|10,1:0|0:0,0:0:0:0:
318,64,92505,1,2,0:0:0:0:
403,91,92778,2,0,L|410:184,1,90,0|2,1:0|0:0,0:0:0:0:
484,232,93324,2,0,L|477:325,1,90,10|2,0:0|0:0,0:0:0:0:
397,362,93869,6,0,P|316:314|217:328,1,180,2|10,1:0|0:0,0:0:0:0:
152,360,94687,1,2,0:0:0:0:
65,334,94960,2,0,P|52:291|56:244,1,90,0|2,1:0|0:0,0:0:0:0:
122,186,95505,2,0,P|135:143|131:96,1,90,10|2,0:0|0:0,0:0:0:0:
76,26,96051,6,0,P|119:66|239:65,1,180,2|10,1:0|0:0,0:0:0:0:
313,24,96869,1,2,0:0:0:0:
384,78,97142,2,0,L|389:182,1,90,0|2,1:0|0:0,0:0:0:0:
445,237,97687,2,0,L|440:341,1,90,10|2,0:0|0:0,0:0:0:0:
369,382,98233,6,0,P|283:339|259:240,1,180,2|10,1:0|0:0,0:0:0:0:
276,176,99051,1,2,0:0:0:0:
323,99,99324,2,0,P|286:76|217:69,1,90,2|2,1:0|0:0,0:0:0:0:
150,67,99869,2,0,P|106:75|67:98,1,90,10|2,0:0|0:0,0:0:0:0:
24,177,100415,6,0,L|30:277,1,90,6|0,1:0|0:0,0:0:0:0:
81,340,100960,2,0,P|119:362|163:370,1,90,10|2,0:0|0:0,0:0:0:0:
253,365,101505,1,0,1:0:0:0:
324,309,101778,1,2,0:0:0:0:
340,220,102051,2,0,P|317:181|283:152,1,90,10|2,0:0|0:0,0:0:0:0:
196,129,102596,6,0,L|200:30,1,90,2|0,1:0|0:0,0:0:0:0:
287,19,103142,2,0,P|329:15|381:33,1,90,10|2,0:0|0:0,0:0:0:0:
437,92,103687,1,0,1:0:0:0:
437,182,103960,1,2,0:0:0:0:
373,245,104233,2,0,P|330:258|285:254,1,90,10|2,0:0|0:0,0:0:0:0:
218,194,104778,6,0,L|126:198,1,90,2|2,1:0|0:0,0:0:0:0:
41,225,105324,2,0,P|36:278|47:329,1,90,10|2,0:0|0:0,0:0:0:0:
114,367,105869,1,0,1:0:0:0:
203,378,106142,1,2,0:0:0:0:
284,343,106415,2,0,P|290:298|285:254,1,90,10|2,0:0|0:0,0:0:0:0:
209,204,106960,6,0,L|216:92,1,90,2|2,1:0|0:0,0:0:0:0:
272,45,107505,2,0,P|200:81|81:51,2,180,10|2|10,0:0|1:0|0:0,0:0:0:0:
358,17,108869,1,2,0:0:0:0:
438,57,109142,5,4,1:0:0:0:
194,173,110233,2,0,P|141:142|32:218,1,202.500007724762,2|0,0:0|0:0,0:0:0:0:
32,263,111324,2,0,L|259:271,1,202.500007724762,2|0,0:0|0:0,0:0:0:0:
288,269,112415,2,0,P|275:324|289:376,2,101.250003862381,2|2|2,0:0|0:0|0:0,0:0:0:0:
335,244,113505,6,0,L|345:92,1,135.000005149842,2|0,0:0|0:0,0:0:0:0:
249,12,114596,2,0,B|150:0|170:71|54:52,1,202.500007724762,0|0,0:0|0:0,0:0:0:0:
3,40,115687,2,0,L|13:187,1,135.000005149842,0|2,0:0|0:0,0:0:0:0:
31,308,116778,1,2,0:0:0:0:
154,361,117324,1,2,0:0:0:0:
258,275,117869,6,0,B|317:269|351:309|351:309|399:278|461:299,1,202.500007724762,2|0,0:0|0:0,0:0:0:0:
495,316,118960,2,0,L|475:105,1,202.500007724762,2|2,0:0|0:0,0:0:0:0:
462,61,120051,2,0,P|405:32|310:51,1,135.000005149842,2|0,0:0|0:0,0:0:0:0:
247,140,121142,2,0,B|114:162|114:162|43:132,1,202.500007724762,2|2,0:0|0:0,0:0:0:0:
3,111,122233,5,2,0:0:0:0:
256,192,122505,12,4,126596,1:0:0:0:
307,210,135324,6,0,P|353:188|445:194,1,135.000005149842,2|2,1:0|0:0,0:0:0:0:
468,321,136415,2,0,P|422:343|330:337,1,135.000005149842,2|2,0:0|0:0,0:0:0:0:
212,294,137505,2,0,B|140:284|153:330|67:303,1,135.000005149842,2|0,0:0|0:0,0:0:0:0:
4,195,138596,2,0,P|2:146|16:114,1,67.5000025749208,2|2,0:0|0:0,0:0:0:0:
61,119,139142,2,0,P|102:92|137:88,1,67.5000025749208,2|2,0:0|0:0,0:0:0:0:
163,120,139687,6,0,P|226:148|313:131,1,135.000005149842,2|2,1:0|0:0,0:0:0:0:
417,95,140778,2,0,L|422:16,2,67.5000025749208,2|2|0,0:0|0:0|0:0,0:0:0:0:
448,138,141596,1,2,0:0:0:0:
256,192,141869,12,8,143505,0:0:0:0:
256,192,144051,6,0,B|200:180|200:180|145:202|145:202|78:192,1,180,6|10,1:0|0:0,0:0:0:0:
191,49,145142,2,0,B|247:37|247:37|302:59|302:59|369:49,1,180,2|10,1:0|0:0,0:0:0:0:
499,169,146233,6,0,L|480:359,1,180,2|10,1:0|0:0,0:0:0:0:
394,373,147051,1,2,0:0:0:0:
320,321,147324,2,0,P|270:312|226:318,1,90,2|2,1:0|0:0,0:0:0:0:
152,359,147869,2,0,P|102:368|58:362,1,90,10|2,0:0|0:0,0:0:0:0:
16,285,148415,6,0,L|34:83,1,180,6|10,1:0|0:0,0:0:0:0:
196,33,149505,2,0,P|250:28|288:41,2,90,2|2|8,1:0|0:0|0:0,0:0:0:0:
131,96,150324,1,2,0:0:0:0:
158,181,150596,6,0,P|229:213|340:188,1,180,2|10,1:0|0:0,0:0:0:0:
493,127,151687,2,0,L|488:231,1,90,2|2,1:0|0:0,0:0:0:0:
478,306,152233,1,10,0:0:0:0:
298,315,152778,6,0,P|248:306|191:316,1,90,2|0,1:0|0:0,0:0:0:0:
132,358,153324,2,0,P|82:367|25:357,1,90,10|0,0:0|0:0,0:0:0:0:
10,278,153869,2,0,L|15:163,1,90,2|2,1:0|0:0,0:0:0:0:
27,98,154415,1,10,0:0:0:0:
202,59,154960,6,0,P|231:115|209:229,1,180,2|10,1:0|0:0,0:0:0:0:
142,285,155778,1,2,0:0:0:0:
195,357,156051,2,0,L|297:351,1,90,2|2,1:0|0:0,0:0:0:0:
341,281,156596,2,0,L|443:287,1,90,10|2,0:0|0:0,0:0:0:0:
494,221,157142,6,0,P|502:129|445:48,2,180,6|10|2,1:0|0:0|1:0,0:0:0:0:
431,287,158505,1,2,0:0:0:0:
348,249,158778,2,0,L|250:256,1,90,8|2,0:0|0:0,0:0:0:0:
191,316,159324,6,0,P|222:262|188:142,2,180,2|10|2,1:0|0:0|1:0,0:0:0:0:
105,345,160687,1,2,0:0:0:0:
22,309,160960,2,0,P|6:267|14:206,1,90,10|2,0:0|0:0,0:0:0:0:
67,154,161505,6,0,L|61:44,2,90,2|2|10,1:0|3:0|0:0,0:0:0:0:
135,213,162324,1,2,3:0:0:0:
197,152,162596,2,0,P|276:122|379:146,1,180,2|10,1:0|0:0,0:0:0:0:
434,200,163415,1,2,3:0:0:0:
392,279,163687,6,0,L|401:374,2,90,0|2|10,1:0|3:0|0:0,0:0:0:0:
325,218,164505,1,2,3:0:0:0:
247,263,164778,2,0,B|187:294|123:279|123:279|83:232,1,180,0|10,1:0|0:0,0:0:0:0:
39,164,165596,1,2,3:0:0:0:
75,81,165869,6,0,P|143:38|268:56,1,180,0|10,1:0|0:0,0:0:0:0:
319,83,166687,1,2,3:0:0:0:
368,158,166960,2,0,L|357:260,1,90,0|2,1:0|3:0,0:0:0:0:
290,306,167505,2,0,P|244:309|183:288,1,90,10|2,0:0|3:0,0:0:0:0:
169,213,168051,6,0,B|109:187|38:199|38:199|15:253,1,180,0|10,1:0|0:0,0:0:0:0:
0,329,168869,1,2,3:0:0:0:
72,382,169142,2,0,L|188:367,1,90,0|2,1:0|3:0,0:0:0:0:
249,353,169687,1,10,0:0:0:0:
318,296,169960,1,2,3:0:0:0:
345,210,170233,6,0,B|350:152|350:152|326:101|326:101|332:28,1,180,6|10,1:0|0:0,0:0:0:0:
417,9,171051,1,2,0:0:0:0:
495,52,171324,2,0,P|505:99|497:143,1,90,2|0,1:0|0:0,0:0:0:0:
442,210,171869,2,0,P|432:257|440:301,1,90,10|2,0:0|0:0,0:0:0:0:
487,374,172415,6,0,P|435:334|324:325,1,180,2|10,1:0|0:0,0:0:0:0:
241,360,173233,1,2,0:0:0:0:
155,332,173505,2,0,L|143:231,1,90,2|0,1:0|0:0,0:0:0:0:
72,188,174051,2,0,L|84:87,1,90,10|2,0:0|0:0,0:0:0:0:
139,28,174596,6,0,B|199:25|199:25|251:49|251:49|325:43,1,180,2|10,1:0|0:0,0:0:0:0:
403,35,175415,1,2,0:0:0:0:
481,78,175687,2,0,P|491:122|484:175,1,90,2|0,1:0|0:0,0:0:0:0:
402,198,176233,2,0,P|392:242|399:295,1,90,10|2,0:0|0:0,0:0:0:0:
465,344,176778,6,0,P|400:317|277:341,1,180,2|10,1:0|0:0,0:0:0:0:
212,370,177596,1,2,0:0:0:0:
131,328,177869,2,0,L|119:131,1,180,2|10,1:0|0:0,0:0:0:0:
167,71,178687,1,2,0:0:0:0:
250,103,178960,6,0,B|312:127|312:127|447:115,2,180,6|10|2,1:0|0:0|1:0,0:0:0:0:
167,71,180324,1,0,0:0:0:0:
87,112,180596,2,0,P|74:168|82:213,1,90,10|0,0:0|3:0,0:0:0:0:
155,246,181142,6,0,P|103:230|6:304,2,180,2|10|2,1:0|0:0|1:0,0:0:0:0:
225,302,182505,1,0,0:0:0:0:
311,275,182778,2,0,P|321:229|311:180,1,90,10|0,0:0|3:0,0:0:0:0:
241,132,183324,6,0,P|293:148|390:74,2,180,2|10|2,1:0|0:0|1:0,0:0:0:0:
170,76,184687,1,0,0:0:0:0:
97,128,184960,2,0,L|107:226,1,90,10|0,0:0|3:0,0:0:0:0:
168,282,185505,6,0,B|288:297|288:297|353:260,2,180,2|10|2,1:0|0:0|1:0,0:0:0:0:
106,217,186869,1,0,3:0:0:0:
154,140,187142,2,0,P|197:123|250:121,1,90,10|0,0:0|3:0,0:0:0:0:
328,138,187687,5,4,1:0:0:0:
256,192,196415,12,2,199687,0:0:0:0:
256,192,200778,12,2,202960,0:0:0:0:
256,192,205142,6,0,P|175:168|106:185,1,135.000005149842,2|0,0:0|0:0,0:0:0:0:
67,297,206233,2,0,L|155:301,1,67.5000025749208,2|2,0:0|0:0,0:0:0:0:
175,335,206778,2,0,L|263:331,1,67.5000025749208,2|2,0:0|0:0,0:0:0:0:
282,295,207324,2,0,P|342:320|431:300,1,135.000005149842,2|0,0:0|0:0,0:0:0:0:
504,214,208415,2,0,L|495:143,1,67.5000025749208,2|2,0:0|0:0,0:0:0:0:
445,125,208960,2,0,L|454:54,1,67.5000025749208,2|2,0:0|0:0,0:0:0:0:
480,11,209505,6,0,P|405:33|328:16,1,135.000005149842,2|0,0:0|0:0,0:0:0:0:
236,99,210596,2,0,P|161:77|84:94,1,135.000005149842,2|2,0:0|0:0,0:0:0:0:
26,194,211687,2,0,P|19:262|192:278,2,270.000010299683,2|2|6,0:0|0:0|0:0,0:0:0:0:
256,192,218233,12,4,222596,1:0:0:0:
