osu file format v14

[General]
AudioFilename: edit.mp3
AudioLeadIn: 0
PreviewTime: 143983
Countdown: 0
SampleSet: Soft
StackLeniency: 0.7
Mode: 0
LetterboxInBreaks: 0
EpilepsyWarning: 1
WidescreenStoryboard: 1

[Editor]
Bookmarks: 56233,90596,106142,187687
DistanceSpacing: 1.2
BeatDivisor: 4
GridSize: 4
TimelineZoom: 2.1

[Metadata]
Title:Immortal Flame (feat. Anna Yvette)
TitleUnicode:Immortal Flame (feat. Anna Yvette)
Artist:Panda Eyes & Teminite
ArtistUnicode:Panda Eyes & Teminite
Creator:Sotarks
Version:Extra
Source:
Tags:DubstepGutter DSG Akitoshi corinn Kin SnowNiNo_ corinn ascendance hareimu Mir PoNo Ponoyoshi
BeatmapID:1511760
BeatmapSetID:703957

[Difficulty]
HPDrainRate:5
CircleSize:3.5
OverallDifficulty:8.7
ApproachRate:9.2
SliderMultiplier:2.12
SliderTickRate:1

[Events]
//Background and Video events
0,0,"BG.jpg",0,0
//Break Periods
2,39524,55663
2,126796,134754
//Storyboard Layer 0 (Background)
Sprite,Background,Centre,"SB\BG\BG_BW_B.jpg",320,240 F,0,56778,57323,0.5,0 S,4,56778,57323,0.4528302,0.4444444 F,0,57323,57868,0.5,0 S,4,57323,57868,0.4528302,0.4444444 F,0,57868,58414,0.5,0 S,4,57868,58414,0.4528302,0.4444444 F,0,58414,58959,0.5,0 S,4,58414,58959,0.4528302,0.4444444 F,0,58959,59505,0.5,0 S,4,58959,59505,0.4528302,0.4444444 F,0,59505,60050,0.5,0 S,4,59505,60050,0.4528302,0.4444444 F,0,60050,60596,0.5,0 S,4,60050,60596,0.4528302,0.4444444 F,0,60596,61141,0.5,0 S,4,60596,61141,0.4528302,0.4444444 F,0,61141,61687,0.5,0 S,4,61141,61687,0.4528302,0.4444444 F,0,61687,62232,0.5,0 S,4,61687,62232,0.4528302,0.4444444 F,0,62232,62777,0.5,0 S,4,62232,62777,0.4528302,0.4444444 F,0,62777,63323,0.5,0 S,4,62777,63323,0.4528302,0.4444444 F,0,63323,63868,0.5,0 S,4,63323,63868,0.4528302,0.4444444 F,0,63868,64414,0.5,0 S,4,63868,64414,0.4528302,0.4444444 F,0,64414,64959,0.5,0 S,4,64414,64959,0.4528302,0.4444444 F,0,64959,65505,0.5,0 S,4,64959,65505,0.4528302,0.4444444 F,0,65505,66050,0.5,0 S,4,65505,66050,0.4528302,0.4444444 F,0,66050,66596,0.5,0 S,4,66050,66596,0.4528302,0.4444444 F,0,66596,67141,0.5,0 S,4,66596,67141,0.4528302,0.4444444 F,0,67141,67687,0.5,0 S,4,67141,67687,0.4528302,0.4444444 F,0,67687,68232,0.5,0 S,4,67687,68232,0.4528302,0.4444444 F,0,68232,68777,0.5,0 S,4,68232,68777,0.4528302,0.4444444 F,0,68777,69323,0.5,0 S,4,68777,69323,0.4528302,0.4444444 F,0,69323,69868,0.5,0 S,4,69323,69868,0.4528302,0.4444444 F,0,69868,70414,0.5,0 S,4,69868,70414,0.4528302,0.4444444 F,0,70414,70959,0.5,0 S,4,70414,70959,0.4528302,0.4444444 F,0,70959,71505,0.5,0 S,4,70959,71505,0.4528302,0.4444444 F,0,71505,72050,0.5,0 S,4,71505,72050,0.4528302,0.4444444 F,0,72050,72596,0.5,0 S,4,72050,72596,0.4528302,0.4444444 F,0,72596,73141,0.5,0 S,4,72596,73141,0.4528302,0.4444444 F,0,73141,73687,0.5,0 S,4,73141,73687,0.4528302,0.4444444 F,0,73687,74232,0.5,0 S,4,73687,74232,0.4528302,0.4444444
Sprite,Background,Centre,"SB\BG\BG_BW_B.jpg",320,240 F,0,91687,92232,0.5,0 S,4,91687,92232,0.4528302,0.4444444 F,0,92232,92777,0.5,0 S,4,92232,92777,0.4528302,0.4444444 F,0,92777,93323,0.5,0 S,4,92777,93323,0.4528302,0.4444444 F,0,93323,93868,0.5,0 S,4,93323,93868,0.4528302,0.4444444 F,0,93868,94414,0.5,0 S,4,93868,94414,0.4528302,0.4444444 F,0,94414,94959,0.5,0 S,4,94414,94959,0.4528302,0.4444444 F,0,94959,95505,0.5,0 S,4,94959,95505,0.4528302,0.4444444 F,0,95505,96050,0.5,0 S,4,95505,96050,0.4528302,0.4444444 F,0,96050,96596,0.5,0 S,4,96050,96596,0.4528302,0.4444444 F,0,96596,97141,0.5,0 S,4,96596,97141,0.4528302,0.4444444 F,0,97141,97686,0.5,0 S,4,97141,97686,0.4528302,0.4444444 F,0,97686,98232,0.5,0 S,4,97686,98232,0.4528302,0.4444444 F,0,98232,98777,0.5,0 S,4,98232,98777,0.4528302,0.4444444 F,0,98777,99323,0.5,0 S,4,98777,99323,0.4528302,0.4444444 F,0,99323,99868,0.5,0 S,4,99323,99868,0.4528302,0.4444444 F,0,99868,100414,0.5,0 S,4,99868,100414,0.4528302,0.4444444 F,0,100414,100959,0.5,0 S,4,100414,100959,0.4528302,0.4444444 F,0,100959,101505,0.5,0 S,4,100959,101505,0.4528302,0.4444444 F,0,101505,102050,0.5,0 S,4,101505,102050,0.4528302,0.4444444 F,0,102050,102596,0.5,0 S,4,102050,102596,0.4528302,0.4444444 F,0,102596,103141,0.5,0 S,4,102596,103141,0.4528302,0.4444444 F,0,103141,103686,0.5,0 S,4,103141,103686,0.4528302,0.4444444 F,0,103686,104232,0.5,0 S,4,103686,104232,0.4528302,0.4444444 F,0,104232,104777,0.5,0 S,4,104232,104777,0.4528302,0.4444444 F,0,104777,105323,0.5,0 S,4,104777,105323,0.4528302,0.4444444 F,0,105323,105868,0.5,0 S,4,105323,105868,0.4528302,0.4444444 F,0,105868,106414,0.5,0 S,4,105868,106414,0.4528302,0.4444444 F,0,106414,106959,0.5,0 S,4,106414,106959,0.4528302,0.4444444 F,0,106959,107505,0.5,0 S,4,106959,107505,0.4528302,0.4444444 F,0,107505,108050,0.5,0 S,4,107505,108050,0.4528302,0.4444444 F,0,108050,108596,0.5,0 S,4,108050,108596,0.4528302,0.4444444 F,0,108596,109141,0.5,0 S,4,108596,109141,0.4528302,0.4444444
Sprite,Background,Centre,"SB\BG\BG_BW_B.jpg",320,240 F,0,144051,144596,0.5,0 S,4,144051,144596,0.4528302,0.4444444 F,0,144596,145141,0.5,0 S,4,144596,145141,0.4528302,0.4444444 F,0,145141,145687,0.5,0 S,4,145141,145687,0.4528302,0.4444444 F,0,145687,146232,0.5,0 S,4,145687,146232,0.4528302,0.4444444 F,0,146232,146778,0.5,0 S,4,146232,146778,0.4528302,0.4444444 F,0,146778,147323,0.5,0 S,4,146778,147323,0.4528302,0.4444444 F,0,147323,147869,0.5,0 S,4,147323,147869,0.4528302,0.4444444 F,0,147869,148414,0.5,0 S,4,147869,148414,0.4528302,0.4444444 F,0,148414,148960,0.5,0 S,4,148414,148960,0.4528302,0.4444444 F,0,148960,149505,0.5,0 S,4,148960,149505,0.4528302,0.4444444 F,0,149505,150051,0.5,0 S,4,149505,150051,0.4528302,0.4444444 F,0,150051,150596,0.5,0 S,4,150051,150596,0.4528302,0.4444444 F,0,150596,151141,0.5,0 S,4,150596,151141,0.4528302,0.4444444 F,0,151141,151687,0.5,0 S,4,151141,151687,0.4528302,0.4444444 F,0,151687,152232,0.5,0 S,4,151687,152232,0.4528302,0.4444444 F,0,152232,152778,0.5,0 S,4,152232,152778,0.4528302,0.4444444 F,0,152778,153323,0.5,0 S,4,152778,153323,0.4528302,0.4444444 F,0,153323,153869,0.5,0 S,4,153323,153869,0.4528302,0.4444444 F,0,153869,154414,0.5,0 S,4,153869,154414,0.4528302,0.4444444 F,0,154414,154960,0.5,0 S,4,154414,154960,0.4528302,0.4444444 F,0,154960,155505,0.5,0 S,4,154960,155505,0.4528302,0.4444444 F,0,155505,156051,0.5,0 S,4,155505,156051,0.4528302,0.4444444 F,0,156051,156596,0.5,0 S,4,156051,156596,0.4528302,0.4444444 F,0,156596,157141,0.5,0 S,4,156596,157141,0.4528302,0.4444444 F,0,157141,157687,0.5,0 S,4,157141,157687,0.4528302,0.4444444 F,0,157687,158232,0.5,0 S,4,157687,158232,0.4528302,0.4444444 F,0,158232,158778,0.5,0 S,4,158232,158778,0.4528302,0.4444444 F,0,158778,159323,0.5,0 S,4,158778,159323,0.4528302,0.4444444 F,0,159323,159869,0.5,0 S,4,159323,159869,0.4528302,0.4444444 F,0,159869,160414,0.5,0 S,4,159869,160414,0.4528302,0.4444444 F,0,160414,160960,0.5,0 S,4,160414,160960,0.4528302,0.4444444 F,0,160960,161505,0.5,0 S,4,160960,161505,0.4528302,0.4444444 F,0,161505,162051,0.5,0 S,4,161505,162051,0.4528302,0.4444444 F,0,162051,162596,0.5,0 S,4,162051,162596,0.4528302,0.4444444 F,0,162596,163141,0.5,0 S,4,162596,163141,0.4528302,0.4444444 F,0,163141,163687,0.5,0 S,4,163141,163687,0.4528302,0.4444444 F,0,163687,164232,0.5,0 S,4,163687,164232,0.4528302,0.4444444 F,0,164232,164778,0.5,0 S,4,164232,164778,0.4528302,0.4444444 F,0,164778,165323,0.5,0 S,4,164778,165323,0.4528302,0.4444444 F,0,165323,165869,0.5,0 S,4,165323,165869,0.4528302,0.4444444 F,0,165869,166414,0.5,0 S,4,165869,166414,0.4528302,0.4444444 F,0,166414,166960,0.5,0 S,4,166414,166960,0.4528302,0.4444444 F,0,166960,167505,0.5,0 S,4,166960,167505,0.4528302,0.4444444 F,0,167505,168051,0.5,0 S,4,167505,168051,0.4528302,0.4444444 F,0,168051,168596,0.5,0 S,4,168051,168596,0.4528302,0.4444444 F,0,168596,169141,0.5,0 S,4,168596,169141,0.4528302,0.4444444 F,0,169141,169687,0.5,0 S,4,169141,169687,0.4528302,0.4444444 F,0,169687,170232,0.5,0 S,4,169687,170232,0.4528302,0.4444444 F,0,170232,170778,0.5,0 S,4,170232,170778,0.4528302,0.4444444 F,0,170778,171323,0.5,0 S,4,170778,171323,0.4528302,0.4444444 F,0,171323,171869,0.5,0 S,4,171323,171869,0.4528302,0.4444444 F,0,171869,172414,0.5,0 S,4,171869,172414,0.4528302,0.4444444 F,0,172414,172960,0.5,0 S,4,172414,172960,0.4528302,0.4444444 F,0,172960,173505,0.5,0 S,4,172960,173505,0.4528302,0.4444444 F,0,173505,174051,0.5,0 S,4,173505,174051,0.4528302,0.4444444 F,0,174051,174596,0.5,0 S,4,174051,174596,0.4528302,0.4444444 F,0,174596,175141,0.5,0 S,4,174596,175141,0.4528302,0.4444444 F,0,175141,175687,0.5,0 S,4,175141,175687,0.4528302,0.4444444 F,0,175687,176232,0.5,0 S,4,175687,176232,0.4528302,0.4444444 F,0,176232,176778,0.5,0 S,4,176232,176778,0.4528302,0.4444444 F,0,176778,177323,0.5,0 S,4,176778,177323,0.4528302,0.4444444 F,0,177323,177869,0.5,0 S,4,177323,177869,0.4528302,0.4444444 F,0,177869,178414,0.5,0 S,4,177869,178414,0.4528302,0.4444444 F,0,178414,178960,0.5,0 S,4,178414,178960,0.4528302,0.4444444 F,0,178960,179505,0.5,0 S,4,178960,179505,0.4528302,0.4444444 F,0,179505,180051,0.5,0 S,4,179505,180051,0.4528302,0.4444444 F,0,180051,180596,0.5,0 S,4,180051,180596,0.4528302,0.4444444 F,0,180596,181141,0.5,0 S,4,180596,181141,0.4528302,0.4444444 F,0,181141,181687,0.5,0 S,4,181141,181687,0.4528302,0.4444444 F,0,181687,182232,0.5,0 S,4,181687,182232,0.4528302,0.4444444 F,0,182232,182778,0.5,0 S,4,182232,182778,0.4528302,0.4444444 F,0,182778,183323,0.5,0 S,4,182778,183323,0.4528302,0.4444444 F,0,183323,183869,0.5,0 S,4,183323,183869,0.4528302,0.4444444 F,0,183869,184414,0.5,0 S,4,183869,184414,0.4528302,0.4444444 F,0,184414,184960,0.5,0 S,4,184414,184960,0.4528302,0.4444444 F,0,184960,185505,0.5,0 S,4,184960,185505,0.4528302,0.4444444 F,0,185505,186051,0.5,0 S,4,185505,186051,0.4528302,0.4444444 F,0,186051,186596,0.5,0 S,4,186051,186596,0.4528302,0.4444444 F,0,186596,187141,0.5,0 S,4,186596,187141,0.4528302,0.4444444 F,0,187141,187687,0.5,0 S,4,187141,187687,0.4528302,0.4444444
Sprite,Background,Centre,"SB\BG\BG_BW_B.jpg",320,240 S,0,1142,,0.4444444 F,0,1142,4414,0,0.2 F,0,4414,6596,0.6,0.2 F,0,21869,39324,0.2,0.5 F,0,39324,41505,0.5,0 F,0,109142,126596,0.2 F,0,126596,128778,0.2,0 F,0,135324,144051,0,0.8 F,0,187687,189869,0.5,0.2 F,0,189869,213869,0.2 F,0,213869,222596,0.2,0 F,0,222596,240051,0.2,0
Sprite,Background,Centre,"SB\BG\BG_BW.jpg",320,240 S,0,39324,,0.4444444 F,0,39324,54596,0.3 F,0,54596,56233,0.3,0
Sprite,Background,Centre,"BG.jpg",320,240 S,4,56778,57323,0.4528302,0.4444444 F,0,56778,74233,0.8 S,4,57323,57868,0.4528302,0.4444444 S,4,57868,58414,0.4528302,0.4444444 S,4,58414,58959,0.4528302,0.4444444 S,4,58959,59505,0.4528302,0.4444444 S,4,59505,60050,0.4528302,0.4444444 S,4,60050,60596,0.4528302,0.4444444 S,4,60596,61141,0.4528302,0.4444444 S,4,61141,61687,0.4528302,0.4444444 S,4,61687,62232,0.4528302,0.4444444 S,4,62232,62777,0.4528302,0.4444444 S,4,62777,63323,0.4528302,0.4444444 S,4,63323,63868,0.4528302,0.4444444 S,4,63868,64414,0.4528302,0.4444444 S,4,64414,64959,0.4528302,0.4444444 S,4,64959,65505,0.4528302,0.4444444 S,4,65505,66050,0.4528302,0.4444444 S,4,66050,66596,0.4528302,0.4444444 S,4,66596,67141,0.4528302,0.4444444 S,4,67141,67687,0.4528302,0.4444444 S,4,67687,68232,0.4528302,0.4444444 S,4,68232,68777,0.4528302,0.4444444 S,4,68777,69323,0.4528302,0.4444444 S,4,69323,69868,0.4528302,0.4444444 S,4,69868,70414,0.4528302,0.4444444 S,4,70414,70959,0.4528302,0.4444444 S,4,70959,71505,0.4528302,0.4444444 S,4,71505,72050,0.4528302,0.4444444 S,4,72050,72596,0.4528302,0.4444444 S,4,72596,73141,0.4528302,0.4444444 S,4,73141,73687,0.4528302,0.4444444 S,4,73687,74232,0.4528302,0.4444444
Sprite,Background,Centre,"BG.jpg",320,240 S,4,91687,92232,0.4528302,0.4444444 F,0,91687,109142,0.8 S,4,92232,92777,0.4528302,0.4444444 S,4,92777,93323,0.4528302,0.4444444 S,4,93323,93868,0.4528302,0.4444444 S,4,93868,94414,0.4528302,0.4444444 S,4,94414,94959,0.4528302,0.4444444 S,4,94959,95505,0.4528302,0.4444444 S,4,95505,96050,0.4528302,0.4444444 S,4,96050,96596,0.4528302,0.4444444 S,4,96596,97141,0.4528302,0.4444444 S,4,97141,97686,0.4528302,0.4444444 S,4,97686,98232,0.4528302,0.4444444 S,4,98232,98777,0.4528302,0.4444444 S,4,98777,99323,0.4528302,0.4444444 S,4,99323,99868,0.4528302,0.4444444 S,4,99868,100414,0.4528302,0.4444444 S,4,100414,100959,0.4528302,0.4444444 S,4,100959,101505,0.4528302,0.4444444 S,4,101505,102050,0.4528302,0.4444444 S,4,102050,102596,0.4528302,0.4444444 S,4,102596,103141,0.4528302,0.4444444 S,4,103141,103686,0.4528302,0.4444444 S,4,103686,104232,0.4528302,0.4444444 S,4,104232,104777,0.4528302,0.4444444 S,4,104777,105323,0.4528302,0.4444444 S,4,105323,105868,0.4528302,0.4444444 S,4,105868,106414,0.4528302,0.4444444 S,4,106414,106959,0.4528302,0.4444444 S,4,106959,107505,0.4528302,0.4444444 S,4,107505,108050,0.4528302,0.4444444 S,4,108050,108596,0.4528302,0.4444444 S,4,108596,109141,0.4528302,0.4444444
Sprite,Background,Centre,"BG.jpg",320,240 S,4,144051,144596,0.4528302,0.4444444 F,0,144051,187687,0.8 S,4,144596,145141,0.4528302,0.4444444 S,4,145141,145687,0.4528302,0.4444444 S,4,145687,146232,0.4528302,0.4444444 S,4,146232,146778,0.4528302,0.4444444 S,4,146778,147323,0.4528302,0.4444444 S,4,147323,147869,0.4528302,0.4444444 S,4,147869,148414,0.4528302,0.4444444 S,4,148414,148960,0.4528302,0.4444444 S,4,148960,149505,0.4528302,0.4444444 S,4,149505,150051,0.4528302,0.4444444 S,4,150051,150596,0.4528302,0.4444444 S,4,150596,151141,0.4528302,0.4444444 S,4,151141,151687,0.4528302,0.4444444 S,4,151687,152232,0.4528302,0.4444444 S,4,152232,152778,0.4528302,0.4444444 S,4,152778,153323,0.4528302,0.4444444 S,4,153323,153869,0.4528302,0.4444444 S,4,153869,154414,0.4528302,0.4444444 S,4,154414,154960,0.4528302,0.4444444 S,4,154960,155505,0.4528302,0.4444444 S,4,155505,156051,0.4528302,0.4444444 S,4,156051,156596,0.4528302,0.4444444 S,4,156596,157141,0.4528302,0.4444444 S,4,157141,157687,0.4528302,0.4444444 S,4,157687,158232,0.4528302,0.4444444 S,4,158232,158778,0.4528302,0.4444444 S,4,158778,159323,0.4528302,0.4444444 S,4,159323,159869,0.4528302,0.4444444 S,4,159869,160414,0.4528302,0.4444444 S,4,160414,160960,0.4528302,0.4444444 S,4,160960,161505,0.4528302,0.4444444 S,4,161505,162051,0.4528302,0.4444444 S,4,162051,162596,0.4528302,0.4444444 S,4,162596,163141,0.4528302,0.4444444 S,4,163141,163687,0.4528302,0.4444444 S,4,163687,164232,0.4528302,0.4444444 S,4,164232,164778,0.4528302,0.4444444 S,4,164778,165323,0.4528302,0.4444444 S,4,165323,165869,0.4528302,0.4444444 S,4,165869,166414,0.4528302,0.4444444 S,4,166414,166960,0.4528302,0.4444444 S,4,166960,167505,0.4528302,0.4444444 S,4,167505,168051,0.4528302,0.4444444 S,4,168051,168596,0.4528302,0.4444444 S,4,168596,169141,0.4528302,0.4444444 S,4,169141,169687,0.4528302,0.4444444 S,4,169687,170232,0.4528302,0.4444444 S,4,170232,170778,0.4528302,0.4444444 S,4,170778,171323,0.4528302,0.4444444 S,4,171323,171869,0.4528302,0.4444444 S,4,171869,172414,0.4528302,0.4444444 S,4,172414,172960,0.4528302,0.4444444 S,4,172960,173505,0.4528302,0.4444444 S,4,173505,174051,0.4528302,0.4444444 S,4,174051,174596,0.4528302,0.4444444 S,4,174596,175141,0.4528302,0.4444444 S,4,175141,175687,0.4528302,0.4444444 S,4,175687,176232,0.4528302,0.4444444 S,4,176232,176778,0.4528302,0.4444444 S,4,176778,177323,0.4528302,0.4444444 S,4,177323,177869,0.4528302,0.4444444 S,4,177869,178414,0.4528302,0.4444444 S,4,178414,178960,0.4528302,0.4444444 S,4,178960,179505,0.4528302,0.4444444 S,4,179505,180051,0.4528302,0.4444444 S,4,180051,180596,0.4528302,0.4444444 S,4,180596,181141,0.4528302,0.4444444 S,4,181141,181687,0.4528302,0.4444444 S,4,181687,182232,0.4528302,0.4444444 S,4,182232,182778,0.4528302,0.4444444 S,4,182778,183323,0.4528302,0.4444444 S,4,183323,183869,0.4528302,0.4444444 S,4,183869,184414,0.4528302,0.4444444 S,4,184414,184960,0.4528302,0.4444444 S,4,184960,185505,0.4528302,0.4444444 S,4,185505,186051,0.4528302,0.4444444 S,4,186051,186596,0.4528302,0.4444444 S,4,186596,187141,0.4528302,0.4444444 S,4,187141,187687,0.4528302,0.4444444
Sprite,Background,Centre,"SB\BG\BG_BW.jpg",320,240 S,0,74233,,0.4444444 F,0,74233,91687,0.2
Sprite,Background,Centre,"SB\NAMES\storaks.png",0,0 M,0,56778,,500,100 S,0,56778,,0.3 F,0,56778,74233,1 R,0,56778,74233,-0.2,-0.1
Sprite,Background,Centre,"SB\NAMES\storaks.png",0,0 M,0,91687,,500,100 S,0,91687,,0.3 F,0,91687,109142,1 R,0,91687,109142,-0.2,-0.1
Sprite,Background,Centre,"SB\NAMES\storaks.png",0,0 M,0,144051,,500,100 S,0,144051,,0.3 F,0,144051,187687,1 R,0,144051,187687,-0.2,-0.1
Sprite,Background,Centre,"SB\DIV\pixel.png",0,0 L,75323,3 R,19,0,272,0,0.09279197 S,0,74233,,12 F,19,74233,76414,0.5 M,19,74253,75323,196,208,229.7569,354.1522 M,18,75869,76414,229.7569,354.1522,196,208
Sprite,Background,Centre,"SB\DIV\pixel.png",0,0 L,75323,3 R,19,0,272,0,3.088621 S,0,74233,,18 F,19,74233,76414,0.5 M,19,74313,75323,196,208,47.45245,228.8237 M,18,75869,76414,47.45245,228.8237,196,208
Sprite,Background,Centre,"SB\DIV\pixel.png",0,0 L,75323,3 R,19,0,272,0,1.787745 S,0,74233,,18 F,19,74233,76414,0.5 M,19,74309,75323,196,208,164.231,354.5972 M,18,75869,76414,164.231,354.5972,196,208
Sprite,Background,Centre,"SB\DIV\pixel.png",0,0 L,75323,3 R,19,0,272,0,0.2726582 S,0,74233,,14 F,19,74233,76414,0.5 M,19,74265,75323,196,208,52.17199,250.5852 M,18,75869,76414,52.17199,250.5852,196,208
Sprite,Background,Centre,"SB\DIV\pixel.png",0,0 L,75323,3 R,19,0,272,0,0.7341629 S,0,74233,,16 F,19,74233,76414,0.5 M,19,74255,75323,196,208,46.14009,214.4813 M,18,75869,76414,46.14009,214.4813,196,208
Sprite,Background,Centre,"SB\DIV\pixel.png",0,0 L,75323,3 R,19,0,272,0,1.632623 S,0,74233,,7 F,19,74233,76414,0.5 M,19,74312,75323,196,208,115.7019,81.30269 M,18,75869,76414,115.7019,81.30269,196,208
Sprite,Background,Centre,"SB\DIV\pixel.png",0,0 L,75323,3 R,19,0,272,0,2.01157 S,0,74233,,12 F,19,74233,76414,0.5 M,19,74321,75323,196,208,326.5891,134.1996 M,18,75869,76414,326.5891,134.1996,196,208
Sprite,Background,Centre,"SB\DIV\pixel.png",0,0 L,75323,3 R,19,0,272,0,0.6853305 S,0,74233,,5 F,19,74233,76414,0.5 M,19,74324,75323,196,208,296.3371,319.501 M,18,75869,76414,296.3371,319.501,196,208
Sprite,Background,Centre,"SB\DIV\pixel.png",0,0 L,75323,3 R,19,0,272,0,2.251404 S,0,74233,,7 F,19,74233,76414,0.5 M,19,74273,75323,196,208,345.6874,217.6794 M,18,75869,76414,345.6874,217.6794,196,208
Sprite,Background,Centre,"SB\DIV\pixel.png",0,0 L,75323,3 R,19,0,272,0,1.412117 S,0,74233,,2 F,19,74233,76414,0.5 M,19,74331,75323,196,208,150.8747,351.0514 M,18,75869,76414,150.8747,351.0514,196,208
Sprite,Background,Centre,"SB\DIV\pixel.png",0,0 L,75323,3 R,19,0,272,0,0.6701114 S,0,74233,,11 F,19,74233,76414,0.5 M,19,74331,75323,196,208,306.2566,309.7029 M,18,75869,76414,306.2566,309.7029,196,208
Sprite,Background,Centre,"SB\DIV\pixel.png",0,0 L,75323,3 R,19,0,272,0,0.6778296 S,0,74233,,8 F,19,74233,76414,0.5 M,19,74272,75323,196,208,345.8839,202.1 M,18,75869,76414,345.8839,202.1,196,208
Sprite,Background,Centre,"SB\DIV\pixel.png",0,0 L,75323,3 R,19,0,272,0,2.211018 S,0,74233,,9 F,19,74233,76414,0.5 M,19,74284,75323,196,208,135.2144,70.86828 M,18,75869,76414,135.2144,70.86828,196,208
Sprite,Background,Centre,"SB\DIV\pixel.png",0,0 L,75323,3 R,19,0,272,0,1.515439 S,0,74233,,7 F,19,74233,76414,0.5 M,19,74252,75323,196,208,73.715,294.8699 M,18,75869,76414,73.715,294.8699,196,208
Sprite,Background,Centre,"SB\DIV\pixel.png",0,0 L,75323,3 R,19,0,272,0,0.5389467 S,0,74233,,10 F,19,74233,76414,0.5 M,19,74243,75323,196,208,50.3675,172.0671 M,18,75869,76414,50.3675,172.0671,196,208
Sprite,Background,Centre,"SB\DIV\pixel.png",0,0 L,75323,3 R,19,0,272,0,2.336945 S,0,74233,,3 F,19,74233,76414,0.5 M,19,74324,75323,196,208,321.4309,290.2623 M,18,75869,76414,321.4309,290.2623,196,208
Sprite,Background,Centre,"SB\DIV\pixel.png",0,0 L,75323,3 R,19,0,272,0,0.8079442 S,0,74233,,16 F,19,74233,76414,0.5 M,19,74311,75323,196,208,124.1482,76.32875 M,18,75869,76414,124.1482,76.32875,196,208
Sprite,Background,Centre,"SB\DIV\pixel.png",0,0 L,75323,3 R,19,0,272,0,0.6016439 S,0,74233,,8 F,19,74233,76414,0.5 M,19,74268,75323,196,208,331.6321,143.938 M,18,75869,76414,331.6321,143.938,196,208
Sprite,Background,Centre,"SB\DIV\pixel.png",0,0 L,75323,3 R,19,0,272,0,2.896351 S,0,74233,,2 F,19,74233,76414,0.5 M,19,74288,75323,196,208,184.4973,58.44169 M,18,75869,76414,184.4973,58.44169,196,208
Sprite,Background,Centre,"SB\DIV\pixel.png",0,0 L,75323,3 R,19,0,272,0,0.37503 S,0,74233,,12 F,19,74233,76414,0.5 M,19,74330,75323,196,208,46.21247,215.9809 M,18,75869,76414,46.21247,215.9809,196,208
Sprite,Background,Centre,"SB\DIV\pixel.png",0,0 L,75323,3 R,19,0,272,0,2.76329 S,0,74233,,11 F,19,74233,76414,0.5 M,19,74302,75323,196,208,313.6564,301.0429 M,18,75869,76414,313.6564,301.0429,196,208
Sprite,Background,Centre,"SB\DIV\pixel.png",0,0 L,75323,3 R,19,0,272,0,1.907497 S,0,74233,,8 F,19,74233,76414,0.5 M,19,74283,75323,196,208,345.3312,222.1486 M,18,75869,76414,345.3312,222.1486,196,208
Sprite,Background,Centre,"SB\DIV\pixel.png",0,0 L,75323,3 R,19,0,272,0,2.20105 S,0,74233,,13 F,19,74233,76414,0.5 M,19,74263,75323,196,208,328.6294,278.0675 M,18,75869,76414,328.6294,278.0675,196,208
Sprite,Background,Centre,"SB\DIV\pixel.png",0,0 L,75323,3 R,19,0,272,0,1.705947 S,0,74233,,4 F,19,74233,76414,0.5 M,19,74301,75323,196,208,316.947,119.2767 M,18,75869,76414,316.947,119.2767,196,208
Sprite,Background,Centre,"SB\DIV\pixel.png",0,0 L,75323,3 R,19,0,272,0,1.223461 S,0,74233,,3 F,19,74233,76414,0.5 M,19,74315,75323,196,208,339.3075,252.3053 M,18,75869,76414,339.3075,252.3053,196,208
Sprite,Background,Centre,"SB\DIV\pixel.png",0,0 L,75323,3 R,19,0,272,0,2.952811 S,0,74233,,12 F,19,74233,76414,0.5 M,19,74243,75323,196,208,345.6028,197.0911 M,18,75869,76414,345.6028,197.0911,196,208
Sprite,Background,Centre,"SB\DIV\pixel.png",0,0 L,75323,3 R,19,0,272,0,2.060099 S,0,74233,,19 F,19,74233,76414,0.5 M,19,74264,75323,196,208,309.1556,306.4673 M,18,75869,76414,309.1556,306.4673,196,208
Sprite,Background,Centre,"SB\DIV\pixel.png",0,0 L,75323,3 R,19,0,272,0,1.675014 S,0,74233,,19 F,19,74233,76414,0.5 M,19,74258,75323,196,208,344.3738,185.9725 M,18,75869,76414,344.3738,185.9725,196,208
Sprite,Background,Centre,"SB\DIV\pixel.png",0,0 L,75323,3 R,19,0,272,0,2.623544 S,0,74233,,15 F,19,74233,76414,0.5 M,19,74332,75323,196,208,61.71789,274.8455 M,18,75869,76414,61.71789,274.8455,196,208
Sprite,Background,Centre,"SB\DIV\pixel.png",0,0 L,75323,3 R,19,0,272,0,0.9306161 S,0,74233,,7 F,19,74233,76414,0.5 M,19,74325,75323,196,208,59.96626,271.2046 M,18,75869,76414,59.96626,271.2046,196,208
Sprite,Background,Centre,"SB\DIV\pixel.png",0,0 L,75323,3 R,19,0,272,0,1.419618 S,0,74233,,3 F,19,74233,76414,0.5 M,19,74314,75323,196,208,247.3675,67.06957 M,18,75869,76414,247.3675,67.06957,196,208
Sprite,Background,Centre,"SB\DIV\pixel.png",0,0 L,75323,3 R,19,0,272,0,0.1490924 S,0,74233,,4 F,19,74233,76414,0.5 M,19,74291,75323,196,208,170.2871,355.7797 M,18,75869,76414,170.2871,355.7797,196,208
Sprite,Background,Centre,"SB\DIV\pixel.png",0,0 L,75323,3 R,19,0,272,0,1.54747 S,0,74233,,9 F,19,74233,76414,0.5 M,19,74327,75323,196,208,324.2438,130.1955 M,18,75869,76414,324.2438,130.1955,196,208
Sprite,Background,Centre,"SB\DIV\pixel.png",0,0 L,75323,3 R,19,0,272,0,0.9172304 S,0,74233,,19 F,19,74233,76414,0.5 M,19,74266,75323,196,208,206.2936,58.35361 M,18,75869,76414,206.2936,58.35361,196,208
Sprite,Background,Centre,"SB\DIV\pixel.png",0,0 L,75323,3 R,19,0,272,0,1.248108 S,0,74233,,13 F,19,74233,76414,0.5 M,19,74306,75323,196,208,102.2004,90.94601 M,18,75869,76414,102.2004,90.94601,196,208
Sprite,Background,Centre,"SB\DIV\pixel.png",0,0 L,75323,3 R,19,0,272,0,1.174496 S,0,74233,,6 F,19,74233,76414,0.5 M,19,74240,75323,196,208,338.5152,254.7913 M,18,75869,76414,338.5152,254.7913,196,208
Sprite,Background,Centre,"SB\DIV\pixel.png",0,0 L,75323,3 R,19,0,272,0,1.90863 S,0,74233,,6 F,19,74233,76414,0.5 M,19,74313,75323,196,208,335.4467,263.2685 M,18,75869,76414,335.4467,263.2685,196,208
Sprite,Background,Centre,"SB\DIV\pixel.png",0,0 L,75323,3 R,19,0,272,0,1.933174 S,0,74233,,11 F,19,74233,76414,0.5 M,19,74258,75323,196,208,149.0165,350.4519 M,18,75869,76414,149.0165,350.4519,196,208
Sprite,Background,Centre,"SB\DIV\pixel.png",0,0 L,75323,3 R,19,0,272,0,2.505689 S,0,74233,,18 F,19,74233,76414,0.5 M,19,74244,75323,196,208,82.41567,305.9724 M,18,75869,76414,82.41567,305.9724,196,208
Sprite,Background,Centre,"SB\DIV\pixel.png",0,0 L,75323,3 R,19,0,272,0,1.861903 S,0,74233,,6 F,19,74233,76414,0.5 M,19,74291,75323,196,208,46.55149,220.8507 M,18,75869,76414,46.55149,220.8507,196,208
Sprite,Background,Centre,"SB\DIV\pixel.png",0,0 L,77505,3 R,19,0,272,0,2.032783 S,0,76415,,2 F,19,76415,78596,0.5 M,19,76511,77505,207,121,332.1214,203.7323 M,18,78051,78596,332.1214,203.7323,207,121
Sprite,Background,Centre,"SB\DIV\pixel.png",0,0 L,77505,3 R,19,0,272,0,0.6624678 S,0,76415,,13 F,19,76415,78596,0.5 M,19,76433,77505,207,121,341.4979,187.4102 M,18,78051,78596,341.4979,187.4102,207,121
Sprite,Background,Centre,"SB\DIV\pixel.png",0,0 L,77505,3 R,19,0,272,0,2.029809 S,0,76415,,15 F,19,76415,78596,0.5 M,19,76447,77505,207,121,249.5402,264.8413 M,18,78051,78596,249.5402,264.8413,207,121
Sprite,Background,Centre,"SB\DIV\pixel.png",0,0 L,77505,3 R,19,0,272,0,0.5768073 S,0,76415,,16 F,19,76415,78596,0.5 M,19,76482,77505,207,121,321.0684,218.4084 M,18,78051,78596,321.0684,218.4084,207,121
Sprite,Background,Centre,"SB\DIV\pixel.png",0,0 L,77505,3 R,19,0,272,0,0.5049444 S,0,76415,,8 F,19,76415,78596,0.5 M,19,76497,77505,207,121,57.00622,119.634 M,18,78051,78596,57.00622,119.634,207,121
Sprite,Background,Centre,"SB\DIV\pixel.png",0,0 L,77505,3 R,19,0,272,0,0.5176063 S,0,76415,,17 F,19,76415,78596,0.5 M,19,76497,77505,207,121,58.67268,98.66158 M,18,78051,78596,58.67268,98.66158,207,121
Sprite,Background,Centre,"SB\DIV\pixel.png",0,0 L,77505,3 R,19,0,272,0,0.3744724 S,0,76415,,14 F,19,76415,78596,0.5 M,19,76495,77505,207,121,59.64058,149.0214 M,18,78051,78596,59.64058,149.0214,207,121
Sprite,Background,Centre,"SB\DIV\pixel.png",0,0 L,77505,3 R,19,0,272,0,2.882866 S,0,76415,,13 F,19,76415,78596,0.5 M,19,76494,77505,207,121,329.6272,207.3862 M,18,78051,78596,329.6272,207.3862,207,121
Sprite,Background,Centre,"SB\DIV\pixel.png",0,0 L,77505,3 R,19,0,272,0,1.964866 S,0,76415,,7 F,19,76415,78596,0.5 M,19,76474,77505,207,121,316.7245,223.2767 M,18,78051,78596,316.7245,223.2767,207,121
Sprite,Background,Centre,"SB\DIV\pixel.png",0,0 L,77505,3 R,19,0,272,0,0.3834448 S,0,76415,,6 F,19,76415,78596,0.5 M,19,76450,77505,207,121,344.3096,181.3828 M,18,78051,78596,344.3096,181.3828,207,121
Sprite,Background,Centre,"SB\DIV\pixel.png",0,0 L,77505,3 R,19,0,272,0,2.044952 S,0,76415,,3 F,19,76415,78596,0.5 M,19,76492,77505,207,121,264.9465,-17.35536 M,18,78051,78596,264.9465,-17.35536,207,121
Sprite,Background,Centre,"SB\DIV\pixel.png",0,0 L,77505,3 R,19,0,272,0,1.208285 S,0,76415,,17 F,19,76415,78596,0.5 M,19,76476,77505,207,121,185.8444,269.5006 M,18,78051,78596,185.8444,269.5006,207,121
Sprite,Background,Centre,"SB\DIV\pixel.png",0,0 L,77505,3 R,19,0,272,0,1.433225 S,0,76415,,10 F,19,76415,78596,0.5 M,19,76449,77505,207,121,210.6067,270.9566 M,18,78051,78596,210.6067,270.9566,207,121
Sprite,Background,Centre,"SB\DIV\pixel.png",0,0 L,77505,3 R,19,0,272,0,1.061044 S,0,76415,,13 F,19,76415,78596,0.5 M,19,76479,77505,207,121,88.84169,213.4046 M,18,78051,78596,88.84169,213.4046,207,121
Sprite,Background,Centre,"SB\DIV\pixel.png",0,0 L,77505,3 R,19,0,272,0,2.97706 S,0,76415,,18 F,19,76415,78596,0.5 M,19,76420,77505,207,121,142.3599,256.3575 M,18,78051,78596,142.3599,256.3575,207,121
Sprite,Background,Centre,"SB\DIV\pixel.png",0,0 L,77505,3 R,19,0,272,0,0.7342829 S,0,76415,,15 F,19,76415,78596,0.5 M,19,76466,77505,207,121,329.2465,34.07592 M,18,78051,78596,329.2465,34.07592,207,121
Sprite,Background,Centre,"SB\DIV\pixel.png",0,0 L,77505,3 R,19,0,272,0,0.1404953 S,0,76415,,14 F,19,76415,78596,0.5 M,19,76471,77505,207,121,279.8065,252.1458 M,18,78051,78596,279.8065,252.1458,207,121
Sprite,Background,Centre,"SB\DIV\pixel.png",0,0 L,77505,3 R,19,0,272,0,1.149798 S,0,76415,,2 F,19,76415,78596,0.5 M,19,76488,77505,207,121,159.7467,-21.36266 M,18,78051,78596,159.7467,-21.36266,207,121
Sprite,Background,Centre,"SB\DIV\pixel.png",0,0 L,77505,3 R,19,0,272,0,2.361045 S,0,76415,,6 F,19,76415,78596,0.5 M,19,76509,77505,207,121,57.58633,134.2497 M,18,78051,78596,57.58633,134.2497,207,121
Sprite,Background,Centre,"SB\DIV\pixel.png",0,0 L,77505,3 R,19,0,272,0,0.3318061 S,0,76415,,17 F,19,76415,78596,0.5 M,19,76425,77505,207,121,228.1403,-27.50283 M,18,78051,78596,228.1403,-27.50283,207,121
Sprite,Background,Centre,"SB\DIV\pixel.png",0,0 L,77505,3 R,19,0,272,0,1.709651 S,0,76415,,18 F,19,76415,78596,0.5 M,19,76485,77505,207,121,74.86745,191.9999 M,18,78051,78596,74.86745,191.9999,207,121
Sprite,Background,Centre,"SB\DIV\pixel.png",0,0 L,77505,3 R,19,0,272,0,2.603142 S,0,76415,,4 F,19,76415,78596,0.5 M,19,76502,77505,207,121,216.1975,-28.71776 M,18,78051,78596,216.1975,-28.71776,207,121
Sprite,Background,Centre,"SB\DIV\pixel.png",0,0 L,77505,3 R,19,0,272,0,0.5909381 S,0,76415,,13 F,19,76415,78596,0.5 M,19,76503,77505,207,121,215.0325,-28.78477 M,18,78051,78596,215.0325,-28.78477,207,121
Sprite,Background,Centre,"SB\DIV\pixel.png",0,0 L,77505,3 R,19,0,272,0,1.616898 S,0,76415,,10 F,19,76415,78596,0.5 M,19,76478,77505,207,121,142.3249,-14.34081 M,18,78051,78596,142.3249,-14.34081,207,121
Sprite,Background,Centre,"SB\DIV\pixel.png",0,0 L,77505,3 R,19,0,272,0,0.9484305 S,0,76415,,7 F,19,76415,78596,0.5 M,19,76476,77505,207,121,130.01,-7.734364 M,18,78051,78596,130.01,-7.734364,207,121
Sprite,Background,Centre,"SB\DIV\pixel.png",0,0 L,77505,3 R,19,0,272,0,3.009094 S,0,76415,,4 F,19,76415,78596,0.5 M,19,76496,77505,207,121,99.12347,225.2241 M,18,78051,78596,99.12347,225.2241,207,121
Sprite,Background,Centre,"SB\DIV\pixel.png",0,0 L,77505,3 R,19,0,272,0,2.202571 S,0,76415,,13 F,19,76415,78596,0.5 M,19,76481,77505,207,121,250.3836,-22.58922 M,18,78051,78596,250.3836,-22.58922,207,121
Sprite,Background,Centre,"SB\DIV\pixel.png",0,0 L,77505,3 R,19,0,272,0,0.7715461 S,0,76415,,5 F,19,76415,78596,0.5 M,19,76479,77505,207,121,61.72742,158.3615 M,18,78051,78596,61.72742,158.3615,207,121
Sprite,Background,Centre,"SB\DIV\pixel.png",0,0 L,77505,3 R,19,0,272,0,1.616071 S,0,76415,,5 F,19,76415,78596,0.5 M,19,76474,77505,207,121,270.4824,-14.90431 M,18,78051,78596,270.4824,-14.90431,207,121
Sprite,Background,Centre,"SB\DIV\pixel.png",0,0 L,77505,3 R,19,0,272,0,2.371225 S,0,76415,,2 F,19,76415,78596,0.5 M,19,76447,77505,207,121,85.29571,33.31838 M,18,78051,78596,85.29571,33.31838,207,121
Sprite,Background,Centre,"SB\DIV\pixel.png",0,0 L,77505,3 R,19,0,272,0,0.8947003 S,0,76415,,8 F,19,76415,78596,0.5 M,19,76480,77505,207,121,304.1063,235.3257 M,18,78051,78596,304.1063,235.3257,207,121
Sprite,Background,Centre,"SB\DIV\pixel.png",0,0 L,77505,3 R,19,0,272,0,1.420838 S,0,76415,,13 F,19,76415,78596,0.5 M,19,76458,77505,207,121,255.6379,-20.89556 M,18,78051,78596,255.6379,-20.89556,207,121
Sprite,Background,Centre,"SB\DIV\pixel.png",0,0 L,77505,3 R,19,0,272,0,2.446637 S,0,76415,,5 F,19,76415,78596,0.5 M,19,76488,77505,207,121,347.0343,67.23752 M,18,78051,78596,347.0343,67.23752,207,121
Sprite,Background,Centre,"SB\DIV\pixel.png",0,0 L,77505,3 R,19,0,272,0,1.297853 S,0,76415,,18 F,19,76415,78596,0.5 M,19,76441,77505,207,121,331.175,205.1462 M,18,78051,78596,331.175,205.1462,207,121
Sprite,Background,Centre,"SB\DIV\pixel.png",0,0 L,77505,3 R,19,0,272,0,1.045851 S,0,76415,,5 F,19,76415,78596,0.5 M,19,76461,77505,207,121,353.6122,152.6994 M,18,78051,78596,353.6122,152.6994,207,121
Sprite,Background,Centre,"SB\DIV\pixel.png",0,0 L,77505,3 R,19,0,272,0,0.07720734 S,0,76415,,15 F,19,76415,78596,0.5 M,19,76457,77505,207,121,344.2288,181.5662 M,18,78051,78596,344.2288,181.5662,207,121
Sprite,Background,Centre,"SB\DIV\pixel.png",0,0 L,77505,3 R,19,0,272,0,2.032837 S,0,76415,,8 F,19,76415,78596,0.5 M,19,76492,77505,207,121,349.8736,166.6851 M,18,78051,78596,349.8736,166.6851,207,121
Sprite,Background,Centre,"SB\DIV\pixel.png",0,0 L,77505,3 R,19,0,272,0,2.615967 S,0,76415,,8 F,19,76415,78596,0.5 M,19,76447,77505,207,121,301.1913,237.739 M,18,78051,78596,301.1913,237.739,207,121
Sprite,Background,Centre,"SB\DIV\pixel.png",0,0 L,77505,3 R,19,0,272,0,2.589303 S,0,76415,,14 F,19,76415,78596,0.5 M,19,76417,77505,207,121,354.416,148.722 M,18,78051,78596,354.416,148.722,207,121
Sprite,Background,Centre,"SB\DIV\pixel.png",0,0 L,77505,3 R,19,0,272,0,1.443653 S,0,76415,,9 F,19,76415,78596,0.5 M,19,76457,77505,207,121,338.3484,193.4404 M,18,78051,78596,338.3484,193.4404,207,121
Sprite,Background,Centre,"SB\DIV\pixel.png",0,0 L,79686,3 R,19,0,272,0,0.684746 S,0,78596,,13 F,19,78596,80777,0.5 M,19,78637,79686,466,369,391.7807,499.3514 M,18,80232,80777,391.7807,499.3514,466,369
Sprite,Background,Centre,"SB\DIV\pixel.png",0,0 L,79686,3 R,19,0,272,0,0.8906925 S,0,78596,,2 F,19,78596,80777,0.5 M,19,78641,79686,466,369,394.9756,236.8806 M,18,80232,80777,394.9756,236.8806,466,369
Sprite,Background,Centre,"SB\DIV\pixel.png",0,0 L,79686,3 R,19,0,272,0,3.014979 S,0,78596,,12 F,19,78596,80777,0.5 M,19,78662,79686,466,369,356.3805,471.3893 M,18,80232,80777,356.3805,471.3893,466,369
Sprite,Background,Centre,"SB\DIV\pixel.png",0,0 L,79686,3 R,19,0,272,0,2.723462 S,0,78596,,11 F,19,78596,80777,0.5 M,19,78631,79686,466,369,537.6808,500.7644 M,18,80232,80777,537.6808,500.7644,466,369
Sprite,Background,Centre,"SB\DIV\pixel.png",0,0 L,79686,3 R,19,0,272,0,1.38448 S,0,78596,,3 F,19,78596,80777,0.5 M,19,78689,79686,466,369,481.6418,219.8178 M,18,80232,80777,481.6418,219.8178,466,369
Sprite,Background,Centre,"SB\DIV\pixel.png",0,0 L,79686,3 R,19,0,272,0,0.2915173 S,0,78596,,8 F,19,78596,80777,0.5 M,19,78671,79686,466,369,615.7711,377.284 M,18,80232,80777,615.7711,377.284,466,369
Sprite,Background,Centre,"SB\DIV\pixel.png",0,0 L,79686,3 R,19,0,272,0,2.645358 S,0,78596,,7 M,19,78596,79686,466,369,372.1002,252.0264 F,19,78596,80777,0.5 M,18,80232,80777,372.1002,252.0264,466,369
Sprite,Background,Centre,"SB\DIV\pixel.png",0,0 L,79686,3 R,19,0,272,0,1.163048 S,0,78596,,5 F,19,78596,80777,0.5 M,19,78609,79686,466,369,366.3476,256.8867 M,18,80232,80777,366.3476,256.8867,466,369
Sprite,Background,Centre,"SB\DIV\pixel.png",0,0 L,79686,3 R,19,0,272,0,0.09558966 S,0,78596,,2 F,19,78596,80777,0.5 M,19,78628,79686,466,369,412.3488,228.923 M,18,80232,80777,412.3488,228.923,466,369
Sprite,Background,Centre,"SB\DIV\pixel.png",0,0 L,79686,3 R,19,0,272,0,1.42021 S,0,78596,,15 F,19,78596,80777,0.5 M,19,78638,79686,466,369,367.6028,482.2166 M,18,80232,80777,367.6028,482.2166,466,369
Sprite,Background,Centre,"SB\DIV\pixel.png",0,0 L,79686,3 R,19,0,272,0,1.71718 S,0,78596,,11 F,19,78596,80777,0.5 M,19,78685,79686,466,369,443.6578,220.6732 M,18,80232,80777,443.6578,220.6732,466,369
Sprite,Background,Centre,"SB\DIV\pixel.png",0,0 L,79686,3 R,19,0,272,0,2.2328 S,0,78596,,5 F,19,78596,80777,0.5 M,19,78629,79686,466,369,344.5495,457.0328 M,18,80232,80777,344.5495,457.0328,466,369
Sprite,Background,Centre,"SB\DIV\pixel.png",0,0 L,79686,3 R,19,0,272,0,1.138687 S,0,78596,,18 F,19,78596,80777,0.5 M,19,78602,79686,466,369,597.8644,297.5033 M,18,80232,80777,597.8644,297.5033,466,369
Sprite,Background,Centre,"SB\DIV\pixel.png",0,0 L,79686,3 R,19,0,272,0,2.511727 S,0,78596,,15 F,19,78596,80777,0.5 M,19,78632,79686,466,369,359.0421,474.1665 M,18,80232,80777,359.0421,474.1665,466,369
Sprite,Background,Centre,"SB\DIV\pixel.png",0,0 L,79686,3 R,19,0,272,0,1.968261 S,0,78596,,4 F,19,78596,80777,0.5 M,19,78614,79686,466,369,612.6335,400.601 M,18,80232,80777,612.6335,400.601,466,369
Sprite,Background,Centre,"SB\DIV\pixel.png",0,0 L,79686,3 R,19,0,272,0,2.666249 S,0,78596,,2 F,19,78596,80777,0.5 M,19,78684,79686,466,369,326.1409,423.2165 M,18,80232,80777,326.1409,423.2165,466,369
Sprite,Background,Centre,"SB\DIV\pixel.png",0,0 L,79686,3 R,19,0,272,0,0.07346681 S,0,78596,,18 F,19,78596,80777,0.5 M,19,78695,79686,466,369,334.1872,297.4083 M,18,80232,80777,334.1872,297.4083,466,369
Sprite,Background,Centre,"SB\DIV\pixel.png",0,0 L,79686,3 R,19,0,272,0,1.338752 S,0,78596,,15 F,19,78596,80777,0.5 M,19,78641,79686,466,369,461.9756,219.054 M,18,80232,80777,461.9756,219.054,466,369
Sprite,Background,Centre,"SB\DIV\pixel.png",0,0 L,79686,3 R,19,0,272,0,0.3208865 S,0,78596,,10 F,19,78596,80777,0.5 M,19,78690,79686,466,369,419.336,511.5569 M,18,80232,80777,419.336,511.5569,466,369
Sprite,Background,Centre,"SB\DIV\pixel.png",0,0 L,79686,3 R,19,0,272,0,2.734794 S,0,78596,,14 F,19,78596,80777,0.5 M,19,78637,79686,466,369,357.9576,264.9479 M,18,80232,80777,357.9576,264.9479,466,369
Sprite,Background,Centre,"SB\DIV\pixel.png",0,0 L,79686,3 R,19,0,272,0,2.244 S,0,78596,,19 F,19,78596,80777,0.5 M,19,78663,79686,466,369,615.9683,372.0847 M,18,80232,80777,615.9683,372.0847,466,369
Sprite,Background,Centre,"SB\DIV\pixel.png",0,0 L,79686,3 R,19,0,272,0,1.022421 S,0,78596,,18 F,19,78596,80777,0.5 M,19,78669,79686,466,369,320.6101,332.0978 M,18,80232,80777,320.6101,332.0978,466,369
Sprite,Background,Centre,"SB\DIV\pixel.png",0,0 L,79686,3 R,19,0,272,0,1.782401 S,0,78596,,8 F,19,78596,80777,0.5 M,19,78624,79686,466,369,317.095,350.9086 M,18,80232,80777,317.095,350.9086,466,369
Sprite,Background,Centre,"SB\DIV\pixel.png",0,0 L,79686,3 R,19,0,272,0,0.5265311 S,0,78596,,17 F,19,78596,80777,0.5 M,19,78610,79686,466,369,600.2983,302.1871 M,18,80232,80777,600.2983,302.1871,466,369
Sprite,Background,Centre,"SB\DIV\pixel.png",0,0 L,79686,3 R,19,0,272,0,0.1240742 S,0,78596,,7 F,19,78596,80777,0.5 M,19,78656,79686,466,369,598.9626,299.5669 M,18,80232,80777,598.9626,299.5669,466,369
Sprite,Background,Centre,"SB\DIV\pixel.png",0,0 L,79686,3 R,19,0,272,0,0.9646435 S,0,78596,,2 F,19,78596,80777,0.5 M,19,78669,79686,466,369,592.5477,449.5338 M,18,80232,80777,592.5477,449.5338,466,369
Sprite,Background,Centre,"SB\DIV\pixel.png",0,0 L,79686,3 R,19,0,272,0,1.988746 S,0,78596,,5 F,19,78596,80777,0.5 M,19,78615,79686,466,369,614.0728,392.9679 M,18,80232,80777,614.0728,392.9679,466,369
Sprite,Background,Centre,"SB\DIV\pixel.png",0,0 L,79686,3 R,19,0,272,0,3.103141 S,0,78596,,5 F,19,78596,80777,0.5 M,19,78599,79686,466,369,589.0084,283.1574 M,18,80232,80777,589.0084,283.1574,466,369
Sprite,Background,Centre,"SB\DIV\pixel.png",0,0 L,79686,3 R,19,0,272,0,1.418035 S,0,78596,,9 F,19,78596,80777,0.5 M,19,78648,79686,466,369,615.8901,374.7407 M,18,80232,80777,615.8901,374.7407,466,369
Sprite,Background,Centre,"SB\DIV\pixel.png",0,0 L,79686,3 R,19,0,272,0,1.298298 S,0,78596,,18 F,19,78596,80777,0.5 M,19,78655,79686,466,369,615.1642,384.8122 M,18,80232,80777,615.1642,384.8122,466,369
Sprite,Background,Centre,"SB\DIV\pixel.png",0,0 L,79686,3 R,19,0,272,0,1.433591 S,0,78596,,11 F,19,78596,80777,0.5 M,19,78648,79686,466,369,317.1193,387.2901 M,18,80232,80777,317.1193,387.2901,466,369
Sprite,Background,Centre,"SB\DIV\pixel.png",0,0 L,79686,3 R,19,0,272,0,0.8697667 S,0,78596,,18 F,19,78596,80777,0.5 M,19,78630,79686,466,369,343.9913,456.2575 M,18,80232,80777,343.9913,456.2575,466,369
Sprite,Background,Centre,"SB\DIV\pixel.png",0,0 L,79686,3 R,19,0,272,0,2.281751 S,0,78596,,13 F,19,78596,80777,0.5 M,19,78664,79686,466,369,520.8304,229.3804 M,18,80232,80777,520.8304,229.3804,466,369
Sprite,Background,Centre,"SB\DIV\pixel.png",0,0 L,79686,3 R,19,0,272,0,1.342285 S,0,78596,,14 F,19,78596,80777,0.5 M,19,78606,79686,466,369,396.1276,501.7322 M,18,80232,80777,396.1276,501.7322,466,369
Sprite,Background,Centre,"SB\DIV\pixel.png",0,0 L,79686,3 R,19,0,272,0,1.609455 S,0,78596,,18 F,19,78596,80777,0.5 M,19,78688,79686,466,369,580.8474,272.5113 M,18,80232,80777,580.8474,272.5113,466,369
Sprite,Background,Centre,"SB\DIV\pixel.png",0,0 L,79686,3 R,19,0,272,0,2.509263 S,0,78596,,17 F,19,78596,80777,0.5 M,19,78612,79686,466,369,347.4209,460.864 M,18,80232,80777,347.4209,460.864,466,369
Sprite,Background,Centre,"SB\DIV\pixel.png",0,0 L,79686,3 R,19,0,272,0,2.871797 S,0,78596,,13 F,19,78596,80777,0.5 M,19,78680,79686,466,369,316.2259,377.2286 M,18,80232,80777,316.2259,377.2286,466,369
Sprite,Background,Centre,"SB\DIV\pixel.png",0,0 L,79686,3 R,19,0,272,0,1.070618 S,0,78596,,15 F,19,78596,80777,0.5 M,19,78663,79686,466,369,316.0376,372.3588 M,18,80232,80777,316.0376,372.3588,466,369
Sprite,Background,Centre,"SB\DIV\pixel.png",0,0 L,79686,3 R,19,0,272,0,0.1330036 S,0,78596,,18 F,19,78596,80777,0.5 M,19,78608,79686,466,369,324.6072,318.9193 M,18,80232,80777,324.6072,318.9193,466,369
Sprite,Background,Centre,"SB\DIV\pixel.png",0,0 L,79686,3 R,19,0,272,0,1.577555 S,0,78596,,14 F,19,78596,80777,0.5 M,19,78687,79686,466,369,401.0322,504.2005 M,18,80232,80777,401.0322,504.2005,466,369
Sprite,Background,Centre,"SB\DIV\pixel.png",0,0 L,81868,3 R,19,0,272,0,1.971066 S,0,80778,,10 F,19,80778,82959,0.5 M,19,80866,81868,371,94,499.2518,16.20884 M,18,82414,82959,499.2518,16.20884,371,94
Sprite,Background,Centre,"SB\DIV\pixel.png",0,0 L,81868,3 R,19,0,272,0,0.151529 S,0,80778,,2 F,19,80778,82959,0.5 M,19,80841,81868,371,94,229.276,44.86445 M,18,82414,82959,229.276,44.86445,371,94
Sprite,Background,Centre,"SB\DIV\pixel.png",0,0 L,81868,3 R,19,0,272,0,2.689931 S,0,80778,,4 F,19,80778,82959,0.5 M,19,80825,81868,371,94,387.7616,243.0606 M,18,82414,82959,387.7616,243.0606,371,94
Sprite,Background,Centre,"SB\DIV\pixel.png",0,0 L,81868,3 R,19,0,272,0,1.909166 S,0,80778,,14 F,19,80778,82959,0.5 M,19,80782,81868,371,94,518.1342,64.81915 M,18,82414,82959,518.1342,64.81915,371,94
Sprite,Background,Centre,"SB\DIV\pixel.png",0,0 L,81868,3 R,19,0,272,0,2.162546 S,0,80778,,8 F,19,80778,82959,0.5 M,19,80815,81868,371,94,287.6318,-30.69864 M,18,82414,82959,287.6318,-30.69864,371,94
Sprite,Background,Centre,"SB\DIV\pixel.png",0,0 L,81868,3 R,19,0,272,0,2.094085 S,0,80778,,17 F,19,80778,82959,0.5 M,19,80877,81868,371,94,388.1379,-55.01776 M,18,82414,82959,388.1379,-55.01776,371,94
Sprite,Background,Centre,"SB\DIV\pixel.png",0,0 L,81868,3 R,19,0,272,0,2.780535 S,0,80778,,8 F,19,80778,82959,0.5 M,19,80824,81868,371,94,221.7238,108.7181 M,18,82414,82959,221.7238,108.7181,371,94
Sprite,Background,Centre,"SB\DIV\pixel.png",0,0 L,81868,3 R,19,0,272,0,1.287985 S,0,80778,,2 F,19,80778,82959,0.5 M,19,80815,81868,371,94,251.8654,2.857552 M,18,82414,82959,251.8654,2.857552,371,94
Sprite,Background,Centre,"SB\DIV\pixel.png",0,0 L,81868,3 R,19,0,272,0,1.393722 S,0,80778,,14 F,19,80778,82959,0.5 M,19,80844,81868,371,94,470.95,-17.84812 M,18,82414,82959,470.95,-17.84812,371,94
Sprite,Background,Centre,"SB\DIV\pixel.png",0,0 L,81868,3 R,19,0,272,0,1.847813 S,0,80778,,3 M,19,80778,81868,371,94,501.8698,167.3014 F,19,80778,82959,0.5 M,18,82414,82959,501.8698,167.3014,371,94
Sprite,Background,Centre,"SB\DIV\pixel.png",0,0 L,81868,3 R,19,0,272,0,0.155081 S,0,80778,,3 F,19,80778,82959,0.5 M,19,80798,81868,371,94,344.6806,241.6729 M,18,82414,82959,344.6806,241.6729,371,94
Sprite,Background,Centre,"SB\DIV\pixel.png",0,0 L,81868,3 R,19,0,272,0,1.243242 S,0,80778,,15 F,19,80778,82959,0.5 M,19,80829,81868,371,94,224.2657,62.87029 M,18,82414,82959,224.2657,62.87029,371,94
Sprite,Background,Centre,"SB\DIV\pixel.png",0,0 L,81868,3 R,19,0,272,0,3.020432 S,0,80778,,8 F,19,80778,82959,0.5 M,19,80855,81868,371,94,232.5483,36.28418 M,18,82414,82959,232.5483,36.28418,371,94
Sprite,Background,Centre,"SB\DIV\pixel.png",0,0 L,81868,3 R,19,0,272,0,1.095893 S,0,80778,,6 F,19,80778,82959,0.5 M,19,80787,81868,371,94,389.7363,-54.82524 M,18,82414,82959,389.7363,-54.82524,371,94
Sprite,Background,Centre,"SB\DIV\pixel.png",0,0 L,81868,3 R,19,0,272,0,0.1326506 S,0,80778,,7 F,19,80778,82959,0.5 M,19,80780,81868,371,94,244.4241,13.51067 M,18,82414,82959,244.4241,13.51067,371,94
Sprite,Background,Centre,"SB\DIV\pixel.png",0,0 L,81868,3 R,19,0,272,0,0.5706244 S,0,80778,,18 F,19,80778,82959,0.5 M,19,80848,81868,371,94,520.9005,88.53803 M,18,82414,82959,520.9005,88.53803,371,94
Sprite,Background,Centre,"SB\DIV\pixel.png",0,0 L,81868,3 R,19,0,272,0,2.480821 S,0,80778,,6 F,19,80778,82959,0.5 M,19,80868,81868,371,94,386.1499,-55.23297 M,18,82414,82959,386.1499,-55.23297,371,94
Sprite,Background,Centre,"SB\DIV\pixel.png",0,0 L,81868,3 R,19,0,272,0,1.971754 S,0,80778,,7 F,19,80778,82959,0.5 M,19,80814,81868,371,94,345.6096,241.8355 M,18,82414,82959,345.6096,241.8355,371,94
Sprite,Background,Centre,"SB\DIV\pixel.png",0,0 L,81868,3 R,19,0,272,0,2.117619 S,0,80778,,13 F,19,80778,82959,0.5 M,19,80838,81868,371,94,498.9307,172.3182 M,18,82414,82959,498.9307,172.3182,371,94
Sprite,Background,Centre,"SB\DIV\pixel.png",0,0 L,81868,3 R,19,0,272,0,0.09689131 S,0,80778,,14 F,19,80778,82959,0.5 M,19,80809,81868,371,94,496.5766,176.0397 M,18,82414,82959,496.5766,176.0397,371,94
Sprite,Background,Centre,"SB\DIV\pixel.png",0,0 L,81868,3 R,19,0,272,0,2.318354 S,0,80778,,15 F,19,80778,82959,0.5 M,19,80854,81868,371,94,520.0549,77.18865 M,18,82414,82959,520.0549,77.18865,371,94
Sprite,Background,Centre,"SB\DIV\pixel.png",0,0 L,81868,3 R,19,0,272,0,1.453442 S,0,80778,,3 F,19,80778,82959,0.5 M,19,80869,81868,371,94,371.928,243.9971 M,18,82414,82959,371.928,243.9971,371,94
Sprite,Background,Centre,"SB\DIV\pixel.png",0,0 L,81868,3 R,19,0,272,0,0.7707031 S,0,80778,,12 F,19,80778,82959,0.5 M,19,80836,81868,371,94,442.1986,-38.02561 M,18,82414,82959,442.1986,-38.02561,371,94
Sprite,Background,Centre,"SB\DIV\pixel.png",0,0 L,81868,3 R,19,0,272,0,0.4797365 S,0,80778,,11 F,19,80778,82959,0.5 M,19,80828,81868,371,94,285.5596,-29.28803 M,18,82414,82959,285.5596,-29.28803,371,94
Sprite,Background,Centre,"SB\DIV\pixel.png",0,0 L,81868,3 R,19,0,272,0,1.177176 S,0,80778,,12 F,19,80778,82959,0.5 M,19,80855,81868,371,94,246.021,176.9472 M,18,82414,82959,246.021,176.9472,371,94
Sprite,Background,Centre,"SB\DIV\pixel.png",0,0 L,81868,3 R,19,0,272,0,0.1244115 S,0,80778,,13 F,19,80778,82959,0.5 M,19,80819,81868,371,94,520.3444,79.99047 M,18,82414,82959,520.3444,79.99047,371,94
Sprite,Background,Centre,"SB\DIV\pixel.png",0,0 L,81868,3 R,19,0,272,0,1.397515 S,0,80778,,18 F,19,80778,82959,0.5 M,19,80877,81868,371,94,302.5128,-39.45222 M,18,82414,82959,302.5128,-39.45222,371,94
Sprite,Background,Centre,"SB\DIV\pixel.png",0,0 L,81868,3 R,19,0,272,0,1.579959 S,0,80778,,11 F,19,80778,82959,0.5 M,19,80795,81868,371,94,520.9792,91.50667 M,18,82414,82959,520.9792,91.50667,371,94
Sprite,Background,Centre,"SB\DIV\pixel.png",0,0 L,81868,3 R,19,0,272,0,1.144762 S,0,80778,,17 F,19,80778,82959,0.5 M,19,80808,81868,371,94,273.0434,207.598 M,18,82414,82959,273.0434,207.598,371,94
Sprite,Background,Centre,"SB\DIV\pixel.png",0,0 L,81868,3 R,19,0,272,0,2.212441 S,0,80778,,8 F,19,80778,82959,0.5 M,19,80779,81868,371,94,221.0106,95.78426 M,18,82414,82959,221.0106,95.78426,371,94
Sprite,Background,Centre,"SB\DIV\pixel.png",0,0 L,81868,3 R,19,0,272,0,2.812095 S,0,80778,,12 F,19,80778,82959,0.5 M,19,80854,81868,371,94,242.5454,16.54408 M,18,82414,82959,242.5454,16.54408,371,94
Sprite,Background,Centre,"SB\DIV\pixel.png",0,0 L,81868,3 R,19,0,272,0,3.063563 S,0,80778,,8 F,19,80778,82959,0.5 M,19,80794,81868,371,94,410.6638,238.6609 M,18,82414,82959,410.6638,238.6609,371,94
Sprite,Background,Centre,"SB\DIV\pixel.png",0,0 L,81868,3 R,19,0,272,0,3.04115 S,0,80778,,2 F,19,80778,82959,0.5 M,19,80807,81868,371,94,450.0888,-33.45572 M,18,82414,82959,450.0888,-33.45572,371,94
Sprite,Background,Centre,"SB\DIV\pixel.png",0,0 L,81868,3 R,19,0,272,0,0.2420085 S,0,80778,,4 F,19,80778,82959,0.5 M,19,80847,81868,371,94,449.8719,-33.59008 M,18,82414,82959,449.8719,-33.59008,371,94
Sprite,Background,Centre,"SB\DIV\pixel.png",0,0 L,81868,3 R,19,0,272,0,1.862938 S,0,80778,,2 F,19,80778,82959,0.5 M,19,80875,81868,371,94,222.6534,116.2103 M,18,82414,82959,222.6534,116.2103,371,94
Sprite,Background,Centre,"SB\DIV\pixel.png",0,0 L,81868,3 R,19,0,272,0,0.7203478 S,0,80778,,6 F,19,80778,82959,0.5 M,19,80869,81868,371,94,492.1341,182.4677 M,18,82414,82959,492.1341,182.4677,371,94
Sprite,Background,Centre,"SB\DIV\pixel.png",0,0 L,81868,3 R,19,0,272,0,2.169356 S,0,80778,,18 F,19,80778,82959,0.5 M,19,80781,81868,371,94,518.7028,67.84901 M,18,82414,82959,518.7028,67.84901,371,94
Sprite,Background,Centre,"SB\DIV\pixel.png",0,0 L,81868,3 R,19,0,272,0,0.3606395 S,0,80778,,2 F,19,80778,82959,0.5 M,19,80820,81868,371,94,496.3912,11.67717 M,18,82414,82959,496.3912,11.67717,371,94
Sprite,Background,Centre,"SB\DIV\pixel.png",0,0 L,81868,3 R,19,0,272,0,0.6323313 S,0,80778,,11 F,19,80778,82959,0.5 M,19,80859,81868,371,94,446.83,-35.42108 M,18,82414,82959,446.83,-35.42108,371,94
Sprite,Background,Centre,"SB\DIV\pixel.png",0,0 L,81868,3 R,19,0,272,0,2.43689 S,0,80778,,18 F,19,80778,82959,0.5 M,19,80806,81868,371,94,507.1817,156.8852 M,18,82414,82959,507.1817,156.8852,371,94
Sprite,Background,Centre,"SB\DIV\pixel.png",0,0 L,84050,3 R,19,0,272,0,2.298951 S,0,82960,,7 F,19,82960,85141,0.5 M,19,83046,84050,380,194,430.9234,52.90852 M,18,84596,85141,430.9234,52.90852,380,194
Sprite,Background,Centre,"SB\DIV\pixel.png",0,0 L,84050,3 R,19,0,272,0,0.3853099 S,0,82960,,19 F,19,82960,85141,0.5 M,19,83031,84050,380,194,264.9563,97.74544 M,18,84596,85141,264.9563,97.74544,380,194
Sprite,Background,Centre,"SB\DIV\pixel.png",0,0 L,84050,3 R,19,0,272,0,2.232028 S,0,82960,,4 F,19,82960,85141,0.5 M,19,83052,84050,380,194,338.6346,338.1836 M,18,84596,85141,338.6346,338.1836,380,194
Sprite,Background,Centre,"SB\DIV\pixel.png",0,0 L,84050,3 R,19,0,272,0,0.1877744 S,0,82960,,7 F,19,82960,85141,0.5 M,19,82997,84050,380,194,427.1343,51.5979 M,18,84596,85141,427.1343,51.5979,380,194
Sprite,Background,Centre,"SB\DIV\pixel.png",0,0 L,84050,3 R,19,0,272,0,0.3649079 S,0,82960,,2 F,19,82960,85141,0.5 M,19,83029,84050,380,194,253.9693,275.3405 M,18,84596,85141,253.9693,275.3405,380,194
Sprite,Background,Centre,"SB\DIV\pixel.png",0,0 L,84050,3 R,19,0,272,0,2.738427 S,0,82960,,17 F,19,82960,85141,0.5 M,19,83002,84050,380,194,296.899,69.12317 M,18,84596,85141,296.899,69.12317,380,194
Sprite,Background,Centre,"SB\DIV\pixel.png",0,0 L,84050,3 R,19,0,272,0,2.896549 S,0,82960,,10 F,19,82960,85141,0.5 M,19,82961,84050,380,194,436.3354,54.98084 M,18,84596,85141,436.3354,54.98084,380,194
Sprite,Background,Centre,"SB\DIV\pixel.png",0,0 L,84050,3 R,19,0,272,0,2.569196 S,0,82960,,5 F,19,82960,85141,0.5 M,19,83034,84050,380,194,497.7729,286.8954 M,18,84596,85141,497.7729,286.8954,380,194
Sprite,Background,Centre,"SB\DIV\pixel.png",0,0 L,84050,3 R,19,0,272,0,2.780753 S,0,82960,,17 F,19,82960,85141,0.5 M,19,83006,84050,380,194,434.962,333.5678 M,18,84596,85141,434.962,333.5678,380,194
Sprite,Background,Centre,"SB\DIV\pixel.png",0,0 L,84050,3 R,19,0,272,0,2.738678 S,0,82960,,17 F,19,82960,85141,0.5 M,19,83029,84050,380,194,507.9974,115.7909 M,18,84596,85141,507.9974,115.7909,380,194
Sprite,Background,Centre,"SB\DIV\pixel.png",0,0 L,84050,3 R,19,0,272,0,0.2969505 S,0,82960,,17 F,19,82960,85141,0.5 M,19,83056,84050,380,194,324.4471,54.66633 M,18,84596,85141,324.4471,54.66633,380,194
Sprite,Background,Centre,"SB\DIV\pixel.png",0,0 L,84050,3 R,19,0,272,0,1.865063 S,0,82960,,5 F,19,82960,85141,0.5 M,19,83043,84050,380,194,493.5248,292.0414 M,18,84596,85141,493.5248,292.0414,380,194
Sprite,Background,Centre,"SB\DIV\pixel.png",0,0 L,84050,3 R,19,0,272,0,1.316418 S,0,82960,,3 F,19,82960,85141,0.5 M,19,83046,84050,380,194,434.7658,333.6449 M,18,84596,85141,434.7658,333.6449,380,194
Sprite,Background,Centre,"SB\DIV\pixel.png",0,0 L,84050,3 R,19,0,272,0,0.7882825 S,0,82960,,5 F,19,82960,85141,0.5 M,19,83005,84050,380,194,356.2841,342.1133 M,18,84596,85141,356.2841,342.1133,380,194
Sprite,Background,Centre,"SB\DIV\pixel.png",0,0 L,84050,3 R,19,0,272,0,2.395142 S,0,82960,,11 F,19,82960,85141,0.5 M,19,82979,84050,380,194,519.6633,248.719 M,18,84596,85141,519.6633,248.719,380,194
Sprite,Background,Centre,"SB\DIV\pixel.png",0,0 L,84050,3 R,19,0,272,0,1.4129 S,0,82960,,4 F,19,82960,85141,0.5 M,19,83041,84050,380,194,521.9774,145.6016 M,18,84596,85141,521.9774,145.6016,380,194
Sprite,Background,Centre,"SB\DIV\pixel.png",0,0 L,84050,3 R,19,0,272,0,2.988339 S,0,82960,,19 F,19,82960,85141,0.5 M,19,83017,84050,380,194,526.3588,161.1503 M,18,84596,85141,526.3588,161.1503,380,194
Sprite,Background,Centre,"SB\DIV\pixel.png",0,0 L,84050,3 R,19,0,272,0,0.07379384 S,0,82960,,8 F,19,82960,85141,0.5 M,19,82978,84050,380,194,467.3007,72.0222 M,18,84596,85141,467.3007,72.0222,380,194
Sprite,Background,Centre,"SB\DIV\pixel.png",0,0 L,84050,3 R,19,0,272,0,1.890054 S,0,82960,,12 F,19,82960,85141,0.5 M,19,83016,84050,380,194,358.525,342.4548 M,18,84596,85141,358.525,342.4548,380,194
Sprite,Background,Centre,"SB\DIV\pixel.png",0,0 L,84050,3 R,19,0,272,0,1.466381 S,0,82960,,10 F,19,82960,85141,0.5 M,19,82996,84050,380,194,314.8387,329.1074 M,18,84596,85141,314.8387,329.1074,380,194
Sprite,Background,Centre,"SB\DIV\pixel.png",0,0 L,84050,3 R,19,0,272,0,2.037359 S,0,82960,,12 F,19,82960,85141,0.5 M,19,83008,84050,380,194,235.5096,234.2804 M,18,84596,85141,235.5096,234.2804,380,194
Sprite,Background,Centre,"SB\DIV\pixel.png",0,0 L,84050,3 R,19,0,272,0,1.896426 S,0,82960,,3 F,19,82960,85141,0.5 M,19,83005,84050,380,194,230.1146,199.8623 M,18,84596,85141,230.1146,199.8623,380,194
Sprite,Background,Centre,"SB\DIV\pixel.png",0,0 L,84050,3 R,19,0,272,0,1.156933 S,0,82960,,15 F,19,82960,85141,0.5 M,19,83028,84050,380,194,333.4714,336.6012 M,18,84596,85141,333.4714,336.6012,380,194
Sprite,Background,Centre,"SB\DIV\pixel.png",0,0 L,84050,3 R,19,0,272,0,1.272434 S,0,82960,,4 F,19,82960,85141,0.5 M,19,83049,84050,380,194,267.3449,94.96048 M,18,84596,85141,267.3449,94.96048,380,194
Sprite,Background,Centre,"SB\DIV\pixel.png",0,0 L,84050,3 R,19,0,272,0,2.842301 S,0,82960,,5 F,19,82960,85141,0.5 M,19,82968,84050,380,194,506.6252,274.4118 M,18,84596,85141,506.6252,274.4118,380,194
Sprite,Background,Centre,"SB\DIV\pixel.png",0,0 L,84050,3 R,19,0,272,0,2.059442 S,0,82960,,18 F,19,82960,85141,0.5 M,19,83020,84050,380,194,230.013,195.9716 M,18,84596,85141,230.013,195.9716,380,194
Sprite,Background,Centre,"SB\DIV\pixel.png",0,0 L,84050,3 R,19,0,272,0,0.1840846 S,0,82960,,14 F,19,82960,85141,0.5 M,19,82995,84050,380,194,250.0521,119.0763 M,18,84596,85141,250.0521,119.0763,380,194
Sprite,Background,Centre,"SB\DIV\pixel.png",0,0 L,84050,3 R,19,0,272,0,0.2833649 S,0,82960,,7 F,19,82960,85141,0.5 M,19,83058,84050,380,194,231.2692,213.4718 M,18,84596,85141,231.2692,213.4718,380,194
Sprite,Background,Centre,"SB\DIV\pixel.png",0,0 L,84050,3 R,19,0,272,0,0.2283639 S,0,82960,,15 F,19,82960,85141,0.5 M,19,82971,84050,380,194,261.2683,285.6667 M,18,84596,85141,261.2683,285.6667,380,194
Sprite,Background,Centre,"SB\DIV\pixel.png",0,0 L,84050,3 R,19,0,272,0,1.100517 S,0,82960,,5 F,19,82960,85141,0.5 M,19,83043,84050,380,194,251.7044,116.2811 M,18,84596,85141,251.7044,116.2811,380,194
Sprite,Background,Centre,"SB\DIV\pixel.png",0,0 L,84050,3 R,19,0,272,0,2.818799 S,0,82960,,2 F,19,82960,85141,0.5 M,19,82981,84050,380,194,244.4869,258.3133 M,18,84596,85141,244.4869,258.3133,380,194
Sprite,Background,Centre,"SB\DIV\pixel.png",0,0 L,84050,3 R,19,0,272,0,2.193269 S,0,82960,,14 F,19,82960,85141,0.5 M,19,82990,84050,380,194,276.0186,302.1104 M,18,84596,85141,276.0186,302.1104,380,194
Sprite,Background,Centre,"SB\DIV\pixel.png",0,0 L,84050,3 R,19,0,272,0,1.364397 S,0,82960,,9 F,19,82960,85141,0.5 M,19,83014,84050,380,194,494.1603,96.69934 M,18,84596,85141,494.1603,96.69934,380,194
Sprite,Background,Centre,"SB\DIV\pixel.png",0,0 L,84050,3 R,19,0,272,0,1.883663 S,0,82960,,14 M,19,82960,84050,380,194,521.626,144.5826 F,19,82960,85141,0.5 M,18,84596,85141,521.626,144.5826,380,194
Sprite,Background,Centre,"SB\DIV\pixel.png",0,0 L,84050,3 R,19,0,272,0,2.779701 S,0,82960,,2 F,19,82960,85141,0.5 M,19,83016,84050,380,194,279.2227,82.89673 M,18,84596,85141,279.2227,82.89673,380,194
Sprite,Background,Centre,"SB\DIV\pixel.png",0,0 L,84050,3 R,19,0,272,0,2.697822 S,0,82960,,3 F,19,82960,85141,0.5 M,19,82991,84050,380,194,528.3544,171.842 M,18,84596,85141,528.3544,171.842,380,194
Sprite,Background,Centre,"SB\DIV\pixel.png",0,0 L,84050,3 R,19,0,272,0,0.5135306 S,0,82960,,12 F,19,82960,85141,0.5 M,19,82998,84050,380,194,304.9181,64.14351 M,18,84596,85141,304.9181,64.14351,380,194
Sprite,Background,Centre,"SB\DIV\pixel.png",0,0 L,84050,3 R,19,0,272,0,2.379754 S,0,82960,,16 F,19,82960,85141,0.5 M,19,82989,84050,380,194,281.4073,307.0464 M,18,84596,85141,281.4073,307.0464,380,194
Sprite,Background,Centre,"SB\DIV\pixel.png",0,0 L,84050,3 R,19,0,272,0,2.284207 S,0,82960,,13 F,19,82960,85141,0.5 M,19,82989,84050,380,194,446.9861,328.212 M,18,84596,85141,446.9861,328.212,380,194
Sprite,Background,Centre,"SB\DIV\pixel.png",0,0 L,84050,3 R,19,0,272,0,2.215236 S,0,82960,,7 F,19,82960,85141,0.5 M,19,83029,84050,380,194,467.511,72.17294 M,18,84596,85141,467.511,72.17294,380,194
Sprite,Background,Centre,"SB\DIV\pixel.png",0,0 L,86232,3 R,19,0,272,0,1.816688 S,0,85142,,13 F,19,85142,87323,0.5 M,19,85157,86232,539,240,408.0067,166.9196 M,18,86778,87323,408.0067,166.9196,539,240
Sprite,Background,Centre,"SB\DIV\pixel.png",0,0 L,86232,3 R,19,0,272,0,2.271689 S,0,85142,,5 F,19,85142,87323,0.5 M,19,85158,86232,539,240,638.6524,127.8867 M,18,86778,87323,638.6524,127.8867,539,240
Sprite,Background,Centre,"SB\DIV\pixel.png",0,0 L,86232,3 R,19,0,272,0,1.050712 S,0,85142,,16 F,19,85142,87323,0.5 M,19,85161,86232,539,240,680.2687,290.4296 M,18,86778,87323,680.2687,290.4296,539,240
Sprite,Background,Centre,"SB\DIV\pixel.png",0,0 L,86232,3 R,19,0,272,0,2.181608 S,0,85142,,6 F,19,85142,87323,0.5 M,19,85240,86232,539,240,389.0268,237.1652 M,18,86778,87323,389.0268,237.1652,539,240
Sprite,Background,Centre,"SB\DIV\pixel.png",0,0 L,86232,3 R,19,0,272,0,0.6371642 S,0,85142,,18 F,19,85142,87323,0.5 M,19,85164,86232,539,240,448.9073,120.0696 M,18,86778,87323,448.9073,120.0696,539,240
Sprite,Background,Centre,"SB\DIV\pixel.png",0,0 L,86232,3 R,19,0,272,0,0.7924556 S,0,85142,,7 F,19,85142,87323,0.5 M,19,85235,86232,539,240,458.8635,366.7996 M,18,86778,87323,458.8635,366.7996,539,240
Sprite,Background,Centre,"SB\DIV\pixel.png",0,0 L,86232,3 R,19,0,272,0,2.385483 S,0,85142,,9 F,19,85142,87323,0.5 M,19,85240,86232,539,240,512.0082,387.5515 M,18,86778,87323,512.0082,387.5515,539,240
Sprite,Background,Centre,"SB\DIV\pixel.png",0,0 L,86232,3 R,19,0,272,0,0.9554626 S,0,85142,,19 F,19,85142,87323,0.5 M,19,85218,86232,539,240,389.1373,233.5846 M,18,86778,87323,389.1373,233.5846,539,240
Sprite,Background,Centre,"SB\DIV\pixel.png",0,0 L,86232,3 R,19,0,272,0,1.359699 S,0,85142,,3 F,19,85142,87323,0.5 M,19,85154,86232,539,240,585.1397,382.7275 M,18,86778,87323,585.1397,382.7275,539,240
Sprite,Background,Centre,"SB\DIV\pixel.png",0,0 L,86232,3 R,19,0,272,0,0.0959441 S,0,85142,,7 F,19,85142,87323,0.5 M,19,85188,86232,539,240,688.1742,224.282 M,18,86778,87323,688.1742,224.282,539,240
Sprite,Background,Centre,"SB\DIV\pixel.png",0,0 L,86232,3 R,19,0,272,0,2.204518 S,0,85142,,13 F,19,85142,87323,0.5 M,19,85186,86232,539,240,634.5388,124.3611 M,18,86778,87323,634.5388,124.3611,539,240
Sprite,Background,Centre,"SB\DIV\pixel.png",0,0 L,86232,3 R,19,0,272,0,3.08679 S,0,85142,,9 F,19,85142,87323,0.5 M,19,85166,86232,539,240,444.4569,356.4543 M,18,86778,87323,444.4569,356.4543,539,240
Sprite,Background,Centre,"SB\DIV\pixel.png",0,0 L,86232,3 R,19,0,272,0,1.250639 S,0,85142,,18 F,19,85142,87323,0.5 M,19,85225,86232,539,240,675.4731,177.7497 M,18,86778,87323,675.4731,177.7497,539,240
Sprite,Background,Centre,"SB\DIV\pixel.png",0,0 L,86232,3 R,19,0,272,0,1.733392 S,0,85142,,3 F,19,85142,87323,0.5 M,19,85220,86232,539,240,674.5492,304.2372 M,18,86778,87323,674.5492,304.2372,539,240
Sprite,Background,Centre,"SB\DIV\pixel.png",0,0 L,86232,3 R,19,0,272,0,2.576733 S,0,85142,,19 F,19,85142,87323,0.5 M,19,85143,86232,539,240,529.7943,90.28275 M,18,86778,87323,529.7943,90.28275,539,240
Sprite,Background,Centre,"SB\DIV\pixel.png",0,0 L,86232,3 R,19,0,272,0,2.703697 S,0,85142,,10 F,19,85142,87323,0.5 M,19,85158,86232,539,240,389.9654,223.0089 M,18,86778,87323,389.9654,223.0089,539,240
Sprite,Background,Centre,"SB\DIV\pixel.png",0,0 L,86232,3 R,19,0,272,0,0.385457 S,0,85142,,7 F,19,85142,87323,0.5 M,19,85205,86232,539,240,646.3171,135.2001 M,18,86778,87323,646.3171,135.2001,539,240
Sprite,Background,Centre,"SB\DIV\pixel.png",0,0 L,86232,3 R,19,0,272,0,0.9656081 S,0,85142,,14 F,19,85142,87323,0.5 M,19,85176,86232,539,240,614.3511,110.2996 M,18,86778,87323,614.3511,110.2996,539,240
Sprite,Background,Centre,"SB\DIV\pixel.png",0,0 L,86232,3 R,19,0,272,0,2.464599 S,0,85142,,19 F,19,85142,87323,0.5 M,19,85176,86232,539,240,528.5121,389.6329 M,18,86778,87323,528.5121,389.6329,539,240
Sprite,Background,Centre,"SB\DIV\pixel.png",0,0 L,86232,3 R,19,0,272,0,1.215508 S,0,85142,,13 F,19,85142,87323,0.5 M,19,85163,86232,539,240,440.2112,352.8751 M,18,86778,87323,440.2112,352.8751,539,240
Sprite,Background,Centre,"SB\DIV\pixel.png",0,0 L,86232,3 R,19,0,272,0,2.641461 S,0,85142,,15 F,19,85142,87323,0.5 M,19,85181,86232,539,240,589.7574,381.1513 M,18,86778,87323,589.7574,381.1513,539,240
Sprite,Background,Centre,"SB\DIV\pixel.png",0,0 L,86232,3 R,19,0,272,0,2.822865 S,0,85142,,16 F,19,85142,87323,0.5 M,19,85191,86232,539,240,626.6805,118.2949 M,18,86778,87323,626.6805,118.2949,539,240
Sprite,Background,Centre,"SB\DIV\pixel.png",0,0 L,86232,3 R,19,0,272,0,1.16281 S,0,85142,,12 F,19,85142,87323,0.5 M,19,85218,86232,539,240,588.7415,381.5125 M,18,86778,87323,588.7415,381.5125,539,240
Sprite,Background,Centre,"SB\DIV\pixel.png",0,0 L,86232,3 R,19,0,272,0,2.931035 S,0,85142,,16 F,19,85142,87323,0.5 M,19,85195,86232,539,240,498.2759,384.366 M,18,86778,87323,498.2759,384.366,539,240
Sprite,Background,Centre,"SB\DIV\pixel.png",0,0 L,86232,3 R,19,0,272,0,0.4008399 S,0,85142,,15 F,19,85142,87323,0.5 M,19,85150,86232,539,240,515.5968,91.83694 M,18,86778,87323,515.5968,91.83694,539,240
Sprite,Background,Centre,"SB\DIV\pixel.png",0,0 L,86232,3 R,19,0,272,0,2.757885 S,0,85142,,4 F,19,85142,87323,0.5 M,19,85143,86232,539,240,419.6146,330.8137 M,18,86778,87323,419.6146,330.8137,539,240
Sprite,Background,Centre,"SB\DIV\pixel.png",0,0 L,86232,3 R,19,0,272,0,1.849913 S,0,85142,,3 F,19,85142,87323,0.5 M,19,85192,86232,539,240,487.1792,380.7643 M,18,86778,87323,487.1792,380.7643,539,240
Sprite,Background,Centre,"SB\DIV\pixel.png",0,0 L,86232,3 R,19,0,272,0,2.303948 S,0,85142,,10 F,19,85142,87323,0.5 M,19,85231,86232,539,240,389.6667,254.1271 M,18,86778,87323,389.6667,254.1271,539,240
Sprite,Background,Centre,"SB\DIV\pixel.png",0,0 L,86232,3 R,19,0,272,0,1.173289 S,0,85142,,16 F,19,85142,87323,0.5 M,19,85194,86232,539,240,460.8876,368.0565 M,18,86778,87323,460.8876,368.0565,539,240
Sprite,Background,Centre,"SB\DIV\pixel.png",0,0 L,86232,3 R,19,0,272,0,0.445377 S,0,85142,,13 F,19,85142,87323,0.5 M,19,85220,86232,539,240,389.0314,243.0677 M,18,86778,87323,389.0314,243.0677,539,240
Sprite,Background,Centre,"SB\DIV\pixel.png",0,0 L,86232,3 R,19,0,272,0,0.5490702 S,0,85142,,15 F,19,85142,87323,0.5 M,19,85183,86232,539,240,608.0764,106.8518 M,18,86778,87323,608.0764,106.8518,539,240
Sprite,Background,Centre,"SB\DIV\pixel.png",0,0 L,86232,3 R,19,0,272,0,2.865772 S,0,85142,,13 F,19,85142,87323,0.5 M,19,85204,86232,539,240,654.6334,335.5454 M,18,86778,87323,654.6334,335.5454,539,240
Sprite,Background,Centre,"SB\DIV\pixel.png",0,0 L,86232,3 R,19,0,272,0,1.444491 S,0,85142,,18 F,19,85142,87323,0.5 M,19,85175,86232,539,240,615.3394,110.8787 M,18,86778,87323,615.3394,110.8787,539,240
Sprite,Background,Centre,"SB\DIV\pixel.png",0,0 L,86232,3 R,19,0,272,0,2.993221 S,0,85142,,19 F,19,85142,87323,0.5 M,19,85209,86232,539,240,489.0048,98.57694 M,18,86778,87323,489.0048,98.57694,539,240
Sprite,Background,Centre,"SB\DIV\pixel.png",0,0 L,86232,3 R,19,0,272,0,0.9965948 S,0,85142,,3 F,19,85142,87323,0.5 M,19,85150,86232,539,240,417.9279,328.5526 M,18,86778,87323,417.9279,328.5526,539,240
Sprite,Background,Centre,"SB\DIV\pixel.png",0,0 L,86232,3 R,19,0,272,0,2.826274 S,0,85142,,9 F,19,85142,87323,0.5 M,19,85170,86232,539,240,586.903,382.1454 M,18,86778,87323,586.903,382.1454,539,240
Sprite,Background,Centre,"SB\DIV\pixel.png",0,0 L,86232,3 R,19,0,272,0,0.7203141 S,0,85142,,2 F,19,85142,87323,0.5 M,19,85180,86232,539,240,424.1598,143.5027 M,18,86778,87323,424.1598,143.5027,539,240
Sprite,Background,Centre,"SB\DIV\pixel.png",0,0 L,86232,3 R,19,0,272,0,0.1324007 S,0,85142,,18 F,19,85142,87323,0.5 M,19,85219,86232,539,240,653.9662,143.6529 M,18,86778,87323,653.9662,143.6529,539,240
Sprite,Background,Centre,"SB\DIV\pixel.png",0,0 L,86232,3 R,19,0,272,0,2.326493 S,0,85142,,11 F,19,85142,87323,0.5 M,19,85169,86232,539,240,632.1514,122.4295 M,18,86778,87323,632.1514,122.4295,539,240
Sprite,Background,Centre,"SB\DIV\pixel.png",0,0 L,86232,3 R,19,0,272,0,2.342738 S,0,85142,,8 F,19,85142,87323,0.5 M,19,85200,86232,539,240,688.9395,244.2586 M,18,86778,87323,688.9395,244.2586,539,240
Sprite,Background,Centre,"SB\DIV\pixel.png",0,0 L,88414,3 R,19,0,272,0,3.091384 S,0,87324,,14 F,19,87324,89505,0.5 M,19,87405,88414,408,136,477.5426,3.094657 M,18,88960,89505,477.5426,3.094657,408,136
Sprite,Background,Centre,"SB\DIV\pixel.png",0,0 L,88414,3 R,19,0,272,0,0.9418951 S,0,87324,,9 F,19,87324,89505,0.5 M,19,87359,88414,408,136,402.9708,-13.91567 M,18,88960,89505,402.9708,-13.91567,408,136
Sprite,Background,Centre,"SB\DIV\pixel.png",0,0 L,88414,3 R,19,0,272,0,1.50906 S,0,87324,,14 F,19,87324,89505,0.5 M,19,87347,88414,408,136,479.6711,4.230269 M,18,88960,89505,479.6711,4.230269,408,136
Sprite,Background,Centre,"SB\DIV\pixel.png",0,0 L,88414,3 R,19,0,272,0,2.661595 S,0,87324,,14 F,19,87324,89505,0.5 M,19,87355,88414,408,136,266.3595,185.3758 M,18,88960,89505,266.3595,185.3758,408,136
Sprite,Background,Centre,"SB\DIV\pixel.png",0,0 L,88414,3 R,19,0,272,0,2.02732 S,0,87324,,18 F,19,87324,89505,0.5 M,19,87399,88414,408,136,541.5214,67.64771 M,18,88960,89505,541.5214,67.64771,408,136
Sprite,Background,Centre,"SB\DIV\pixel.png",0,0 L,88414,3 R,19,0,272,0,1.685319 S,0,87324,,7 F,19,87324,89505,0.5 M,19,87377,88414,408,136,516.3681,239.7129 M,18,88960,89505,516.3681,239.7129,408,136
Sprite,Background,Centre,"SB\DIV\pixel.png",0,0 L,88414,3 R,19,0,272,0,1.154815 S,0,87324,,13 F,19,87324,89505,0.5 M,19,87417,88414,408,136,293.7401,38.8163 M,18,88960,89505,293.7401,38.8163,408,136
Sprite,Background,Centre,"SB\DIV\pixel.png",0,0 L,88414,3 R,19,0,272,0,3.079386 S,0,87324,,2 F,19,87324,89505,0.5 M,19,87395,88414,408,136,450.3353,-7.901772 M,18,88960,89505,450.3353,-7.901772,408,136
Sprite,Background,Centre,"SB\DIV\pixel.png",0,0 L,88414,3 R,19,0,272,0,2.179356 S,0,87324,,13 F,19,87324,89505,0.5 M,19,87359,88414,408,136,261.2591,104.9019 M,18,88960,89505,261.2591,104.9019,408,136
Sprite,Background,Centre,"SB\DIV\pixel.png",0,0 L,88414,3 R,19,0,272,0,1.127653 S,0,87324,,3 F,19,87324,89505,0.5 M,19,87380,88414,408,136,297.6085,34.44358 M,18,88960,89505,297.6085,34.44358,408,136
Sprite,Background,Centre,"SB\DIV\pixel.png",0,0 L,88414,3 R,19,0,272,0,0.02183865 S,0,87324,,10 F,19,87324,89505,0.5 M,19,87411,88414,408,136,356.3321,-4.820553 M,18,88960,89505,356.3321,-4.820553,408,136
Sprite,Background,Centre,"SB\DIV\pixel.png",0,0 L,88414,3 R,19,0,272,0,2.145414 S,0,87324,,2 F,19,87324,89505,0.5 M,19,87412,88414,408,136,541.0898,205.1888 M,18,88960,89505,541.0898,205.1888,408,136
Sprite,Background,Centre,"SB\DIV\pixel.png",0,0 L,88414,3 R,19,0,272,0,1.348917 S,0,87324,,17 F,19,87324,89505,0.5 M,19,87327,88414,408,136,447.3911,280.7354 M,18,88960,89505,447.3911,280.7354,408,136
Sprite,Background,Centre,"SB\DIV\pixel.png",0,0 L,88414,3 R,19,0,272,0,2.749579 S,0,87324,,8 F,19,87324,89505,0.5 M,19,87383,88414,408,136,525.5922,42.87595 M,18,88960,89505,525.5922,42.87595,408,136
Sprite,Background,Centre,"SB\DIV\pixel.png",0,0 L,88414,3 R,19,0,272,0,3.076534 S,0,87324,,15 F,19,87324,89505,0.5 M,19,87351,88414,408,136,390.6015,-12.98755 M,18,88960,89505,390.6015,-12.98755,408,136
Sprite,Background,Centre,"SB\DIV\pixel.png",0,0 L,88414,3 R,19,0,272,0,0.5250998 S,0,87324,,6 F,19,87324,89505,0.5 M,19,87337,88414,408,136,270.455,76.15529 M,18,88960,89505,270.455,76.15529,408,136
Sprite,Background,Centre,"SB\DIV\pixel.png",0,0 L,88414,3 R,19,0,272,0,0.6355339 S,0,87324,,19 F,19,87324,89505,0.5 M,19,87371,88414,408,136,268.5908,80.63691 M,18,88960,89505,268.5908,80.63691,408,136
Sprite,Background,Centre,"SB\DIV\pixel.png",0,0 L,88414,3 R,19,0,272,0,2.38838 S,0,87324,,13 F,19,87324,89505,0.5 M,19,87367,88414,408,136,396.2361,-13.538 M,18,88960,89505,396.2361,-13.538,408,136
Sprite,Background,Centre,"SB\DIV\pixel.png",0,0 L,88414,3 R,19,0,272,0,2.678591 S,0,87324,,8 F,19,87324,89505,0.5 M,19,87392,88414,408,136,533.272,53.49599 M,18,88960,89505,533.272,53.49599,408,136
Sprite,Background,Centre,"SB\DIV\pixel.png",0,0 L,88414,3 R,19,0,272,0,3.007921 S,0,87324,,5 F,19,87324,89505,0.5 M,19,87372,88414,408,136,258.0081,137.5599 M,18,88960,89505,258.0081,137.5599,408,136
Sprite,Background,Centre,"SB\DIV\pixel.png",0,0 L,88414,3 R,19,0,272,0,2.428068 S,0,87324,,5 F,19,87324,89505,0.5 M,19,87345,88414,408,136,556.2314,158.9664 M,18,88960,89505,556.2314,158.9664,408,136
Sprite,Background,Centre,"SB\DIV\pixel.png",0,0 L,88414,3 R,19,0,272,0,2.517745 S,0,87324,,11 F,19,87324,89505,0.5 M,19,87338,88414,408,136,275.7918,206.8589 M,18,88960,89505,275.7918,206.8589,408,136
Sprite,Background,Centre,"SB\DIV\pixel.png",0,0 L,88414,3 R,19,0,272,0,0.0005169089 S,0,87324,,17 F,19,87324,89505,0.5 M,19,87389,88414,408,136,549.3417,85.77532 M,18,88960,89505,549.3417,85.77532,408,136
Sprite,Background,Centre,"SB\DIV\pixel.png",0,0 L,88414,3 R,19,0,272,0,0.794713 S,0,87324,,14 F,19,87324,89505,0.5 M,19,87331,88414,408,136,393.8423,-13.33037 M,18,88960,89505,393.8423,-13.33037,408,136
Sprite,Background,Centre,"SB\DIV\pixel.png",0,0 L,88414,3 R,19,0,272,0,1.088213 S,0,87324,,12 F,19,87324,89505,0.5 M,19,87419,88414,408,136,263.9462,177.815 M,18,88960,89505,263.9462,177.815,408,136
Sprite,Background,Centre,"SB\DIV\pixel.png",0,0 L,88414,3 R,19,0,272,0,1.002417 S,0,87324,,17 F,19,87324,89505,0.5 M,19,87415,88414,408,136,552.2238,177.2249 M,18,88960,89505,552.2238,177.2249,408,136
Sprite,Background,Centre,"SB\DIV\pixel.png",0,0 L,88414,3 R,19,0,272,0,1.829573 S,0,87324,,6 F,19,87324,89505,0.5 M,19,87418,88414,408,136,538.8433,209.3486 M,18,88960,89505,538.8433,209.3486,408,136
Sprite,Background,Centre,"SB\DIV\pixel.png",0,0 L,88414,3 R,19,0,272,0,1.883817 S,0,87324,,5 F,19,87324,89505,0.5 M,19,87352,88414,408,136,321.4572,258.5168 M,18,88960,89505,321.4572,258.5168,408,136
Sprite,Background,Centre,"SB\DIV\pixel.png",0,0 L,88414,3 R,19,0,272,0,2.256343 S,0,87324,,17 F,19,87324,89505,0.5 M,19,87416,88414,408,136,283.4425,52.42113 M,18,88960,89505,283.4425,52.42113,408,136
Sprite,Background,Centre,"SB\DIV\pixel.png",0,0 L,88414,3 R,19,0,272,0,0.8960138 S,0,87324,,8 F,19,87324,89505,0.5 M,19,87406,88414,408,136,405.3398,285.9764 M,18,88960,89505,405.3398,285.9764,408,136
Sprite,Background,Centre,"SB\DIV\pixel.png",0,0 L,88414,3 R,19,0,272,0,3.011834 S,0,87324,,18 F,19,87324,89505,0.5 M,19,87405,88414,408,136,274.1923,203.7901 M,18,88960,89505,274.1923,203.7901,408,136
Sprite,Background,Centre,"SB\DIV\pixel.png",0,0 L,88414,3 R,19,0,272,0,0.2956931 S,0,87324,,17 F,19,87324,89505,0.5 M,19,87386,88414,408,136,544.5269,198.1323 M,18,88960,89505,544.5269,198.1323,408,136
Sprite,Background,Centre,"SB\DIV\pixel.png",0,0 L,88414,3 R,19,0,272,0,0.2960638 S,0,87324,,5 F,19,87324,89505,0.5 M,19,87350,88414,408,136,258.0627,131.6639 M,18,88960,89505,258.0627,131.6639,408,136
Sprite,Background,Centre,"SB\DIV\pixel.png",0,0 L,88414,3 R,19,0,272,0,1.074069 S,0,87324,,7 F,19,87324,89505,0.5 M,19,87361,88414,408,136,557.9127,141.1155 M,18,88960,89505,557.9127,141.1155,408,136
Sprite,Background,Centre,"SB\DIV\pixel.png",0,0 L,88414,3 R,19,0,272,0,1.565304 S,0,87324,,3 F,19,87324,89505,0.5 M,19,87412,88414,408,136,265.0002,181.2885 M,18,88960,89505,265.0002,181.2885,408,136
Sprite,Background,Centre,"SB\DIV\pixel.png",0,0 L,88414,3 R,19,0,272,0,2.397726 S,0,87324,,17 F,19,87324,89505,0.5 M,19,87336,88414,408,136,261.5938,103.362 M,18,88960,89505,261.5938,103.362,408,136
Sprite,Background,Centre,"SB\DIV\pixel.png",0,0 L,88414,3 R,19,0,272,0,1.237231 S,0,87324,,12 F,19,87324,89505,0.5 M,19,87380,88414,408,136,438.0391,282.9614 M,18,88960,89505,438.0391,282.9614,408,136
Sprite,Background,Centre,"SB\DIV\pixel.png",0,0 L,88414,3 R,19,0,272,0,1.421995 S,0,87324,,7 M,19,87324,88414,408,136,388.8189,284.7686 F,19,87324,89505,0.5 M,18,88960,89505,388.8189,284.7686,408,136
Sprite,Background,Centre,"SB\DIV\pixel.png",0,0 L,88414,3 R,19,0,272,0,0.1297157 S,0,87324,,3 F,19,87324,89505,0.5 M,19,87368,88414,408,136,383.9805,-12.06439 M,18,88960,89505,383.9805,-12.06439,408,136
Sprite,Background,Centre,"SB\DIV\pixel.png",0,0 L,88414,3 R,19,0,272,0,2.379772 S,0,87324,,15 F,19,87324,89505,0.5 M,19,87396,88414,408,136,336.3833,267.7993 M,18,88960,89505,336.3833,267.7993,408,136
Sprite,Background,Centre,"SB\DIV\pixel.png",0,0 L,90595,3 R,19,0,272,0,0.2063301 S,0,89505,,2 F,19,89505,91686,0.5 M,19,89559,90595,226,229,331.8184,122.687 M,18,91141,91686,331.8184,122.687,226,229
Sprite,Background,Centre,"SB\DIV\pixel.png",0,0 L,90595,3 R,19,0,272,0,1.740452 S,0,89505,,9 F,19,89505,91686,0.5 M,19,89578,90595,226,229,81.0526,190.3963 M,18,91141,91686,81.0526,190.3963,226,229
Sprite,Background,Centre,"SB\DIV\pixel.png",0,0 L,90595,3 R,19,0,272,0,2.099176 S,0,89505,,3 F,19,89505,91686,0.5 M,19,89580,90595,226,229,367.9033,180.3845 M,18,91141,91686,367.9033,180.3845,226,229
Sprite,Background,Centre,"SB\DIV\pixel.png",0,0 L,90595,3 R,19,0,272,0,2.552305 S,0,89505,,16 F,19,89505,91686,0.5 M,19,89572,90595,226,229,366.3453,176.0547 M,18,91141,91686,366.3453,176.0547,226,229
Sprite,Background,Centre,"SB\DIV\pixel.png",0,0 L,90595,3 R,19,0,272,0,2.361162 S,0,89505,,16 F,19,89505,91686,0.5 M,19,89511,90595,226,229,375.9793,231.4892 M,18,91141,91686,375.9793,231.4892,226,229
Sprite,Background,Centre,"SB\DIV\pixel.png",0,0 L,90595,3 R,19,0,272,0,0.7795532 S,0,89505,,2 F,19,89505,91686,0.5 M,19,89583,90595,226,229,375.7034,238.4276 M,18,91141,91686,375.7034,238.4276,226,229
Sprite,Background,Centre,"SB\DIV\pixel.png",0,0 L,90595,3 R,19,0,272,0,0.5827008 S,0,89505,,4 F,19,89505,91686,0.5 M,19,89542,90595,226,229,284.6499,90.94136 M,18,91141,91686,284.6499,90.94136,226,229
Sprite,Background,Centre,"SB\DIV\pixel.png",0,0 L,90595,3 R,19,0,272,0,2.889488 S,0,89505,,11 F,19,89505,91686,0.5 M,19,89559,90595,226,229,153.6749,97.58813 M,18,91141,91686,153.6749,97.58813,226,229
Sprite,Background,Centre,"SB\DIV\pixel.png",0,0 L,90595,3 R,19,0,272,0,2.694885 S,0,89505,,15 F,19,89505,91686,0.5 M,19,89561,90595,226,229,79.2028,198.1685 M,18,91141,91686,79.2028,198.1685,226,229
Sprite,Background,Centre,"SB\DIV\pixel.png",0,0 L,90595,3 R,19,0,272,0,2.201793 S,0,89505,,9 F,19,89505,91686,0.5 M,19,89541,90595,226,229,373.6056,202.3056 M,18,91141,91686,373.6056,202.3056,226,229
Sprite,Background,Centre,"SB\DIV\pixel.png",0,0 L,90595,3 R,19,0,272,0,0.2111184 S,0,89505,,18 F,19,89505,91686,0.5 M,19,89596,90595,226,229,143.8582,103.4902 M,18,91141,91686,143.8582,103.4902,226,229
Sprite,Background,Centre,"SB\DIV\pixel.png",0,0 L,90595,3 R,19,0,272,0,1.79243 S,0,89505,,6 F,19,89505,91686,0.5 M,19,89577,90595,226,229,284.7326,90.97654 M,18,91141,91686,284.7326,90.97654,226,229
Sprite,Background,Centre,"SB\DIV\pixel.png",0,0 L,90595,3 R,19,0,272,0,1.503341 S,0,89505,,5 F,19,89505,91686,0.5 M,19,89575,90595,226,229,228.2613,79.01704 M,18,91141,91686,228.2613,79.01704,226,229
Sprite,Background,Centre,"SB\DIV\pixel.png",0,0 L,90595,3 R,19,0,272,0,0.3672023 S,0,89505,,18 F,19,89505,91686,0.5 M,19,89568,90595,226,229,89.76466,166.2311 M,18,91141,91686,89.76466,166.2311,226,229
Sprite,Background,Centre,"SB\DIV\pixel.png",0,0 L,90595,3 R,19,0,272,0,0.2263008 S,0,89505,,17 F,19,89505,91686,0.5 M,19,89519,90595,226,229,108.195,321.8547 M,18,91141,91686,108.195,321.8547,226,229
Sprite,Background,Centre,"SB\DIV\pixel.png",0,0 L,90595,3 R,19,0,272,0,0.3416301 S,0,89505,,19 F,19,89505,91686,0.5 M,19,89534,90595,226,229,86.86696,285.0535 M,18,91141,91686,86.86696,285.0535,226,229
Sprite,Background,Centre,"SB\DIV\pixel.png",0,0 L,90595,3 R,19,0,272,0,2.955025 S,0,89505,,7 F,19,89505,91686,0.5 M,19,89541,90595,226,229,136.4712,108.648 M,18,91141,91686,136.4712,108.648,226,229
Sprite,Background,Centre,"SB\DIV\pixel.png",0,0 L,90595,3 R,19,0,272,0,1.917566 S,0,89505,,2 F,19,89505,91686,0.5 M,19,89549,90595,226,229,346.3997,139.5354 M,18,91141,91686,346.3997,139.5354,226,229
Sprite,Background,Centre,"SB\DIV\pixel.png",0,0 L,90595,3 R,19,0,272,0,1.431597 S,0,89505,,19 F,19,89505,91686,0.5 M,19,89533,90595,226,229,367.9795,180.6076 M,18,91141,91686,367.9795,180.6076,226,229
Sprite,Background,Centre,"SB\DIV\pixel.png",0,0 L,90595,3 R,19,0,272,0,0.2416416 S,0,89505,,7 F,19,89505,91686,0.5 M,19,89542,90595,226,229,296.3137,96.50098 M,18,91141,91686,296.3137,96.50098,226,229
Sprite,Background,Centre,"SB\DIV\pixel.png",0,0 L,90595,3 R,19,0,272,0,0.09531596 S,0,89505,,7 F,19,89505,91686,0.5 M,19,89551,90595,226,229,152.3081,359.6503 M,18,91141,91686,152.3081,359.6503,226,229
Sprite,Background,Centre,"SB\DIV\pixel.png",0,0 L,90595,3 R,19,0,272,0,2.858364 S,0,89505,,17 F,19,89505,91686,0.5 M,19,89508,90595,226,229,76.58277,215.7905 M,18,91141,91686,76.58277,215.7905,226,229
Sprite,Background,Centre,"SB\DIV\pixel.png",0,0 L,90595,3 R,19,0,272,0,0.147479 S,0,89505,,4 F,19,89505,91686,0.5 M,19,89580,90595,226,229,76.85738,212.9851 M,18,91141,91686,76.85738,212.9851,226,229
Sprite,Background,Centre,"SB\DIV\pixel.png",0,0 L,90595,3 R,19,0,272,0,0.1910767 S,0,89505,,6 F,19,89505,91686,0.5 M,19,89542,90595,226,229,110.3637,324.5419 M,18,91141,91686,110.3637,324.5419,226,229
Sprite,Background,Centre,"SB\DIV\pixel.png",0,0 L,90595,3 R,19,0,272,0,1.192581 S,0,89505,,7 F,19,89505,91686,0.5 M,19,89564,90595,226,229,335.8047,331.1907 M,18,91141,91686,335.8047,331.1907,226,229
Sprite,Background,Centre,"SB\DIV\pixel.png",0,0 L,90595,3 R,19,0,272,0,0.2640293 S,0,89505,,9 F,19,89505,91686,0.5 M,19,89523,90595,226,229,343.6223,322.0859 M,18,91141,91686,343.6223,322.0859,226,229
Sprite,Background,Centre,"SB\DIV\pixel.png",0,0 L,90595,3 R,19,0,272,0,0.1087687 S,0,89505,,18 F,19,89505,91686,0.5 M,19,89506,90595,226,229,363.0941,289.8705 M,18,91141,91686,363.0941,289.8705,226,229
Sprite,Background,Centre,"SB\DIV\pixel.png",0,0 L,90595,3 R,19,0,272,0,0.08435286 S,0,89505,,7 F,19,89505,91686,0.5 M,19,89510,90595,226,229,289.6104,364.8445 M,18,91141,91686,289.6104,364.8445,226,229
Sprite,Background,Centre,"SB\DIV\pixel.png",0,0 L,90595,3 R,19,0,272,0,1.490144 S,0,89505,,4 F,19,89505,91686,0.5 M,19,89564,90595,226,229,327.4586,118.5185 M,18,91141,91686,327.4586,118.5185,226,229
Sprite,Background,Centre,"SB\DIV\pixel.png",0,0 L,90595,3 R,19,0,272,0,2.010111 S,0,89505,,18 F,19,89505,91686,0.5 M,19,89518,90595,226,229,278.1525,369.6418 M,18,91141,91686,278.1525,369.6418,226,229
Sprite,Background,Centre,"SB\DIV\pixel.png",0,0 L,90595,3 R,19,0,272,0,0.6104676 S,0,89505,,6 F,19,89505,91686,0.5 M,19,89517,90595,226,229,82.31388,272.0616 M,18,91141,91686,82.31388,272.0616,226,229
Sprite,Background,Centre,"SB\DIV\pixel.png",0,0 L,90595,3 R,19,0,272,0,0.9661855 S,0,89505,,18 F,19,89505,91686,0.5 M,19,89523,90595,226,229,214.5457,79.43797 M,18,91141,91686,214.5457,79.43797,226,229
Sprite,Background,Centre,"SB\DIV\pixel.png",0,0 L,90595,3 R,19,0,272,0,1.82256 S,0,89505,,15 F,19,89505,91686,0.5 M,19,89565,90595,226,229,155.8383,361.5796 M,18,91141,91686,155.8383,361.5796,226,229
Sprite,Background,Centre,"SB\DIV\pixel.png",0,0 L,90595,3 R,19,0,272,0,2.686298 S,0,89505,,4 F,19,89505,91686,0.5 M,19,89591,90595,226,229,76.0765,224.21 M,18,91141,91686,76.0765,224.21,226,229
Sprite,Background,Centre,"SB\DIV\pixel.png",0,0 L,90595,3 R,19,0,272,0,0.493698 S,0,89505,,6 F,19,89505,91686,0.5 M,19,89512,90595,226,229,147.5129,356.8271 M,18,91141,91686,147.5129,356.8271,226,229
Sprite,Background,Centre,"SB\DIV\pixel.png",0,0 L,90595,3 R,19,0,272,0,0.5006483 S,0,89505,,16 F,19,89505,91686,0.5 M,19,89550,90595,226,229,78.17712,203.5363 M,18,91141,91686,78.17712,203.5363,226,229
Sprite,Background,Centre,"SB\DIV\pixel.png",0,0 L,90595,3 R,19,0,272,0,1.527289 S,0,89505,,16 F,19,89505,91686,0.5 M,19,89532,90595,226,229,373.7181,202.9353 M,18,91141,91686,373.7181,202.9353,226,229
Sprite,Background,Centre,"SB\DIV\pixel.png",0,0 L,90595,3 R,19,0,272,0,0.250656 S,0,89505,,14 F,19,89505,91686,0.5 M,19,89583,90595,226,229,366.94,177.6589 M,18,91141,91686,366.94,177.6589,226,229
Sprite,Background,Centre,"SB\DIV\pixel.png",0,0 L,90595,3 R,19,0,272,0,0.6900101 S,0,89505,,19 F,19,89505,91686,0.5 M,19,89517,90595,226,229,375.9504,225.1439 M,18,91141,91686,375.9504,225.1439,226,229
Sprite,Background,Centre,"SB\DIV\pixel.png",0,0 L,90595,3 R,19,0,272,0,1.271649 S,0,89505,,12 F,19,89505,91686,0.5 M,19,89586,90595,226,229,209.0234,378.0362 M,18,91141,91686,209.0234,378.0362,226,229
Sprite,Background,Centre,"SB\MLG\11.png",0,0 M,0,146778,,223,310 S,0,146778,,0.4 R,0,146778,,0.04303316 F,0,146778,148414,1 F,0,148414,148714,1,0
Sprite,Background,Centre,"SB\MLG\0.png",0,0 M,0,146915,,218,232 S,0,146915,,0.4 R,0,146915,,-0.03393922 F,0,146915,148414,1 F,0,148414,148714,1,0
Sprite,Background,Centre,"SB\MLG\1.png",0,0 M,0,147051,,141,306 S,0,147051,,0.4 R,0,147051,,-0.09677954 F,0,147051,148414,1 F,0,148414,148714,1,0
Sprite,Background,Centre,"SB\MLG\2.png",0,0 M,0,147187,,227,397 S,0,147187,,0.4 R,0,147187,,-0.08897038 F,0,147187,148414,1 F,0,148414,148714,1,0
Sprite,Background,Centre,"SB\MLG\3.png",0,0 M,0,147324,,218,232 S,0,147324,,0.4 R,0,147324,,-0.09914284 F,0,147324,148414,1 F,0,148414,148714,1,0
Sprite,Background,Centre,"SB\MLG\4.png",0,0 M,0,147460,,141,409 S,0,147460,,0.4 R,0,147460,,-0.04794959 F,0,147460,148414,1 F,0,148414,148714,1,0
Sprite,Background,Centre,"SB\MLG\5.png",0,0 M,0,147596,,365,387 S,0,147596,,0.4 R,0,147596,,-0.02387294 F,0,147596,148414,1 F,0,148414,148714,1,0
Sprite,Background,Centre,"SB\MLG\6.png",0,0 M,0,147733,,141,306 S,0,147733,,0.4 R,0,147733,,0.07970273 F,0,147733,148414,1 F,0,148414,148714,1,0
Sprite,Background,Centre,"SB\MLG\7.png",0,0 M,0,147869,,366,144 S,0,147869,,0.4 R,0,147869,,-0.08658127 F,0,147869,148414,1 F,0,148414,148714,1,0
Sprite,Background,Centre,"SB\MLG\8.png",0,0 M,0,148005,,453,379 S,0,148005,,0.4 R,0,148005,,-0.06401057 F,0,148005,148414,1 F,0,148414,148714,1,0
Sprite,Background,Centre,"SB\MLG\9.png",0,0 M,0,148142,,296,188 S,0,148142,,0.4 R,0,148142,,-0.01446269 F,0,148142,148414,1 F,0,148414,148714,1,0
Sprite,Background,Centre,"SB\MLG\10.png",0,0 M,0,148278,,64,381 S,0,148278,,0.4 R,0,148278,,-0.0440044 F,0,148278,148414,1 F,0,148414,148714,1,0
Sprite,Background,Centre,"SB\MLG\0.png",0,0 M,0,155505,,416,109 S,0,155505,,0.4 R,0,155505,,-0.0249589 F,0,155505,157142,1 F,0,157142,157442,1,0
Sprite,Background,Centre,"SB\MLG\1.png",0,0 M,0,155642,,433,187 S,0,155642,,0.4 R,0,155642,,0.05417404 F,0,155642,157142,1 F,0,157142,157442,1,0
Sprite,Background,Centre,"SB\MLG\2.png",0,0 M,0,155778,,526,105 S,0,155778,,0.4 R,0,155778,,0.05564739 F,0,155778,157142,1 F,0,157142,157442,1,0
Sprite,Background,Centre,"SB\MLG\3.png",0,0 M,0,155915,,491,255 S,0,155915,,0.4 R,0,155915,,0.06700199 F,0,155915,157142,1 F,0,157142,157442,1,0
Sprite,Background,Centre,"SB\MLG\4.png",0,0 M,0,156051,,412,86 S,0,156051,,0.4 R,0,156051,,-0.08977547 F,0,156051,157142,1 F,0,157142,157442,1,0
Sprite,Background,Centre,"SB\MLG\5.png",0,0 M,0,156187,,413,302 S,0,156187,,0.4 R,0,156187,,0.06202563 F,0,156187,157142,1 F,0,157142,157442,1,0
Sprite,Background,Centre,"SB\MLG\6.png",0,0 M,0,156324,,568,197 S,0,156324,,0.4 R,0,156324,,-0.04258056 F,0,156324,157142,1 F,0,157142,157442,1,0
Sprite,Background,Centre,"SB\MLG\7.png",0,0 M,0,156460,,445,379 S,0,156460,,0.4 R,0,156460,,0.04081811 F,0,156460,157142,1 F,0,157142,157442,1,0
Sprite,Background,Centre,"SB\MLG\8.png",0,0 M,0,156596,,334,160 S,0,156596,,0.4 R,0,156596,,-0.07497051 F,0,156596,157142,1 F,0,157142,157442,1,0
Sprite,Background,Centre,"SB\MLG\9.png",0,0 M,0,156733,,566,300 S,0,156733,,0.4 R,0,156733,,0.04347683 F,0,156733,157142,1 F,0,157142,157442,1,0
Sprite,Background,Centre,"SB\MLG\10.png",0,0 M,0,156869,,249,231 S,0,156869,,0.4 R,0,156869,,-0.06671126 F,0,156869,157142,1 F,0,157142,157442,1,0
Sprite,Background,Centre,"SB\MLG\11.png",0,0 M,0,157005,,568,197 S,0,157005,,0.4 R,0,157005,,-0.09230842 F,0,157005,157142,1 F,0,157142,157442,1,0
Sprite,Background,Centre,"SB\MLG\0.png",0,0 M,0,157142,,216,320 F,0,157142,,1 S,0,157142,,0.4 R,0,157142,,-0.01979177 F,0,157142,157442,1,0
//Storyboard Layer 1 (Fail)
//Storyboard Layer 2 (Pass)
//Storyboard Layer 3 (Foreground)
//Storyboard Sound Samples

[TimingPoints]
4415,545.454545454546,4,2,22,52,1,0
4415,-450.307692307692,4,2,22,52,0,0
12460,-450.307692307692,4,2,22,5,0,0
12596,-450.307692307692,4,2,22,52,0,0
13005,-450.307692307692,4,2,22,5,0,0
13142,-450.307692307692,4,2,22,52,0,0
21733,-450.307692307692,4,2,22,5,0,0
21869,-161.290322580645,4,2,22,62,0,0
26233,-192.307692307692,4,2,22,62,0,0
32778,-161.290322580645,4,2,22,62,0,0
56233,-61.7283950617284,4,2,22,62,0,0
56778,-61.7283950617284,4,2,22,82,0,0
61142,-58.1395348837209,4,2,22,82,0,0
65505,-75.7575757575758,4,2,22,72,0,0
72051,-81.9672131147541,4,2,22,82,0,0
72596,-98.0392156862745,4,2,22,62,0,0
73142,-121.951219512195,4,2,22,52,0,0
73687,-161.290322580645,4,2,22,42,0,0
74233,-52.0833333333333,4,2,22,62,0,0
74505,-192.307692307692,4,2,22,62,0,0
74915,-52.0833333333333,4,2,22,62,0,0
75324,-192.307692307692,4,2,22,62,0,0
76415,-52.0833333333333,4,2,22,62,0,0
76687,-192.307692307692,4,2,22,62,0,0
77096,-52.0833333333333,4,2,22,62,0,0
77505,-192.307692307692,4,2,22,62,0,0
78596,-52.0833333333333,4,2,22,62,0,0
78869,-192.307692307692,4,2,22,62,0,0
79278,-52.0833333333333,4,2,22,62,0,0
79687,-192.307692307692,4,2,22,62,0,0
80778,-52.0833333333333,4,2,22,62,0,0
81051,-192.307692307692,4,2,22,62,0,0
82960,-52.0833333333333,4,2,22,62,0,0
83233,-192.307692307692,4,2,22,62,0,0
85142,-52.0833333333333,4,2,22,62,0,0
85415,-192.307692307692,4,2,22,62,0,0
87324,-52.0833333333333,4,2,22,62,0,0
87596,-192.307692307692,4,2,22,62,0,0
89505,-52.0833333333333,4,2,22,62,0,0
89778,-192.307692307692,4,2,22,62,0,0
91687,-70.4225352112676,4,2,22,82,0,0
100415,-75.7575757575758,4,2,22,82,0,0
106415,-70.4225352112676,4,2,22,82,0,0
106960,-81.9672131147541,4,2,22,82,0,0
107505,-98.0392156862745,4,2,22,62,0,0
108051,-121.951219512195,4,2,22,52,0,0
108596,-161.290322580645,4,2,22,42,0,0
109142,-192.307692307692,4,2,22,52,0,0
122233,-454.545454545455,4,2,22,52,0,0
124346,-454.545454545455,4,2,22,5,0,0
124415,-192.307692307692,4,2,22,62,0,0
126596,-192.307692307692,4,2,22,72,0,0
144051,-192.307692307692,4,2,22,92,0,0
144596,-52.0833333333333,4,2,22,92,0,0
146233,-192.307692307692,4,2,22,92,0,0
146778,-89.2857142857142,4,2,22,92,0,0
148415,-52.0833333333333,4,2,22,92,0,0
150596,-65.7894736842105,4,2,22,92,0,0
151142,-61.7283950617284,4,2,22,92,0,0
152778,-192.307692307692,4,2,22,92,0,0
153324,-121.951219512195,4,2,22,92,0,0
154415,-108.695652173913,4,2,22,92,0,0
154960,-192.307692307692,4,2,22,92,0,0
157142,-61.7283950617284,4,2,22,92,0,0
159324,-81.9672131147541,4,2,22,92,0,0
161505,-89.2857142857143,4,2,22,82,0,0
164505,-81.9672131147541,4,2,22,82,0,0
165324,-75.7575757575758,4,2,22,82,0,0
165596,-70.4225352112676,4,2,22,82,0,0
166142,-81.9672131147541,4,2,22,82,0,0
166415,-75.7575757575758,4,2,22,82,0,0
166687,-70.4225352112676,4,2,22,82,0,0
166960,-81.9672131147541,4,2,22,82,0,0
167233,-75.7575757575758,4,2,22,82,0,0
167505,-70.4225352112676,4,2,22,82,0,0
167778,-65.7894736842105,4,2,22,82,0,0
168051,-81.9672131147541,4,2,22,82,0,0
168324,-75.7575757575758,4,2,22,82,0,0
168596,-70.4225352112676,4,2,22,82,0,0
168869,-65.7894736842105,4,2,22,82,0,0
169142,-98.0392156862745,4,2,22,82,0,0
169415,-75.7575757575758,4,2,22,82,0,0
169687,-70.4225352112676,4,2,22,82,0,0
169960,-65.7894736842105,4,2,22,82,0,0
170233,-54.9450549450549,4,2,22,82,0,0
171324,-192.307692307692,4,2,22,82,0,0
172415,-81.9672131147541,4,2,22,82,0,0
173505,-161.290322580645,4,2,22,82,0,0
174596,-58.1395348837209,4,2,22,82,0,0
175687,-192.307692307692,4,2,22,82,0,0
176778,-98.0392156862745,4,2,22,82,0,0
177869,-81.9672131147541,4,2,22,82,0,0
178960,-54.9450549450549,4,2,22,82,0,0
179505,-192.307692307692,4,2,22,82,0,0
180051,-58.1395348837209,4,2,22,82,0,0
180596,-192.307692307692,4,2,22,82,0,0
181142,-54.9450549450549,4,2,22,82,0,0
181687,-192.307692307692,4,2,22,82,0,0
182233,-58.1395348837209,4,2,22,82,0,0
182778,-192.307692307692,4,2,22,82,0,0
183324,-58.1395348837209,4,2,22,82,0,0
183869,-192.307692307692,4,2,22,82,0,0
184415,-58.1395348837209,4,2,22,82,0,0
184960,-192.307692307692,4,2,22,82,0,0
185505,-58.1395348837209,4,2,22,82,0,0
186051,-192.307692307692,4,2,22,82,0,0
187687,-450.307692307692,4,2,22,82,0,0
187824,-450.307692307692,4,2,22,42,0,0
195187,-450.307692307692,4,2,22,5,0,0
195324,-450.307692307692,4,2,22,42,0,0
196278,-450.307692307692,4,2,22,5,0,0
196415,-450.307692307692,4,2,22,42,0,0
198460,-450.307692307692,4,2,22,5,0,0
198596,-450.307692307692,4,2,22,42,0,0
212642,-450.307692307692,4,2,22,5,0,0
212778,-450.307692307692,4,2,22,42,0,0
213733,-450.307692307692,4,2,22,5,0,0
213869,-450.307692307692,4,2,22,42,0,0

[Colours]
Combo1 : 186,139,89
Combo2 : 206,54,28
Combo3 : 245,234,98
Combo4 : 164,30,22
SliderBorder : 255,228,145
SliderTrackOverride : 48,22,14

[HitObjects]
146,58,21869,6,0,P|169:103|135:185,1,131.439994785401,4|2,1:0|0:0,0:0:0:0:
290,341,22960,2,0,P|265:281|289:222,1,131.439994785401,2|0,0:0|0:0,0:0:0:0:
477,86,24051,2,0,L|330:70,1,131.439994785401,2|0,0:0|0:0,0:0:0:0:
272,102,24869,1,2,0:0:0:0:
198,63,25142,2,0,L|128:74,1,65.7199973927003,0|2,0:0|0:0,0:0:0:0:
75,148,25687,2,0,L|145:159,1,65.7199973927003,0|2,0:0|0:0,0:0:0:0:
188,239,26233,2,0,P|228:219|174:318,1,330.719997981445,2|0,0:0|0:0,0:0:0:0:
309,85,28415,6,0,P|347:78|397:95,2,82.6799994953613,2|2|2,0:0|0:0|0:0,0:0:0:0:
239,124,29505,2,0,L|121:109,1,110.239999327148,2|2,0:0|0:0,0:0:0:0:
178,229,30596,5,0,0:0:0:0:
430,145,31142,1,2,0:0:0:0:
215,294,31687,1,2,0:0:0:0:
483,304,32233,1,2,0:0:0:0:
305,144,32778,6,0,L|321:290,1,131.439994785401,2|0,0:0|0:0,0:0:0:0:
397,297,33596,1,2,0:0:0:0:
410,214,33869,2,0,L|414:138,1,65.7199973927003,2|0,0:0|0:0,0:0:0:0:
394,69,34415,2,0,P|356:50|327:51,1,65.7199973927003,2|0,0:0|0:0,0:0:0:0:
264,91,34960,1,2,0:0:0:0:
264,91,35505,6,0,L|123:80,1,131.439994785401,2|2,0:0|0:0,0:0:0:0:
34,273,36869,1,2,0:0:0:0:
87,209,37142,2,0,P|124:201|189:233,2,98.5799960890505,2|2|2,0:0|0:0|0:0,0:0:0:0:
38,135,38233,2,0,B|59:58|59:58|129:77,1,131.439994785401,2|2,0:0|0:0,0:0:0:0:
302,297,39324,5,4,1:0:0:0:
185,230,56233,5,8,0:0:0:0:
185,230,56778,6,0,P|177:185|162:148,1,85.8600020961915,6|0,1:0|0:0,0:0:0:0:
264,296,57051,1,2,0:0:0:0:
282,141,57187,2,0,P|289:96|302:57,1,85.8600020961915,2|8,0:0|0:0,0:0:0:0:
185,230,57460,2,0,P|86:245|62:240,2,85.8600020961915,2|2|2,0:0|0:0|0:0,0:0:0:0:
367,147,57869,2,0,P|466:132|490:137,1,85.8600020961915,2|0,1:0|0:0,0:0:0:0:
214,71,58142,1,2,0:0:0:0:
314,211,58278,2,0,P|326:296|323:315,1,85.8600020961915,2|8,0:0|0:0,0:0:0:0:
305,85,58551,2,0,P|305:42|317:0,2,85.8600020961915,2|2|2,0:0|0:0|0:0,0:0:0:0:
158,195,58960,6,0,L|43:182,1,85.8600020961915,2|0,1:0|0:0,0:0:0:0:
222,130,59233,1,2,0:0:0:0:
189,319,59369,2,0,L|103:328,1,85.8600020961915,2|8,0:0|0:0,0:0:0:0:
121,112,59642,2,0,L|126:24,2,85.8600020961915,2|2|2,0:0|0:0|0:0,0:0:0:0:
300,236,60051,2,0,L|415:223,1,85.8600020961915,2|0,1:0|0:0,0:0:0:0:
236,171,60324,1,2,0:0:0:0:
269,360,60460,2,0,L|354:369,1,85.8600020961915,2|8,0:0|0:0,0:0:0:0:
337,153,60733,2,0,L|332:65,2,85.8600020961915,2|2|2,0:0|0:0|0:0,0:0:0:0:
138,238,61142,6,0,B|80:228|30:151,1,91.1600013909912,2|0,1:0|0:0,0:0:0:0:
210,51,61415,1,2,0:0:0:0:
249,245,61551,2,0,P|227:342|222:352,1,91.1600013909912,2|8,0:0|0:0,0:0:0:0:
197,175,61824,1,2,0:0:0:0:
340,247,61960,1,2,0:0:0:0:
218,358,62096,1,2,0:0:0:0:
297,165,62233,2,0,P|341:143|407:141,1,91.1600013909912,2|0,1:0|0:0,0:0:0:0:
328,340,62505,1,2,0:0:0:0:
197,175,62642,2,0,P|153:153|87:151,1,91.1600013909912,2|8,0:0|0:0,0:0:0:0:
113,347,62915,1,2,0:0:0:0:
247,247,63051,1,2,0:0:0:0:
94,154,63187,1,2,0:0:0:0:
234,328,63324,6,0,P|320:286|323:277,1,91.1600013909912,2|0,1:0|0:0,0:0:0:0:
189,62,63596,1,2,0:0:0:0:
115,247,63733,2,0,L|130:354,1,91.1600013909912,2|8,0:0|0:0,0:0:0:0:
211,141,64005,1,2,0:0:0:0:
247,247,64142,1,2,0:0:0:0:
94,154,64278,1,2,0:0:0:0:
303,127,64415,2,0,L|422:141,1,91.1600013909912,2|0,1:0|0:0,0:0:0:0:
313,321,64687,2,0,L|194:335,1,91.1600013909912,2|2,0:0|0:0,0:0:0:0:
313,115,64960,2,0,L|432:129,1,91.1600013909912,10|2,0:0|0:0,0:0:0:0:
314,334,65233,5,2,0:0:0:0:
242,66,65369,1,2,0:0:0:0:
134,286,65505,6,0,P|53:282|59:154,1,209.879999359497,4|0,1:0|0:0,0:0:0:0:
214,230,66051,2,0,P|288:212|300:193,1,69.959999786499,10|0,0:0|0:0,0:0:0:0:
389,79,66324,1,2,0:0:0:0:
366,280,66460,2,0,P|377:344|380:350,2,69.959999786499,2|0|0,0:0|1:0|0:0,0:0:0:0:
257,132,66869,2,0,P|255:97|244:64,1,69.959999786499,2|0,0:0|0:0,0:0:0:0:
132,223,67142,1,10,0:0:0:0:
222,206,67278,1,2,0:0:0:0:
163,145,67415,1,2,0:0:0:0:
163,145,67687,6,0,L|163:367,1,209.879999359497,2|0,1:0|0:0,0:0:0:0:
251,178,68233,2,0,L|329:163,1,69.959999786499,10|0,0:0|0:0,0:0:0:0:
187,55,68505,1,2,0:0:0:0:
79,169,68642,2,0,L|1:154,2,69.959999786499,2|0|0,0:0|1:0|0:0,0:0:0:0:
265,94,69051,2,0,L|343:79,1,69.959999786499,2|0,0:0|0:0,0:0:0:0:
159,64,69324,1,10,0:0:0:0:
173,156,69460,1,2,0:0:0:0:
79,169,69596,1,2,0:0:0:0:
62,82,69733,1,2,0:0:0:0:
189,242,69869,6,0,P|182:331|180:336,1,69.959999786499,2|0,1:0|0:0,0:0:0:0:
252,118,70142,2,0,P|247:83|251:48,1,69.959999786499,2|0,0:0|0:0,0:0:0:0:
280,220,70415,1,10,0:0:0:0:
157,143,70551,1,2,0:0:0:0:
296,231,70687,1,2,0:0:0:0:
146,134,70824,2,0,P|61:140|45:143,2,69.959999786499,2|0|0,0:0|1:0|0:0,0:0:0:0:
227,322,71233,2,0,P|211:245|211:235,1,69.959999786499,2|0,0:0|0:0,0:0:0:0:
318,37,71505,2,0,P|312:71|302:104,1,69.959999786499,10|0,0:0|0:0,0:0:0:0:
324,245,71778,1,2,0:0:0:0:
386,182,71915,1,2,0:0:0:0:
476,201,72051,6,0,L|488:334,1,129.31999467218,2|2,1:0|0:0,0:0:0:0:
487,329,72460,1,2,0:0:0:0:
380,205,72596,6,0,L|390:325,1,108.120000659912,10|2,0:0|0:0,0:0:0:0:
388,312,73005,1,2,0:0:0:0:
286,209,73142,6,0,L|295:318,1,86.920001326294,2|2,1:0|0:0,0:0:0:0:
294,296,73551,1,2,0:0:0:0:
193,216,73687,6,0,L|199:273,3,32.8599986963502,10|2|2|2,0:0|0:0|0:0|0:0,0:0:0:0:
132,152,74233,6,0,P|172:129|252:152,1,101.760002484375,6|0,1:0|0:0,0:0:0:0:
358,98,74505,2,0,P|324:102|312:100,1,27.5599998317871,2|0,0:0|0:0,0:0:0:0:
490,156,74778,1,10,0:0:0:0:
306,155,74915,6,0,P|418:121|494:160,1,203.52000496875,2|0,0:0|0:0,0:0:0:0:
438,277,75324,6,0,P|428:246|427:227,1,27.5599998317871,2|0,1:0|0:0,0:0:0:0:
331,313,75596,2,0,P|341:282|342:263,1,27.5599998317871,2|0,0:0|0:0,0:0:0:0:
232,344,75869,2,0,P|226:331|222:318,1,27.5599998317871,10|0,0:0|0:0,0:0:0:0:
76,270,76142,5,2,0:0:0:0:
263,226,76278,1,2,0:0:0:0:
143,65,76415,6,0,L|148:237,1,101.760002484375,6|0,1:0|0:0,0:0:0:0:
109,297,76687,2,0,L|105:244,1,27.5599998317871,2|0,0:0|0:0,0:0:0:0:
40,359,76960,1,10,0:0:0:0:
43,163,77096,6,0,B|68:228|68:228|33:386,1,203.52000496875,2|0,0:0|0:0,0:0:0:0:
184,236,77505,6,0,P|219:227|224:227,1,27.5599998317871,2|0,1:0|0:0,0:0:0:0:
301,257,77778,2,0,P|314:253|327:248,1,27.5599998317871,2|0,0:0|0:0,0:0:0:0:
383,179,78051,2,0,P|395:173|409:170,1,27.5599998317871,10|0,0:0|0:0,0:0:0:0:
502,298,78324,5,2,0:0:0:0:
504,102,78460,1,2,0:0:0:0:
402,313,78596,6,0,P|300:341|278:334,1,101.760002484375,6|0,1:0|0:0,0:0:0:0:
175,328,78869,2,0,P|195:337|222:339,1,27.5599998317871,2|0,0:0|0:0,0:0:0:0:
75,276,79142,1,10,0:0:0:0:
264,267,79278,6,0,P|141:303|66:269,1,203.52000496875,2|0,0:0|0:0,0:0:0:0:
148,169,79687,6,0,P|158:200|159:219,1,27.5599998317871,2|0,1:0|0:0,0:0:0:0:
255,133,79959,2,0,P|245:164|244:183,1,27.5599998317871,2|0,0:0|0:0,0:0:0:0:
354,102,80232,2,0,P|359:114|363:127,1,27.5599998317871,10|0,0:0|0:0,0:0:0:0:
491,26,80505,5,2,0:0:0:0:
453,216,80642,1,2,0:0:0:0:
307,38,80778,2,0,L|182:33,1,101.760002484375,6|0,1:0|0:0,0:0:0:0:
104,103,81051,2,0,L|151:95,1,27.5599998317871,2|0,0:0|0:0,0:0:0:0:
223,185,81324,1,10,0:0:0:0:
223,185,81460,2,0,L|176:177,1,27.5599998317871,2|0,0:0|0:0,0:0:0:0:
128,298,81733,1,2,0:0:0:0:
128,298,81869,2,0,L|175:290,1,27.5599998317871,2|0,1:0|0:0,0:0:0:0:
279,345,82142,2,0,L|232:337,1,27.5599998317871,2|0,0:0|0:0,0:0:0:0:
340,269,82415,5,10,0:0:0:0:
406,348,82551,1,2,0:0:0:0:
409,176,82687,1,2,0:0:0:0:
454,268,82824,1,2,0:0:0:0:
316,138,82960,6,0,P|219:104|186:113,1,101.760002484375,6|0,1:0|0:0,0:0:0:0:
102,169,83233,6,0,P|149:157|174:163,1,55.1199996635742,2|8,0:0|0:0,0:0:0:0:
223,257,83642,2,0,P|176:245|151:251,1,55.1199996635742,2|0,0:0|0:0,0:0:0:0:
288,336,84051,6,0,L|297:302,1,27.5599998317871,2|0,1:0|0:0,0:0:0:0:
365,239,84324,2,0,L|372:265,1,27.5599998317871,2|0,0:0|0:0,0:0:0:0:
445,342,84596,2,0,L|452:315,1,27.5599998317871,10|0,0:0|0:0,0:0:0:0:
380,143,84869,5,2,0:0:0:0:
295,309,85005,1,2,0:0:0:0:
475,184,85142,6,0,P|480:136|456:77,1,101.760002484375,6|0,1:0|0:0,0:0:0:0:
333,71,85415,6,0,P|312:86|299:121,1,55.1199996635742,2|8,0:0|0:0,0:0:0:0:
268,228,85824,2,0,P|256:203|234:186,1,55.1199996635742,2|0,0:0|0:0,0:0:0:0:
121,91,86233,6,0,P|152:105|160:108,1,27.5599998317871,2|0,1:0|0:0,0:0:0:0:
78,185,86505,2,0,P|90:179|102:173,1,27.5599998317871,2|0,0:0|0:0,0:0:0:0:
118,280,86778,2,0,P|126:268|133:257,1,27.5599998317871,10|0,0:0|0:0,0:0:0:0:
238,96,87051,5,2,0:0:0:0:
265,287,87187,1,2,0:0:0:0:
344,80,87324,6,0,B|418:61|418:61|455:94,1,101.760002484375,6|0,1:0|0:0,0:0:0:0:
391,217,87596,6,0,L|391:153,1,55.1199996635742,2|8,0:0|0:0,0:0:0:0:
483,216,88005,2,0,L|483:271,1,55.1199996635742,2|0,0:0|0:0,0:0:0:0:
359,344,88415,6,0,L|358:304,1,27.5599998317871,2|0,1:0|0:0,0:0:0:0:
266,234,88687,2,0,L|265:261,1,27.5599998317871,2|0,0:0|0:0,0:0:0:0:
180,346,88960,2,0,L|179:318,1,27.5599998317871,10|0,0:0|0:0,0:0:0:0:
69,165,89233,5,2,0:0:0:0:
35,360,89369,1,2,0:0:0:0:
162,173,89505,6,0,P|231:91|248:80,1,101.760002484375,6|0,1:0|0:0,0:0:0:0:
406,62,89778,6,0,P|363:74|340:91,1,55.1199996635742,2|10,0:0|0:0,0:0:0:0:
285,200,90187,2,0,P|310:170|320:165,1,27.5599998317871,2|0,0:0|0:0,0:0:0:0:
433,152,90460,1,2,0:0:0:0:
433,152,90596,2,0,P|408:182|398:187,1,27.5599998317871,2|0,1:0|0:0,0:0:0:0:
353,282,90869,2,0,P|359:269|368:259,1,27.5599998317871,2|0,0:0|0:0,0:0:0:0:
468,358,91142,5,10,0:0:0:0:
271,330,91278,1,2,0:0:0:0:
449,273,91415,1,2,0:0:0:0:
242,245,91551,1,2,0:0:0:0:
432,103,91687,6,0,P|365:174|225:124,1,225.779988631074,4|0,1:0|0:0,0:0:0:0:
85,113,92233,1,10,0:0:0:0:
228,42,92369,1,2,0:0:0:0:
174,206,92505,1,2,0:0:0:0:
138,43,92642,2,0,P|56:30|37:42,1,75.2599962103579,2|0,0:0|1:0,0:0:0:0:
14,130,92915,1,0,0:0:0:0:
14,130,93051,2,0,P|96:117|115:129,1,75.2599962103579,2|0,0:0|0:0,0:0:0:0:
121,274,93324,1,10,0:0:0:0:
65,202,93460,1,2,0:0:0:0:
203,124,93596,1,2,0:0:0:0:
203,124,93869,6,0,B|330:87|292:181|439:126,1,225.779988631074,2|0,1:0|0:0,0:0:0:0:
361,250,94415,1,10,0:0:0:0:
358,57,94551,1,2,0:0:0:0:
362,259,94687,1,2,0:0:0:0:
450,46,94824,2,0,P|503:126|498:147,1,75.2599962103579,2|0,0:0|1:0,0:0:0:0:
492,264,95096,1,0,0:0:0:0:
492,264,95233,2,0,P|439:184|444:163,1,75.2599962103579,2|0,0:0|0:0,0:0:0:0:
358,57,95505,1,10,0:0:0:0:
362,269,95642,1,2,0:0:0:0:
304,123,95778,1,2,0:0:0:0:
360,183,95915,1,2,0:0:0:0:
219,132,96051,6,0,L|140:152,1,75.2599962103579,2|0,1:0|0:0,0:0:0:0:
289,287,96324,2,0,L|368:267,1,75.2599962103579,2|0,0:0|0:0,0:0:0:0:
203,311,96596,1,10,0:0:0:0:
349,353,96733,1,2,0:0:0:0:
191,314,96869,1,2,0:0:0:0:
374,182,97005,2,0,P|420:202|441:249,1,75.2599962103579,2|0,0:0|1:0,0:0:0:0:
253,204,97278,1,0,0:0:0:0:
253,204,97415,2,0,P|207:184|186:137,1,75.2599962103579,2|0,0:0|0:0,0:0:0:0:
361,96,97687,1,10,0:0:0:0:
299,284,97824,1,2,0:0:0:0:
264,119,97960,1,2,0:0:0:0:
374,182,98096,1,2,0:0:0:0:
194,166,98233,6,0,P|100:191|82:320,1,225.779988631074,2|0,1:0|0:0,0:0:0:0:
48,131,98778,1,10,0:0:0:0:
170,267,98915,1,2,0:0:0:0:
217,79,99051,1,2,0:0:0:0:
170,267,99187,1,2,0:0:0:0:
292,153,99324,6,0,L|379:134,1,75.2599962103579,2|0,1:0|0:0,0:0:0:0:
165,174,99596,1,2,0:0:0:0:
292,153,99733,1,2,0:0:0:0:
132,181,99869,1,10,0:0:0:0:
348,246,100005,1,2,0:0:0:0:
288,308,100142,1,2,0:0:0:0:
288,308,100415,6,0,B|299:251|299:251|261:71,1,209.879999359497,6|0,1:0|0:0,0:0:0:0:
427,160,100960,2,0,P|353:178|341:197,1,69.959999786499,10|2,0:0|0:0,0:0:0:0:
209,257,101233,1,2,0:0:0:0:
267,102,101369,2,0,P|256:38|253:32,2,69.959999786499,2|0|0,0:0|1:0|0:0,0:0:0:0:
409,238,101778,2,0,P|411:273|422:306,1,69.959999786499,2|0,0:0|0:0,0:0:0:0:
512,173,102051,1,10,0:0:0:0:
427,160,102187,1,2,0:0:0:0:
499,257,102324,1,2,0:0:0:0:
499,257,102596,6,0,L|249:235,1,209.879999359497,2|0,1:0|0:0,0:0:0:0:
89,327,103142,2,0,P|158:299|176:272,1,69.959999786499,10|2,0:0|0:0,0:0:0:0:
250,164,103415,1,2,0:0:0:0:
253,332,103551,1,2,0:0:0:0:
170,177,103687,2,0,P|198:103|213:95,1,69.959999786499,0|0,1:0|0:0,0:0:0:0:
318,277,103960,2,0,P|334:307|335:341,1,69.959999786499,2|0,0:0|0:0,0:0:0:0:
247,170,104233,1,10,0:0:0:0:
253,332,104369,1,2,0:0:0:0:
378,223,104505,1,2,0:0:0:0:
440,274,104642,1,2,0:0:0:0:
357,138,104778,6,0,L|346:57,1,69.959999786499,2|0,1:0|0:0,0:0:0:0:
262,262,105051,2,0,L|252:331,1,69.959999786499,2|0,0:0|0:0,0:0:0:0:
169,141,105324,1,10,0:0:0:0:
338,222,105460,1,2,0:0:0:0:
169,141,105596,1,2,0:0:0:0:
357,138,105733,2,0,P|415:193|415:213,2,69.959999786499,2|0|0,0:0|1:0|0:0,0:0:0:0:
142,219,106142,2,0,P|84:164|84:144,1,69.959999786499,2|0,0:0|0:0,0:0:0:0:
284,261,106415,2,0,P|342:206|340:181,1,75.2599962103579,10|0,0:0|0:0,0:0:0:0:
263,92,106687,1,2,0:0:0:0:
268,182,106824,1,2,0:0:0:0:
186,15,106960,6,0,L|174:159,1,129.31999467218,2|2,1:0|0:0,0:0:0:0:
175,143,107369,1,2,0:0:0:0:
276,17,107505,6,0,L|266:137,1,108.120000659912,10|2,0:0|0:0,0:0:0:0:
268,124,107914,1,2,0:0:0:0:
370,21,108051,6,0,L|361:130,1,86.920001326294,2|2,1:0|0:0,0:0:0:0:
362,108,108460,1,2,0:0:0:0:
463,28,108596,6,0,L|457:85,3,32.8599986963502,10|2|2|2,0:0|0:0|0:0|0:0,0:0:0:0:
476,197,109142,6,0,P|420:193|365:226,1,110.239999327148,4|0,1:0|0:0,0:0:0:0:
96,326,110233,2,0,L|92:261,1,55.1199996635742,2|0,0:0|0:0,0:0:0:0:
179,243,110642,2,0,L|175:298,1,55.1199996635742,2|0,0:0|0:0,0:0:0:0:
257,334,111051,2,0,L|254:288,1,27.5599998317871,0|0,0:0|0:0,0:0:0:0:
261,187,111324,2,0,P|288:135|382:172,1,165.359998990723,2|0,0:0|0:0,0:0:0:0:
469,354,112415,6,0,P|432:334|408:332,1,55.1199996635742,2|0,0:0|0:0,0:0:0:0:
417,239,112824,2,0,P|376:251|358:266,1,55.1199996635742,2|0,0:0|0:0,0:0:0:0:
319,182,113233,2,0,P|292:211|290:218,1,27.5599998317871,2|0,0:0|0:0,0:0:0:0:
208,146,113505,6,0,L|220:269,1,110.239999327148,2|0,0:0|0:0,0:0:0:0:
117,94,114596,2,0,P|165:56|309:125,1,220.479998654297,0|0,0:0|0:0,0:0:0:0:
141,311,116233,1,2,0:0:0:0:
337,341,116778,1,2,0:0:0:0:
64,355,117324,1,2,0:0:0:0:
386,264,117869,6,0,P|418:233|412:154,1,110.239999327148,2|0,0:0|0:0,0:0:0:0:
208,54,118960,2,0,L|219:119,1,55.1199996635742,2|0,0:0|0:0,0:0:0:0:
130,97,119369,2,0,L|120:151,1,55.1199996635742,2|0,0:0|0:0,0:0:0:0:
39,143,119778,2,0,L|46:188,1,27.5599998317871,2|0,0:0|0:0,0:0:0:0:
13,280,120051,6,0,P|55:256|182:264,1,165.359998990723,2|0,0:0|0:0,0:0:0:0:
343,347,121142,2,0,P|375:338|389:299,1,55.1199996635742,2|0,0:0|0:0,0:0:0:0:
460,272,121551,2,0,P|431:243|400:238,1,55.1199996635742,2|0,0:0|0:0,0:0:0:0:
371,162,121960,2,0,P|348:189|346:201,1,27.5599998317871,2|0,0:0|0:0,0:0:0:0:
282,244,122233,6,0,P|275:203|197:254,1,180.730005515442,2|0,0:0|0:0,0:0:0:0:
195,250,124415,6,0,P|195:183|405:261,1,427.1799973927,2|0,0:0|0:0,0:0:0:0:
407,255,126596,5,4,1:0:0:0:
119,84,135324,5,2,1:0:0:0:
456,34,135869,1,2,0:0:0:0:
199,163,136415,1,2,0:0:0:0:
386,226,136960,1,2,0:0:0:0:
241,326,137505,1,2,0:0:0:0:
241,326,138324,6,0,L|203:322,2,27.5599998317871,2|2|2,0:0|0:0|0:0,0:0:0:0:
177,243,138733,2,0,L|204:240,2,27.5599998317871,2|2|2,0:0|0:0|0:0,0:0:0:0:
228,162,139142,2,0,L|200:159,2,27.5599998317871,2|2|2,0:0|0:0|0:0,0:0:0:0:
257,81,139551,1,2,0:0:0:0:
306,230,139687,5,2,1:0:0:0:
31,169,140233,1,2,0:0:0:0:
377,117,140778,1,2,0:0:0:0:
242,81,141051,1,2,0:0:0:0:
242,81,141596,6,0,L|241:197,1,110.239999327148,2|0,0:0|0:0,0:0:0:0:
343,331,142415,1,2,0:0:0:0:
138,139,142960,1,2,0:0:0:0:
330,103,143233,1,2,0:0:0:0:
40,318,143505,1,8,0:0:0:0:
40,318,144051,6,0,P|88:302|131:302,1,82.6799994953613,6|0,1:0|0:0,0:0:0:0:
375,304,144596,2,0,B|243:285|311:369|161:339,1,203.52000496875,10|0,0:0|0:0,0:0:0:0:
182,342,145005,1,0,0:0:0:0:
184,104,145142,2,0,B|248:148|216:263|216:263|188:216,1,203.52000496875,2|0,1:0|0:0,0:0:0:0:
201,239,145551,1,0,0:0:0:0:
312,80,145687,2,0,B|408:56|408:56|464:84|448:152,1,203.52000496875,10|0,0:0|0:0,0:0:0:0:
449,142,146096,1,0,0:0:0:0:
184,104,146233,6,0,P|116:108|100:124,1,82.6799994953613,2|0,1:0|0:0,0:0:0:0:
159,254,146778,5,10,0:0:0:0:
154,176,146915,1,2,0:0:0:0:
77,250,147051,1,2,0:0:0:0:
163,341,147187,1,2,0:0:0:0:
154,176,147324,5,2,1:0:0:0:
77,353,147460,1,2,0:0:0:0:
301,331,147596,1,2,0:0:0:0:
77,250,147733,1,2,0:0:0:0:
302,88,147869,5,10,0:0:0:0:
389,323,148005,1,2,0:0:0:0:
232,132,148142,1,2,0:0:0:0:
0,325,148278,1,2,0:0:0:0:
360,206,148415,6,0,B|290:179|221:237|221:237|147:299|57:237,1,305.280007453125,6|0,1:0|0:0,0:0:0:0:
114,68,148960,2,0,P|144:134|146:173,1,101.760002484375,10|0,0:0|0:0,0:0:0:0:
309,291,149233,1,0,0:0:0:0:
233,119,149369,1,0,0:0:0:0:
245,348,149505,2,0,P|299:381|350:367,1,101.760002484375,2|0,1:0|0:0,0:0:0:0:
401,130,149778,2,0,P|351:127|311:157,1,101.760002484375,2|0,0:0|0:0,0:0:0:0:
399,315,150051,1,8,0:0:0:0:
377,208,150187,1,0,0:0:0:0:
224,262,150324,2,0,L|104:241,1,101.760002484375,2|0,0:0|0:0,0:0:0:0:
207,20,150596,6,0,L|225:279,1,241.679997049805,2|0,1:0|0:0,0:0:0:0:
351,74,151142,2,0,P|429:48|457:199,1,257.580006288574,10|0,0:0|0:0,0:0:0:0:
307,349,151687,2,0,P|319:281|346:234,1,85.8600020961915,2|0,1:0|0:0,0:0:0:0:
122,127,151960,2,0,P|136:167|140:209,1,85.8600020961915,2|0,0:0|0:0,0:0:0:0:
241,47,152233,1,10,0:0:0:0:
311,191,152369,1,2,0:0:0:0:
224,145,152505,1,2,0:0:0:0:
224,145,152642,1,2,0:0:0:0:
411,162,152778,6,0,P|417:211|402:247,1,82.6799994953613,2|0,1:0|0:0,0:0:0:0:
194,274,153324,2,0,P|256:226|324:209,1,130.380001989441,10|0,0:0|0:0,0:0:0:0:
170,361,153869,1,2,1:0:0:0:
112,293,154005,1,2,0:0:0:0:
197,278,154142,1,2,0:0:0:0:
170,361,154278,1,2,0:0:0:0:
58,227,154415,2,0,L|70:68,1,146.279995089478,10|0,0:0|0:0,0:0:0:0:
286,119,154960,2,0,P|241:137|199:125,1,82.6799994953613,2|0,1:0|0:0,0:0:0:0:
352,53,155505,5,10,0:0:0:0:
369,131,155642,1,2,0:0:0:0:
462,49,155778,1,2,0:0:0:0:
427,199,155915,1,2,0:0:0:0:
348,30,156051,5,2,1:0:0:0:
349,246,156187,1,2,0:0:0:0:
504,141,156324,1,2,0:0:0:0:
381,323,156460,1,2,0:0:0:0:
270,104,156596,5,10,0:0:0:0:
502,244,156733,1,2,0:0:0:0:
185,175,156869,1,2,0:0:0:0:
504,141,157005,1,2,0:0:0:0:
152,264,157142,6,0,P|92:192|208:80,1,257.580006288574,6|0,1:0|0:0,0:0:0:0:
231,337,157687,2,0,L|245:232,1,85.8600020961915,10|0,0:0|0:0,0:0:0:0:
265,97,157960,1,0,0:0:0:0:
185,175,158096,1,0,0:0:0:0:
346,147,158233,2,0,P|429:180|437:187,1,85.8600020961915,2|0,1:0|0:0,0:0:0:0:
177,78,158505,2,0,P|94:111|86:118,1,85.8600020961915,2|0,0:0|0:0,0:0:0:0:
114,292,158778,1,8,0:0:0:0:
185,175,158915,1,0,0:0:0:0:
231,337,159051,2,0,L|245:232,1,85.8600020961915,2|0,0:0|0:0,0:0:0:0:
401,61,159324,6,0,B|343:85|343:85|319:259,1,193.979992008271,2|0,1:0|0:0,0:0:0:0:
512,335,159869,2,0,L|273:296,1,193.979992008271,10|0,0:0|0:0,0:0:0:0:
181,270,160415,2,0,P|258:237|275:210,1,64.6599973360902,2|0,1:0|0:0,0:0:0:0:
385,233,160687,2,0,P|308:200|291:173,1,64.6599973360902,2|0,0:0|0:0,0:0:0:0:
211,83,160960,1,10,0:0:0:0:
87,174,161096,1,2,0:0:0:0:
191,183,161233,1,2,0:0:0:0:
191,183,161369,1,2,0:0:0:0:
0,119,161505,6,0,L|13:281,2,118.720001449219,2|2|10,1:0|3:0|0:0,0:0:0:0:
151,21,162324,1,2,3:0:0:0:
246,201,162596,2,0,P|178:183|155:190,1,59.3600007246094,2|0,1:0|0:0,0:0:0:0:
250,49,162869,2,0,P|318:31|341:38,1,59.3600007246094,2|0,3:0|0:0,0:0:0:0:
339,263,163142,2,0,L|348:115,1,118.720001449219,10|2,0:0|3:0,0:0:0:0:
259,315,163687,5,0,1:0:0:0:
259,315,163960,2,0,P|186:295|169:298,1,59.3600007246094,2|0,3:0|0:0,0:0:0:0:
117,205,164233,2,0,P|190:185|207:188,1,59.3600007246094,10|0,0:0|0:0,0:0:0:0:
33,88,164505,2,0,L|26:243,1,129.31999467218,2|0,3:0|1:0,0:0:0:0:
194,51,165051,1,2,3:0:0:0:
291,223,165324,2,0,P|358:199|365:199,1,69.959999786499,10|0,0:0|0:0,0:0:0:0:
430,108,165596,2,0,P|363:84|349:85,1,75.2599962103579,2|0,3:0|0:0,0:0:0:0:
420,308,165869,6,0,P|446:223|501:189,2,150.519992420716,0|2|10,1:0|3:0|0:0,0:0:0:0:
287,134,166687,2,0,L|123:123,1,150.519992420716,2|0,3:0|1:0,0:0:0:0:
84,275,167233,2,0,P|127:210|130:195,1,69.959999786499,2|0,3:0|0:0,0:0:0:0:
91,43,167505,2,0,P|48:108|49:130,1,75.2599962103579,10|0,0:0|0:0,0:0:0:0:
244,198,167778,2,0,P|287:133|285:102,1,80.5599990166016,2|0,3:0|0:0,0:0:0:0:
475,28,168051,6,0,L|465:115,1,64.6599973360902,0|0,1:0|0:0,0:0:0:0:
402,261,168324,2,0,L|394:189,1,69.959999786499,2|0,3:0|0:0,0:0:0:0:
213,37,168596,2,0,L|203:116,1,75.2599962103579,10|0,0:0|0:0,0:0:0:0:
68,314,168869,2,0,L|64:206,1,80.5599990166016,2|0,3:0|0:0,0:0:0:0:
100,62,169142,1,0,1:0:0:0:
100,62,169415,6,0,L|119:138,1,69.959999786499,2|0,3:0|0:0,0:0:0:0:
203,111,169687,2,0,L|185:187,1,75.2599962103579,10|0,0:0|0:0,0:0:0:0:
276,214,169960,2,0,L|207:267,1,80.5599990166016,2|0,3:0|0:0,0:0:0:0:
341,61,170233,6,0,P|452:45|411:183,1,289.380009714295,6|0,1:0|0:0,0:0:0:0:
385,316,170778,6,0,L|355:216,1,96.4600032380983,10|2,0:0|0:0,0:0:0:0:
184,355,171051,2,0,L|214:255,1,96.4600032380983,2|2,0:0|0:0,0:0:0:0:
26,130,171324,6,0,B|74:170|74:170|114:152,1,82.6799994953613,2|0,1:0|0:0,0:0:0:0:
201,34,171869,2,0,P|235:56|239:61,1,27.5599998317871,10|2,0:0|0:0,0:0:0:0:
341,33,172142,2,0,P|349:72|348:78,1,27.5599998317871,2|2,0:0|0:0,0:0:0:0:
359,316,172415,6,0,P|354:228|449:182,1,193.979992008271,2|0,1:0|0:0,0:0:0:0:
281,192,172960,2,0,L|203:209,1,64.6599973360902,10|2,0:0|0:0,0:0:0:0:
107,138,173233,2,0,L|63:205,1,64.6599973360902,2|2,0:0|0:0,0:0:0:0:
152,380,173505,6,0,L|158:250,1,98.5799960890505,2|0,1:0|0:0,0:0:0:0:
194,91,174051,2,0,L|200:154,1,32.8599986963502,10|2,0:0|0:0,0:0:0:0:
296,49,174324,1,2,0:0:0:0:
270,172,174460,1,2,0:0:0:0:
103,49,174596,6,0,B|48:22|48:22|75:258,1,273.480004172974,2|0,1:0|0:0,0:0:0:0:
216,355,175142,2,0,P|228:262|238:250,1,91.1600013909912,10|2,0:0|0:0,0:0:0:0:
346,118,175415,2,0,P|360:160|354:205,1,91.1600013909912,2|2,0:0|0:0,0:0:0:0:
188,37,175687,6,0,L|283:26,1,82.6799994953613,2|0,1:0|0:0,0:0:0:0:
432,41,176233,2,0,L|388:35,1,27.5599998317871,10|2,0:0|0:0,0:0:0:0:
250,123,176505,1,2,0:0:0:0:
346,118,176642,1,2,0:0:0:0:
98,35,176778,6,0,L|116:224,1,162.180000989868,2|0,1:0|0:0,0:0:0:0:
261,214,177324,2,0,L|239:281,1,54.0600003299561,10|2,0:0|0:0,0:0:0:0:
412,300,177596,2,0,L|366:345,1,54.0600003299561,2|2,0:0|0:0,0:0:0:0:
91,325,177869,6,0,P|159:284|274:354,1,193.979992008271,2|0,1:0|0:0,0:0:0:0:
121,207,178415,1,10,0:0:0:0:
270,178,178551,1,2,0:0:0:0:
134,120,178687,1,2,0:0:0:0:
288,94,178824,1,2,0:0:0:0:
76,30,178960,6,0,L|103:345,1,289.380009714295,6|0,1:0|0:0,0:0:0:0:
219,169,179505,2,0,P|252:175|257:180,1,27.5599998317871,10|0,0:0|0:0,0:0:0:0:
311,293,179778,2,0,P|278:299|273:304,1,27.5599998317871,0|0,3:0|0:0,0:0:0:0:
342,124,180051,6,0,P|426:80|369:184,1,273.480004172974,2|0,1:0|0:0,0:0:0:0:
263,78,180596,2,0,P|226:61|220:61,1,27.5599998317871,10|0,0:0|0:0,0:0:0:0:
104,120,180869,2,0,P|141:103|147:103,1,27.5599998317871,0|0,3:0|0:0,0:0:0:0:
98,316,181142,6,0,B|126:106|126:106|165:213,1,289.380009714295,2|0,1:0|0:0,0:0:0:0:
263,331,181687,2,0,P|256:291|256:286,1,27.5599998317871,10|0,0:0|0:0,0:0:0:0:
333,169,181960,2,0,P|330:182|326:195,1,27.5599998317871,0|0,3:0|0:0,0:0:0:0:
279,34,182233,6,0,B|482:26|482:26|464:99,1,273.480004172974,2|0,1:0|0:0,0:0:0:0:
425,285,182778,2,0,L|413:244,1,27.5599998317871,10|0,0:0|0:0,0:0:0:0:
340,142,183051,2,0,L|332:168,1,27.5599998317871,0|2,3:0|0:0,0:0:0:0:
213,310,183324,6,0,P|222:213|67:209,1,273.480004172974,2|0,1:0|0:0,0:0:0:0:
29,358,183869,2,0,P|60:343|64:340,1,27.5599998317871,10|0,0:0|0:0,0:0:0:0:
143,255,184142,2,0,P|112:270|108:273,1,27.5599998317871,0|0,3:0|0:0,0:0:0:0:
308,364,184415,6,0,L|326:68,1,273.480004172974,2|0,1:0|0:0,0:0:0:0:
423,217,184960,2,0,L|416:164,1,27.5599998317871,10|0,0:0|0:0,0:0:0:0:
410,33,185233,2,0,L|406:60,1,27.5599998317871,0|0,3:0|0:0,0:0:0:0:
231,132,185505,6,0,B|159:64|60:75|60:75|34:127|60:190,1,273.480004172974,2|0,1:0|0:0,0:0:0:0:
112,290,186051,2,0,L|121:250,1,27.5599998317871,10|0,0:0|0:0,0:0:0:0:
231,132,186324,2,0,L|237:158,1,27.5599998317871,0|0,3:0|0:0,0:0:0:0:
223,317,186596,2,0,L|232:277,1,27.5599998317871,2|0,1:0|0:0,0:0:0:0:
342,159,186869,2,0,L|348:185,1,27.5599998317871,0|0,3:0|0:0,0:0:0:0:
356,316,187142,2,0,L|347:276,1,27.5599998317871,10|0,0:0|0:0,0:0:0:0:
237,158,187415,2,0,L|230:184,1,27.5599998317871,0|0,3:0|0:0,0:0:0:0:
112,290,187687,6,0,P|114:254|94:220,1,70.618382803316,4|0,1:0|0:0,0:0:0:0:
58,151,188778,2,0,L|87:147,1,23.5394609344387,0|0,0:0|0:0,0:0:0:0:
136,86,189324,2,0,L|159:89,1,23.5394609344387,0|0,0:0|0:0,0:0:0:0:
228,138,189869,6,0,P|252:116|298:109,1,70.618382803316,2|0,0:0|0:0,0:0:0:0:
366,128,190960,2,0,L|363:157,1,23.5394609344387,0|0,0:0|0:0,0:0:0:0:
439,183,191505,2,0,L|441:206,1,23.5394609344387,0|0,0:0|0:0,0:0:0:0:
471,291,192051,6,0,L|367:283,1,94.1578437377547,2|0,0:0|0:0,0:0:0:0:
163,325,193687,1,2,0:0:0:0:
241,307,193960,1,2,0:0:0:0:
184,245,194233,2,0,L|187:157,1,82.3881132705354,2|0,0:0|0:0,0:0:0:0:
186,162,195324,2,0,P|217:132|260:132,1,82.3881132705354,2|0,0:0|0:0,0:0:0:0:
254,130,196415,2,0,B|362:134|362:134|426:91,1,176.54595700829,2|0,0:0|0:0,0:0:0:0:
419,95,198596,2,0,L|418:196,2,94.1578437377547,2|2|2,0:0|0:0|0:0,0:0:0:0:
226,324,202960,5,2,0:0:0:0:
131,71,204051,2,0,L|139:128,1,47.0789218688774,2|2,0:0|0:0,0:0:0:0:
132,195,204869,1,2,0:0:0:0:
96,270,205142,2,0,P|129:248|187:251,1,94.1578437377547,2|2,0:0|0:0,0:0:0:0:
248,291,206505,1,2,0:0:0:0:
320,259,206778,2,0,L|349:255,1,23.5394609344387,2|2,0:0|0:0,0:0:0:0:
417,304,207324,6,0,L|423:226,1,70.618382803316,2|0,0:0|0:0,0:0:0:0:
449,161,208415,2,0,L|438:137,1,23.5394609344387,2|2,0:0|0:0,0:0:0:0:
465,67,208960,2,0,L|439:60,1,23.5394609344387,2|2,0:0|0:0,0:0:0:0:
353,29,209505,6,0,P|301:38|283:79,1,94.1578437377547,2|2,0:0|0:0,0:0:0:0:
296,221,211142,1,2,0:0:0:0:
243,163,211415,1,2,0:0:0:0:
218,239,211687,2,0,L|129:226,1,82.3881132705354,2|0,0:0|0:0,0:0:0:0:
136,227,212778,2,0,P|125:200|76:212,1,82.3881132705354,2|0,0:0|0:0,0:0:0:0:
85,210,213869,6,0,B|54:151|132:83|197:121|197:121|268:45|300:125|365:56|365:56|333:135|348:186|382:235|382:235|337:212|289:236,1,659.104906164283,6|0,0:0|0:0,0:0:0:0:
473,339,222596,5,4,1:0:0:0:
