osu file format v14

[General]
AudioFilename: audio.mp3
AudioLeadIn: 0
PreviewTime: 83090
Countdown: 0
SampleSet: Soft
StackLeniency: 0.7
Mode: 2
LetterboxInBreaks: 0
WidescreenStoryboard: 1

[Editor]
Bookmarks: 4545,301272
DistanceSpacing: 1.2
BeatDivisor: 4
GridSize: 8
TimelineZoom: 2

[Metadata]
Title:Immortal Flame (feat. Anna Yvette)
TitleUnicode:Immortal Flame (feat. Anna Yvette)
Artist:Panda Eyes & Teminite
ArtistUnicode:Panda Eyes & Teminite
Creator:Nelly
Version:Blazing Rebirth
Source:osu!
Tags:larakagi glitch hop marathon fa featured artist mg mappers' mappers guild fruit factory
BeatmapID:2239249
BeatmapSetID:1069737

[Difficulty]
HPDrainRate:7
CircleSize:4.4
OverallDifficulty:9.6
ApproachRate:9.6
SliderMultiplier:2.2
SliderTickRate:4

[Events]
//Background and Video events
0,0,"flame.jpg",0,0
//Break Periods
//Storyboard Layer 0 (Background)
//Storyboard Layer 1 (Fail)
//Storyboard Layer 2 (Pass)
//Storyboard Layer 3 (Foreground)
//Storyboard Layer 4 (Overlay)
//Storyboard Sound Samples

[TimingPoints]
726,545.454545454546,4,2,1,10,1,0
1816,-100,4,2,1,20,0,0
2907,-100,4,2,1,30,0,0
3998,-100,4,2,1,45,0,0
4545,545.454545454546,4,2,1,60,1,0
5635,-100,4,2,1,60,0,0
17635,-200,4,2,1,60,0,0
21999,-100,4,2,1,60,0,0
56908,-62.5,4,2,2,80,0,1
57181,-62.5,4,2,1,80,0,1
74363,-62.5,4,2,1,80,0,0
126726,-62.5,4,2,1,80,0,1
144181,-100,4,2,1,65,0,0
157272,-142.857142857143,4,2,1,65,0,0
161635,-100,4,2,1,35,0,0
170363,-100,4,2,1,45,0,0
176908,-100,4,2,1,55,0,0
179090,-62.5,4,2,1,80,0,1
196545,-71.4285714285714,4,2,1,80,0,0
213999,-62.5,4,2,1,80,0,1
214135,-62.5,4,2,1,80,0,0
231454,-62.5,4,2,1,80,0,1
248908,-125,4,2,1,60,0,0
257635,-166.666666666667,4,2,1,60,0,0
266363,-125,4,2,1,60,0,0
275090,-200,4,2,1,60,0,0
281908,-200,4,2,1,40,0,0
283817,-200,4,2,1,60,0,0
284363,-125,4,2,1,40,0,0

[Colours]
Combo1 : 253,215,0
Combo2 : 193,4,4
Combo3 : 253,126,0
Combo4 : 255,32,37

[HitObjects]
256,192,726,12,4,4545,0:0:0:0:
118,124,5635,38,0,L|449:113,1,330
235,330,6726,2,0,P|192:310|231:175,1,220,2|0,0:0|0:0,0:0:0:0:
350,175,7545,1,0,0:0:0:0:
117,117,7817,2,0,P|70:135|109:351,1,330
293,357,8908,6,0,B|365:318|364:234|338:197|291:179|246:167|246:167|200:165|111:163|102:97|120:46|149:0|204:-5|274:15|291:61|291:115|268:147|229:171|162:186|102:187|16:163,1,880,2|2,0:0|0:0,0:0:0:0:
217,326,11499,2,0,P|259:258|264:175,1,165
35,204,12181,2,0,P|27:161|134:37,1,220,2|0,0:0|0:0,0:0:0:0:
375,271,13272,6,0,P|394:232|242:39,1,330,2|0,0:0|0:0,0:0:0:0:
95,127,14363,2,0,L|261:134,2,165
355,321,15454,6,0,L|23:341,1,330,2|0,0:0|0:0,0:0:0:0:
200,228,16545,2,0,L|60:225,1,137.5
311,122,17363,1,0,0:0:0:0:
81,165,17635,6,0,P|172:155|402:380,1,440,2|2,0:0|0:0,0:0:0:0:
181,338,20226,2,0,L|173:253,1,82.5
415,238,20908,2,0,P|443:210|389:56,1,220,2|4,0:0|0:0,0:0:0:0:
252,41,22545,6,0,L|33:47,2,220
460,103,24181,2,0,P|412:115|460:315,1,330,2|0,0:0|0:0,0:0:0:0:
258,341,25272,2,0,L|252:231,1,110
385,231,25817,2,0,L|391:121,1,110
173,45,26363,6,0,P|128:61|171:360,1,440,2|0,0:0|0:0,0:0:0:0:
407,243,28545,6,0,L|243:237,2,165,2|0|0,0:0|0:0|0:0,0:0:0:0:
192,354,29635,2,0,P|155:304|210:144,1,247.5,2|0,0:0|0:0,0:0:0:0:
418,116,30726,5,2,0:0:0:0:
246,77,31272,2,0,L|467:68,2,220
46,279,32908,2,0,L|377:279,1,330,2|0,0:0|0:0,0:0:0:0:
179,262,33999,2,0,L|173:152,1,110
306,152,34544,2,0,L|312:42,1,110
87,29,35090,6,0,P|69:74|160:200,1,220,2|0,0:0|0:0,0:0:0:0:
346,307,36181,2,0,L|14:322,1,330
260,141,37272,6,0,L|426:148,2,165,2|0|0,0:0|0:0|0:0,0:0:0:0:
127,137,38363,2,0,P|71:188|61:326,1,220,2|0,0:0|0:0,0:0:0:0:
467,323,39454,5,4,0:0:0:0:
187,317,40545,2,0,L|171:98,1,220
383,64,41635,2,0,L|163:55,1,220
371,337,42726,2,0,L|387:118,1,220
135,64,43817,6,0,P|199:84|136:357,1,440,2|0,0:0|0:0,0:0:0:0:
387,227,45999,6,0,L|56:221,1,330,2|0,0:0|0:0,0:0:0:0:
209,351,47090,2,0,L|215:240,1,110
55,148,47635,2,0,P|66:115|135:84,1,110
395,79,48181,6,0,P|445:109|401:332,1,330,2|0,0:0|0:0,0:0:0:0:
208,303,49272,2,0,L|199:193,1,110
328,182,49817,2,0,L|337:72,1,110
138,77,50363,6,0,P|88:107|132:330,1,330,2|0,0:0|0:0,0:0:0:0:
319,228,51454,2,0,L|414:174,1,110
279,344,51999,2,0,L|184:290,1,110
440,355,52545,6,0,P|475:218|353:94,1,330,2|0,0:0|0:0,0:0:0:0:
235,88,53635,2,0,L|456:81,1,220
337,186,54454,1,0,0:0:0:0:
115,336,54726,6,0,P|23:214|122:97,1,330,2|0,0:0|0:0,0:0:0:0:
313,109,55817,2,0,L|318:221,1,110
95,292,56363,5,8,0:0:0:0:
199,160,56499,1,0,0:0:0:0:
203,247,56635,1,0,0:0:0:0:
95,292,56771,1,0,0:0:0:0:
429,345,56908,6,0,P|481:306|422:234,1,176,6|0,0:0|0:0,0:0:0:0:
320,233,57317,1,0,0:0:0:0:
90,239,57454,1,8,0:0:0:0:
196,140,57590,2,0,L|106:137,2,88
450,67,57999,6,0,L|457:154,1,88
336,181,58272,1,0,0:0:0:0:
97,190,58408,2,0,L|90:277,1,88,0|8,0:0|0:0,0:0:0:0:
211,305,58681,1,0,0:0:0:0:
449,315,58817,2,0,L|361:319,1,88
98,89,59090,6,0,L|273:93,1,176,2|0,0:0|0:0,0:0:0:0:
150,183,59499,1,0,0:0:0:0:
370,202,59635,1,8,0:0:0:0:
263,296,59772,1,0,0:0:0:0:
350,300,59908,1,0,0:0:0:0:
437,304,60044,1,0,0:0:0:0:
168,99,60181,6,0,L|259:94,2,88
382,109,60590,2,0,L|389:195,1,88,0|8,0:0|0:0,0:0:0:0:
277,224,60863,1,0,0:0:0:0:
72,300,60999,2,0,L|159:302,1,88
421,150,61272,6,0,L|246:146,1,176,2|0,0:0|0:0,0:0:0:0:
139,141,61681,1,0,0:0:0:0:
386,252,61817,1,8,0:0:0:0:
281,258,61954,2,0,L|192:262,2,88
69,153,62363,6,0,L|62:239,1,88
174,268,62636,1,0,0:0:0:0:
379,344,62772,2,0,L|292:346,2,88,0|8|0,0:0|0:0|0:0,0:0:0:0:
174,213,63181,1,0,0:0:0:0:
280,207,63317,1,0,0:0:0:0:
81,214,63454,6,0,P|29:175|88:103,1,176,2|0,0:0|0:0,0:0:0:0:
190,102,63863,1,0,0:0:0:0:
422,239,64000,1,8,0:0:0:0:
317,233,64136,2,0,L|315:146,1,88
417,134,64408,1,0,0:0:0:0:
156,54,64545,6,0,L|247:49,2,88
280,139,64954,1,0,0:0:0:0:
34,346,65090,2,0,L|31:255,1,88,8|0,0:0|0:0,0:0:0:0:
275,216,65363,1,0,0:0:0:0:
169,210,65499,1,0,0:0:0:0:
409,233,65635,6,0,P|400:175|307:114,1,176,6|0,0:0|0:0,0:0:0:0:
201,114,66045,1,0,0:0:0:0:
437,339,66181,1,8,0:0:0:0:
331,240,66317,2,0,L|421:237,2,88
110,159,66726,6,0,L|199:155,1,88
304,160,66999,1,0,0:0:0:0:
65,349,67135,2,0,L|62:261,1,88,0|8,0:0|0:0,0:0:0:0:
185,244,67408,1,0,0:0:0:0:
425,169,67545,2,0,L|336:165,1,88
65,349,67817,6,0,L|240:345,1,176,2|0,0:0|0:0,0:0:0:0:
117,255,68226,1,0,0:0:0:0:
340,144,68363,1,8,0:0:0:0:
227,137,68499,1,0,0:0:0:0:
340,144,68635,1,0,0:0:0:0:
227,137,68771,1,0,0:0:0:0:
465,334,68908,6,0,L|468:246,1,88
346,227,69181,1,0,0:0:0:0:
109,166,69317,2,0,L|199:162,2,88,0|8|0,0:0|0:0|0:0,0:0:0:0:
314,290,69726,1,0,0:0:0:0:
208,284,69862,1,0,0:0:0:0:
456,90,69999,6,0,P|480:141|418:230,1,176,2|0,0:0|0:0,0:0:0:0:
313,229,70408,1,0,0:0:0:0:
88,232,70545,1,8,0:0:0:0:
211,225,70681,2,0,L|207:138,1,88
85,116,70954,1,0,0:0:0:0:
349,71,71090,6,0,L|260:66,2,88
89,321,71499,2,0,L|178:316,2,88,0|8|0,0:0|0:0|0:0,0:0:0:0:
384,217,71908,2,0,L|297:214,1,88
37,130,72181,6,0,L|212:134,1,176,2|0,0:0|0:0,0:0:0:0:
89,224,72590,1,0,0:0:0:0:
333,220,72726,1,8,0:0:0:0:
226,314,72863,1,0,0:0:0:0:
313,318,72999,1,0,0:0:0:0:
400,322,73135,1,0,0:0:0:0:
136,99,73272,6,0,L|227:94,2,88
382,109,73681,2,0,L|389:195,1,88,0|8,0:0|0:0,0:0:0:0:
277,224,73954,1,0,0:0:0:0:
72,300,74090,1,0,0:0:0:0:
286,328,74226,1,0,0:0:0:0:
51,205,74363,6,0,P|41:157|182:31,1,264,6|0,0:0|0:0,0:0:0:0:
394,187,74908,2,0,L|306:182,1,88,8|0,0:0|0:0,0:0:0:0:
183,171,75181,1,0,0:0:0:0:
306,167,75317,1,0,0:0:0:0:
58,339,75454,6,0,L|55:250,1,88
177,235,75726,2,0,L|265:230,1,88
41,142,75999,2,0,L|129:137,1,88,8|0,0:0|0:0,0:0:0:0:
328,87,76272,2,0,L|240:82,1,88
471,315,76545,6,0,P|481:267|340:141,1,264,2|0,0:0|0:0,0:0:0:0:
121,264,77090,2,0,L|209:269,2,88,8|0|0,0:0|0:0|0:0,0:0:0:0:
245,252,77499,1,0,0:0:0:0:
481,196,77635,6,0,L|394:192,1,88
270,87,77908,2,0,L|357:83,1,88
162,269,78181,2,0,L|249:265,1,88,8|0,0:0|0:0,0:0:0:0:
56,171,78454,2,0,L|143:167,1,88
336,327,78726,6,0,L|157:324,1,176,2|0,0:0|0:0,0:0:0:0:
497,208,79272,1,8,0:0:0:0:
375,198,79408,2,0,L|370:110,1,88
493,92,79681,1,0,0:0:0:0:
235,287,79817,6,0,L|233:199,1,88
357,199,80090,2,0,L|359:111,1,88
158,54,80363,1,8,0:0:0:0:
359,111,80499,1,0,0:0:0:0:
254,117,80635,1,0,0:0:0:0:
359,111,80772,1,0,0:0:0:0:
96,339,80908,6,0,P|42:288|125:150,1,264,2|0,0:0|0:0,0:0:0:0:
323,157,81454,1,8,0:0:0:0:
210,150,81590,1,0,0:0:0:0:
323,157,81726,1,0,0:0:0:0:
210,150,81862,1,0,0:0:0:0:
422,345,81999,6,0,L|424:258,1,88
302,242,82272,1,0,0:0:0:0:
425,235,82408,1,0,0:0:0:0:
230,151,82545,1,8,0:0:0:0:
343,144,82681,1,0,0:0:0:0:
151,78,82817,2,0,L|63:75,1,88
387,349,83090,6,0,P|449:313|381:172,1,264,6|0,0:0|0:0,0:0:0:0:
119,176,83635,2,0,L|206:172,2,88,8|0|0,0:0|0:0|0:0,0:0:0:0:
244,258,84045,1,0,0:0:0:0:
486,167,84181,6,0,L|396:162,1,88
275,67,84454,2,0,L|365:62,1,88
167,192,84726,2,0,L|255:196,1,88,8|0,0:0|0:0,0:0:0:0:
379,291,84999,2,0,L|291:295,1,88
55,87,85272,6,0,L|318:95,1,264,2|0,0:0|0:0,0:0:0:0:
58,314,85817,1,8,0:0:0:0:
164,308,85953,1,0,0:0:0:0:
59,284,86090,2,0,L|57:197,1,88
280,143,86363,6,0,L|368:138,1,88
245,239,86635,2,0,L|157:234,1,88
387,312,86908,1,8,0:0:0:0:
158,234,87044,1,0,0:0:0:0:
272,230,87181,1,0,0:0:0:0:
158,234,87317,1,0,0:0:0:0:
418,183,87454,6,0,P|448:138|408:30,1,176,2|0,0:0|0:0,0:0:0:0:
56,43,87999,1,8,0:0:0:0:
285,121,88135,1,0,0:0:0:0:
171,125,88272,1,0,0:0:0:0:
285,121,88408,1,0,0:0:0:0:
43,309,88545,6,0,L|225:312,1,176
96,217,88954,1,0,0:0:0:0:
348,223,89090,2,0,P|343:178|242:110,1,176,8|0,0:0|0:0,0:0:0:0:
137,109,89499,1,0,0:0:0:0:
416,339,89635,6,0,L|418:251,1,88,2|0,0:0|0:0,0:0:0:0:
325,157,89908,1,0,0:0:0:0:
419,157,90045,1,0,0:0:0:0:
140,291,90181,2,0,L|138:203,1,88,8|0,0:0|0:0,0:0:0:0:
227,110,90454,1,0,0:0:0:0:
137,109,90591,1,0,0:0:0:0:
419,214,90726,6,0,L|237:211,1,176
325,307,91135,1,0,0:0:0:0:
102,335,91272,1,8,0:0:0:0:
54,243,91408,1,0,0:0:0:0:
83,145,91544,1,0,0:0:0:0:
173,94,91681,1,0,0:0:0:0:
405,111,91817,6,0,P|450:147|405:239,1,176,6|0,0:0|0:0,0:0:0:0:
177,238,92363,1,8,0:0:0:0:
427,336,92499,2,0,P|456:287|386:210,1,176
165,365,92908,6,0,L|161:277,1,88
284,271,93181,2,0,L|289:183,1,88
491,156,93454,2,0,L|403:155,1,88,8|0,0:0|0:0,0:0:0:0:
202,69,93726,1,2,0:0:0:0:
317,70,93863,1,2,0:0:0:0:
103,198,93999,6,0,L|282:193,1,176,2|0,0:0|0:0,0:0:0:0:
49,317,94545,1,8,0:0:0:0:
264,173,94681,2,0,P|249:144|126:80,1,176
326,307,95090,6,0,L|328:220,1,88
205,206,95363,2,0,L|297:200,1,88
491,152,95635,2,0,L|399:146,1,88,8|0,0:0|0:0,0:0:0:0:
168,69,95908,1,2,0:0:0:0:
283,70,96045,1,2,0:0:0:0:
44,322,96181,6,0,P|33:276|117:191,1,176,2|0,0:0|0:0,0:0:0:0:
343,191,96726,1,8,0:0:0:0:
121,157,96863,2,0,P|51:203|52:287,1,176
300,311,97272,6,0,L|306:224,1,88
183,223,97545,2,0,L|177:136,1,88
394,128,97817,2,0,L|482:123,1,88,8|0,0:0|0:0,0:0:0:0:
257,40,98090,1,2,0:0:0:0:
372,39,98227,1,2,0:0:0:0:
159,273,98363,6,0,P|89:227|90:143,1,176,2|0,0:0|0:0,0:0:0:0:
337,133,98908,1,8,0:0:0:0:
127,135,99045,2,0,P|126:219|196:265,1,176
484,266,99454,6,0,L|397:262,1,88,0|0,2:0|2:0,2:0:0:0:
274,180,99726,2,0,L|361:176,1,88,0|0,2:0|2:0,2:0:0:0:
158,304,99999,2,0,L|71:301,1,88,8|0,0:0|0:0,0:0:0:0:
306,235,100272,1,2,0:0:0:0:
200,232,100408,1,2,0:0:0:0:
454,354,100545,6,0,P|487:316|441:215,1,176,2|0,0:0|0:0,0:0:0:0:
212,214,101090,1,8,0:0:0:0:
458,194,101226,2,0,P|417:119|336:88,1,176
143,273,101635,6,0,L|139:185,1,88
262,331,101908,2,0,L|267:243,1,88
467,240,102181,2,0,L|463:152,1,88,8|0,0:0|0:0,0:0:0:0:
180,72,102453,1,2,0:0:0:0:
295,73,102590,1,2,0:0:0:0:
68,329,102726,6,0,P|32:305|69:197,1,176,2|0,0:0|0:0,0:0:0:0:
296,197,103272,1,8,0:0:0:0:
80,291,103408,2,0,P|53:262|114:161,1,176
313,179,103817,6,0,L|226:175,1,88
100,287,104090,2,0,L|187:283,1,88
413,272,104363,2,0,L|417:185,1,88,8|0,0:0|0:0,0:0:0:0:
212,70,104635,1,2,0:0:0:0:
327,71,104772,1,2,0:0:0:0:
88,336,104908,6,0,P|92:283|190:223,1,176,2|0,0:0|0:0,0:0:0:0:
419,222,105454,1,8,0:0:0:0:
184,132,105590,2,0,L|365:130,1,176
132,347,105999,6,0,L|130:260,1,88
253,259,106272,2,0,L|255:172,1,88
17,106,106544,2,0,L|109:100,1,88,8|0,0:0|0:0,0:0:0:0:
312,60,106817,1,2,0:0:0:0:
197,61,106954,1,2,0:0:0:0:
425,332,107090,6,0,P|430:309|334:208,1,176,2|0,0:0|0:0,0:0:0:0:
111,208,107635,1,8,0:0:0:0:
327,101,107772,2,0,L|152:99,1,176
384,334,108181,6,0,L|389:245,1,88
266,239,108454,2,0,L|261:151,1,88
470,93,108727,1,10,0:0:0:0:
261,128,108863,1,2,0:0:0:0:
366,134,108999,1,2,0:0:0:0:
159,159,109135,1,2,0:0:0:0:
450,171,109272,6,0,P|466:201|404:313,1,176,6|0,0:0|0:0,0:0:0:0:
176,312,109817,1,8,0:0:0:0:
426,34,109954,2,0,P|471:80|425:166,1,176
217,174,110363,6,0,L|128:170,1,88
251,88,110635,2,0,L|340:84,1,88
86,167,110908,2,0,L|77:254,1,88,8|0,0:0|0:0,0:0:0:0:
282,317,111181,1,2,0:0:0:0:
177,323,111317,1,2,0:0:0:0:
419,75,111454,6,0,P|417:121|318:187,1,176,2|0,0:0|0:0,0:0:0:0:
88,187,111999,1,8,0:0:0:0:
285,185,112135,2,0,P|364:216|386:297,1,176
154,296,112545,6,0,L|241:298,1,88
364,201,112817,2,0,L|277:203,1,88
474,106,113090,2,0,L|483:193,1,88,8|0,0:0|0:0,0:0:0:0:
278,256,113363,1,2,0:0:0:0:
383,262,113499,1,2,0:0:0:0:
141,344,113635,6,0,P|167:263|244:224,1,176,2|0,0:0|0:0,0:0:0:0:
474,223,114181,1,8,0:0:0:0:
263,149,114317,2,0,L|439:144,1,176
202,349,114726,6,0,L|197:262,1,88
320,180,114999,2,0,L|233:183,1,88
20,106,115272,2,0,L|107:109,1,88,8|0,0:0|0:0,0:0:0:0:
325,65,115545,1,2,0:0:0:0:
220,71,115681,1,2,0:0:0:0:
463,350,115817,6,0,P|437:269|360:230,1,176,2|0,0:0|0:0,0:0:0:0:
131,229,116363,1,8,0:0:0:0:
351,224,116499,2,0,P|428:185|455:103,1,176
237,54,116908,6,0,L|147:52,1,88
273,141,117181,2,0,L|363:139,1,88
97,183,117454,2,0,L|88:270,1,88,8|0,0:0|0:0,0:0:0:0:
305,336,117727,1,2,0:0:0:0:
200,342,117863,1,2,0:0:0:0:
416,315,117999,6,0,P|463:283|412:195,1,176,2|0,0:0|0:0,0:0:0:0:
187,195,118545,1,8,0:0:0:0:
394,193,118681,2,0,P|367:111|290:73,1,176
35,241,119090,6,0,L|123:246,1,88
247,329,119363,2,0,L|159:334,1,88
371,289,119635,2,0,L|376:198,1,88,8|0,0:0|0:0,0:0:0:0:
181,137,119908,1,2,0:0:0:0:
286,143,120044,1,2,0:0:0:0:
46,356,120181,6,0,P|22:304|84:216,1,176,2|0,0:0|0:0,0:0:0:0:
314,215,120726,1,8,0:0:0:0:
105,207,120863,2,0,P|104:161|201:89,1,176
413,102,121272,6,0,L|417:189,1,88
294,189,121545,2,0,L|290:277,1,88
496,347,121817,2,0,L|408:351,1,88,8|0,0:0|0:0,0:0:0:0:
207,273,122090,1,2,0:0:0:0:
312,279,122226,1,2,0:0:0:0:
72,283,122363,6,0,P|71:259|175:170,1,176,2|0,0:0|0:0,0:0:0:0:
405,170,122908,1,8,0:0:0:0:
194,225,123045,2,0,L|371:228,1,176
168,78,123454,6,0,L|76:77,1,88
202,163,123726,2,0,L|294:162,1,88
46,332,123999,2,0,L|42:244,1,88,8|0,0:0|0:0,0:0:0:0:
250,284,124272,1,2,0:0:0:0:
145,278,124408,1,2,0:0:0:0:
359,350,124545,6,0,P|399:334|414:214,1,176,2|0,0:0|0:0,0:0:0:0:
187,216,125090,1,8,0:0:0:0:
410,158,125226,2,0,L|233:156,1,176
427,347,125635,6,0,L|432:260,1,88
310,239,125908,2,0,L|222:227,1,88
431,102,126181,1,10,0:0:0:0:
222,137,126317,1,2,0:0:0:0:
327,143,126453,1,2,0:0:0:0:
120,168,126589,1,2,0:0:0:0:
434,353,126726,6,0,P|477:324|417:157,1,264,6|0,0:0|0:0,0:0:0:0:
186,150,127272,1,8,0:0:0:0:
309,143,127408,2,0,L|218:142,2,88
57,343,127817,6,0,L|144:339,1,88
269,260,128090,2,0,L|182:256,1,88
420,130,128363,2,0,L|333:134,1,88,8|0,0:0|0:0,0:0:0:0:
455,134,128635,2,0,L|462:227,1,88
153,306,128908,6,0,L|419:314,1,264,2|0,0:0|0:0,0:0:0:0:
156,231,129454,2,0,L|153:144,1,88,8|0,0:0|0:0,0:0:0:0:
276,76,129726,2,0,L|189:73,1,88
407,275,129999,6,0,L|494:272,1,88
244,234,130272,2,0,L|157:231,1,88
414,174,130545,1,8,0:0:0:0:
301,168,130681,2,0,L|298:78,1,88
412,64,130954,1,0,0:0:0:0:
178,50,131090,6,0,P|133:59|68:162,1,176,2|0,0:0|0:0,0:0:0:0:
417,304,131635,1,8,0:0:0:0:
212,269,131772,1,0,0:0:0:0:
317,260,131908,1,0,0:0:0:0:
212,269,132045,1,0,0:0:0:0:
485,150,132181,6,0,L|395:145,1,88
274,57,132454,2,0,L|364:52,1,88
157,218,132726,1,8,0:0:0:0:
362,183,132863,1,0,0:0:0:0:
257,174,132999,1,0,0:0:0:0:
362,183,133136,1,0,0:0:0:0:
141,360,133272,6,0,P|82:335|139:189,1,264,2|0,0:0|0:0,0:0:0:0:
333,189,133817,1,8,0:0:0:0:
228,184,133954,1,0,0:0:0:0:
333,189,134090,1,0,0:0:0:0:
228,184,134226,1,0,0:0:0:0:
456,353,134363,6,0,L|277:350,1,176
404,261,134772,1,0,0:0:0:0:
157,222,134908,2,0,L|244:217,1,88,8|0,0:0|0:0,0:0:0:0:
369,139,135181,2,0,L|282:134,1,88
63,123,135454,6,0,P|40:155|136:321,1,264,6|0,0:0|0:0,0:0:0:0:
365,321,135999,1,8,0:0:0:0:
277,220,136135,1,0,0:0:0:0:
365,215,136271,1,0,0:0:0:0:
471,218,136408,1,0,0:0:0:0:
237,149,136545,6,0,L|150:144,1,88
273,60,136817,2,0,L|360:55,1,88
154,234,137090,2,0,L|241:238,1,88,8|0,0:0|0:0,0:0:0:0:
119,318,137363,2,0,L|32:322,1,88
317,323,137635,6,0,P|335:271|205:144,1,264,2|0,0:0|0:0,0:0:0:0:
455,95,138181,1,8,0:0:0:0:
333,198,138317,2,0,L|422:195,2,88
109,213,138726,6,0,L|106:126,1,88
230,46,138999,2,0,L|138:45,1,88
353,181,139272,1,8,0:0:0:0:
148,146,139409,1,0,0:0:0:0:
253,137,139545,1,0,0:0:0:0:
148,146,139682,1,0,0:0:0:0:
383,349,139817,6,0,P|416:337|473:216,1,176,2|0,0:0|0:0,0:0:0:0:
56,43,140363,1,8,0:0:0:0:
285,121,140499,1,0,0:0:0:0:
171,125,140636,1,0,0:0:0:0:
285,121,140772,1,0,0:0:0:0:
43,309,140909,6,0,L|225:312,1,176
96,217,141318,1,0,0:0:0:0:
348,223,141454,2,0,P|343:178|242:110,1,176,8|0,0:0|0:0,0:0:0:0:
137,109,141863,1,0,0:0:0:0:
395,356,141999,6,0,P|440:307|395:219,1,176,2|0,0:0|0:0,0:0:0:0:
291,219,142408,1,0,0:0:0:0:
89,127,142545,2,0,L|309:120,1,220,8|0,0:0|0:0,0:0:0:0:
359,117,142954,1,0,0:0:0:0:
167,345,143090,6,0,P|146:287|202:195,1,176
307,187,143499,1,0,0:0:0:0:
96,279,143635,1,8,0:0:0:0:
68,179,143771,1,0,0:0:0:0:
116,87,143907,1,0,0:0:0:0:
213,52,144044,1,0,0:0:0:0:
446,55,144181,5,6,0:0:0:0:
114,284,145272,2,0,L|282:277,2,165
312,359,146363,2,0,P|358:335|282:41,1,440,0|2,0:0|0:0,0:0:0:0:
85,104,147863,2,0,L|77:270,1,165
312,346,148545,6,0,P|368:331|347:117,1,330,2|0,0:0|0:0,0:0:0:0:
220,55,149635,2,0,P|74:157|176:359,1,440
360,323,151272,2,0,L|136:313,2,220
62,55,152908,6,0,P|118:65|342:345,1,440,2|0,0:0|0:0,0:0:0:0:
153,356,154408,2,0,L|147:191,1,165
370,61,155090,6,0,P|314:71|90:351,1,440,0|2,0:0|0:0,0:0:0:0:
287,358,156590,2,0,L|292:193,1,165
39,155,157272,6,0,B|113:215|291:239|298:83|197:13|72:90|117:213|161:275|161:275|204:259|241:262|294:279,2,615.999981201173,2|2|6,0:0|0:0|0:0,0:0:0:0:
228,147,162181,2,0,L|452:131,1,220,2|2,0:0|0:0,0:0:0:0:
254,279,163272,2,0,L|30:263,1,220,2|2,0:0|0:0,0:0:0:0:
294,243,164635,6,0,L|328:195,2,55,2|2|2,0:0|0:0|0:0,0:0:0:0:
207,181,165045,2,0,L|173:133,2,55,2|2|2,0:0|0:0|0:0,0:0:0:0:
364,87,165454,1,2,0:0:0:0:
433,128,165590,1,2,0:0:0:0:
459,205,165726,1,2,0:0:0:0:
429,280,165863,1,2,0:0:0:0:
273,325,165999,6,0,P|205:322|134:200,1,220,2|0,0:0|0:0,0:0:0:0:
357,239,167090,1,2,0:0:0:0:
262,239,167363,2,0,P|219:211|262:75,1,220,2|2,0:0|0:0,0:0:0:0:
357,153,168181,2,0,L|137:164,2,220,2|0|2,0:0|0:0|0:0,0:0:0:0:
242,81,169545,1,2,0:0:0:0:
157,335,170363,6,0,P|123:235|154:122,1,220,2|0,0:0|0:0,0:0:0:0:
360,73,171454,2,0,L|138:66,1,220,2|0,0:0|0:0,0:0:0:0:
355,335,172545,2,0,P|369:298|258:178,1,220,2|0,0:0|0:0,0:0:0:0:
154,170,173363,6,0,L|120:122,1,55,2|2,0:0|0:0,0:0:0:0:
250,258,173635,2,0,L|284:210,3,55,2|2|2|2,0:0|0:0|0:0|0:0,0:0:0:0:
148,297,174181,1,2,0:0:0:0:
79,256,174317,1,2,0:0:0:0:
53,179,174453,1,2,0:0:0:0:
83,104,174590,1,2,0:0:0:0:
244,61,174726,6,0,P|300:66|393:195,1,220,2|0,0:0|0:0,0:0:0:0:
169,148,175817,1,2,0:0:0:0:
296,149,176090,2,0,P|340:183|290:314,1,220,2|2,0:0|0:0,0:0:0:0:
169,313,176908,2,0,P|104:232|163:148,1,220,2|2,0:0|0:0,0:0:0:0:
387,212,177999,2,0,P|426:189|439:129,1,110,2|2,0:0|0:0,0:0:0:0:
94,286,178545,5,8,0:0:0:0:
202,280,178681,1,0,0:0:0:0:
203,225,178817,1,0,0:0:0:0:
95,185,178953,1,0,0:0:0:0:
458,104,179090,6,0,L|192:98,1,264,6|0,0:0|0:0,0:0:0:0:
449,353,179635,2,0,L|452:265,1,88,8|0,0:0|0:0,0:0:0:0:
321,229,179908,1,0,0:0:0:0:
452,182,180044,1,0,0:0:0:0:
153,124,180181,6,0,L|420:132,1,264
78,326,180726,1,8,0:0:0:0:
186,330,180863,1,0,0:0:0:0:
294,223,180999,1,0,0:0:0:0:
187,227,181135,1,0,0:0:0:0:
404,331,181272,6,0,P|465:306|404:165,1,264,2|0,0:0|0:0,0:0:0:0:
181,169,181817,2,0,L|270:164,1,88,8|0,0:0|0:0,0:0:0:0:
45,307,182090,2,0,L|134:302,1,88
375,295,182363,5,0,0:0:0:0:
130,202,182499,1,0,0:0:0:0:
236,204,182635,1,0,0:0:0:0:
130,202,182772,1,0,0:0:0:0:
439,88,182908,1,8,0:0:0:0:
204,57,183045,1,0,0:0:0:0:
311,53,183182,1,0,0:0:0:0:
75,124,183317,1,0,0:0:0:0:
432,331,183454,6,0,P|449:264|316:151,1,264,6|0,0:0|0:0,0:0:0:0:
78,197,183999,1,8,0:0:0:0:
185,193,184136,1,0,0:0:0:0:
306,301,184272,1,0,0:0:0:0:
199,297,184409,1,0,0:0:0:0:
485,134,184545,6,0,L|490:47,1,88
253,49,184817,1,0,0:0:0:0:
360,45,184954,1,0,0:0:0:0:
141,192,185090,2,0,L|54:186,1,88,8|0,0:0|0:0,0:0:0:0:
183,302,185363,2,0,L|96:296,1,88
399,147,185635,6,0,L|132:153,1,264,2|0,0:0|0:0,0:0:0:0:
466,352,186181,2,0,L|469:264,1,88,8|0,0:0|0:0,0:0:0:0:
351,227,186454,1,0,0:0:0:0:
469,181,186590,1,0,0:0:0:0:
245,136,186726,5,0,0:0:0:0:
136,125,186862,1,0,0:0:0:0:
245,238,186999,1,0,0:0:0:0:
354,227,187135,1,0,0:0:0:0:
65,327,187272,1,8,0:0:0:0:
170,312,187408,2,0,L|173:224,1,88
63,197,187681,1,0,0:0:0:0:
358,115,187817,6,0,P|442:197|358:280,1,264,6|0,0:0|0:0,0:0:0:0:
148,283,188363,2,0,P|140:227|291:110,1,264,8|0,0:0|0:0,0:0:0:0:
47,60,188908,1,0,0:0:0:0:
154,56,189045,1,0,0:0:0:0:
275,164,189181,1,0,0:0:0:0:
168,160,189318,1,0,0:0:0:0:
388,326,189454,2,0,P|473:244|389:161,1,264,8|0,0:0|0:0,0:0:0:0:
125,195,189999,6,0,L|388:183,1,264,2|0,0:0|0:0,0:0:0:0:
94,357,190545,2,0,L|91:269,1,88,8|0,0:0|0:0,0:0:0:0:
209,232,190818,1,0,0:0:0:0:
91,186,190954,1,0,0:0:0:0:
397,110,191090,5,0,0:0:0:0:
168,125,191226,1,0,0:0:0:0:
274,127,191362,1,0,0:0:0:0:
168,125,191499,1,0,0:0:0:0:
400,320,191635,1,8,0:0:0:0:
160,270,191772,1,0,0:0:0:0:
273,264,191908,1,0,0:0:0:0:
485,252,192045,1,0,0:0:0:0:
190,47,192181,6,0,P|162:55|45:244,1,264,6|0,0:0|0:0,0:0:0:0:
317,320,192726,2,0,L|321:232,1,88,8|0,0:0|0:0,0:0:0:0:
188,232,192999,2,0,L|184:144,1,88
477,39,193272,6,0,L|389:37,1,88
184,144,193545,1,0,0:0:0:0:
291,140,193682,1,0,0:0:0:0:
35,323,193817,2,0,L|30:234,1,88,8|0,0:0|0:0,0:0:0:0:
137,178,194090,1,0,0:0:0:0:
30,174,194227,1,0,0:0:0:0:
326,60,194363,6,0,P|410:142|325:224,1,264,2|0,0:0|0:0,0:0:0:0:
50,312,194908,1,8,0:0:0:0:
157,316,195045,1,0,0:0:0:0:
278,208,195181,1,0,0:0:0:0:
171,211,195318,1,0,0:0:0:0:
443,316,195454,6,0,L|447:228,1,88
190,136,195726,2,0,L|186:48,1,88
467,35,195999,1,8,0:0:0:0:
364,59,196136,2,0,L|367:147,1,88
465,165,196408,1,0,0:0:0:0:
162,320,196545,6,0,P|134:271|156:181,1,153.999995300293,6|0,0:0|0:0,0:0:0:0:
388,174,197090,1,8,0:0:0:0:
157,131,197363,1,0,0:0:0:0:
391,78,197635,2,0,L|238:84,1,153.999995300293
54,255,198181,2,0,P|26:206|48:116,1,153.999995300293,8|0,0:0|0:0,0:0:0:0:
403,274,198726,5,2,0:0:0:0:
172,153,198999,2,0,L|325:147,2,153.999995300293,0|8|0,0:0|0:0|0:0,0:0:0:0:
403,338,199817,2,0,P|431:289|409:199,1,153.999995300293
177,193,200363,1,8,0:0:0:0:
408,182,200635,1,0,0:0:0:0:
26,65,200908,5,2,0:0:0:0:
258,55,201181,2,0,L|411:49,2,153.999995300293,0|8|0,0:0|0:0|0:0,0:0:0:0:
14,175,201999,2,0,L|167:181,1,153.999995300293
400,198,202545,1,8,0:0:0:0:
171,220,202817,1,0,0:0:0:0:
500,328,203090,5,2,0:0:0:0:
269,224,203363,2,0,L|422:218,2,153.999995300293,0|8|0,0:0|0:0|0:0,0:0:0:0:
57,40,204181,2,0,P|29:89|51:179,1,153.999995300293
283,184,204727,1,8,0:0:0:0:
52,195,204999,1,0,0:0:0:0:
434,313,205272,5,6,0:0:0:0:
203,308,205545,2,0,P|183:244|204:159,1,153.999995300293,0|8,0:0|0:0,0:0:0:0:
434,156,206090,1,0,0:0:0:0:
204,140,206363,2,0,L|51:145,2,153.999995300293,0|0|8,0:0|0:0|0:0,0:0:0:0:
434,156,207181,1,0,0:0:0:0:
71,335,207454,5,2,0:0:0:0:
286,239,207726,2,0,L|131:247,2,153.999995300293,0|8|0,0:0|0:0|0:0,0:0:0:0:
16,98,208545,2,0,L|170:105,1,153.999995300293
401,121,209090,1,8,0:0:0:0:
171,137,209363,1,0,0:0:0:0:
499,308,209635,5,2,0:0:0:0:
268,298,209908,2,0,P|247:230|267:149,1,153.999995300293,0|8,0:0|0:0,0:0:0:0:
498,139,210454,1,0,0:0:0:0:
145,80,210726,5,0,0:0:0:0:
376,183,210999,2,0,L|222:189,2,153.999995300293,0|8|0,0:0|0:0|0:0,0:0:0:0:
22,325,211817,5,2,0:0:0:0:
254,315,212090,2,0,L|407:309,2,153.999995300293,0|8|0,0:0|0:0|0:0,0:0:0:0:
22,325,212908,1,0,0:0:0:0:
449,121,213181,6,0,L|296:115,2,153.999995300293,2|10|2,0:0|0:0|0:0,0:0:0:0:
67,345,213999,6,0,P|27:288|112:136,1,264,6|0,0:0|0:0,0:0:0:0:
321,120,214545,1,8,0:0:0:0:
199,115,214681,1,0,0:0:0:0:
321,120,214817,1,0,0:0:0:0:
199,115,214953,1,0,0:0:0:0:
436,302,215090,6,0,L|171:295,1,264
377,268,215635,1,8,0:0:0:0:
451,195,215771,1,0,0:0:0:0:
427,98,215907,1,0,0:0:0:0:
325,66,216044,1,0,0:0:0:0:
72,175,216181,6,0,L|337:168,1,264,2|0,0:0|0:0,0:0:0:0:
68,359,216726,2,0,L|65:271,1,88,8|0,0:0|0:0,0:0:0:0:
183,234,216999,1,0,0:0:0:0:
65,188,217135,1,0,0:0:0:0:
388,116,217272,6,0,L|123:109,1,264
401,306,217817,1,8,0:0:0:0:
293,277,217954,2,0,L|290:190,1,88
400,174,218226,1,0,0:0:0:0:
67,345,218363,6,0,P|27:288|112:136,1,264,2|0,0:0|0:0,0:0:0:0:
321,120,218909,1,8,0:0:0:0:
199,115,219045,1,0,0:0:0:0:
321,120,219181,1,0,0:0:0:0:
199,115,219317,1,0,0:0:0:0:
445,345,219454,6,0,P|485:288|400:136,1,264
131,313,219999,1,8,0:0:0:0:
239,284,220136,2,0,L|242:197,1,88
132,181,220408,1,0,0:0:0:0:
399,121,220545,6,0,L|132:115,1,264,2|0,0:0|0:0,0:0:0:0:
426,358,221090,2,0,L|429:270,1,88,8|0,0:0|0:0,0:0:0:0:
311,233,221363,1,0,0:0:0:0:
429,187,221499,1,0,0:0:0:0:
132,122,221635,6,0,L|399:116,1,264
116,338,222181,1,10,0:0:0:0:
317,267,222317,1,2,0:0:0:0:
203,263,222454,1,2,0:0:0:0:
430,215,222590,1,2,0:0:0:0:
115,175,222726,6,0,L|380:167,1,264,6|0,0:0|0:0,0:0:0:0:
176,301,223272,1,8,0:0:0:0:
74,269,223409,1,0,0:0:0:0:
50,172,223545,1,0,0:0:0:0:
124,99,223681,1,0,0:0:0:0:
397,175,223817,6,0,L|132:167,1,264
388,354,224363,1,8,0:0:0:0:
270,307,224499,1,0,0:0:0:0:
388,270,224636,2,0,L|385:181,1,88
124,348,224908,6,0,P|38:257|82:139,1,264,2|0,0:0|0:0,0:0:0:0:
407,150,225454,2,0,L|319:145,1,88,8|0,0:0|0:0,0:0:0:0:
197,134,225726,1,0,0:0:0:0:
321,131,225863,1,0,0:0:0:0:
50,266,225999,6,0,L|315:258,1,264
49,141,226545,1,8,0:0:0:0:
171,136,226681,1,0,0:0:0:0:
49,141,226817,1,0,0:0:0:0:
171,136,226953,1,0,0:0:0:0:
403,136,227090,6,0,P|489:227|445:345,1,264,2|0,0:0|0:0,0:0:0:0:
140,334,227635,1,8,0:0:0:0:
248,305,227772,2,0,L|251:218,1,88
141,202,228044,1,0,0:0:0:0:
462,147,228181,6,0,L|197:139,1,264
455,363,228726,2,0,L|458:275,1,88,8|0,0:0|0:0,0:0:0:0:
340,238,228999,1,0,0:0:0:0:
458,192,229135,1,0,0:0:0:0:
145,172,229272,6,0,L|138:85,1,88,2|0,0:0|0:0,0:0:0:0:
255,20,229545,1,0,0:0:0:0:
137,66,229681,1,0,0:0:0:0:
395,245,229817,1,8,0:0:0:0:
145,172,229953,1,0,0:0:0:0:
259,168,230090,1,0,0:0:0:0:
145,172,230226,1,0,0:0:0:0:
386,89,230363,6,0,L|475:87,1,88,2|0,0:0|0:0,0:0:0:0:
344,189,230635,1,2,0:0:0:0:
471,208,230771,1,2,0:0:0:0:
239,281,230908,1,10,0:0:0:0:
471,208,231044,1,2,0:0:0:0:
357,204,231181,1,2,0:0:0:0:
471,208,231317,1,2,0:0:0:0:
176,120,231454,6,0,L|351:116,1,176,6|0,0:0|0:0,0:0:0:0:
433,112,231863,1,0,0:0:0:0:
183,342,231999,2,0,L|176:253,1,88,10|0,0:0|0:0,0:0:0:0:
300,254,232272,2,0,L|307:165,1,88
69,64,232545,6,0,P|31:105|55:214,1,176,2|0,0:0|0:0,0:0:0:0:
148,226,232954,1,0,0:0:0:0:
368,238,233090,2,0,L|455:234,1,88,10|0,0:0|0:0,0:0:0:0:
329,160,233363,2,0,L|242:155,1,88
488,50,233635,6,0,L|313:46,1,176,2|0,0:0|0:0,0:0:0:0:
417,137,234045,1,0,0:0:0:0:
218,180,234181,2,0,L|131:184,1,88,10|0,0:0|0:0,0:0:0:0:
257,257,234454,2,0,L|344:262,1,88
39,350,234726,6,0,P|33:299|114:215,1,176,2|0,0:0|0:0,0:0:0:0:
209,209,235135,1,0,0:0:0:0:
424,166,235272,2,0,L|337:161,1,88,10|0,0:0|0:0,0:0:0:0:
211,88,235545,1,0,0:0:0:0:
334,83,235681,1,0,0:0:0:0:
82,62,235817,6,0,P|44:103|68:212,1,176,2|0,0:0|0:0,0:0:0:0:
161,224,236226,1,0,0:0:0:0:
359,242,236363,2,0,L|366:153,1,88,10|0,0:0|0:0,0:0:0:0:
242,154,236636,2,0,L|221:68,1,88
437,39,236908,6,0,P|475:80|451:189,1,176,2|0,0:0|0:0,0:0:0:0:
350,208,237317,1,0,0:0:0:0:
41,230,237454,2,0,L|128:226,1,88,10|0,0:0|0:0,0:0:0:0:
255,342,237727,2,0,L|168:337,1,88
372,327,237999,6,0,P|424:312|475:204,1,176,2|0,0:0|0:0,0:0:0:0:
382,167,238408,1,0,0:0:0:0:
164,148,238545,2,0,L|251:153,1,88,10|0,0:0|0:0,0:0:0:0:
377,227,238818,2,0,L|290:231,1,88
24,50,239090,6,0,L|199:46,1,176,2|0,0:0|0:0,0:0:0:0:
95,137,239500,1,0,0:0:0:0:
323,298,239635,1,10,0:0:0:0:
201,293,239771,1,0,0:0:0:0:
323,298,239907,1,0,0:0:0:0:
201,293,240045,1,0,0:0:0:0:
466,59,240181,6,0,L|291:55,1,176,6|0,0:0|0:0,0:0:0:0:
395,146,240591,1,0,0:0:0:0:
201,293,240726,2,0,L|192:204,1,88,10|0,0:0|0:0,0:0:0:0:
316,205,240999,2,0,L|325:116,1,88
40,56,241272,6,0,L|215:52,1,176,2|0,0:0|0:0,0:0:0:0:
111,143,241682,1,0,0:0:0:0:
354,218,241817,2,0,L|267:223,1,88,10|0,0:0|0:0,0:0:0:0:
141,297,242090,2,0,L|228:301,1,88
434,311,242363,6,0,P|472:270|448:161,1,176,2|0,0:0|0:0,0:0:0:0:
359,142,242772,1,0,0:0:0:0:
159,138,242908,2,0,L|72:142,1,88,10|0,0:0|0:0,0:0:0:0:
209,227,243181,2,0,L|296:232,1,88
67,333,243454,6,0,P|29:292|53:183,1,176,2|0,0:0|0:0,0:0:0:0:
142,164,243863,1,0,0:0:0:0:
342,153,243999,2,0,L|429:158,1,88,10|0,0:0|0:0,0:0:0:0:
307,256,244272,1,0,0:0:0:0:
430,251,244408,1,0,0:0:0:0:
178,353,244545,6,0,P|126:338|75:230,1,176,2|0,0:0|0:0,0:0:0:0:
168,193,244954,1,0,0:0:0:0:
374,224,245090,2,0,L|381:135,1,88,10|0,0:0|0:0,0:0:0:0:
257,136,245363,2,0,L|236:50,1,88
438,335,245635,6,0,P|476:294|452:185,1,176,2|0,0:0|0:0,0:0:0:0:
363,166,246044,1,0,0:0:0:0:
136,194,246181,2,0,L|224:190,1,88,10|0,0:0|0:0,0:0:0:0:
348,180,246454,2,0,L|436:176,1,88
117,344,246726,6,0,P|79:303|103:194,1,176,2|0,0:0|0:0,0:0:0:0:
192,175,247135,1,0,0:0:0:0:
432,171,247272,2,0,L|345:166,1,88,10|0,0:0|0:0,0:0:0:0:
219,93,247545,1,0,0:0:0:0:
342,88,247681,1,0,0:0:0:0:
92,340,247817,6,0,L|89:252,1,88,2|0,0:0|0:0,0:0:0:0:
207,215,248090,1,0,0:0:0:0:
89,169,248226,1,0,0:0:0:0:
339,242,248363,1,10,0:0:0:0:
89,169,248499,1,0,0:0:0:0:
203,165,248636,1,0,0:0:0:0:
89,169,248772,1,0,0:0:0:0:
378,63,248908,6,0,P|416:95|381:285,1,264,6|0,0:0|0:0,0:0:0:0:
175,298,249999,2,0,L|166:209,1,88
344,200,250545,2,0,L|353:111,1,88
138,77,251090,6,0,L|403:66,1,264,2|0,0:0|0:0,0:0:0:0:
193,228,252181,2,0,L|105:224,1,88
292,335,252726,2,0,L|380:331,1,88
139,354,253272,6,0,P|90:326|150:92,1,352,2|0,0:0|0:0,0:0:0:0:
380,113,254908,2,0,L|385:203,1,88
199,308,255454,2,0,P|244:306|410:84,1,352,2|2,0:0|0:0,0:0:0:0:
24,4,257635,6,0,P|70:18|29:379,2,527.999983886719,2|2|2,0:0|0:0|0:0,0:0:0:0:
391,345,264181,2,0,P|416:316|365:113,1,263.99999194336,2|0,0:0|0:0,0:0:0:0:
112,105,265817,2,0,L|108:172,1,65.9999979858399
316,272,266363,6,0,L|139:265,1,176,2|0,0:0|0:0,0:0:0:0:
337,347,267454,2,0,L|342:260,1,88
146,244,267999,2,0,L|141:157,1,88
350,85,268545,6,0,P|393:104|350:342,1,352,2|0,0:0|0:0,0:0:0:0:
227,347,269908,1,0,0:0:0:0:
465,266,270181,2,0,L|470:178,1,88
234,104,270726,6,0,L|57:98,1,176,2|0,0:0|0:0,0:0:0:0:
256,317,271817,2,0,P|294:291|250:188,1,176
121,190,272635,1,0,0:0:0:0:
368,82,272908,2,0,P|319:83|142:300,1,352,2|2,0:0|0:0,0:0:0:0:
459,348,275090,6,0,P|474:309|256:47,1,440,2|2,0:0|0:0,0:0:0:0:
53,348,279454,6,0,P|38:309|256:47,1,440,2|2,0:0|0:0,0:0:0:0:
256,192,281908,12,4,283817,0:0:0:0:
140,302,284363,6,0,L|315:295,2,176
432,151,286545,6,0,L|257:144,2,176
173,331,288726,6,0,L|168:155,1,176
397,111,289817,1,0,0:0:0:0:
167,61,290363,6,0,P|135:78|167:188,1,176
280,194,291181,1,0,0:0:0:0:
394,197,291454,1,0,0:0:0:0:
234,360,291726,2,0,P|209:323|244:202,1,176
256,192,292545,12,0,299090,0:0:0:0:
289,163,299635,6,0,L|295:73,1,88
176,64,300181,1,0,0:0:0:0:
289,163,300454,2,0,P|319:201|284:321,1,176
