osu file format v14

[General]
AudioFilename: audio.mp3
AudioLeadIn: 0
PreviewTime: 178773
Countdown: 0
SampleSet: Soft
StackLeniency: 0.7
Mode: 0
LetterboxInBreaks: 0
EpilepsyWarning: 1
WidescreenStoryboard: 1

[Editor]
Bookmarks: 4363,39272,56727,74181,91636,109090,126545,144000,161454,178909,196363,213818,231272,248727,266181,283636,301090
DistanceSpacing: 1.1
BeatDivisor: 4
GridSize: 4
TimelineZoom: 1.5

[Metadata]
Title:Immortal Flame (feat. Anna Yvette)
TitleUnicode:Immortal Flame (feat. Anna Yvette)
Artist:Panda Eyes & Teminite
ArtistUnicode:Panda Eyes & Teminite
Creator:Mao
Version:Phoenix
Source:
Tags:pishifat Oskar Steinbeck Sam Norris glitch hop ailv aliv collab collaboration
BeatmapID:1520231
BeatmapSetID:720024

[Difficulty]
HPDrainRate:6
CircleSize:4
OverallDifficulty:8
ApproachRate:9
SliderMultiplier:1.99999990463257
SliderTickRate:1

[Events]
//Background and Video events
0,0,"bg.jpg",0,0
//Break Periods
//Storyboard Layer 0 (Background)
Sprite,Background,Centre,"bg.jpg",320,240
//Storyboard Layer 1 (Fail)
//Storyboard Layer 2 (Pass)
//Storyboard Layer 3 (Foreground)
//Storyboard Sound Samples

[TimingPoints]
0,545.454545454546,4,2,0,30,1,0
4363,-166.666666666667,4,2,0,30,0,0
21818,-133.333333333333,4,2,0,40,0,0
30545,-133.333333333333,4,2,0,20,0,0
30681,-133.333333333333,4,2,0,40,0,0
39272,-100,4,2,0,40,0,0
45818,-111.111111111111,4,2,0,40,0,0
46909,-125,4,2,0,40,0,0
47454,-142.857142857143,4,2,0,40,0,0
53454,-111.111111111111,4,2,0,40,0,0
54545,-100,4,2,0,40,0,0
55636,-90.909090909091,4,2,0,40,0,0
56727,-62.5,4,2,0,80,0,1
57272,-76.9230769230769,4,2,0,80,0,1
58909,-62.5,4,2,0,80,0,1
59454,-73.8552437223043,4,2,0,80,0,1
61090,-58.8235294117647,4,2,0,80,0,1
61636,-71.4285714285714,4,2,0,80,0,1
63272,-62.5,4,2,0,80,0,1
63818,-71.4285714285714,4,2,0,80,0,1
65454,-62.5,4,2,0,80,0,1
66000,-76.9230769230769,4,2,0,80,0,1
67636,-62.5,4,2,0,80,0,1
68181,-76.9230769230769,4,2,0,80,0,1
69818,-58.8235294117647,4,2,0,80,0,1
70363,-71.4285714285714,4,2,0,80,0,1
72000,-62.5,4,2,0,80,0,1
72545,-66.6666666666667,4,2,0,80,0,1
74181,-71.4285714285714,4,2,0,80,0,0
74727,-83.3333333333333,4,2,0,80,0,0
76363,-68.9655172413793,4,2,0,80,0,0
76909,-83.3333333333333,4,2,0,80,0,0
78545,-71.4285714285714,4,2,0,80,0,0
79090,-83.3333333333333,4,2,0,80,0,0
80727,-71.4285714285714,4,2,0,80,0,0
81272,-83.3333333333333,4,2,0,80,0,0
82909,-71.4285714285714,4,2,0,80,0,0
83454,-83.3333333333333,4,2,0,80,0,0
85090,-71.4285714285714,4,2,0,80,0,0
85636,-83.3333333333333,4,2,0,80,0,0
87272,-71.4285714285714,4,2,0,80,0,0
87818,-83.3333333333333,4,2,0,80,0,0
88909,-71.4285714285714,4,2,0,80,0,0
90000,-83.3333333333333,4,2,0,80,0,0
92727,-76.9230769230769,4,2,0,80,0,0
93818,-71.4285714285714,4,2,0,80,0,0
94090,-83.3333333333333,4,2,0,80,0,0
94909,-76.9230769230769,4,2,0,80,0,0
95727,-71.4285714285714,4,2,0,80,0,0
96272,-83.3333333333333,4,2,0,80,0,0
97090,-76.9230769230769,4,2,0,80,0,0
97909,-71.4285714285714,4,2,0,80,0,0
98454,-83.3333333333333,4,2,0,80,0,0
99272,-76.9230769230769,4,2,0,80,0,0
100090,-71.4285714285714,4,2,0,80,0,0
100636,-83.3333333333333,4,2,0,80,0,0
101454,-76.9230769230769,4,2,0,80,0,0
102272,-71.4285714285714,4,2,0,80,0,0
102818,-83.3333333333333,4,2,0,80,0,0
103636,-76.9230769230769,4,2,0,80,0,0
104454,-71.4285714285714,4,2,0,80,0,0
105000,-83.3333333333333,4,2,0,80,0,0
105818,-76.9230769230769,4,2,0,80,0,0
106636,-71.4285714285714,4,2,0,80,0,0
107181,-83.3333333333333,4,2,0,80,0,0
108000,-76.9230769230769,4,2,0,80,0,0
108818,-71.4285714285714,4,2,0,80,0,0
109363,-83.3333333333333,4,2,0,80,0,0
110181,-76.9230769230769,4,2,0,80,0,0
111272,-71.4285714285714,4,2,0,80,0,0
111545,-83.3333333333333,4,2,0,80,0,0
112363,-76.9230769230769,4,2,0,80,0,0
113181,-71.4285714285714,4,2,0,80,0,0
113727,-83.3333333333333,4,2,0,80,0,0
114545,-76.9230769230769,4,2,0,80,0,0
115363,-71.4285714285714,4,2,0,80,0,0
115909,-83.3333333333333,4,2,0,80,0,0
116727,-76.9230769230769,4,2,0,80,0,0
117545,-71.4285714285714,4,2,0,80,0,0
118090,-83.3333333333333,4,2,0,80,0,0
118909,-76.9230769230769,4,2,0,80,0,0
119727,-71.4285714285714,4,2,0,80,0,0
120272,-83.3333333333333,4,2,0,80,0,0
121090,-76.9230769230769,4,2,0,80,0,0
121909,-71.4285714285714,4,2,0,80,0,0
122454,-83.3333333333333,4,2,0,80,0,0
123272,-76.9230769230769,4,2,0,80,0,0
124090,-71.4285714285714,4,2,0,80,0,0
124636,-83.3333333333333,4,2,0,80,0,0
125454,-76.9230769230769,4,2,0,80,0,0
126545,-66.6666666666667,4,2,0,80,0,0
127909,-76.9230769230769,4,2,0,80,0,0
128727,-62.5,4,2,0,80,0,0
130090,-71.4285714285714,4,2,0,80,0,0
130909,-58.8235294117647,4,2,0,80,0,0
132272,-66.6666666666667,4,2,0,80,0,0
133090,-62.5,4,2,0,80,0,0
135000,-50,4,2,0,80,0,0
135272,-66.6666666666667,4,2,0,80,0,0
136636,-76.9230769230769,4,2,0,80,0,0
137454,-62.5,4,2,0,80,0,0
138818,-71.4285714285714,4,2,0,80,0,0
139090,-62.5,4,2,0,80,0,0
139636,-58.8235294117647,4,2,0,80,0,0
141000,-66.6666666666667,4,2,0,80,0,0
141818,-66.6666666666667,4,2,0,80,0,0
142363,-62.5,4,2,0,80,0,0
142909,-76.9230769230769,4,2,0,80,0,0
143454,-100,4,2,0,80,0,0
145090,-125,4,2,0,60,0,0
165545,-100,4,2,0,40,0,0
165818,-125,4,2,0,40,0,0
170181,-100,4,2,0,60,0,0
171272,-100,4,2,0,30,0,0
171818,-100,4,2,0,60,0,0
172909,-100,4,2,0,20,0,0
173181,-100,4,2,0,60,0,0
174272,-83.3333333333333,4,2,0,60,0,0
174545,-100,4,2,0,60,0,0
176727,-83.3333333333333,4,2,0,80,0,0
178909,-76.9230769230769,4,2,0,100,0,1
179454,-66.6666666666667,4,2,0,100,0,1
182454,-57.1428571428571,4,2,0,100,0,1
183000,-50,4,2,0,100,0,1
183273,-57.1428571428571,4,2,0,100,0,1
183818,-66.6666666666667,4,2,0,100,0,1
184364,-62.5,4,2,0,100,0,1
185454,-66.6666666666667,4,2,0,100,0,1
186000,-71.4285714285714,4,2,0,100,0,1
186545,-66.6666666666667,4,2,0,100,0,1
187091,-80,4,2,0,100,0,1
187364,-100,4,2,0,100,0,1
187636,-76.9230769230769,4,2,0,100,0,1
188182,-66.6666666666667,4,2,0,100,0,1
191182,-57.1428571428571,4,2,0,100,0,1
191727,-50,4,2,0,100,0,1
192000,-57.1428571428571,4,2,0,100,0,1
192545,-66.6666666666667,4,2,0,100,0,1
193091,-62.5,4,2,0,100,0,1
194182,-66.6666666666667,4,2,0,100,0,1
194727,-71.4285714285714,4,2,0,100,0,1
195273,-66.6666666666667,4,2,0,100,0,1
195818,-80,4,2,0,100,0,1
196091,-100,4,2,0,100,0,1
196363,-76.9230769230769,4,2,0,80,0,0
196909,-83.3333333333333,4,2,0,80,0,0
198545,-71.4285714285714,4,2,0,80,0,0
199091,-80,4,2,0,80,0,0
200727,-66.6666666666667,4,2,0,80,0,0
201273,-76.9230769230769,4,2,0,80,0,0
202909,-71.4285714285714,4,2,0,80,0,0
203454,-74.0740740740741,4,2,0,80,0,0
205091,-76.9230769230769,4,2,0,80,0,0
205636,-83.3333333333333,4,2,0,80,0,0
207273,-71.4285714285714,4,2,0,80,0,0
207818,-80,4,2,0,80,0,0
209454,-71.4285714285714,4,2,0,80,0,0
210000,-76.9230769230769,4,2,0,80,0,0
211091,-71.4285714285714,4,2,0,80,0,0
212182,-57.1428571428571,4,2,0,80,0,0
214364,-66.6666666666667,4,2,0,80,0,0
214909,-76.9230769230769,4,2,0,80,0,0
215454,-66.6666666666667,4,2,0,80,0,0
216000,-57.1428571428571,4,2,0,80,0,0
216545,-66.6666666666667,4,2,0,80,0,0
217091,-76.9230769230769,4,2,0,80,0,0
217909,-66.6666666666667,4,2,0,80,0,0
218182,-57.1428571428571,4,2,0,80,0,0
219000,-66.6666666666667,4,2,0,80,0,0
219273,-76.9230769230769,4,2,0,80,0,0
219682,-66.6666666666667,4,2,0,80,0,0
220091,-66.6666666666667,4,2,0,80,0,0
220364,-90.9090909090909,4,2,0,80,0,0
221182,-76.9230769230769,4,2,0,80,0,0
222000,-66.6666666666667,4,2,0,80,0,0
222273,-58.8235294117647,4,2,0,80,0,0
223091,-66.6666666666667,4,2,0,80,0,0
223636,-76.9230769230769,4,2,0,80,0,0
224045,-66.6666666666667,4,2,0,80,0,0
224727,-57.1428571428571,4,2,0,80,0,0
225545,-66.6666666666667,4,2,0,80,0,0
225682,-76.9230769230769,4,2,0,80,0,0
226636,-66.6666666666667,4,2,0,80,0,0
226909,-57.1428571428571,4,2,0,80,0,0
227727,-66.6666666666667,4,2,0,80,0,0
228000,-76.9230769230769,4,2,0,80,0,0
228818,-66.6666666666667,4,2,0,80,0,0
229091,-76.9230769230769,4,2,0,80,0,0
229909,-66.6666666666667,4,2,0,80,0,0
230727,-57.1428571428571,4,2,0,80,0,0
231000,-50,4,2,0,80,0,0
231273,-62.5,4,2,0,80,0,0
231818,-76.9230769230769,4,2,0,80,0,0
232364,-71.4285714285714,4,2,0,80,0,0
232909,-76.9230769230769,4,2,0,80,0,0
233454,-62.5,4,2,0,80,0,0
234000,-76.9230769230769,4,2,0,80,0,0
234545,-71.4285714285714,4,2,0,80,0,0
235091,-76.9230769230769,4,2,0,80,0,0
235636,-62.5,4,2,0,80,0,0
236182,-76.9230769230769,4,2,0,80,0,0
236727,-71.4285714285714,4,2,0,80,0,0
237136,-76.9230769230769,4,2,0,80,0,0
237818,-62.5,4,2,0,80,0,0
238364,-76.9230769230769,4,2,0,80,0,0
238909,-71.4285714285714,4,2,0,80,0,0
239454,-76.9230769230769,4,2,0,80,0,0
240000,-62.5,4,2,0,80,0,0
240545,-76.9230769230769,4,2,0,80,0,0
241091,-71.4285714285714,4,2,0,80,0,0
241500,-76.9230769230769,4,2,0,80,0,0
242182,-62.5,4,2,0,80,0,0
242727,-76.9230769230769,4,2,0,80,0,0
243273,-71.4285714285714,4,2,0,80,0,0
243818,-76.9230769230769,4,2,0,80,0,0
244364,-62.5,4,2,0,80,0,0
244909,-76.9230769230769,4,2,0,80,0,0
245454,-71.4285714285714,4,2,0,80,0,0
246000,-76.9230769230769,4,2,0,80,0,0
249545,-125,4,2,0,40,0,0
257454,-150.829562594268,4,2,0,40,0,0
259227,-125,4,2,0,40,0,0
279000,-125,4,2,0,20,0,0
279272,-125,4,2,0,30,0,0
281181,-125,4,2,0,20,0,0
281454,-125,4,2,0,30,0,0
283636,-125,4,2,0,20,0,0
290181,-200,4,2,0,20,0,0
292363,-200,4,2,0,5,0,0
298909,-200,4,2,0,20,0,0
301090,-200,4,2,0,5,0,0

[Colours]
Combo1 : 155,189,140
Combo2 : 252,134,3
Combo3 : 251,26,48
Combo4 : 253,226,121
Combo5 : 181,162,136
Combo6 : 216,135,133
Combo7 : 232,232,232
Combo8 : 224,252,131

[HitObjects]
256,192,1090,12,4,4363,0:1:0:0:
24,133,5454,38,0,P|36:192|154:235,1,179.999985923768,2|0,0:0|0:0,0:0:0:0:
206,211,6545,1,2,0:0:0:0:
411,28,7090,1,0,0:0:0:0:
473,74,7363,1,0,0:0:0:0:
401,106,7636,2,0,P|371:158|418:266,1,179.999985923768,2|0,0:0|0:0,0:0:0:0:
447,331,8727,6,0,B|394:360|317:322|363:282|286:244|234:274,1,239.99998123169,2|0,0:0|0:0,0:0:0:0:
53,53,10909,6,0,P|43:96|34:141,2,89.9999929618838,2|0|0,0:0|0:0|0:0,0:0:0:0:
131,54,12000,2,0,P|117:111|105:174,2,119.999990615845,2|0|2,0:0|0:0|0:0,0:0:0:0:
459,53,13909,85,0,0:0:0:0:
459,53,14181,2,0,P|468:96|477:141,2,89.9999929618838,2|0|0,0:0|0:0|0:0,0:0:0:0:
381,54,15272,2,0,P|394:111|406:174,1,119.999990615845,2|0,0:0|0:0,0:0:0:0:
426,246,16090,1,0,0:0:0:0:
397,318,16363,2,0,P|332:358|247:310,1,179.999985923768,2|0,0:0|0:0,0:0:0:0:
285,243,17454,6,0,B|232:213|155:251|201:291|124:329|72:299,1,239.99998123169,2|0,0:0|0:0,0:0:0:0:
19,70,19636,6,0,P|16:121|6:183,2,89.9999929618838,2|0|0,0:0|0:0|0:0,0:0:0:0:
80,33,20727,2,0,B|130:3|208:39|163:81|239:118|292:89,1,239.99998123169,2|4,0:0|0:1,0:0:0:0:
494,32,22363,85,0,0:0:0:0:
422,164,22909,1,2,0:0:0:0:
292,89,23454,1,0,0:0:0:0:
191,269,24000,6,0,P|131:286|36:173,1,224.999997854233,2|0,0:0|0:0,0:0:0:0:
35,95,25090,1,2,0:0:0:0:
93,37,25363,1,0,0:0:0:0:
175,34,25636,1,0,0:0:0:0:
232,93,25909,1,0,0:0:0:0:
241,174,26181,6,0,B|304:210|401:165|344:113|440:66|506:103,1,299.999997138977,2|0,0:0|0:0,0:0:0:0:
133,320,28363,102,0,P|74:302|-4:299,2,112.499998927116,2|0|0,0:0|0:0|0:0,0:0:0:0:
201,366,29454,1,2,0:0:0:0:
363,258,30000,2,0,P|414:246|461:319,1,149.999998569489,2|4,0:0|0:1,0:0:0:0:
319,368,31090,5,0,0:0:0:0:
241,239,31636,1,2,0:0:0:0:
354,141,32181,1,0,0:0:0:0:
199,48,32727,86,0,P|92:31|23:114,1,224.999997854233,2|0,0:0|0:0,0:0:0:0:
18,196,33818,1,2,0:0:0:0:
73,256,34090,1,0,0:0:0:0:
154,245,34363,1,0,0:0:0:0:
197,174,34636,1,0,0:0:0:0:
248,257,34909,5,2,0:0:0:0:
408,197,35454,1,0,0:0:0:0:
328,352,36000,2,0,P|299:293|319:196,1,149.999998569489,2|0,0:0|0:0,0:0:0:0:
354,151,36818,1,0,0:0:0:0:
416,192,37090,6,0,P|456:195|509:135,2,112.499998927116,2|0|0,0:0|0:0|0:0,0:0:0:0:
354,151,38181,1,2,0:0:0:0:
345,344,38727,2,0,L|225:324,1,112.499998927116,2|0,0:0|0:0,0:0:0:0:
210,322,39272,85,4,0:1:0:0:
210,322,40363,6,0,B|256:250|218:179|127:209|151:275,1,199.999990463257,2|0,0:0|0:0,0:0:0:0:
391,166,41454,2,0,B|306:162|264:230|335:295|380:240,1,199.999990463257,2|0,0:0|0:0,0:0:0:0:
166,87,42545,2,0,B|204:162|285:165|305:71|235:59,1,199.999990463257,2|0,0:0|0:0,0:0:0:0:
83,291,43636,6,0,B|195:338|289:267|228:237|335:153|443:191,1,399.999980926514,6|0,0:0|0:0,0:0:0:0:
441,191,45818,86,0,P|360:194|282:294,1,179.999985923768,2|0,0:0|0:0,0:0:0:0:
150,295,46636,1,0,0:0:0:0:
268,383,46909,2,0,P|238:342|228:288,1,79.9999961853028,2|0,0:0|0:0,0:0:0:0:
144,157,47454,2,0,P|134:196|109:227,1,69.9999945259097,2|0,0:0|0:0,0:0:0:0:
60,158,48000,5,4,0:1:0:0:
405,108,48818,5,0,0:0:0:0:
405,108,49090,1,2,0:0:0:0:
327,74,49363,1,0,0:0:0:0:
270,135,49636,1,0,0:0:0:0:
312,208,49909,1,0,0:0:0:0:
395,191,50181,1,2,0:0:0:0:
107,276,51000,85,0,0:0:0:0:
107,276,51272,1,2,0:0:0:0:
185,310,51545,1,0,0:0:0:0:
242,249,51818,1,0,0:0:0:0:
200,176,52091,1,0,0:0:0:0:
117,193,52363,1,2,0:0:0:0:
347,1,53454,6,0,P|259:33|248:133,1,179.999985923768,2|0,0:0|0:0,0:0:0:0:
256,192,54272,1,0,0:0:0:0:
368,383,54545,2,2,P|396:291|334:219,1,199.999990463257,2|0,0:0|0:0,0:0:0:0:
53,214,55636,2,2,P|115:264|193:246,1,164.999997167587,2|0,0:0|0:0,0:0:0:0:
108,292,56181,5,0,1:0:0:0:
400,40,56727,54,2,P|476:64|458:126,1,159.999992370606,6|0,1:0|0:0,0:3:0:0:
435,139,57136,2,0,P|390:134|357:123,1,79.9999961853028,2|0,0:1|1:0,0:0:0:0:
278,203,57409,1,0,0:0:0:0:
273,62,57545,1,2,0:1:0:0:
295,219,57681,1,0,0:0:0:0:
188,27,57818,6,2,L|193:122,1,64.9999939250949,4|0,3:0|0:0,0:3:0:0:
201,231,58090,1,0,0:0:0:0:
89,19,58227,2,0,L|110:111,1,64.9999939250949,2|0,0:1|1:0,0:0:0:0:
44,292,58500,5,0,0:0:0:0:
57,195,58636,1,2,0:1:0:0:
138,250,58772,1,0,0:0:0:0:
285,55,58909,6,2,P|228:104|279:181,1,159.999992370606,6|0,1:0|0:0,0:1:0:0:
277,181,59318,2,0,P|316:185|355:197,1,79.9999961853028,2|0,0:1|1:0,0:0:0:0:
457,269,59590,1,0,0:0:0:0:
498,161,59726,1,2,0:1:0:0:
468,289,59862,1,0,0:0:0:0:
430,72,59999,70,2,L|412:160,1,67.6999933111958,4|0,3:0|0:0,0:3:0:0:
381,290,60271,1,0,0:0:0:0:
343,47,60408,2,0,L|337:141,1,67.6999933111958,2|0,0:1|1:0,0:0:0:0:
275,346,60681,5,0,0:0:0:0:
288,249,60817,1,2,0:1:0:0:
368,304,60953,1,0,0:0:0:0:
143,362,61090,6,2,P|69:370|40:279,1,169.999995136261,6|0,1:0|0:0,0:3:0:0:
53,274,61500,2,0,P|101:264|133:223,1,84.9999975681305,2|0,0:1|1:0,0:0:0:0:
43,65,61772,1,0,0:0:0:0:
60,196,61908,1,2,0:1:0:0:
54,45,62044,1,0,0:0:0:0:
142,215,62181,6,2,P|143:178|117:134,1,69.9999945259097,4|0,3:0|0:0,0:3:0:0:
136,2,62453,1,0,0:0:0:0:
210,266,62590,2,0,P|224:233|223:198,1,69.9999945259097,2|0,0:1|1:0,0:0:0:0:
262,17,62863,85,0,0:0:0:0:
290,112,62999,1,2,0:1:0:0:
197,88,63135,1,0,0:1:0:0:
478,32,63272,6,2,P|399:26|381:113,1,159.999992370606,6|0,1:0|0:0,0:3:0:0:
381,112,63681,2,0,P|430:116|466:140,1,79.9999961853028,2|0,0:1|1:0,0:0:0:0:
431,318,63954,1,0,0:0:0:0:
402,194,64090,1,2,0:1:0:0:
420,338,64226,1,0,0:0:0:0:
321,173,64363,6,2,P|320:210|346:254,1,69.9999945259097,4|0,3:0|0:0,0:3:0:0:
337,382,64635,1,0,0:0:0:0:
252,121,64772,2,0,P|238:153|239:189,1,69.9999945259097,2|0,0:1|1:0,0:0:0:0:
158,369,65045,69,0,0:0:0:0:
136,247,65181,1,2,0:1:0:0:
43,325,65318,1,0,0:0:0:0:
2,57,65454,6,2,P|54:38|100:122,1,159.999992370606,6|0,1:0|0:0,0:1:0:0:
100,139,65863,2,0,P|138:161|193:164,1,79.9999961853028,2|0,0:1|1:0,0:0:0:0:
251,257,66136,1,0,0:0:0:0:
243,108,66272,1,2,0:1:0:0:
234,273,66408,1,0,0:0:0:0:
334,82,66545,6,2,L|329:177,1,64.9999939250949,4|0,3:0|0:0,0:3:0:0:
322,291,66817,1,0,0:0:0:0:
429,61,66954,2,0,L|408:153,1,64.9999939250949,2|0,0:1|1:0,0:0:0:0:
340,320,67227,5,0,0:0:0:0:
378,225,67363,1,2,0:1:0:0:
443,304,67500,1,0,0:0:0:0:
223,349,67636,70,2,P|205:285|108:278,1,159.999992370606,6|0,1:0|0:0,0:1:0:0:
102,288,68045,2,0,P|67:316|19:318,1,79.9999961853028,2|0,0:1|1:0,0:0:0:0:
52,105,68318,1,0,0:0:0:0:
36,231,68454,1,2,0:1:0:0:
35,89,68590,1,0,0:0:0:0:
121,269,68727,6,2,P|128:230|120:192,1,64.9999939250949,4|0,1:3|0:0,0:3:0:0:
105,20,69000,1,0,0:0:0:0:
214,221,69136,2,0,P|207:181|186:148,1,64.9999939250949,2|0,0:1|1:0,0:0:0:0:
298,15,69409,5,0,0:0:0:0:
311,111,69545,1,2,0:1:0:0:
391,56,69681,1,0,0:0:0:0:
496,246,69818,6,2,P|445:262|424:164,1,169.999995136261,6|0,1:0|0:0,0:3:0:0:
435,159,70227,2,0,P|467:141|496:88,1,84.9999975681305,2|0,0:1|1:0,0:0:0:0:
314,162,70500,1,0,0:0:0:0:
286,32,70636,1,2,0:1:0:0:
328,180,70772,1,0,0:0:0:0:
198,15,70909,70,2,P|198:53|219:95,1,69.9999945259097,4|0,1:3|0:0,0:3:0:0:
257,217,71181,1,0,0:1:0:0:
110,69,71318,2,0,P|122:104|157:136,1,69.9999945259097,2|0,0:1|1:0,0:0:0:0:
103,317,71590,5,0,0:0:0:0:
188,246,71727,1,2,0:1:0:0:
206,354,71863,1,0,0:1:0:0:
467,246,72000,6,0,P|396:228|354:308,1,159.999992370606,6|0,1:0|0:0,0:0:0:0:
356,321,72409,2,0,P|379:351|421:364,1,79.9999961853028,2|0,0:1|1:0,0:0:0:0:
234,347,72681,1,0,0:0:0:0:
272,219,72817,1,0,0:0:0:0:
251,369,72953,1,0,0:0:0:0:
184,127,73090,6,2,B|223:188|162:205|207:270,1,149.999998569489,4|0,1:3|0:0,0:3:0:0:
220,287,73500,2,0,L|298:301,1,74.9999992847443,2|0,0:1|1:0,0:0:0:0:
3,335,73772,69,0,0:0:0:0:
86,253,73909,1,2,0:1:0:0:
116,366,74045,1,0,0:0:0:0:
272,219,74181,6,2,L|518:184,1,209.999983577729,4|0,1:0|0:0,0:3:0:0:
360,64,74727,1,2,1:0:0:0:
435,113,74863,1,0,0:0:0:0:
512,0,75000,2,0,P|512:29|500:57,1,59.9999953079226,2|2,0:0|0:1,0:0:0:0:
352,189,75272,6,0,P|322:149|230:140,1,119.999990615845,4|2,3:0|0:1,0:0:0:0:
232,142,75681,1,0,0:0:0:0:
123,271,75818,1,2,1:0:0:0:
204,245,75954,1,0,0:0:0:0:
39,157,76090,2,0,P|45:186|61:210,1,59.9999953079226,2|0,0:0|0:0,0:0:0:0:
98,365,76363,6,2,L|125:150,1,217.499996266365,4|0,1:0|0:0,0:3:0:0:
246,14,76909,1,2,1:0:0:0:
186,81,77045,1,0,0:0:0:0:
268,198,77181,2,0,P|247:176|237:148,1,59.9999953079226,2|2,0:0|0:1,0:0:0:0:
402,0,77454,70,0,P|349:39|349:112,1,119.999990615845,4|2,3:0|0:1,0:0:0:0:
351,107,77863,1,0,0:0:0:0:
475,172,78000,1,2,1:0:0:0:
391,180,78136,1,0,0:0:0:0:
351,252,78272,1,2,0:0:0:0:
478,325,78409,1,2,0:1:0:0:
413,380,78545,6,2,L|238:362,1,139.999989051819,4|2,1:0|0:1,0:3:0:0:
256,379,78954,1,0,0:0:0:0:
64,248,79090,2,0,P|96:255|123:292,1,59.9999953079226,2|0,1:0|0:0,0:0:0:0:
181,150,79363,2,0,P|151:156|129:176,1,59.9999953079226,2|2,0:0|0:1,0:0:0:0:
99,357,79636,6,0,P|157:349|195:304,1,119.999990615845,4|2,3:0|0:1,0:0:0:0:
199,281,80045,1,0,0:0:0:0:
291,160,80181,1,2,1:0:0:0:
439,193,80318,1,0,0:0:0:0:
355,219,80454,1,2,0:1:0:0:
386,57,80590,1,2,0:0:0:0:
373,138,80727,6,2,L|146:168,1,209.999983577729,4|0,1:0|0:0,0:3:0:0:
76,104,81272,1,2,1:0:0:0:
149,155,81409,1,0,0:0:0:0:
37,238,81545,2,0,P|66:236|95:222,1,59.9999953079226,2|2,0:0|0:1,0:0:0:0:
239,76,81818,70,0,P|256:148|337:173,1,119.999990615845,4|2,3:0|0:1,0:0:0:0:
373,138,82227,1,0,0:0:0:0:
269,297,82363,2,0,P|332:256|359:262,1,59.9999953079226,2|0,1:0|0:0,0:0:0:0:
400,277,82636,1,2,0:1:0:0:
400,277,82909,6,2,L|419:44,1,209.999983577729,4|0,1:0|0:0,0:3:0:0:
286,166,83454,1,2,1:0:0:0:
331,95,83590,1,0,0:0:0:0:
215,20,83727,2,0,P|238:39|250:67,1,59.9999953079226,2|2,0:0|0:1,0:0:0:0:
118,284,84000,6,0,P|167:252|184:196,1,119.999990615845,4|2,3:0|0:1,0:0:0:0:
178,174,84409,1,0,0:0:0:0:
24,128,84545,1,2,1:0:0:0:
12,213,84681,1,0,0:0:0:0:
107,123,84818,2,0,P|127:101|155:91,1,59.9999953079226,2|0,0:1|0:0,0:0:0:0:
332,145,85090,6,2,L|358:368,1,209.999983577729,4|0,1:0|0:0,0:3:0:0:
223,201,85636,1,2,1:0:0:0:
158,260,85772,1,0,0:0:0:0:
237,369,85909,2,0,P|208:361|185:342,1,59.9999953079226,2|2,0:0|0:1,0:0:0:0:
28,190,86181,70,0,P|114:175|141:106,1,119.999990615845,4|2,3:0|0:1,0:0:0:0:
137,130,86590,1,0,0:0:0:0:
243,28,86727,1,2,1:0:0:0:
269,107,86863,1,0,0:0:0:0:
345,136,87000,1,2,0:1:0:0:
486,107,87136,1,2,0:0:0:0:
426,166,87272,6,2,L|408:359,1,139.999989051819,4|0,1:0|0:0,0:3:0:0:
398,321,87681,1,0,0:0:0:0:
161,299,87818,1,2,1:0:0:0:
242,272,87954,1,0,0:0:0:0:
330,364,88090,2,0,P|286:357|258:334,1,59.9999953079226,2|0,0:1|0:0,0:0:0:0:
199,175,88363,6,0,P|155:135|96:134,1,119.999990615845,4|2,3:0|0:1,0:0:0:0:
124,216,88772,1,0,0:0:0:0:
347,38,88909,2,0,P|285:30|221:111,1,139.999989051819,2|2,1:0|0:1,0:0:0:0:
244,248,89318,1,2,0:0:0:0:
308,116,89454,6,0,L|319:227,1,69.9999945259097,4|0,1:0|0:0,0:0:0:0:
385,302,89727,1,0,0:0:0:0:
462,242,89863,1,0,0:0:0:0:
372,311,90000,2,0,L|378:246,1,59.9999953079226,2|0,1:0|0:0,0:0:0:0:
417,100,90272,1,2,0:1:0:0:
487,145,90409,1,0,0:0:0:0:
401,111,90545,5,4,3:0:0:0:
359,29,91090,5,0,1:0:0:0:
45,69,91636,38,0,P|73:82|99:116,1,59.9999953079226,0|0,1:0|0:0,0:0:0:0:
248,58,91909,6,0,P|199:90|182:146,1,119.999990615845,2|0,3:3|1:0,0:0:0:0:
163,332,92318,2,0,P|126:286|127:227,1,119.999990615845,2|0,3:0|0:0,0:0:0:0:
249,291,92727,2,0,L|312:307,1,64.9999939250949,6|0,3:0|0:0,0:0:0:0:
310,177,93000,2,0,L|373:162,1,64.9999939250949,2|0,0:3|0:0,0:0:0:0:
383,349,93272,2,0,L|446:365,1,64.9999939250949,2|0,1:3|0:0,0:0:0:0:
509,217,93545,5,2,0:1:0:0:
463,370,93681,1,0,0:0:0:0:
459,143,93818,2,0,P|465:114|494:79,1,69.9999945259097,6|0,1:0|0:0,0:0:0:0:
310,27,94090,6,0,P|358:65|369:134,1,119.999990615845,2|0,3:0|1:0,0:0:0:0:
329,306,94500,2,0,P|377:268|388:199,1,119.999990615845,2|0,3:0|0:0,0:0:0:0:
252,356,94909,2,0,L|176:344,1,64.9999939250949,6|0,3:0|0:0,0:0:0:0:
178,216,95181,2,0,L|102:228,1,64.9999939250949,2|0,3:0|0:0,0:0:0:0:
105,379,95454,2,0,L|29:367,1,64.9999939250949,2|0,1:3|0:0,0:0:0:0:
0,204,95727,69,2,0:1:0:0:
25,366,95863,1,0,0:0:0:0:
59,119,96000,2,0,P|93:123|124:138,1,69.9999945259097,6|0,1:0|0:0,0:0:0:0:
251,294,96272,6,0,P|203:256|192:187,1,119.999990615845,2|0,3:0|1:0,0:0:0:0:
282,32,96682,2,0,P|228:61|205:127,1,119.999990615845,2|0,3:0|0:0,0:0:0:0:
260,300,97090,2,0,L|326:290,1,64.9999939250949,6|0,3:0|0:0,0:0:0:0:
332,140,97363,2,0,L|398:150,1,64.9999939250949,2|0,3:0|0:0,0:0:0:0:
397,348,97636,2,0,L|463:338,1,64.9999939250949,2|0,1:3|0:0,0:0:0:0:
512,169,97909,5,2,0:1:0:0:
478,336,98045,1,0,0:0:0:0:
463,96,98181,2,0,P|473:56|495:29,1,69.9999945259097,6|0,1:0|0:0,0:0:0:0:
247,44,98454,6,0,P|301:64|331:114,1,119.999990615845,2|0,3:3|1:0,0:0:0:0:
390,282,98863,2,0,P|399:250|397:211,1,59.9999953079226,2|0,3:0|0:0,0:0:0:0:
393,200,99136,1,2,0:3:0:0:
304,323,99272,2,0,L|236:315,1,64.9999939250949,6|0,3:0|0:0,0:0:0:0:
230,154,99545,2,0,L|162:162,1,64.9999939250949,2|0,0:3|0:0,0:0:0:0:
163,357,99818,2,0,L|95:349,1,64.9999939250949,2|0,1:3|0:0,0:0:0:0:
149,165,100090,69,2,0:1:0:0:
82,346,100227,1,2,0:1:0:0:
19,88,100363,2,0,P|32:117|84:150,1,69.9999945259097,6|0,1:0|0:0,0:0:0:0:
152,287,100636,6,0,P|212:272|268:300,1,119.999990615845,2|0,0:3|1:0,0:0:0:0:
420,347,101045,2,0,P|357:343|307:380,1,119.999990615845,2|0,3:0|0:0,0:0:0:0:
450,265,101454,2,0,L|466:202,1,64.9999939250949,6|0,3:0|0:0,0:0:0:0:
315,214,101727,2,0,L|300:151,1,64.9999939250949,2|0,0:3|0:0,0:0:0:0:
489,128,101999,2,0,L|505:65,1,64.9999939250949,2|0,1:3|0:0,0:0:0:0:
366,0,102272,5,2,0:1:0:0:
509,51,102408,1,0,0:0:0:0:
311,66,102545,2,0,P|276:73|237:69,1,69.9999945259097,6|0,1:0|0:0,0:0:0:0:
70,21,102818,6,0,P|45:77|64:137,1,119.999990615845,2|0,3:0|1:0,0:0:0:0:
86,299,103227,2,0,P|91:236|136:192,1,119.999990615845,2|0,3:0|0:0,0:0:0:0:
152,368,103636,2,0,L|222:360,1,64.9999939250949,6|0,3:0|0:0,0:0:0:0:
225,179,103909,2,0,L|289:185,1,64.9999939250949,2|0,3:0|0:0,0:0:0:0:
306,351,104181,2,0,L|370:344,1,64.9999939250949,2|0,1:3|0:0,0:0:0:0:
464,181,104454,69,2,0:1:0:0:
391,342,104590,1,0,0:0:0:0:
391,122,104727,2,0,P|373:162|381:209,1,69.9999945259097,6|0,1:0|0:0,0:0:0:0:
289,362,105000,6,0,P|229:377|173:349,1,119.999990615845,2|0,0:3|1:0,0:0:0:0:
21,302,105409,2,0,P|84:306|134:269,1,119.999990615845,2|0,0:3|0:0,0:0:0:0:
200,72,105818,2,0,L|205:139,1,64.9999939250949,6|0,3:0|0:0,0:0:0:0:
371,140,106090,2,0,L|366:207,1,64.9999939250949,2|0,0:3|0:0,0:0:0:0:
216,226,106363,2,0,L|221:293,1,64.9999939250949,2|0,1:3|0:0,0:0:0:0:
378,358,106636,5,2,0:1:0:0:
224,308,106772,1,0,0:0:0:0:
411,280,106909,2,0,P|452:275|492:289,1,69.9999945259097,6|0,1:0|0:0,0:0:0:0:
418,104,107181,6,0,P|372:155|366:210,1,119.999990615845,2|0,3:0|1:0,0:0:0:0:
298,353,107590,2,0,P|305:318|299:285,1,59.9999953079226,2|0,0:3|0:0,0:0:0:0:
295,270,107863,1,2,0:3:0:0:
149,369,108000,2,0,L|85:357,1,64.9999939250949,6|0,3:0|0:0,0:0:0:0:
87,213,108272,2,0,L|22:225,1,64.9999939250949,2|0,0:3|0:0,0:0:0:0:
168,152,108545,69,2,1:0:0:0:
185,248,108681,1,2,0:0:0:0:
225,84,108818,5,2,0:1:0:0:
188,263,108954,1,2,0:1:0:0:
351,45,109090,2,0,P|314:26|276:25,1,69.9999945259097,6|0,1:0|0:0,0:0:0:0:
168,152,109363,6,0,B|207:178|207:178|310:153,1,119.999990615845,2|0,3:0|1:0,0:0:0:0:
496,262,109772,2,0,B|457:288|457:288|354:263,1,119.999990615845,2|0,0:3|0:0,0:0:0:0:
288,374,110181,2,0,B|284:341|284:341|302:314,1,64.9999939250949,6|0,3:0|0:0,0:0:0:0:
235,117,110454,2,0,B|249:147|249:147|278:160,1,64.9999939250949,2|0,0:3|0:0,0:0:0:0:
153,268,110727,2,0,L|216:254,1,64.9999939250949,2|0,1:3|0:0,0:0:0:0:
435,194,111000,5,2,0:1:0:0:
233,248,111136,1,0,0:0:0:0:
46,137,111272,2,0,P|26:108|20:74,1,69.9999945259097,6|0,1:1|0:0,0:0:0:0:
70,334,111545,70,0,B|44:295|44:295|69:192,1,119.999990615845,2|0,3:0|1:0,0:0:0:0:
142,10,111954,2,0,B|116:49|116:49|141:152,1,119.999990615845,2|0,0:3|0:0,0:0:0:0:
137,274,112363,2,0,B|144:240|144:240|183:205,1,64.9999939250949,6|0,3:0|0:0,0:0:0:0:
207,66,112636,2,0,B|214:97|214:97|255:137,1,64.9999939250949,2|0,0:3|0:0,0:0:0:0:
431,161,112909,2,0,L|364:174,1,64.9999939250949,2|0,1:3|0:0,0:0:0:0:
137,139,113181,5,2,0:1:0:0:
345,176,113318,1,0,0:0:0:0:
449,354,113454,2,0,P|486:377|549:365,1,69.9999945259097,6|0,1:0|0:0,0:0:0:0:
370,318,113727,6,0,B|298:335|298:335|259:309,1,119.999990615845,2|0,3:0|1:0,0:0:0:0:
81,212,114136,2,0,B|152:229|152:229|191:203,1,119.999990615845,2|0,0:3|0:0,0:0:0:0:
80,39,114545,2,0,B|58:63|58:63|56:113,1,64.9999939250949,6|0,3:0|0:0,0:0:0:0:
141,367,114818,2,0,B|115:346|115:346|104:298,1,64.9999939250949,2|0,0:3|0:0,0:0:0:0:
203,124,115090,2,0,B|127:137,1,64.9999939250949,2|0,1:3|0:0,0:0:0:0:
29,350,115363,5,2,0:1:0:0:
127,151,115500,1,0,0:0:0:0:
337,95,115636,2,0,P|410:133|418:161,1,69.9999945259097,6|0,1:0|0:0,0:0:0:0:
440,305,115909,70,0,B|466:266|466:266|449:194,1,119.999990615845,2|0,3:0|1:0,0:0:0:0:
248,77,116318,2,0,L|266:167,1,59.9999953079226,2|0,3:0|0:0,0:0:0:0:
265,157,116590,1,2,0:3:0:0:
100,54,116727,2,0,B|127:32|127:32|156:28,1,64.9999939250949,6|0,3:0|0:0,0:0:0:0:
399,118,117000,2,0,B|381:88|381:88|354:74,1,64.9999939250949,2|0,0:3|0:0,0:0:0:0:
61,132,117272,1,2,1:3:0:0:
61,132,117545,5,6,1:0:0:0:
258,41,117681,1,0,0:0:0:0:
404,203,117818,2,0,P|403:244|384:282,1,69.9999945259097,6|0,1:0|0:0,0:0:0:0:
206,213,118090,6,0,B|277:195|277:195|316:221,1,119.999990615845,2|0,3:0|1:0,0:0:0:0:
506,107,118500,2,0,B|434:89|434:89|395:115,1,119.999990615845,2|0,0:3|0:0,0:0:0:0:
301,12,118909,2,0,B|318:37|318:37|321:89,1,64.9999939250949,6|0,3:0|0:0,0:0:0:0:
446,249,119181,2,0,B|432:221|432:221|403:202,1,64.9999939250949,2|0,0:3|0:0,0:0:0:0:
153,79,119454,2,0,L|262:60,1,64.9999939250949,2|0,1:3|0:0,0:0:0:0:
445,20,119727,5,2,0:1:0:0:
234,64,119863,1,0,0:0:0:0:
151,262,120000,2,0,P|179:322|206:338,1,69.9999945259097,6|0,1:0|0:0,0:0:0:0:
411,312,120272,70,0,B|429:241|429:241|403:202,1,119.999990615845,2|0,3:0|1:0,0:0:0:0:
308,14,120681,2,0,B|326:85|326:85|300:124,1,119.999990615845,2|0,0:3|0:0,0:0:0:0:
91,165,121090,2,0,B|111:139|111:139|180:123,1,64.9999939250949,6|0,3:0|0:0,0:0:0:0:
180,323,121363,2,0,B|200:349|200:349|269:365,1,64.9999939250949,2|0,0:3|0:0,0:0:0:0:
403,202,121636,2,0,L|338:215,1,64.9999939250949,2|0,1:3|0:0,0:0:0:0:
122,247,121909,5,2,0:1:0:0:
321,218,122045,1,0,0:0:0:0:
450,67,122181,2,0,P|454:32|446:-1,1,69.9999945259097,6|0,1:0|0:0,0:0:0:0:
142,131,122454,6,0,B|181:157|181:157|252:139,1,119.999990615845,2|0,3:3|1:0,0:0:0:0:
430,209,122863,2,0,B|391:235|391:235|320:217,1,119.999990615845,2|0,0:3|0:0,0:0:0:0:
253,293,123272,2,0,B|247:261|247:261|225:236,1,64.9999939250949,6|0,3:0|0:0,0:0:0:0:
297,95,123545,2,0,B|280:122|280:122|251:138,1,64.9999939250949,2|0,0:3|0:0,0:0:0:0:
157,376,123818,2,0,B|172:281,1,64.9999939250949,0|0,1:0|0:0,0:0:0:0:
101,110,124090,5,2,0:1:0:0:
170,292,124227,1,0,0:0:0:0:
359,384,124363,2,0,P|420:370|445:338,1,69.9999945259097,6|0,1:0|0:0,0:0:0:0:
364,188,124636,70,0,B|346:259|346:259|372:298,1,119.999990615845,2|0,3:0|1:0,0:0:0:0:
488,113,125045,2,0,L|412:104,1,59.9999953079226,2|0,3:0|0:0,0:0:0:0:
408,103,125318,1,2,0:3:0:0:
491,267,125454,2,0,B|465:242|465:242|416:237,1,64.9999939250949,6|0,3:0|0:0,0:0:0:0:
273,90,125727,2,0,B|298:65|298:65|347:60,1,64.9999939250949,2|0,0:3|0:0,0:0:0:0:
115,164,126000,21,2,1:0:0:0:
179,99,126136,1,2,0:0:0:0:
362,194,126272,37,2,1:1:0:0:
164,91,126409,1,2,0:1:0:0:
306,312,126545,38,2,L|270:72,1,224.999997854233,4|0,1:0|0:0,0:3:0:0:
489,58,127090,2,0,P|465:104|461:141,1,74.9999992847443,2|0,1:0|0:0,0:0:0:0:
416,215,127363,1,2,0:0:0:0:
344,54,127500,2,2,P|277:11|196:69,1,149.999998569489,2|0,0:1|0:0,0:1:0:0:
51,68,127909,6,0,P|92:72|124:90,1,64.9999939250949,2|0,0:1|0:0,0:0:0:0:
94,243,128181,1,2,1:0:0:0:
141,168,128318,1,0,0:0:0:0:
282,217,128454,2,0,P|251:207|225:187,1,64.9999939250949,2|0,0:1|0:0,0:0:0:0:
415,50,128727,6,2,L|398:305,1,239.999988555908,4|0,1:0|0:0,0:3:0:0:
205,311,129272,2,0,P|246:304|283:273,1,79.9999961853028,2|0,1:0|0:0,0:0:0:0:
314,176,129545,1,2,0:0:0:0:
359,374,129681,2,2,P|436:373|484:306,1,159.999992370606,2|0,0:1|0:0,0:1:0:0:
273,256,130090,6,0,P|240:227|233:182,1,69.9999945259097,2|0,0:1|0:0,0:0:0:0:
159,74,130363,2,0,P|151:102|101:144,1,69.9999945259097,2|0,1:0|0:0,0:0:0:0:
10,173,130636,1,2,0:0:0:0:
78,62,130773,1,0,0:0:0:0:
136,321,130909,70,2,P|135:264|38:264,1,169.999995136261,4|0,1:0|0:0,0:1:0:0:
34,277,131318,1,0,0:0:0:0:
211,369,131454,2,0,P|228:325|228:281,1,84.9999975681305,2|0,1:0|0:0,0:0:0:0:
190,147,131727,1,2,0:0:0:0:
380,241,131863,2,2,P|301:226|277:138,1,169.999995136261,2|0,0:1|0:0,0:1:0:0:
377,5,132272,6,0,P|360:50|365:91,1,74.9999992847443,2|0,0:1|0:0,0:0:0:0:
479,249,132545,2,0,P|472:200|440:157,1,74.9999992847443,2|0,1:0|0:0,0:0:0:0:
453,59,132818,1,2,0:0:0:0:
380,241,132954,1,2,0:1:0:0:
217,119,133090,6,2,P|274:83|298:208,1,239.999988555908,4|0,1:0|0:0,0:1:0:0:
243,362,133636,2,0,P|234:323|249:277,1,79.9999961853028,2|0,1:0|0:0,0:0:0:0:
117,207,133909,1,2,0:0:0:0:
147,367,134045,2,0,P|103:309|114:208,1,159.999992370606,2|0,0:1|0:0,0:0:0:0:
138,23,134454,5,2,0:1:0:0:
99,114,134590,1,0,0:0:0:0:
210,81,134727,1,2,1:0:0:0:
203,213,134863,1,0,0:0:0:0:
300,81,135000,2,0,L|333:190,1,99.9999952316285,2|0,0:1|0:0,0:0:0:0:
448,378,135272,70,2,L|470:147,1,224.999997854233,4|0,1:0|0:0,0:3:0:0:
330,22,135818,2,0,P|320:54|333:108,1,74.9999992847443,2|0,1:0|0:0,0:0:0:0:
358,181,136090,1,2,0:0:0:0:
240,20,136227,2,2,P|240:114|286:186,1,149.999998569489,0|0,0:0|0:0,0:1:0:0:
442,199,136636,6,0,P|401:203|369:221,1,64.9999939250949,2|0,0:1|0:0,0:0:0:0:
379,373,136908,1,2,1:0:0:0:
342,291,137045,1,0,0:0:0:0:
199,294,137181,2,0,P|225:276|259:267,1,64.9999939250949,2|0,0:1|0:0,0:0:0:0:
97,369,137454,6,2,L|60:131,1,239.999988555908,4|0,1:0|0:0,0:3:0:0:
259,32,138000,2,0,P|233:75|237:115,1,79.9999961853028,2|0,1:0|0:0,0:0:0:0:
262,185,138272,1,2,0:0:0:0:
150,18,138409,2,2,P|143:107|185:183,1,159.999992370606,2|0,0:1|0:0,0:1:0:0:
256,327,138818,6,0,P|280:298|290:249,1,69.9999945259097,2|0,0:1|0:0,0:0:0:0:
391,130,139090,2,0,P|372:185|381:226,1,79.9999961853028,2|0,1:0|0:0,0:0:0:0:
453,374,139363,1,2,0:0:0:0:
484,257,139500,1,2,0:1:0:0:
292,268,139636,70,2,P|332:241|352:340,1,169.999995136261,4|0,1:0|0:0,0:1:0:0:
367,345,140045,1,0,0:0:0:0:
219,202,140181,2,0,P|208:252|182:280,1,84.9999975681305,2|0,1:0|0:0,0:0:0:0:
125,344,140454,1,2,0:0:0:0:
5,162,140590,2,2,P|31:213|139:205,1,169.999995136261,2|0,0:1|0:0,0:1:0:0:
190,63,141000,6,0,P|219:106|219:149,1,74.9999992847443,2|0,0:1|0:0,0:0:0:0:
252,286,141272,2,0,P|281:243|281:200,1,74.9999992847443,2|0,1:0|0:0,0:0:0:0:
394,71,141545,1,2,0:1:0:0:
316,124,141681,1,0,0:0:0:0:
373,305,141818,6,0,P|422:305|496:234,1,149.999998569489,6|2,1:0|0:0,0:0:0:0:
498,218,142227,1,0,0:0:0:0:
358,211,142363,6,0,P|393:176|391:66,1,159.999992370606,2|2,1:0|0:0,0:0:0:0:
385,54,142772,1,0,0:0:0:0:
280,155,142909,102,0,P|280:105|213:34,1,129.99998785019,2|0,1:0|0:0,0:0:0:0:
213,35,143318,1,0,0:0:0:0:
185,170,143454,6,0,P|170:149|150:134,1,49.9999976158143,2|0,1:0|0:0,0:0:0:0:
79,123,143727,2,0,P|47:133|22:151,1,49.9999976158143,2|0,0:0|0:0,0:0:0:0:
100,220,144000,21,4,0:1:0:0:
334,238,145090,86,0,L|317:376,2,119.999994277954,2|0|0,0:0|0:0|0:0,0:0:0:0:
344,152,146181,1,2,0:0:0:0:
178,238,147272,22,0,L|195:376,2,119.999994277954,6|0|0,0:0|0:0|0:0,0:0:0:0:
168,152,148363,1,6,0:0:0:0:
328,68,149454,6,0,P|254:181|182:67,1,319.999984741211,2|2,0:0|0:0,0:0:0:0:
256,262,151090,2,0,L|256:102,2,159.999992370606,2|0|2,0:0|0:0|0:0,0:0:0:0:
256,16,152727,1,6,0:0:0:0:
197,295,153818,6,0,L|65:313,2,119.999994277954,2|0|0,0:0|0:0|0:0,0:0:0:0:
125,216,154909,1,2,0:0:0:0:
315,295,156000,38,0,L|447:313,2,119.999994277954,6|0|0,0:0|0:0|0:0,0:0:0:0:
387,216,157091,1,6,0:0:0:0:
256,192,157227,12,2,159272,0:0:0:0:
256,192,159409,12,0,160909,0:0:0:0:
256,192,161454,53,4,0:1:0:0:
377,87,162000,5,0,0:0:0:0:
361,313,162545,1,2,0:0:0:0:
135,297,163090,1,0,0:0:0:0:
151,71,163636,2,0,P|158:126|257:167,1,159.999992370606,2|0,0:0|0:0,0:0:0:0:
308,90,164454,5,0,3:0:0:0:
305,74,164590,1,0,0:0:0:0:
387,102,164727,21,2,0:0:0:0:
400,31,164863,1,0,0:0:0:0:
396,90,165000,2,0,L|389:33,1,39.9999980926514,0|0,3:0|0:0,0:0:0:0:
467,120,165272,53,2,0:0:0:0:
485,31,165408,1,0,0:0:0:0:
478,100,165545,2,0,L|469:24,1,49.9999976158143,0|0,3:0|0:0,0:0:0:0:
433,189,165818,6,0,P|474:199|511:185,1,79.9999961853028,2|0,0:0|0:0,0:0:0:0:
391,108,166363,2,0,P|350:98|313:112,1,79.9999961853028,2|0,0:0|0:0,0:0:0:0:
256,192,166909,1,2,0:0:0:0:
256,192,167181,1,2,0:0:0:0:
90,21,167727,54,0,P|44:55|49:167,1,159.999992370606,2|0,0:0|0:0,0:0:0:0:
121,108,168545,2,0,P|162:98|199:112,1,79.9999961853028,2|0,0:0|0:0,0:0:0:0:
256,192,169090,1,2,0:0:0:0:
256,192,169362,1,2,0:0:0:0:
114,68,170181,53,4,0:1:0:0:
95,288,170727,1,0,0:0:0:0:
298,374,171272,1,6,0:0:0:0:
443,208,171818,1,0,0:0:0:0:
329,19,172363,2,0,P|303:80|390:165,1,199.999990463257,2|4,0:0|0:1,0:0:0:0:
425,272,173181,101,0,3:0:0:0:
429,252,173318,1,0,0:0:0:0:
351,332,173454,53,2,0:0:0:0:
331,243,173590,1,0,0:0:0:0:
335,317,173727,2,0,L|342:259,1,49.9999976158143,0|0,3:0|0:0,0:0:0:0:
266,350,174000,85,2,0:0:0:0:
244,246,174136,1,0,0:0:0:0:
246,332,174273,2,0,L|254:262,1,59.9999953079226,0|0,3:0|0:0,0:0:0:0:
190,384,174545,102,0,P|128:375|96:329,1,99.9999952316285,4|0,0:0|0:0,0:0:0:0:
10,273,175090,2,0,P|72:264|104:218,1,99.9999952316285,2|0,0:0|0:0,0:0:0:0:
134,134,175636,1,0,3:0:0:0:
134,134,175909,1,2,0:0:0:0:
256,292,176454,53,2,0:0:0:0:
256,192,176727,12,0,178363,1:0:0:0:
494,131,178909,70,2,P|451:101|439:213,1,194.999981775285,6|0,1:0|0:0,0:3:0:0:
366,342,179454,2,0,P|368:300|340:249,1,74.9999992847442,2|0,1:0|0:0,0:0:0:0:
302,174,179727,2,0,P|282:211|232:241,1,74.9999992847442,2|0,0:0|0:0,0:0:0:0:
136,383,180000,6,2,P|128:322|74:241,1,149.999998569488,4|0,1:3|0:0,0:1:0:0:
6,210,180409,1,0,0:0:0:0:
217,337,180545,2,0,P|254:332|286:314,1,74.9999992847442,2|0,1:0|0:0,0:0:0:0:
371,196,180818,2,0,P|333:191|301:173,1,74.9999992847442,2|0,0:0|0:0,0:0:0:0:
318,7,181091,6,2,P|412:31|342:111,1,224.999997854233,6|0,1:0|0:0,0:3:0:0:
231,150,181636,2,0,P|268:154|300:172,1,74.9999992847442,0|0,1:0|0:0,0:0:0:0:
444,234,181909,1,2,0:1:0:0:
363,258,182045,1,2,0:0:0:0:
277,354,182182,85,6,1:3:0:0:
239,268,182318,1,0,0:0:0:0:
264,364,182454,2,2,L|245:251,1,87.4999966621398,2|0,0:1|0:0,0:1:0:0:
239,21,182727,5,2,1:0:0:0:
205,141,182864,1,0,0:0:0:0:
228,31,183000,2,2,L|213:140,1,99.9999952316283,2|0,0:0|0:0,0:1:0:0:
52,269,183273,6,2,P|-1:190|124:185,1,262.49998998642,6|0,1:0|0:0,0:3:0:0:
252,220,183818,2,2,P|331:217|396:170,1,149.999998569489,2|0,1:0|0:0,0:1:0:0:
424,104,184227,1,0,0:0:0:0:
393,303,184364,6,2,P|333:245|328:196,1,79.9999961853028,4|0,1:3|0:0,0:1:0:0:
273,62,184636,2,0,P|260:102|236:130,1,79.9999961853028,2|0,0:1|0:0,0:0:0:0:
82,166,184909,1,0,1:0:0:0:
82,166,185182,2,2,P|11:138|-33:151,1,79.9999961853028,2|0,0:1|0:0,0:1:0:0:
205,327,185454,70,2,P|265:254|174:228,1,224.999997854233,6|0,1:0|0:0,0:3:0:0:
9,138,186000,2,2,P|22:65|76:19,1,139.999989051819,2|0,1:0|0:0,0:3:0:0:
149,4,186409,1,0,0:0:0:0:
89,219,186545,6,2,P|127:296|147:305,1,74.9999992847443,4|0,1:3|0:0,0:1:0:0:
223,90,186818,2,2,P|245:60|279:44,1,74.9999992847443,2|0,0:1|0:0,0:1:0:0:
313,221,187091,6,0,P|360:245|391:246,1,62.4999970197678,2|0,1:2|0:0,0:0:0:0:
449,172,187364,2,0,P|501:156|519:160,1,49.9999976158143,2|0,0:0|0:0,0:0:0:0:
217,290,187636,6,2,P|291:247|318:328,1,194.999981775285,6|0,1:0|0:0,0:3:0:0:
129,302,188182,2,2,P|89:233|103:152,1,149.999992847443,2|0,1:0|0:0,0:3:0:0:
128,89,188591,1,0,0:0:0:0:
338,130,188727,69,6,1:3:0:0:
240,156,188864,1,0,0:0:0:0:
326,140,189000,2,2,L|251:146,1,74.9999992847443,2|0,0:1|0:0,0:1:0:0:
0,36,189273,2,2,P|91:48|140:128,1,149.999998569489,2|0,1:0|0:0,0:3:0:0:
217,69,189682,1,0,0:0:0:0:
69,224,189818,6,2,P|124:281|137:170,1,224.999997854233,6|0,1:0|0:0,0:3:0:0:
217,69,190364,2,0,P|255:146|269:153,1,74.9999992847443,0|0,1:0|0:0,0:0:0:0:
272,266,190636,1,2,0:1:0:0:
342,222,190773,1,0,0:0:0:0:
478,344,190909,5,6,1:3:0:0:
442,237,191045,1,0,0:0:0:0:
465,335,191182,2,2,L|452:226,1,87.4999966621399,2|0,0:1|0:0,0:1:0:0:
391,23,191454,85,2,1:0:0:0:
402,146,191590,1,0,0:0:0:0:
403,36,191727,2,2,L|390:145,1,99.9999952316285,2|0,0:0|0:0,0:1:0:0:
322,339,192000,6,2,P|212:337|283:239,1,262.49998998642,6|0,1:0|0:0,0:3:0:0:
127,341,192545,2,2,P|83:334|14:237,1,149.999998569489,2|0,1:0|0:0,0:3:0:0:
7,175,192954,1,0,0:0:0:0:
196,279,193091,6,2,P|234:266|262:238,1,79.9999961853028,4|0,1:3|0:0,0:1:0:0:
403,137,193364,2,0,P|363:130|331:107,1,79.9999961853028,2|0,0:1|0:0,0:0:0:0:
126,75,193636,1,0,1:0:0:0:
126,75,193909,2,0,P|175:73|221:41,1,79.9999961853028,2|0,0:1|0:0,0:0:0:0:
497,173,194182,6,2,P|507:274|411:221,1,224.999997854233,6|0,1:0|0:0,0:3:0:0:
292,149,194727,2,2,P|334:248|317:291,1,139.999989051819,2|0,1:0|0:0,0:3:0:0:
284,346,195136,1,0,0:0:0:0:
200,59,195273,70,2,P|237:55|272:65,1,74.9999992847443,4|0,1:3|0:0,0:1:0:0:
114,187,195545,2,2,P|90:216|78:252,1,74.9999992847443,2|0,0:1|0:0,0:3:0:0:
291,148,195818,6,0,P|319:164|339:187,1,62.4999970197678,2|0,1:2|0:0,0:0:0:0:
200,267,196091,2,0,P|200:296|212:325,1,49.9999976158143,2|0,0:0|0:0,0:0:0:0:
450,317,196363,6,2,P|392:301|367:355,1,129.99998785019,4|2,1:0|0:0,0:3:0:0:
378,375,196773,1,0,0:0:0:0:
254,290,196909,2,0,P|226:283|198:265,1,59.9999953079226,2|0,1:0|0:0,0:0:0:0:
79,347,197182,2,2,P|74:296|30:216,1,119.999990615845,2|4,0:1|0:3,0:3:0:0:
30,216,197591,1,0,0:0:0:0:
162,62,197727,6,0,P|190:58|219:47,1,59.9999953079226,2|0,0:1|0:0,0:0:0:0:
114,177,198000,2,0,P|96:151|72:131,1,59.9999953079226,2|0,1:1|0:0,0:0:0:0:
238,159,198273,2,0,P|222:184|218:214,1,59.9999953079226,2|0,0:1|0:0,0:0:0:0:
370,352,198545,86,2,P|386:293|310:258,1,139.999989051819,4|2,1:0|0:0,0:3:0:0:
307,262,198954,1,0,0:0:0:0:
416,155,199091,2,0,P|446:163|477:164,1,62.4999970197678,2|0,1:0|0:0,0:0:0:0:
378,6,199364,2,2,P|333:58|321:112,1,124.999994039536,2|4,0:1|0:3,0:3:0:0:
324,138,199773,1,0,0:0:0:0:
219,261,199909,6,0,P|208:223|185:195,1,62.4999970197678,2|0,0:1|0:0,0:0:0:0:
93,335,200182,2,0,P|128:344|165:338,1,62.4999970197678,2|0,1:1|0:0,0:0:0:0:
91,190,200454,2,0,P|62:216|50:251,1,62.4999970197678,2|0,0:1|0:0,0:0:0:0:
184,16,200727,6,2,P|193:66|284:71,1,149.999998569489,4|2,1:0|0:0,0:3:0:0:
296,55,201136,1,0,0:0:0:0:
466,60,201273,2,0,P|431:64|402:78,1,64.9999939250949,2|0,1:0|0:0,0:0:0:0:
357,288,201545,2,2,P|324:237|335:162,1,129.99998785019,2|4,0:1|0:3,0:3:0:0:
344,145,201954,1,0,0:0:0:0:
194,25,202091,70,0,P|165:39|133:44,1,64.9999939250949,2|0,0:1|0:0,0:0:0:0:
211,205,202364,2,0,P|213:172|226:142,1,64.9999939250949,2|0,1:1|0:0,0:0:0:0:
47,130,202636,2,0,P|74:148|94:174,1,64.9999939250949,2|0,0:1|0:0,0:0:0:0:
206,361,202909,6,2,P|199:307|123:305,1,139.999989051819,4|2,1:0|0:0,0:1:0:0:
112,324,203318,1,0,0:0:0:0:
304,356,203454,2,0,P|328:338|352:304,1,67.4999970388413,2|0,1:0|0:0,0:0:0:0:
494,223,203727,2,2,P|426:199|393:139,1,134.999994077683,2|4,0:1|0:3,0:3:0:0:
390,121,204136,1,0,0:0:0:0:
245,23,204273,2,0,P|250:69|247:104,1,67.4999970388413,2|0,0:1|0:0,0:0:0:0:
144,156,204545,5,0,1:0:0:0:
248,195,204682,1,0,0:0:0:0:
135,172,204818,1,0,3:3:0:0:
256,181,204954,1,0,0:3:0:0:
84,337,205091,6,2,P|93:289|170:289,1,129.99998785019,4|2,1:0|0:0,0:3:0:0:
175,300,205500,1,0,0:0:0:0:
320,369,205636,2,0,P|303:346|292:294,1,59.9999953079226,2|0,1:0|0:0,0:0:0:0:
423,196,205909,2,2,P|434:254|417:315,1,119.999990615845,2|4,0:1|0:3,0:3:0:0:
405,334,206318,1,0,0:0:0:0:
289,192,206454,70,0,P|249:179|220:177,1,59.9999953079226,2|0,0:1|0:0,0:0:0:0:
347,51,206727,2,0,P|355:92|368:118,1,59.9999953079226,2|0,1:0|0:0,0:0:0:0:
196,72,207000,2,0,P|227:43|243:19,1,59.9999953079226,2|0,0:1|0:0,0:0:0:0:
8,111,207273,6,2,P|66:118|78:203,1,139.999989051819,4|2,1:0|0:0,0:3:0:0:
79,209,207682,1,0,0:0:0:0:
112,357,207818,2,0,P|109:321|118:290,1,62.4999970197678,2|0,1:0|0:0,0:0:0:0:
223,182,208090,2,2,P|261:229|264:290,1,124.999994039536,2|4,0:1|0:3,0:3:0:0:
258,317,208499,1,0,0:0:0:0:
413,201,208636,6,0,P|376:216|351:242,1,62.4999970197678,2|0,0:1|0:0,0:0:0:0:
501,317,208909,2,0,P|505:281|495:245,1,62.4999970197678,2|0,1:1|0:0,0:0:0:0:
358,336,209181,2,0,P|387:361|423:369,1,62.4999970197678,2|0,0:1|0:0,0:0:0:0:
248,240,209454,6,2,P|229:278|140:252,1,139.999989051819,4|2,1:0|0:0,0:1:0:0:
135,245,209864,1,0,0:0:0:0:
245,57,210000,70,0,L|252:131,1,64.9999939250949,2|0,1:1|0:0,0:0:0:0:
365,237,210273,2,0,L|371:172,1,64.9999939250949,2|0,0:1|0:0,0:0:0:0:
484,49,210545,1,4,1:3:0:0:
484,49,210818,2,0,P|451:62|410:57,1,64.9999939250949,2|0,0:1|0:0,0:0:0:0:
230,49,211091,6,0,L|237:126,1,69.9999945259097,2|0,1:0|0:0,0:0:0:0:
378,247,211364,2,0,L|384:174,1,69.9999945259097,2|0,0:1|0:0,0:0:0:0:
508,22,211636,6,2,P|474:55|381:38,1,139.999989051819,4|0,1:0|0:0,0:1:0:0:
368,29,212045,1,0,0:0:0:0:
212,38,212182,6,0,L|222:142,1,87.4999966621399,2|0,1:0|0:0,0:0:0:0:
389,255,212455,2,0,L|396:165,1,87.4999966621399,2|0,0:1|0:0,0:0:0:0:
508,23,212727,1,4,1:3:0:0:
110,269,213272,21,2,1:0:0:0:
110,269,213818,38,2,P|210:322|204:214,1,262.49998998642,6|0,1:0|0:0,0:3:0:0:
111,102,214364,1,2,1:0:0:0:
190,135,214500,1,0,0:0:0:0:
316,50,214636,2,0,P|272:55|241:79,1,74.9999992847443,2|0,0:1|0:0,0:0:0:0:
424,301,214909,6,2,P|346:279|307:192,1,129.99998785019,4|0,1:3|0:0,0:3:0:0:
312,221,215318,1,0,0:0:0:0:
505,133,215454,1,2,1:0:0:0:
450,197,215591,1,0,0:0:0:0:
308,133,215727,2,0,P|341:137|380:166,1,74.9999992847443,2|0,0:1|0:0,0:0:0:0:
110,269,216000,6,2,P|117:159|210:217,1,262.49998998642,6|0,1:0|0:0,0:3:0:0:
150,378,216545,1,2,1:0:0:0:
191,302,216682,1,0,0:0:0:0:
340,339,216818,2,0,P|302:330|271:306,1,74.9999992847443,2|0,0:1|0:0,0:0:0:0:
451,170,217091,6,2,P|376:188|349:268,1,129.99998785019,4|0,1:3|0:0,0:3:0:0:
344,254,217500,1,0,0:0:0:0:
458,347,217636,2,0,P|444:320|414:298,1,64.9999939250949,2|0,1:0|0:0,0:0:0:0:
388,75,217909,2,0,P|383:117|350:152,1,74.9999992847443,2|0,0:1|0:0,0:0:0:0:
70,63,218182,70,0,P|147:-5|168:115,1,262.49998998642,6|0,1:0|0:0,0:0:0:0:
60,187,218727,1,2,1:0:0:0:
145,181,218864,1,0,0:0:0:0:
239,300,219000,2,0,P|205:285|182:256,1,74.9999992847443,2|0,0:1|0:0,0:0:0:0:
375,72,219273,6,2,P|314:92|285:148,1,129.99998785019,4|0,1:3|0:0,0:3:0:0:
286,172,219682,1,0,0:0:0:0:
436,283,219818,1,2,1:0:0:0:
353,265,219954,1,0,0:0:0:0:
253,380,220091,2,0,P|286:364|309:335,1,74.9999992847443,2|0,0:1|0:0,0:0:0:0:
211,218,220364,6,2,P|134:253|43:243,1,164.999997167587,6|0,1:0|0:0,0:3:0:0:
21,368,220909,2,0,P|5:347|0:320,1,54.9999990558624,2|0,1:0|0:0,0:0:0:0:
159,111,221182,2,0,P|134:135|124:164,1,64.9999939250949,2|0,0:1|0:0,0:0:0:0:
194,330,221454,6,2,P|266:300|395:301,1,194.999981775285,4|0,1:3|0:0,0:3:0:0:
449,384,222000,2,0,P|453:346|471:314,1,74.9999992847443,2|0,1:0|0:0,0:0:0:0:
212,178,222273,2,0,P|264:271|287:276,1,84.9999975681305,2|0,0:1|0:0,0:0:0:0:
415,39,222545,70,2,P|312:12|348:117,1,254.999992704392,6|0,1:0|0:0,0:3:0:0:
452,204,223091,1,2,1:1:0:0:
367,192,223227,1,0,0:0:0:0:
289,327,223364,2,0,P|323:264|314:228,1,74.9999992847443,2|0,0:1|0:0,0:0:0:0:
159,37,223636,6,2,P|236:122|220:176,1,129.99998785019,4|0,1:3|0:0,0:3:0:0:
231,151,224045,1,0,0:0:0:0:
57,255,224182,1,2,1:0:0:0:
96,179,224318,1,0,0:0:0:0:
245,233,224454,2,0,P|198:229|166:205,1,74.9999992847443,2|0,0:1|0:0,0:0:0:0:
415,39,224727,6,2,P|448:144|339:115,1,262.49998998642,6|0,1:0|0:0,0:3:0:0:
211,3,225273,1,2,1:0:0:0:
276,60,225409,1,0,0:0:0:0:
158,166,225545,2,0,P|180:136|215:124,1,74.9999992847443,2|0,0:1|0:0,0:0:0:0:
440,303,225818,6,2,P|382:235|313:242,1,129.99998785019,4|0,1:3|0:0,0:3:0:0:
326,236,226227,1,0,0:0:0:0:
309,371,226364,2,0,P|304:339|287:311,1,64.9999939250949,2|0,1:0|0:0,0:0:0:0:
442,85,226636,2,0,P|437:116|403:162,1,74.9999992847443,2|0,0:1|0:0,0:0:0:0:
120,218,226909,70,2,P|118:117|224:177,1,262.49998998642,6|0,1:0|0:0,0:3:0:0:
125,361,227454,1,2,1:0:0:0:
164,287,227591,1,0,0:0:0:0:
317,316,227727,2,0,P|278:308|239:273,1,74.9999992847443,2|0,0:1|0:0,0:0:0:0:
442,85,228000,6,2,P|345:105|324:158,1,129.99998785019,4|0,1:3|0:0,0:3:0:0:
410,162,228409,1,0,0:0:0:0:
225,75,228545,2,0,P|230:106|252:138,1,64.9999939250949,2|0,1:0|0:0,0:0:0:0:
469,219,228818,2,0,P|369:234|347:214,1,74.9999992847443,2|0,0:1|0:0,0:0:0:0:
229,216,229091,6,2,B|134:194|142:287|38:256,1,194.999981775285,6|0,1:0|0:0,0:3:0:0:
40,128,229636,2,0,P|64:149|77:184,1,64.9999939250949,2|0,1:0|0:0,0:0:0:0:
177,366,229909,2,0,P|183:330|204:300,1,74.9999992847443,2|0,0:1|0:0,0:0:0:0:
313,150,230182,6,2,B|438:127|400:224|532:187,1,224.999997854233,4|0,1:3|0:0,0:3:0:0:
438,37,230727,2,0,P|465:61|482:113,1,87.4999966621399,2|0,1:0|0:0,0:0:0:0:
295,313,231000,2,0,P|350:231|347:204,1,99.9999952316285,2|0,0:1|0:0,0:0:0:0:
170,56,231273,70,0,P|273:44|261:147,1,239.999988555908,6|0,1:0|0:0,0:0:0:0:
86,229,231818,2,0,P|52:218|20:220,1,64.9999939250949,2|0,1:0|0:0,0:0:0:0:
39,309,232091,2,0,P|73:320|105:318,1,64.9999939250949
259,148,232364,6,2,P|210:189|199:262,1,139.999989051819,4|0,1:3|0:0,0:3:0:0:
207,282,232773,1,0,0:0:0:0:
422,367,232909,2,0,P|427:336|417:294,1,64.9999939250949,2|0,1:0|0:0,0:0:0:0:
335,265,233182,2,0,P|329:296|334:328,1,64.9999939250949
480,65,233454,6,2,P|456:158|360:87,1,239.999988555908,6|0,1:0|0:0,0:3:0:0:
206,43,234000,2,0,P|166:52|135:78,1,64.9999939250949,2|0,1:0|0:0,0:0:0:0:
210,133,234273,2,0,P|249:123|280:97,1,64.9999939250949
13,6,234545,6,2,P|52:80|38:152,1,139.999989051819,4|0,1:3|0:0,0:3:0:0:
36,153,234954,1,0,0:0:0:0:
75,348,235091,69,2,1:0:0:0:
82,225,235227,1,0,0:0:0:0:
56,355,235364,1,2,0:0:0:0:
103,214,235500,1,2,0:0:0:0:
278,353,235636,6,2,P|267:271|158:329,1,239.999988555908,6|0,1:0|0:0,0:3:0:0:
385,362,236182,2,0,P|417:364|448:356,1,64.9999939250949,2|0,1:0|0:0,0:0:0:0:
476,265,236454,2,0,P|443:262|412:270,1,64.9999939250949
355,66,236727,6,2,P|324:115|326:204,1,139.999989051819,4|0,1:3|0:0,0:1:0:0:
333,216,237136,1,0,0:0:0:0:
192,357,237273,2,0,P|162:356|125:334,1,64.9999939250949,2|0,1:0|0:0,0:0:0:0:
195,267,237545,2,0,P|225:268|262:290,1,64.9999939250949
0,206,237818,6,2,P|103:219|95:115,1,239.999988555908,6|0,1:0|0:0,0:3:0:0:
263,183,238364,2,0,P|297:181|331:156,1,64.9999939250949,2|0,1:0|0:0,0:0:0:0:
268,93,238636,2,0,P|234:92|206:108,1,64.9999939250949
463,15,238909,70,2,P|424:76|419:156,1,139.999989051819,4|0,1:3|0:0,0:3:0:0:
427,161,239318,1,0,0:0:0:0:
459,347,239454,5,2,1:0:0:0:
486,221,239590,1,0,0:0:0:0:
447,360,239726,1,2,0:0:0:0:
501,211,239863,1,2,0:0:0:0:
247,267,240000,6,2,P|274:229|337:339,1,239.999988555908,4|0,1:0|0:0,0:3:0:0:
175,360,240545,2,0,P|146:336|103:327,1,64.9999939250949,2|0,1:0|0:0,0:0:0:0:
22,282,240818,2,0,P|51:258|94:249,1,64.9999939250949
165,31,241091,6,2,B|148:96|213:90|192:162,1,139.999989051819,4|0,1:3|0:0,0:3:0:0:
188,182,241500,1,0,0:0:0:0:
278,355,241636,2,0,P|271:315|261:271,1,64.9999939250949,2|0,1:0|0:0,0:0:0:0:
379,231,241909,2,0,P|372:262|367:295,1,64.9999939250949
377,87,242182,70,2,P|395:124|476:31,1,239.999988555908,6|0,1:0|0:0,0:3:0:0:
296,156,242727,2,0,P|266:146|220:138,1,64.9999939250949,2|0,1:0|0:0,0:0:0:0:
176,49,243000,2,0,P|208:43|239:32,1,64.9999939250949
165,228,243273,6,2,B|93:206|100:271|34:255,1,139.999989051819,4|0,1:3|0:0,0:3:0:0:
16,245,243682,1,0,0:0:0:0:
5,55,243818,5,2,1:0:0:0:
67,161,243954,1,0,0:0:0:0:
13,42,244091,1,2,0:0:0:0:
57,173,244227,1,2,0:0:0:0:
252,60,244364,6,2,P|187:30|173:160,1,239.999988555908,6|0,1:0|0:0,0:3:0:0:
309,266,244909,2,0,P|267:270|234:282,1,64.9999939250949,2|0,1:0|0:0,0:0:0:0:
332,174,245182,2,0,P|363:182|395:184,1,64.9999939250949
466,370,245454,70,2,B|449:305|514:311|493:239,1,139.999989051819,4|0,1:3|0:0,0:3:0:0:
489,219,245863,1,0,0:0:0:0:
501,30,246000,2,0,P|481:68|473:98,1,64.9999939250949,2|0,1:0|0:0,0:0:0:0:
395,184,246273,2,0,P|384:153|368:124,1,64.9999939250949
188,28,246545,6,2,B|211:119|121:111|150:211,1,194.999981775285,6|0,1:0|0:0,0:3:0:0:
105,54,247091,2,0,P|60:40|26:37,1,64.9999939250949,2|0,1:0|0:0,0:0:0:0:
225,173,247364,2,0,P|270:159|304:156,1,64.9999939250949,2|0,0:0|0:0,0:0:0:0:
481,27,247636,6,2,P|469:58|462:103,1,64.9999939250949,6|0,1:3|0:0,0:3:0:0:
303,154,247909,2,0,P|291:123|284:78,1,64.9999939250949,2|0,0:0|0:0,0:0:0:0:
470,266,248182,5,2,1:0:0:0:
390,239,248318,1,0,0:0:0:0:
323,264,248454,1,2,0:0:0:0:
291,313,248591,1,2,0:0:0:0:
286,358,248727,85,4,1:0:0:0:
103,184,249545,53,0,0:0:0:0:
103,184,249818,2,0,P|140:196|180:197,1,79.9999961853028,2|0,0:0|0:0,0:0:0:0:
256,171,250363,2,0,P|279:138|293:101,1,79.9999961853028
292,19,250909,1,2,0:0:0:0:
409,184,251727,53,0,0:0:0:0:
409,184,252000,2,0,P|371:196|331:197,1,79.9999961853028,2|0,0:0|0:0,0:0:0:0:
256,171,252545,2,0,P|232:138|218:101,1,79.9999961853028
220,20,253091,1,2,0:0:0:0:
45,213,254181,54,0,P|127:244|203:247,1,159.999992370606,2|0,0:0|0:0,0:0:0:0:
256,192,255000,1,0,0:0:0:0:
327,229,255272,2,0,P|362:300|373:379,1,159.999992370606,2|0,0:0|0:0,0:0:0:0:
252,112,256363,2,0,P|296:45|359:-3,1,159.999992370606,2|0,0:0|0:0,0:0:0:0:
256,192,257454,53,0,0:0:0:0:
256,192,257727,12,0,259363,0:0:0:0:
44,202,259636,54,0,B|122:225|107:156|196:179,1,159.999992370606,2|0,0:0|0:0,0:0:0:0:
354,4,260727,2,0,B|294:60|361:81|297:147,1,159.999992370606,2|0,0:0|0:0,0:0:0:0:
368,371,261818,2,0,B|348:291|296:338|271:249,1,159.999992370606,2|0,0:0|0:0,0:0:0:0:
256,192,264000,53,2,0:0:0:0:
256,192,265090,2,0,P|194:203|111:272,1,159.999992370606,2|0,0:0|0:0,0:0:0:0:
88,335,265909,1,0,0:0:0:0:
13,364,266181,53,4,0:1:0:0:
477,64,267272,54,0,P|429:51|398:56,1,79.9999961853028,2|0,0:0|0:0,0:0:0:0:
334,102,267818,2,0,P|318:143|321:185,1,79.9999961853028
353,251,268363,1,2,0:0:0:0:
35,64,269454,54,0,P|83:51|114:56,1,79.9999961853028,2|0,0:0|0:0,0:0:0:0:
178,102,270000,2,0,P|194:143|191:185,1,79.9999961853028
159,251,270545,1,2,0:0:0:0:
489,361,271636,54,0,P|409:362|325:314,1,159.999992370606,2|0,0:0|0:0,0:0:0:0:
294,256,272454,1,0,0:0:0:0:
316,179,272727,54,0,B|405:156|390:225|468:202,1,159.999992370606,2|0,0:0|0:0,0:0:0:0:
240,251,273818,2,0,B|216:338|164:291|144:371,1,159.999992370606,2|0,0:0|0:0,0:0:0:0:
215,147,274909,2,0,B|151:81|218:60|158:4,1,159.999992370606,2|0,0:0|0:0,0:0:0:0:
173,265,277090,38,0,B|205:268|274:275|258:393|198:409|130:390|92:347|92:343|92:340|13:240|69:162|178:204|243:174|238:94,1,559.99997329712,2|0,0:0|0:0,0:0:0:0:
256,10,279272,2,0,B|318:24|347:92|329:161|278:216|278:216|329:238|390:200|390:200|450:236|446:339|378:377,1,559.99997329712,2|0,0:0|0:0,0:0:0:0:
304,374,281454,1,2,0:0:0:0:
256,192,281590,12,4,283636,0:1:0:0:
176,17,284181,69,2,0:0:0:0:
191,95,284727,1,0,0:0:0:0:
207,173,285272,1,2,0:0:0:0:
447,210,286363,53,2,0:0:0:0:
372,184,286909,1,0,0:0:0:0:
296,159,287454,1,2,0:0:0:0:
144,348,288545,53,2,0:0:0:0:
204,296,289091,1,0,0:0:0:0:
264,243,289636,1,2,0:0:0:0:
264,243,290181,54,0,P|246:187|247:130,1,99.9999952316285,2|0,0:0|0:0,0:0:0:0:
244,146,291000,1,0,0:0:0:0:
218,61,291272,1,0,0:0:0:0:
218,61,291545,2,0,P|178:104|128:132,1,99.9999952316285,2|0,0:0|0:0,0:0:0:0:
256,192,292363,12,0,298363,0:0:0:0:
248,141,298909,54,0,P|266:197|265:254,1,99.9999952316285,2|0,0:0|0:0,0:0:0:0:
268,238,299728,1,0,0:0:0:0:
298,338,300000,1,0,0:0:0:0:
298,338,300273,2,0,P|337:294|387:266,1,99.9999952316285,2|0,0:0|0:0,0:0:0:0:
256,192,301090,12,0,303272,0:0:0:0:
