osu file format v14

[General]
AudioFilename: audio.mp3
AudioLeadIn: 0
PreviewTime: 53349
Countdown: 1
SampleSet: Normal
StackLeniency: 0.7
Mode: 0
LetterboxInBreaks: 0
WidescreenStoryboard: 0

[Editor]
DistanceSpacing: 2.5
BeatDivisor: 4
GridSize: 4
TimelineZoom: 1.2

[Metadata]
Title:Immortal Flame
TitleUnicode:Immortal Flame
Artist:Panda Eyes & Teminite
ArtistUnicode:Panda Eyes & Teminite
Creator:_sponez
Version:Inferno
Source:
Tags:
BeatmapID:1330708
BeatmapSetID:630352

[Difficulty]
HPDrainRate:7
CircleSize:4
OverallDifficulty:8
ApproachRate:9.5
SliderMultiplier:2
SliderTickRate:1

[Events]
//Background and Video events
0,0,"fire.jpg",0,0
//Break Periods
2,22048,27870
2,30775,34415
2,264231,266779
//Storyboard Layer 0 (Background)
//Storyboard Layer 1 (Fail)
//Storyboard Layer 2 (Pass)
//Storyboard Layer 3 (Foreground)
//Storyboard Sound Samples

[TimingPoints]
4395,545.454545454546,4,2,1,100,1,0
4395,-200,4,2,1,40,0,0
28395,-166.666666666667,4,2,1,60,0,0
39304,-133.333333333333,4,3,1,60,0,0
55667,-133.333333333333,4,1,1,60,0,0
56213,-50,4,1,1,100,0,0
56758,-50,4,1,1,100,0,1
91667,-100,4,1,1,100,0,0
93576,-57.1428571428571,4,1,1,100,0,0
93849,-100,4,1,1,100,0,0
95758,-57.1428571428571,4,1,1,100,0,0
96031,-100,4,1,1,100,0,0
97940,-57.1428571428571,4,1,1,100,0,0
98213,-100,4,1,1,100,0,0
100122,-57.1428571428571,4,1,1,100,0,0
100395,-100,4,1,1,100,0,0
102304,-57.1428571428571,4,1,1,100,0,0
102576,-100,4,1,1,100,0,0
104485,-57.1428571428571,4,1,1,100,0,0
104758,-100,4,1,1,100,0,0
106667,-57.1428571428571,4,1,1,100,0,0
106940,-100,4,1,1,100,0,0
108576,-57.1428571428571,4,1,1,100,0,0
109122,-100,4,1,1,100,0,0
111031,-57.1428571428571,4,1,1,100,0,0
111304,-100,4,1,1,100,0,0
113213,-57.1428571428571,4,1,1,100,0,0
113485,-100,4,1,1,100,0,0
115395,-57.1428571428571,4,1,1,100,0,0
115667,-100,4,1,1,100,0,0
117576,-57.1428571428571,4,1,1,100,0,0
117849,-100,4,1,1,100,0,0
119758,-57.1428571428571,4,1,1,100,0,0
120031,-100,4,1,1,100,0,0
121940,-57.1428571428571,4,1,1,100,0,0
122213,-100,4,1,1,100,0,0
124122,-57.1428571428571,4,1,1,100,0,0
124395,-100,4,1,1,100,0,0
126031,-57.1428571428571,4,1,1,100,0,0
126576,-50,4,1,1,100,0,1
144031,-200,4,2,1,40,0,0
161485,-133.333333333333,4,3,1,65,0,0
170213,-100,4,3,1,75,0,0
178395,-200,4,1,0,100,0,0
178804,-200,4,1,0,10,0,0
178940,-50,4,1,1,100,0,1
196395,-100,4,1,1,80,0,0
212758,-100,4,1,1,100,0,0
213849,-50,4,1,1,100,0,1
231304,-100,4,1,1,80,0,0
240031,-100,4,1,1,65,0,0
248758,-200,4,2,1,60,0,0

[Colours]
Combo1 : 184,3,7
Combo2 : 10,0,100
Combo3 : 255,0,0
Combo4 : 0,0,64
Combo5 : 255,128,0
Combo6 : 128,0,64

[HitObjects]
128,304,4395,6,0,P|200:292|224:224,1,150,10|0,0:0|0:0,0:0:0:0:
152,236,5485,2,0,P|168:180|224:156,1,100
272,140,6304,1,0,0:0:0:0:
296,212,6576,2,0,P|344:168|352:128,1,100,2|0,0:0|0:0,0:0:0:0:
348,60,7395,1,0,0:0:0:0:
272,60,7667,2,0,B|220:64|220:64|176:96|176:96|120:104,1,150
60,116,8758,2,0,L|76:320,1,200,2|0,0:0|0:0,0:0:0:0:
376,328,10940,22,0,L|384:260,1,50,2|0,0:0|0:0,0:0:0:0:
348,264,11349,2,0,L|340:204,1,50
341,214,11758,1,0,0:0:0:0:
328,140,12031,2,0,B|324:100|324:100|300:56,1,75
288,36,12576,2,0,B|291:68|291:68|310:103|310:103|317:152,1,100,0|2,0:0|0:0,0:0:0:0:
196,328,13940,53,0,0:0:0:0:
196,328,14213,2,0,L|192:276,1,50
156,264,14622,1,0,0:0:0:0:
156,264,14758,2,0,L|152:200,1,50
148,176,15167,1,0,0:0:0:0:
148,176,15304,2,0,L|236:104,1,100,2|0,0:0|0:0,0:0:0:0:
376,12,16122,21,0,0:0:0:0:
388,84,16395,2,0,P|396:108|424:140,1,50
436,156,16804,1,0,0:0:0:0:
456,188,16940,2,0,P|468:216|472:256,1,50
464,308,17485,2,0,P|356:304|268:344,1,200,2|0,0:0|0:0,0:0:0:0:
52,296,19395,53,0,0:0:0:0:
52,296,19667,2,0,P|76:264|80:240,1,50,2|0,0:0|0:0,0:0:0:0:
72,228,20076,1,0,0:0:0:0:
68,200,20213,2,0,P|76:176|92:152,1,50
148,204,20758,2,0,P|196:200|244:156,2,100,0|0|6,0:0|0:0|0:0,0:0:0:0:
104,60,28395,22,0,P|96:96|104:128,1,59.9999981689454,2|0,0:0|0:0,0:0:0:0:
144,120,28804,2,0,P|152:164|144:196,1,59.9999981689454
149,178,29213,1,0,0:0:0:0:
140,268,29485,2,0,P|152:328|212:364,2,119.999996337891,0|0|2,0:0|0:0|0:0,0:0:0:0:
380,88,34940,37,2,0:0:0:0:
380,88,35485,38,0,L|380:160,1,59.9999981689454
296,184,36031,2,0,L|296:116,1,59.9999981689454
296,32,36576,1,0,0:0:0:0:
220,80,36849,1,0,0:0:0:0:
140,40,37122,2,0,B|96:20|96:20|44:20,1,89.9999972534181,2|0,0:0|0:0,0:0:0:0:
64,32,37667,2,0,B|96:36|96:36|140:56,1,59.9999981689454
204,80,38213,2,0,L|320:128,1,119.999996337891
300,352,39304,6,0,P|276:348|244:324,3,37.5000014305115
300,256,39849,2,0,P|278:244|256:210,3,37.5000014305115
336,168,40395,2,0,P|320:149|311:110,3,37.5000014305115
400,96,40940,2,0,P|391:73|396:33,3,37.5000014305115
296,56,41485,2,0,P|288:80|272:104,3,37.5000014305115
200,44,42031,5,0,0:0:0:0:
208,136,42167,1,0,0:0:0:0:
120,100,42304,1,0,0:0:0:0:
136,192,42440,1,0,0:0:0:0:
156,284,42576,6,0,L|168:336,3,37.5000014305115
256,296,43122,2,0,L|268:348,3,37.5000014305115
352,300,43667,2,0,L|364:336,3,37.5000014305115
416,256,44213,5,0,0:0:0:0:
396,348,44349,1,0,0:0:0:0:
488,324,44485,1,0,0:0:0:0:
416,256,44622,1,0,0:0:0:0:
344,200,44758,6,0,L|304:164,1,37.5000014305115
220,176,45031,1,0,0:0:0:0:
252,264,45167,1,0,0:0:0:0:
336,220,45304,6,0,L|296:184,1,37.5000014305115
212,196,45577,1,0,0:0:0:0:
244,284,45713,1,0,0:0:0:0:
152,264,45849,6,0,L|96:248,3,37.5000014305115
80,168,46395,2,0,L|128:180,3,37.5000014305115
208,200,46940,5,0,0:0:0:0:
176,112,47076,1,0,0:0:0:0:
268,136,47213,1,0,0:0:0:0:
236,48,47349,1,0,0:0:0:0:
328,68,47485,6,0,L|384:80,1,37.5000014305115
392,164,47758,1,0,0:0:0:0:
300,180,47895,1,0,0:0:0:0:
332,92,48031,6,0,L|280:80,3,37.5000014305115
252,172,48576,2,0,L|207:142,3,37.5000014305115
152,224,49122,2,0,L|119:181,3,37.5000014305115
72,120,49667,5,0,0:0:0:0:
164,104,49804,1,0,0:0:0:0:
100,36,49940,1,0,0:0:0:0:
72,120,50076,1,0,0:0:0:0:
164,104,50213,6,0,L|216:92,3,37.5000014305115
292,76,50758,1,0,0:0:0:0:
264,168,50895,1,0,0:0:0:0:
356,152,51031,1,0,0:0:0:0:
332,244,51167,1,0,0:0:0:0:
388,320,51304,6,0,L|420:360,3,37.5000014305115
444,264,51849,2,0,L|425:210,3,37.5000014305115
400,140,52395,2,0,L|388:104,3,37.5000014305115
312,160,52940,5,0,0:0:0:0:
304,68,53076,1,0,0:0:0:0:
220,112,53213,1,0,0:0:0:0:
224,20,53349,1,0,0:0:0:0:
140,60,53485,1,0,0:0:0:0:
256,192,53622,12,2,55667,0:0:0:0:
214,258,56213,6,0,P|258:118|282:266,1,400,4|2,0:0|0:0,0:0:0:0:
152,324,56895,5,0,0:0:0:0:
300,340,57031,1,0,0:0:0:0:
256,196,57167,1,0,0:0:0:0:
296,52,57304,2,0,P|196:52|124:120,1,200,4|0,0:0|0:0,0:0:0:0:
68,256,57713,21,0,0:0:0:0:
144,124,57849,1,2,0:0:0:0:
160,272,57985,1,0,0:0:0:0:
56,160,58122,1,0,0:0:0:0:
204,188,58258,1,0,0:0:0:0:
292,68,58395,2,0,B|292:128|292:128|324:204|272:264,1,200,4|0,0:0|0:0,0:0:0:0:
172,372,58804,5,0,0:0:0:0:
132,200,58940,1,2,0:0:0:0:
172,372,59076,1,0,0:0:0:0:
132,200,59213,1,0,0:0:0:0:
256,100,59349,1,0,0:0:0:0:
388,36,59485,2,0,B|328:68|328:68|344:112|320:148|320:148|344:192,1,200,4|0,0:0|0:0,0:0:0:0:
400,308,59895,5,0,0:0:0:0:
276,224,60031,1,2,0:0:0:0:
400,308,60167,1,0,0:0:0:0:
276,224,60304,1,0,0:0:0:0:
400,308,60440,1,0,0:0:0:0:
252,292,60576,2,0,P|208:192|304:160,1,200,4|0,0:0|0:0,0:0:0:0:
128,212,60985,53,0,0:0:0:0:
8,124,61122,1,2,0:0:0:0:
104,8,61258,1,0,0:0:0:0:
224,100,61395,1,0,0:0:0:0:
128,212,61531,1,0,0:0:0:0:
28,344,61667,2,0,L|100:252,1,100,4|0,0:0|0:0,0:0:0:0:
192,156,61940,5,0,0:0:0:0:
304,256,62076,1,0,0:0:0:0:
396,136,62213,1,2,0:0:0:0:
280,40,62349,1,0,0:0:0:0:
132,60,62485,1,0,0:0:0:0:
280,40,62622,1,0,0:0:0:0:
132,60,62758,2,0,L|148:168,1,100,4|0,0:0|0:0,0:0:0:0:
168,308,63031,5,0,0:0:0:0:
264,192,63167,1,0,0:0:0:0:
368,300,63304,1,2,0:0:0:0:
264,120,63440,1,0,0:0:0:0:
444,304,63576,1,0,0:0:0:0:
252,280,63713,53,0,0:0:0:0:
400,300,63849,2,0,L|416:180,1,100,4|0,0:0|0:0,0:0:0:0:
268,188,64122,1,0,0:0:0:0:
288,336,64258,1,0,0:0:0:0:
308,188,64395,6,0,L|328:60,2,100,2|0|0,0:0|0:0|0:0,0:0:0:0:
400,68,64804,1,0,0:0:0:0:
284,134,64940,1,6,0:0:0:0:
284,134,65076,1,8,0:0:0:0:
284,134,65213,1,8,0:0:0:0:
284,134,65349,1,8,0:0:0:0:
284,134,65485,6,0,B|280:138|280:138|288:142|288:142|280:146|280:146|288:150|288:150|280:154|280:154|288:158|288:158|280:162|280:162|288:166|288:166|280:170|280:170|288:174|288:174|280:178|280:178|288:182|288:182|280:186|280:186|288:190|288:190|280:194|280:194|288:198|288:198|280:202|280:202|288:206|288:206|280:210|280:210|288:214|288:214|280:218|280:218|288:222|288:222|280:226|280:226,1,200,2|0,0:0|0:0,0:0:0:0:
284,380,65895,1,0,0:0:0:0:
196,252,66031,54,0,B|176:264|152:280|172:304|140:328|108:340,1,100,4|0,0:0|0:0,0:0:0:0:
20,204,66304,1,0,0:0:0:0:
144,104,66440,1,0,0:0:0:0:
8,8,66576,1,2,0:0:0:0:
144,176,66713,1,0,0:0:0:0:
80,8,66849,1,0,0:0:0:0:
208,144,66985,1,0,0:0:0:0:
208,144,67122,6,0,L|228:264,1,100,4|0,0:0|0:0,0:0:0:0:
292,120,67395,1,0,0:0:0:0:
244,344,67531,1,0,0:0:0:0:
184,132,67667,1,2,0:0:0:0:
340,272,67804,1,0,0:0:0:0:
292,120,67940,1,0,0:0:0:0:
416,52,68076,5,0,0:0:0:0:
384,256,68212,1,4,0:0:0:0:
384,288,68349,1,0,0:0:0:0:
384,320,68485,1,0,0:0:0:0:
384,352,68622,1,0,0:0:0:0:
320,136,68758,53,2,0:0:0:0:
128,256,68895,1,0,0:0:0:0:
192,128,69031,1,0,0:0:0:0:
96,32,69167,5,0,0:0:0:0:
128,256,69303,1,4,0:0:0:0:
128,288,69440,1,0,0:0:0:0:
128,320,69576,1,0,0:0:0:0:
128,352,69713,1,0,0:0:0:0:
268,216,69849,5,2,0:0:0:0:
144,84,69985,1,0,0:0:0:0:
88,256,70122,1,0,0:0:0:0:
204,120,70258,1,0,0:0:0:0:
260,292,70395,1,4,0:0:0:0:
144,152,70531,1,0,0:0:0:0:
320,128,70667,1,0,0:0:0:0:
184,244,70804,1,0,0:0:0:0:
232,72,70940,53,2,0:0:0:0:
368,188,71076,1,0,0:0:0:0:
192,152,71213,5,0,0:0:0:0:
304,292,71349,1,0,0:0:0:0:
144,208,71485,5,4,0:0:0:0:
12,332,71622,1,0,0:0:0:0:
192,328,71758,1,0,0:0:0:0:
48,208,71895,1,0,0:0:0:0:
216,68,72031,53,2,0:0:0:0:
216,68,72167,2,0,L|232:172,1,100
392,80,72440,1,2,0:0:0:0:
392,80,72576,2,0,L|368:188,1,100,4|0,0:0|0:0,0:0:0:0:
336,356,72849,1,0,0:0:0:0:
240,204,72985,1,0,0:0:0:0:
100,316,73122,6,0,L|72:212,1,100,2|0,0:0|0:0,0:0:0:0:
24,48,73395,1,0,0:0:0:0:
76,220,73531,1,2,0:0:0:0:
24,48,73667,2,0,L|140:72,1,100,4|0,0:0|0:0,0:0:0:0:
300,104,73940,1,2,0:0:0:0:
136,176,74076,1,0,0:0:0:0:
280,288,74213,6,0,B|280:293|280:293|288:290|288:290|285:299|285:299|294:296|294:296|291:304|291:304|299:302|299:302|296:310|296:310|305:307|305:307|302:316|302:316|311:313|311:313|308:321|308:321|316:319|316:319|313:327|313:327|322:324|322:324|319:333|319:333|328:330|328:330|325:338|325:338|333:336|333:336|330:344|330:344|339:341|339:341|336:350|336:350|345:347|345:347|342:355|342:355,1,200,2|0,0:0|0:0,0:0:0:0:
104,32,74758,53,12,0:0:0:0:
132,232,74895,1,8,0:0:0:0:
8,76,75031,1,8,0:0:0:0:
24,276,75167,1,0,0:0:0:0:
24,276,75304,2,8,P|88:352|184:336,1,200,8|0,0:0|0:0,0:0:0:0:
164,156,75849,2,8,L|120:264,2,100,8|0|0,0:0|0:0|0:0,0:0:0:0:
404,344,76395,6,0,B|408:340|408:340|400:336|400:336|408:332|408:332|400:328|400:328|408:324|408:324|400:320|400:320|408:316|408:316|400:312|400:312|408:308|408:308|400:304|400:304|408:300|408:300|400:296|400:296|408:292|408:292|400:288|400:288|408:284|408:284|400:280|400:280|408:276|408:276|400:272|400:272|408:268|408:268|400:264|400:264|408:260|408:260|400:256|400:256|408:252|408:252,1,200,10|0,0:0|0:0,0:0:0:0:
24,348,76940,5,8,0:0:0:0:
176,220,77076,1,8,0:0:0:0:
36,76,77213,1,8,0:0:0:0:
72,272,77349,1,8,0:0:0:0:
208,124,77485,2,8,L|300:32,1,100,8|0,0:0|0:0,0:0:0:0:
272,256,77758,1,8,0:0:0:0:
296,56,77895,1,0,0:0:0:0:
292,256,78031,53,2,0:0:0:0:
292,256,78167,1,8,0:0:0:0:
292,256,78304,1,8,0:0:0:0:
292,256,78440,1,8,0:0:0:0:
292,256,78576,2,0,P|408:192|288:248,1,400,2|2,0:0|0:0,0:0:0:0:
200,60,79258,5,8,0:0:0:0:
349,222,79395,1,8,0:0:0:0:
160,160,79531,1,8,0:0:0:0:
276,372,79667,2,0,B|200:260|200:260|164:280|124:260,1,200,2|2,0:0|0:0,0:0:0:0:
144,64,80076,1,0,0:0:0:0:
300,192,80213,5,2,0:0:0:0:
224,8,80349,1,8,0:0:0:0:
192,204,80485,1,8,0:0:0:0:
320,52,80622,1,8,0:0:0:0:
208,292,80758,2,0,B|284:272|272:192|272:192|296:352|472:360,1,400,2|2,0:0|0:0,0:0:0:0:
248,360,81440,53,8,0:0:0:0:
152,184,81576,1,8,0:0:0:0:
248,360,81713,1,8,0:0:0:0:
440,308,81849,2,0,P|344:264|316:148,1,200,2|2,0:0|0:0,0:0:0:0:
184,24,82258,5,2,0:0:0:0:
328,164,82395,1,8,0:0:0:0:
132,132,82531,1,0,0:0:0:0:
316,52,82667,1,8,0:0:0:0:
316,52,82804,1,0,0:0:0:0:
316,252,82940,6,0,B|320:248|320:248|312:244|312:244|320:240|320:240|312:236|312:236|320:232|320:232|312:228|312:228|320:224|320:224|312:220|312:220|320:216|320:216|312:212|312:212|320:208|320:208|312:204|312:204|320:200|320:200|312:196|312:196|320:192|320:192|312:188|312:188|320:184|320:184|312:180|312:180|320:176|320:176|312:172|312:172|320:168|320:168|312:164|312:164|320:160|320:160,1,200,2|0,0:0|0:0,0:0:0:0:
317,161,83485,53,8,0:0:0:0:
144,252,83622,1,8,0:0:0:0:
180,56,83758,1,8,0:0:0:0:
280,228,83895,1,0,0:0:0:0:
108,128,84031,2,0,B|80:104|80:64|80:64|80:216,1,200,2|0,0:0|0:0,0:0:0:0:
280,228,84440,5,0,0:0:0:0:
180,56,84576,1,8,0:0:0:0:
376,100,84713,1,0,0:0:0:0:
188,160,84849,1,8,0:0:0:0:
473,102,85122,6,0,B|469:98|469:98|465:106|465:106|461:98|461:98|457:106|457:106|453:98|453:98|449:106|449:106|445:98|445:98|441:106|441:106|437:98|437:98|433:106|433:106|429:98|429:98|425:106|425:106|421:98|421:98|417:106|417:106|413:98|413:98|409:106|409:106|405:98|405:98|401:106|401:106|397:98|397:98|393:106|393:106|389:98|389:98|385:106|385:106|381:98|381:98,1,200,2|0,0:0|0:0,0:0:0:0:
64,352,85667,53,8,0:0:0:0:
236,248,85804,1,8,0:0:0:0:
36,240,85940,1,8,0:0:0:0:
288,184,86076,1,0,0:0:0:0:
88,152,86213,2,0,B|152:192|184:136|184:136|208:80|264:80,1,200,2|2,0:0|0:0,0:0:0:0:
356,256,86622,5,8,0:0:0:0:
436,72,86758,1,8,0:0:0:0:
436,72,86895,1,0,0:0:0:0:
436,72,87031,1,8,0:0:0:0:
436,72,87167,1,8,0:0:0:0:
436,72,87304,2,0,B|360:180|464:164|456:272,1,200,2|2,0:0|0:0,0:0:0:0:
88,96,87849,5,8,0:0:0:0:
132,292,87985,1,8,0:0:0:0:
188,100,88122,1,8,0:0:0:0:
36,228,88258,1,8,0:0:0:0:
188,100,88395,2,0,P|260:192|316:96,1,200,2|0,0:0|0:0,0:0:0:0:
253,122,88940,2,0,P|356:108|373:194,1,200,2|0,0:0|0:0,0:0:0:0:
60,312,89349,1,8,0:0:0:0:
60,312,89485,54,0,L|64:88,1,200,2|0,0:0|0:0,0:0:0:0:
68,96,89895,1,8,0:0:0:0:
68,96,90031,2,0,P|140:125|284:112,1,200,2|0,0:0|0:0,0:0:0:0:
280,116,90440,1,8,0:0:0:0:
280,116,90576,2,0,L|280:232,1,100,2|0,0:0|0:0,0:0:0:0:
116,332,90849,5,8,0:0:0:0:
116,332,90985,1,8,0:0:0:0:
292,236,91122,2,0,L|292:84,1,100,2|0,0:0|0:0,0:0:0:0:
120,32,91395,1,8,0:0:0:0:
216,204,91531,1,8,0:0:0:0:
216,204,91667,5,2,0:0:0:0:
216,204,91940,1,2,0:0:0:0:
136,20,92213,1,8,0:0:0:0:
176,112,92349,1,4,0:0:0:0:
176,112,92758,5,4,0:0:0:0:
144,208,92895,1,0,0:0:0:0:
188,88,93031,1,4,0:0:0:0:
124,236,93167,1,0,0:0:0:0:
212,64,93304,1,4,0:0:0:0:
444,312,93576,5,2,0:0:0:0:
340,120,93713,1,0,0:0:0:0:
208,288,93849,2,0,L|92:264,1,100,2|0,0:0|0:0,0:0:0:0:
296,196,94395,1,4,0:0:0:0:
268,100,94531,1,0,0:0:0:0:
24,272,94940,6,0,L|88:304,1,50,2|0,0:0|0:0,0:0:0:0:
160,256,95213,1,4,0:0:0:0:
68,296,95349,1,0,0:0:0:0:
160,256,95485,2,0,L|256:192,1,100,4|2,0:0|0:0,0:0:0:0:
292,32,95895,5,0,0:0:0:0:
360,248,96031,1,2,0:0:0:0:
224,100,96304,5,4,0:0:0:0:
140,280,96576,2,0,B|136:296|136:296|152:320|152:320|148:336,1,50,2|0,0:0|0:0,0:0:0:0:
104,132,96985,1,0,0:0:0:0:
104,132,97122,2,0,L|168:112,1,50,4|0,0:0|0:0,0:0:0:0:
248,88,97395,1,4,0:0:0:0:
224,184,97531,1,0,0:0:0:0:
196,280,97667,2,0,L|132:304,1,50,4|0,0:0|0:0,0:0:0:0:
316,240,97940,5,2,0:0:0:0:
80,212,98076,1,0,0:0:0:0:
316,240,98213,1,2,0:0:0:0:
248,52,98485,5,4,0:0:0:0:
248,52,98758,2,0,L|248:104,1,50,4|0,0:0|0:0,0:0:0:0:
136,268,99167,1,0,0:0:0:0:
136,268,99304,2,0,L|136:188,1,50,4|0,0:0|0:0,0:0:0:0:
212,152,99576,2,0,L|212:224,1,50,4|0,0:0|0:0,0:0:0:0:
284,272,99849,2,0,L|284:204,1,50
280,48,100122,5,2,0:0:0:0:
48,208,100258,1,0,0:0:0:0:
476,84,100395,1,2,0:0:0:0:
288,88,100667,5,4,0:0:0:0:
328,276,100940,1,8,0:0:0:0:
356,184,101076,1,0,0:0:0:0:
224,320,101349,1,0,0:0:0:0:
224,320,101485,1,4,0:0:0:0:
196,228,101622,1,0,0:0:0:0:
196,228,101758,1,4,0:0:0:0:
164,140,101895,1,0,0:0:0:0:
164,140,102031,2,0,L|140:72,1,50,8|0,0:0|0:0,0:0:0:0:
147,92,102304,5,2,0:0:0:0:
312,80,102440,1,0,0:0:0:0:
472,68,102576,1,2,0:0:0:0:
404,244,102849,5,8,0:0:0:0:
292,92,103122,2,0,P|272:108|252:136,1,50,8|4,0:0|0:0,0:0:0:0:
288,316,103531,1,0,0:0:0:0:
272,224,103667,1,8,0:0:0:0:
280,336,103804,1,0,0:0:0:0:
284,200,103940,1,4,0:0:0:0:
272,352,104076,1,0,0:0:0:0:
304,180,104213,2,0,P|284:156|276:124,1,50,8|0,0:0|0:0,0:0:0:0:
148,68,104485,5,2,0:0:0:0:
352,120,104622,1,0,0:0:0:0:
60,48,104758,2,0,L|60:164,1,100,2|8,0:0|0:0,0:0:0:0:
60,320,105304,5,8,0:0:0:0:
60,236,105440,1,4,0:0:0:0:
232,236,105713,5,0,0:0:0:0:
232,236,105849,2,0,P|240:196|252:176,1,50,8|0,0:0|0:0,0:0:0:0:
316,236,106122,2,0,P|336:256|344:280,1,50,4|0,0:0|0:0,0:0:0:0:
260,300,106395,2,0,P|204:304|164:260,1,100,8|2,0:0|0:0,0:0:0:0:
112,140,106804,5,0,0:0:0:0:
256,312,106940,2,0,P|200:316|160:272,1,100,2|8,0:0|0:0,0:0:0:0:
116,128,107485,6,0,L|116:72,2,50,8|0|8,0:0|0:0|0:0,0:0:0:0:
116,218,107895,1,4,0:0:0:0:
116,128,108031,2,0,P|98:186|136:232,1,100,8|4,0:0|0:0,0:0:0:0:
180,272,108440,1,0,0:0:0:0:
36,312,108576,5,2,0:0:0:0:
176,172,108713,1,0,0:0:0:0:
144,336,108849,1,8,0:0:0:0:
76,120,108985,1,0,0:0:0:0:
288,232,109122,1,2,0:0:0:0:
380,88,109395,5,8,0:0:0:0:
212,112,109667,2,0,L|144:124,1,50,8|4,0:0|0:0,0:0:0:0:
84,272,110076,1,0,0:0:0:0:
84,272,110213,2,0,L|154:260,1,50,8|0,0:0|0:0,0:0:0:0:
216,252,110485,1,4,0:0:0:0:
132,264,110622,1,8,0:0:0:0:
216,252,110758,2,0,L|344:228,1,100,8|2,0:0|0:0,0:0:0:0:
104,112,111167,5,0,0:0:0:0:
408,280,111304,2,0,P|416:200|400:176,1,100,2|0,0:0|0:0,0:0:0:0:
292,60,111849,5,8,0:0:0:0:
228,116,111985,1,4,0:0:0:0:
100,228,112258,1,0,0:0:0:0:
168,176,112395,2,0,B|192:160|192:160|232:156,1,50,8|0,0:0|0:0,0:0:0:0:
268,220,112667,1,4,0:0:0:0:
224,112,112804,1,0,0:0:0:0:
252,264,112940,1,8,0:0:0:0:
472,24,113213,5,2,0:0:0:0:
272,88,113349,1,0,0:0:0:0:
444,324,113485,2,0,L|372:228,1,100,2|8,0:0|0:0,0:0:0:0:
224,304,114031,6,0,B|196:320|196:320|156:324,1,50,8|4,0:0|0:0,0:0:0:0:
8,336,114440,1,0,0:0:0:0:
8,336,114576,2,0,B|36:320|36:320|76:316,1,50,8|4,0:0|0:0,0:0:0:0:
140,316,114849,1,8,0:0:0:0:
53,318,114985,1,4,0:0:0:0:
140,316,115122,2,0,P|196:296|216:256,1,100,8|2,0:0|0:0,0:0:0:0:
384,172,115531,5,4,0:0:0:0:
144,244,115667,2,0,P|128:192|164:136,1,100,2|8,0:0|0:0,0:0:0:0:
312,196,116213,1,8,0:0:0:0:
228,196,116349,1,4,0:0:0:0:
100,84,116622,5,0,0:0:0:0:
100,84,116758,2,0,L|44:36,1,50,8|0,0:0|0:0,0:0:0:0:
168,136,117031,1,4,0:0:0:0:
20,44,117167,1,0,0:0:0:0:
208,152,117304,1,8,0:0:0:0:
448,312,117576,5,2,0:0:0:0:
104,176,117713,1,0,0:0:0:0:
480,120,117849,1,2,0:0:0:0:
336,228,118122,5,0,0:0:0:0:
200,348,118395,2,0,B|228:336|228:336|260:304,1,50,8|0,0:0|0:0,0:0:0:0:
248,316,118667,1,4,0:0:0:0:
252,311,118804,1,0,0:0:0:0:
256,306,118940,5,8,0:0:0:0:
224,220,119076,1,0,0:0:0:0:
264,320,119213,1,4,0:0:0:0:
236,204,119349,1,0,0:0:0:0:
272,336,119485,2,0,L|336:312,1,50,8|0,0:0|0:0,0:0:0:0:
468,264,119758,5,2,0:0:0:0:
300,104,119895,1,4,0:0:0:0:
80,48,120031,2,0,L|80:152,1,100,2|0,0:0|0:0,0:0:0:0:
80,328,120576,5,8,0:0:0:0:
152,272,120713,1,4,0:0:0:0:
80,220,120849,1,8,0:0:0:0:
228,120,121122,2,0,L|176:160,1,50,8|0,0:0|0:0,0:0:0:0:
220,236,121395,2,0,L|228:156,1,50,4|0,0:0|0:0,0:0:0:0:
300,236,121667,2,0,L|244:236,1,50,8|0,0:0|0:0,0:0:0:0:
92,232,121940,5,2,0:0:0:0:
300,236,122076,1,4,0:0:0:0:
20,232,122213,2,0,P|44:176|96:160,1,100,2|8,0:0|0:0,0:0:0:0:
260,112,122758,6,0,P|288:100|312:76,1,50,8|4,0:0|0:0,0:0:0:0:
344,32,123031,1,8,0:0:0:0:
312,96,123304,2,0,L|312:164,1,50,8|0,0:0|0:0,0:0:0:0:
312,152,123576,1,4,0:0:0:0:
244,256,123713,1,0,0:0:0:0:
244,264,123849,2,0,L|244:324,1,50,8|0,0:0|0:0,0:0:0:0:
84,268,124122,5,2,0:0:0:0:
84,268,124258,1,4,0:0:0:0:
84,268,124395,2,0,B|84:240|84:240|72:204|72:204|84:168,1,100,2|8,0:0|0:0,0:0:0:0:
280,208,124940,6,0,B|292:180|292:180|292:144,1,50,8|4,0:0|0:0,0:0:0:0:
292,60,125213,1,8,0:0:0:0:
316,156,125349,1,4,0:0:0:0:
320,56,125485,2,0,P|352:60|376:76,1,50,8|4,0:0|0:0,0:0:0:0:
448,128,125758,1,8,0:0:0:0:
356,84,125895,1,4,0:0:0:0:
448,152,126031,5,8,0:0:0:0:
340,292,126167,1,4,0:0:0:0:
328,48,126304,1,8,0:0:0:0:
444,308,126440,1,4,0:0:0:0:
144,44,126576,6,0,B|140:48|140:48|148:52|148:52|140:56|140:56|148:60|148:60|140:64|140:64|148:68|148:68|140:72|140:72|148:76|148:76|140:80|140:80|148:84|148:84|140:88|140:88|148:92|148:92|140:96|140:96|148:100|148:100|140:104|140:104|148:108|148:108|140:112|140:112|148:116|148:116|140:120|140:120|148:124|148:124|140:128|140:128|148:132|148:132|140:136|140:136,1,200,2|0,0:0|0:0,0:0:0:0:
476,360,127122,5,8,0:0:0:0:
400,184,127258,1,0,0:0:0:0:
190,164,127395,1,0,0:0:0:0:
264,352,127531,1,0,0:0:0:0:
332,80,127667,2,0,P|268:172|184:160,1,200,2|0,0:0|0:0,0:0:0:0:
190,164,128213,53,8,0:0:0:0:
60,316,128349,1,0,0:0:0:0:
252,364,128485,1,0,0:0:0:0:
36,28,128758,2,0,B|34:33|34:33|43:32|43:32|38:40|38:40|47:39|47:39|42:47|42:47|51:46|51:46|46:54|46:54|55:53|55:53|50:61|50:61|59:60|59:60|54:68|54:68|63:67|63:67|58:75|58:75|67:74|67:74|62:81|62:81|71:81|71:81|66:88|66:88|75:88|75:88|70:95|70:95|79:95|79:95|74:102|74:102|83:102|83:102|78:109|78:109,1,200,2|0,0:0|0:0,0:0:0:0:
432,304,129304,5,8,0:0:0:0:
432,304,129440,1,0,0:0:0:0:
432,304,129576,1,0,0:0:0:0:
238,249,129713,1,0,0:0:0:0:
356,96,129849,2,0,B|320:116|320:116|304:180|248:220|248:220|236:256,1,200,2|0,0:0|0:0,0:0:0:0:
56,144,130258,1,0,0:0:0:0:
48,40,130395,5,8,0:0:0:0:
148,212,130531,1,0,0:0:0:0:
24,16,130667,1,4,0:0:0:0:
164,240,130804,1,0,0:0:0:0:
8,4,130940,2,0,L|8:212,1,200,2|0,0:0|0:0,0:0:0:0:
380,348,131485,53,8,0:0:0:0:
224,220,131622,1,0,0:0:0:0:
464,348,131758,1,4,0:0:0:0:
272,288,131895,1,0,0:0:0:0:
272,288,132031,2,0,B|320:256|304:192|304:192|336:272|416:296|416:296|404:224|440:160,1,400,2|8,0:0|0:0,0:0:0:0:
444,152,132713,5,0,0:0:0:0:
452,136,132849,1,4,0:0:0:0:
460,124,132985,1,0,0:0:0:0:
468,112,133122,2,0,B|300:168|304:-16|432:-28|496:56|424:232|256:16,1,400,2|8,0:0|0:0,0:0:0:0:
280,240,133804,5,0,0:0:0:0:
156,84,133940,1,4,0:0:0:0:
328,180,134076,1,0,0:0:0:0:
148,196,134213,2,0,B|216:208|264:112|352:156,1,200,2|0,0:0|0:0,0:0:0:0:
276,340,134622,1,0,0:0:0:0:
136,200,134758,1,8,0:0:0:0:
356,140,134895,1,0,0:0:0:0:
280,360,135031,1,4,0:0:0:0:
288,80,135167,1,0,0:0:0:0:
48,252,135304,54,0,B|44:256|44:256|52:260|52:260|44:264|44:264|52:268|52:268|44:272|44:272|52:276|52:276|44:280|44:280|52:284|52:284|44:288|44:288|52:292|52:292|44:296|44:296|52:300|52:300|44:304|44:304|52:308|52:308|44:312|44:312|52:316|52:316|44:320|44:320|52:324|52:324|44:328|44:328|52:332|52:332|44:336|44:336|52:340|52:340|44:344|44:344,1,200,8|4,0:0|0:0,0:0:0:0:
428,228,135849,5,2,0:0:0:0:
248,144,135985,1,0,0:0:0:0:
164,328,136122,1,4,0:0:0:0:
332,188,136258,1,0,0:0:0:0:
132,216,136395,2,0,B|92:224|92:224|96:272|40:296|28:348|28:348|-4:340,1,200,2|0,0:0|0:0,0:0:0:0:
212,368,136804,5,0,0:0:0:0:
316,200,136940,1,8,0:0:0:0:
124,144,137076,1,0,0:0:0:0:
312,76,137213,1,4,0:0:0:0:
312,76,137485,54,0,B|308:80|308:80|316:84|316:84|308:88|308:88|316:92|316:92|308:96|308:96|316:100|316:100|308:104|308:104|316:108|316:108|308:112|308:112|316:116|316:116|308:120|308:120|316:124|316:124|308:128|308:128|316:132|316:132|308:136|308:136|316:140|316:140|308:144|308:144|316:148|316:148|308:152|308:152|316:156|316:156|308:160|308:160|316:164|316:164|308:168|308:168,1,200,2|0,0:0|0:0,0:0:0:0:
120,364,138031,5,8,0:0:0:0:
168,148,138167,1,0,0:0:0:0:
120,364,138304,1,4,0:0:0:0:
168,148,138440,1,0,0:0:0:0:
372,224,138576,2,0,B|400:152|400:152|348:152|348:152|362:111|340:56,1,200,2|0,0:0|0:0,0:0:0:0:
304,240,138985,1,0,0:0:0:0:
88,232,139122,5,8,0:0:0:0:
276,116,139258,1,0,0:0:0:0:
332,328,139395,1,4,0:0:0:0:
88,232,139531,1,4,0:0:0:0:
20,24,139667,2,0,B|92:72|92:72|216:72,1,200,2|0,0:0|0:0,0:0:0:0:
440,48,140213,53,8,0:0:0:0:
292,224,140349,1,0,0:0:0:0:
180,224,140485,1,4,0:0:0:0:
440,48,140622,1,0,0:0:0:0:
72,224,140758,2,0,B|52:244|52:244|72:264|72:264|52:284|52:284|72:304|72:304|52:324|52:324|72:344|72:344|52:364|52:364|60:356,1,200,2|0,0:0|0:0,0:0:0:0:
276,24,141304,6,0,L|320:136,1,100,2|0,0:0|0:0,0:0:0:0:
392,332,141576,1,8,0:0:0:0:
312,116,141713,1,0,0:0:0:0:
252,336,141849,2,0,L|288:204,1,100,4|0,0:0|0:0,0:0:0:0:
340,16,142122,5,8,0:0:0:0:
124,92,142258,1,4,0:0:0:0:
92,320,142395,2,0,L|108:216,1,100,2|0,0:0|0:0,0:0:0:0:
107,221,142667,1,8,0:0:0:0:
308,108,142804,53,4,0:0:0:0:
80,112,142940,2,0,L|224:112,1,100,2|0,0:0|0:0,0:0:0:0:
88,324,143213,1,8,0:0:0:0:
192,120,143349,1,4,0:0:0:0:
224,348,143485,1,2,0:0:0:0:
112,144,143622,1,0,0:0:0:0:
280,300,143758,1,8,0:0:0:0:
68,208,143895,1,4,0:0:0:0:
68,208,144031,38,0,B|112:160|168:152|192:232|256:228,1,200,2|0,0:0|0:0,0:0:0:0:
416,228,145531,1,0,0:0:0:0:
300,356,145940,1,0,0:0:0:0:
308,240,146213,2,0,L|316:132,1,100,2|0,0:0|0:0,0:0:0:0:
160,308,147304,2,0,L|168:216,1,75,2|0,0:0|0:0,0:0:0:0:
180,60,148122,1,0,0:0:0:0:
272,128,148395,2,0,P|316:156|364:168,1,100,2|0,0:0|0:0,0:0:0:0:
364,176,149485,22,0,P|400:276|344:344,1,200,0|2,0:0|0:0,0:0:0:0:
304,248,150849,1,0,0:0:0:0:
304,248,150985,1,0,0:0:0:0:
304,248,151122,2,0,P|272:200|280:144,1,100,2|2,0:0|0:0,0:0:0:0:
68,52,152213,2,0,P|100:100|92:156,1,100
40,232,153849,54,0,L|36:296,1,50,2|0,0:0|0:0,0:0:0:0:
36,340,154258,1,0,0:0:0:0:
36,340,154395,2,0,L|76:292,1,50,2|0,0:0|0:0,0:0:0:0:
144,216,154940,2,0,B|184:252|184:252|228:264,1,100,0|2,0:0|0:0,0:0:0:0:
460,276,156031,22,0,L|468:220,1,50,2|0,0:0|0:0,0:0:0:0:
420,192,156440,1,0,0:0:0:0:
420,192,156576,2,0,L|412:256,1,50
396,356,157122,1,2,0:0:0:0:
256,192,157258,12,0,161213,0:0:0:0:
92,320,161485,5,4,0:0:0:0:
92,320,161622,1,0,0:0:0:0:
92,320,161758,1,0,0:0:0:0:
92,320,161895,1,0,0:0:0:0:
92,320,162031,2,0,B|124:248|124:248|180:200,1,150.000005722046,4|4,0:0|0:0,0:0:0:0:
488,16,163122,2,0,L|488:172,1,150.000005722046,4|4,0:0|0:0,0:0:0:0:
488,166,164485,5,8,0:0:0:0:
448,248,164621,1,8,0:0:0:0:
360,236,164757,1,12,0:0:0:0:
444,268,164894,1,8,0:0:0:0:
360,236,165030,1,8,0:0:0:0:
436,288,165167,1,8,0:0:0:0:
360,236,165304,6,8,L|308:268,1,37.5000014305115,12|8,0:0|0:0,0:0:0:0:
264,192,165576,2,8,L|212:180,1,37.5000014305115
140,164,165849,2,0,P|192:100|264:96,1,150.000005722046,12|4,0:0|0:0,0:0:0:0:
444,108,166940,2,0,P|440:152|416:192,1,75.0000028610231,4|0,0:0|0:0,0:0:0:0:
316,320,167485,1,4,0:0:0:0:
360,124,167758,1,0,0:0:0:0:
360,124,168031,6,0,P|312:148|212:168,1,150.000005722046,4|4,0:0|0:0,0:0:0:0:
28,88,169122,2,0,L|44:172,1,75.0000028610231,4|0,0:0|0:0,0:0:0:0:
84,336,169667,1,4,0:0:0:0:
172,180,169940,1,0,0:0:0:0:
400,252,170213,6,0,L|292:220,1,100,4|0,0:0|0:0,0:0:0:0:
72,160,170758,2,0,P|64:220|40:268,1,100,4|0,0:0|0:0,0:0:0:0:
256,136,171304,2,0,P|264:76|288:28,1,100,4|0,0:0|0:0,0:0:0:0:
272,280,171849,1,4,0:0:0:0:
116,96,172122,1,0,0:0:0:0:
356,108,172395,2,0,L|244:104,1,100,4|0,0:0|0:0,0:0:0:0:
496,116,172940,1,4,0:0:0:0:
284,248,173213,5,8,0:0:0:0:
172,300,173349,1,8,0:0:0:0:
180,176,173485,1,12,0:0:0:0:
284,235,173622,1,8,0:0:0:0:
182,306,173758,1,8,0:0:0:0:
169,182,173894,1,8,0:0:0:0:
288,216,174031,6,8,L|236:253,1,50,12|8,0:0|0:0,0:0:0:0:
288,148,174304,2,8,L|240:212,1,50
136,204,174576,2,0,L|208:116,1,100,12|0,0:0|0:0,0:0:0:0:
44,324,175122,2,0,L|160:284,1,100,4|0,0:0|0:0,0:0:0:0:
376,212,175667,5,4,0:0:0:0:
138,291,175940,1,0,0:0:0:0:
172,56,176213,1,4,0:0:0:0:
240,296,176485,1,0,0:0:0:0:
316,56,176758,2,0,L|276:184,1,100,4|0,0:0|0:0,0:0:0:0:
56,256,177304,2,0,L|96:128,1,100,4|8,0:0|0:0,0:0:0:0:
192,96,177713,5,8,0:0:0:0:
80,148,177849,1,12,0:0:0:0:
184,84,177985,1,8,0:0:0:0:
72,140,178122,1,8,0:0:0:0:
176,72,178258,1,8,0:0:0:0:
64,276,178395,6,0,L|92:184,1,75,4|0,0:0|0:0,0:0:0:0:
276,44,178940,6,0,B|280:48|280:48|284:40|284:40|288:48|288:48|292:40|292:40|296:48|296:48|300:40|300:40|304:48|304:48|308:40|308:40|312:48|312:48|316:40|316:40|320:48|320:48|324:40|324:40|328:48|328:48|332:40|332:40|336:48|336:48|340:40|340:40|344:48|344:48|348:40|348:40|352:48|352:48|356:40|356:40|360:48|360:48|364:40|364:40|368:48|368:48,2,200,2|8|2,0:0|0:0|0:0,0:0:0:0:
28,88,179622,1,0,0:0:0:0:
92,328,179758,1,8,0:0:0:0:
220,112,179895,1,0,0:0:0:0:
332,336,180031,2,0,L|128:329,1,200,2|8,0:0|0:0,0:0:0:0:
228,96,180440,21,4,0:0:0:0:
324,328,180576,2,0,L|100:320,1,200,2|8,0:0|0:0,0:0:0:0:
220,88,180985,5,4,0:0:0:0:
312,320,181122,2,0,L|111:313,1,200,2|8,0:0|0:0,0:0:0:0:
212,80,181531,5,4,0:0:0:0:
308,312,181667,2,0,L|84:304,1,200,2|8,0:0|0:0,0:0:0:0:
64,56,182076,53,4,0:0:0:0:
116,320,182213,1,8,0:0:0:0:
208,32,182349,5,4,0:0:0:0:
316,296,182485,1,8,0:0:0:0:
440,40,182622,5,4,0:0:0:0:
112,112,182758,1,8,0:0:0:0:
412,312,182895,53,4,0:0:0:0:
112,244,183031,1,8,0:0:0:0:
300,56,183167,1,4,0:0:0:0:
48,60,183304,6,0,B|52:64|52:64|56:56|56:56|60:64|60:64|64:56|64:56|68:64|68:64|72:56|72:56|76:64|76:64|80:56|80:56|84:64|84:64|88:56|88:56|92:64|92:64|96:56|96:56|100:64|100:64|104:56|104:56|108:64|108:64|112:56|112:56|116:64|116:64|120:56|120:56|124:64|124:64|128:56|128:56|132:64|132:64|136:56|136:56|140:64|140:64,1,200,2|0,0:0|0:0,0:0:0:0:
464,324,183849,2,0,B|460:328|460:328|456:320|456:320|452:328|452:328|448:320|448:320|444:328|444:328|440:320|440:320|436:328|436:328|432:320|432:320|428:328|428:328|424:320|424:320|420:328|420:328|416:320|416:320|412:328|412:328|408:320|408:320|404:328|404:328|400:320|400:320|396:328|396:328|392:320|392:320|388:328|388:328|384:320|384:320|380:328|380:328|376:320|376:320|372:328|372:328,1,200,2|0,0:0|0:0,0:0:0:0:
68,308,184395,2,0,B|120:260|120:260|192:240|192:240|256:196,1,200,2|8,0:0|0:0,0:0:0:0:
480,48,184940,1,2,0:0:0:0:
56,44,185213,1,8,0:0:0:0:
256,256,185485,6,0,B|256:261|256:261|264:258|264:258|261:267|261:267|270:264|270:264|267:272|267:272|275:270|275:270|272:278|272:278|281:275|281:275|278:284|278:284|287:281|287:281|284:289|284:289|292:287|292:287|289:295|289:295|298:292|298:292|295:301|295:301|304:298|304:298|301:306|301:306|309:304|309:304|306:312|306:312|315:309|315:309|312:318|312:318|321:315|321:315|318:323|318:323,2,200,2|8|2,0:0|0:0|0:0,0:0:0:0:
16,184,186304,1,8,0:0:0:0:
344,104,186576,1,2,0:0:0:0:
88,316,186849,1,8,0:0:0:0:
144,36,187122,1,2,0:0:0:0:
144,36,187667,54,0,B|144:41|144:41|152:38|152:38|149:47|149:47|158:44|158:44|155:52|155:52|163:50|163:50|160:58|160:58|169:55|169:55|166:64|166:64|175:61|175:61|172:69|172:69|180:67|180:67|177:75|177:75|186:72|186:72|183:81|183:81|192:78|192:78|189:86|189:86|197:84|197:84|194:92|194:92|203:89|203:89|200:98|200:98|209:95|209:95|206:103|206:103,1,200,2|0,0:0|0:0,0:0:0:0:
408,344,188213,2,0,B|448:204|324:108|244:256|340:324|440:284|416:124,1,400,2|8,0:0|0:0,0:0:0:0:
208,300,188895,5,0,0:0:0:0:
40,100,189031,1,8,0:0:0:0:
296,60,189167,1,0,0:0:0:0:
200,316,189304,1,8,0:0:0:0:
24,116,189440,1,0,0:0:0:0:
280,72,189576,1,8,0:0:0:0:
444,276,189713,1,0,0:0:0:0:
184,272,189849,6,0,B|188:276|188:276|192:268|192:268|196:276|196:276|200:268|200:268|204:276|204:276|208:268|208:268|212:276|212:276|216:268|216:268|220:276|220:276|224:268|224:268|228:276|228:276|232:268|232:268|236:276|236:276|240:268|240:268|244:276|244:276|248:268|248:268|252:276|252:276|256:268|256:268|260:276|260:276|264:268|264:268|268:276|268:276|272:268|272:268|276:276|276:276,2,200,0|0|4,0:0|0:0|0:0,0:0:0:0:
48,52,190667,53,8,0:0:0:0:
32,312,190804,1,4,0:0:0:0:
172,92,190940,2,0,L|108:192,1,100,2|0,0:0|0:0,0:0:0:0:
376,140,191213,1,8,0:0:0:0:
124,200,191349,1,4,0:0:0:0:
380,164,191485,2,0,L|316:264,1,100,2|0,0:0|0:0,0:0:0:0:
464,28,191758,5,8,0:0:0:0:
326,248,191895,1,4,0:0:0:0:
68,252,192031,6,0,B|72:256|72:256|76:248|76:248|80:256|80:256|84:248|84:248|88:256|88:256|92:248|92:248|96:256|96:256|100:248|100:248|104:256|104:256|108:248|108:248|112:256|112:256|116:248|116:248|120:256|120:256|124:248|124:248|128:256|128:256|132:248|132:248|136:256|136:256|140:248|140:248|144:256|144:256|148:248|148:248|152:256|152:256|156:248|156:248|160:256|160:256,2,200,2|8|2,0:0|0:0|0:0,0:0:0:0:
32,260,192713,1,0,0:0:0:0:
32,260,192849,1,8,0:0:0:0:
32,260,192985,1,0,0:0:0:0:
32,260,193122,2,0,P|84:180|104:72,1,200,2|0,0:0|0:0,0:0:0:0:
104,8,193667,1,8,0:0:0:0:
168,32,193940,1,0,0:0:0:0:
220,76,194213,54,0,B|220:81|220:81|228:78|228:78|226:86|226:86|234:83|234:83|232:91|232:91|240:88|240:88|238:97|238:97|247:93|247:93|245:102|245:102|253:98|253:98|251:107|251:107|259:103|259:103|257:112|257:112|265:108|265:108|263:117|263:117|271:114|271:114|269:122|269:122|277:119|277:119|275:127|275:127|283:124|283:124|281:133|281:133|289:129|289:129|287:138|287:138,1,200,2|0,0:0|0:0,0:0:0:0:
304,160,194622,1,0,0:0:0:0:
340,180,194758,1,8,0:0:0:0:
376,188,194895,1,0,0:0:0:0:
408,196,195031,1,0,0:0:0:0:
436,232,195167,1,0,0:0:0:0:
448,264,195304,2,0,B|484:312|432:384|320:320,1,200,8|0,0:0|0:0,0:0:0:0:
264,288,195849,1,8,0:0:0:0:
264,288,196395,5,2,0:0:0:0:
136,296,196667,1,0,0:0:0:0:
56,192,196940,2,0,L|56:88,1,100,8|0,0:0|0:0,0:0:0:0:
180,132,197485,2,0,L|180:240,1,100,8|0,0:0|0:0,0:0:0:0:
180,364,198031,1,8,0:0:0:0:
284,288,198304,1,0,0:0:0:0:
412,304,198576,1,8,0:0:0:0:
452,180,198849,5,0,0:0:0:0:
332,132,199122,2,0,L|224:88,1,100,8|0,0:0|0:0,0:0:0:0:
108,100,199667,1,8,0:0:0:0:
236,72,199940,1,0,0:0:0:0:
156,176,200213,2,0,L|228:276,1,100,8|0,0:0|0:0,0:0:0:0:
320,336,200758,5,8,0:0:0:0:
284,212,201031,1,0,0:0:0:0:
408,248,201304,1,8,0:0:0:0:
316,340,201576,1,0,0:0:0:0:
296,212,201849,2,0,L|280:88,1,100,8|0,0:0|0:0,0:0:0:0:
164,168,202395,2,0,L|180:280,1,100,8|0,0:0|0:0,0:0:0:0:
72,340,202940,5,8,0:0:0:0:
52,212,203213,1,0,0:0:0:0:
148,128,203485,1,8,0:0:0:0:
48,44,203758,1,0,0:0:0:0:
180,44,204031,2,0,L|312:44,1,100,8|0,0:0|0:0,0:0:0:0:
408,48,204576,1,8,0:0:0:0:
328,152,204849,1,0,0:0:0:0:
248,252,205122,2,0,L|176:336,1,100,8|0,0:0|0:0,0:0:0:0:
52,336,205667,5,8,0:0:0:0:
68,208,205940,1,0,0:0:0:0:
40,80,206213,1,8,0:0:0:0:
168,96,206485,1,0,0:0:0:0:
296,72,206758,2,0,L|440:44,1,100,8|0,0:0|0:0,0:0:0:0:
268,80,207304,54,0,L|268:192,1,100,8|0,0:0|0:0,0:0:0:0:
268,312,207849,1,8,0:0:0:0:
228,188,208122,1,0,0:0:0:0:
304,292,208395,1,8,0:0:0:0:
192,224,208667,1,0,0:0:0:0:
320,252,208940,2,0,L|320:144,1,100,8|0,0:0|0:0,0:0:0:0:
320,20,209485,5,8,0:0:0:0:
208,88,209758,1,0,0:0:0:0:
96,156,210031,2,0,L|0:216,1,100,8|0,0:0|0:0,0:0:0:0:
140,240,210576,2,0,L|256:204,1,100,8|0,0:0|0:0,0:0:0:0:
212,340,211122,2,0,L|108:348,1,100,8|0,0:0|0:0,0:0:0:0:
312,332,211667,6,0,L|444:320,1,100,8|0,0:0|0:0,0:0:0:0:
440,124,212213,1,8,0:0:0:0:
264,216,212485,1,0,0:0:0:0:
72,160,212758,1,8,0:0:0:0:
44,360,213031,1,0,0:0:0:0:
72,160,213304,2,0,B|100:140|100:140|116:100|116:100|144:80,1,100
424,368,213849,6,0,B|428:364|428:364|420:360|420:360|428:356|428:356|420:352|420:352|428:348|428:348|420:344|420:344|428:340|428:340|420:336|420:336|428:332|428:332|420:328|420:328|428:324|428:324|420:320|420:320|428:316|428:316|420:312|420:312|428:308|428:308|420:304|420:304|428:300|428:300|420:296|420:296|428:292|428:292|420:288|420:288|428:284|428:284|420:280|420:280|428:276|428:276,1,200,2|8,0:0|0:0,0:0:0:0:
68,88,214395,5,2,0:0:0:0:
316,48,214531,1,0,0:0:0:0:
68,88,214667,1,8,0:0:0:0:
316,48,214804,1,0,0:0:0:0:
68,88,214940,2,0,B|88:192|88:192|156:280,1,200,2|8,0:0|0:0,0:0:0:0:
404,336,215485,5,8,0:0:0:0:
304,104,215622,1,4,0:0:0:0:
432,324,215758,1,8,0:0:0:0:
280,124,215895,1,8,0:0:0:0:
456,300,216031,2,0,L|456:80,1,200,2|0,0:0|0:0,0:0:0:0:
40,36,216576,54,0,L|40:244,1,200,2|8,0:0|0:0,0:0:0:0:
40,236,216985,1,4,0:0:0:0:
40,236,217122,1,8,0:0:0:0:
272,324,217258,1,4,0:0:0:0:
212,80,217395,1,8,0:0:0:0:
424,212,217531,1,4,0:0:0:0:
176,204,217667,6,0,L|428:216,1,200,2|8,0:0|0:0,0:0:0:0:
124,200,218076,1,4,0:0:0:0:
340,296,218213,2,0,L|100:284,2,200,8|0|2,0:0|0:0|0:0,0:0:0:0:
396,52,218895,1,0,0:0:0:0:
252,256,219031,1,8,0:0:0:0:
460,116,219167,1,0,0:0:0:0:
208,112,219304,2,0,B|80:108|80:108|144:152,1,200,2|0,0:0|0:0,0:0:0:0:
452,368,219849,6,0,L|352:300,1,100,2|0,0:0|0:0,0:0:0:0:
164,168,220122,1,0,0:0:0:0:
380,44,220258,1,0,0:0:0:0:
325,286,220395,2,0,L|160:168,1,200,2|0,0:0|0:0,0:0:0:0:
404,236,220804,1,0,0:0:0:0:
388,40,220940,2,0,L|176:68,1,200,2|8,0:0|0:0,0:0:0:0:
56,84,221349,1,4,0:0:0:0:
56,84,221485,1,2,0:0:0:0:
484,344,221758,53,8,0:0:0:0:
484,344,221895,1,4,0:0:0:0:
484,344,222031,1,2,0:0:0:0:
48,312,222304,5,8,0:0:0:0:
48,164,222440,1,4,0:0:0:0:
48,312,222576,2,0,B|52:308|52:308|44:304|44:304|52:300|52:300|44:296|44:296|52:292|52:292|44:288|44:288|52:284|52:284|44:280|44:280|52:276|52:276|44:272|44:272|52:268|52:268|44:264|44:264|52:260|52:260|44:256|44:256|52:252|52:252|44:248|44:248|52:244|52:244|44:240|44:240|52:236|52:236|44:232|44:232|52:228|52:228|44:224|44:224|52:220|52:220,1,200,2|8,0:0|0:0,0:0:0:0:
448,16,223122,5,2,0:0:0:0:
380,256,223258,1,0,0:0:0:0:
220,60,223395,53,8,0:0:0:0:
280,304,223531,1,4,0:0:0:0:
56,192,223667,6,0,P|116:264|176:360,1,200,2|8,0:0|0:0,0:0:0:0:
172,353,224213,1,2,0:0:0:0:
192,96,224349,1,0,0:0:0:0:
224,344,224485,1,8,0:0:0:0:
148,44,224622,1,4,0:0:0:0:
256,268,224758,2,0,B|192:144|192:144|284:220,1,200,2|8,0:0|0:0,0:0:0:0:
238,182,225304,5,2,0:0:0:0:
428,340,225440,1,0,0:0:0:0:
376,96,225576,1,8,0:0:0:0:
260,320,225713,1,4,0:0:0:0:
472,188,225849,2,0,L|276:308,1,200,2|8,0:0|0:0,0:0:0:0:
36,36,226395,53,2,0:0:0:0:
64,284,226531,1,0,0:0:0:0:
236,100,226667,1,4,0:0:0:0:
348,324,226804,1,8,0:0:0:0:
320,76,226940,2,0,P|240:16|160:60,1,200,2|8,0:0|0:0,0:0:0:0:
24,360,227485,5,2,0:0:0:0:
264,280,227622,1,0,0:0:0:0:
84,108,227758,1,8,0:0:0:0:
324,36,227895,1,4,0:0:0:0:
460,244,228031,2,0,B|392:220|392:220|440:168|440:168|392:120,1,200,2|8,0:0|0:0,0:0:0:0:
156,64,228440,5,4,0:0:0:0:
100,308,228576,1,2,0:0:0:0:
228,92,228713,1,4,0:0:0:0:
300,332,228849,1,8,0:0:0:0:
108,176,228985,1,4,0:0:0:0:
340,272,229122,1,2,0:0:0:0:
36,40,229395,53,8,0:0:0:0:
96,304,229531,1,4,0:0:0:0:
140,40,229667,1,2,0:0:0:0:
468,372,229940,5,8,0:0:0:0:
220,220,230076,1,4,0:0:0:0:
452,44,230213,1,2,0:0:0:0:
20,368,230485,5,8,0:0:0:0:
224,148,230622,1,4,0:0:0:0:
448,348,230758,1,2,0:0:0:0:
436,48,230895,1,4,0:0:0:0:
136,32,231031,1,8,0:0:0:0:
400,172,231167,1,4,0:0:0:0:
136,316,231304,54,0,B|140:312|140:312|132:308|132:308|140:304|140:304|132:300|132:300|140:296|140:296|132:292|132:292|140:288|140:288|132:284|132:284|140:280|140:280|132:276|132:276|140:272|140:272|132:268|132:268|140:264|140:264|132:260|132:260|140:256|140:256|132:252|132:252|140:248,1,100,2|4,0:0|0:0,0:0:0:0:
136,120,231713,1,8,0:0:0:0:
268,192,231849,2,0,L|376:248,1,100,2|8,0:0|0:0,0:0:0:0:
496,296,232258,1,4,0:0:0:0:
460,148,232395,2,0,B|444:96|444:96|404:40,1,100,2|8,0:0|0:0,0:0:0:0:
308,164,232804,1,4,0:0:0:0:
160,172,232940,6,0,B|176:224|176:224|216:280,1,100,2|8,0:0|0:0,0:0:0:0:
312,368,233349,1,4,0:0:0:0:
388,240,233485,2,8,P|408:176|388:124,1,100,2|0,0:0|0:0,0:0:0:0:
252,176,233895,1,4,0:0:0:0:
380,100,234031,2,0,P|360:164|380:216,1,100,2|8,0:0|0:0,0:0:0:0:
424,336,234440,1,4,0:0:0:0:
424,336,234576,6,0,L|316:336,1,100,2|8,0:0|0:0,0:0:0:0:
208,240,234985,1,4,0:0:0:0:
208,240,235122,2,0,L|320:240,1,100,2|8,0:0|0:0,0:0:0:0:
248,100,235531,1,4,0:0:0:0:
140,204,235667,2,8,P|132:252|156:296,1,100,2|0,0:0|0:0,0:0:0:0:
288,368,236076,1,4,0:0:0:0:
204,240,236213,6,0,P|212:188|188:148,1,100,2|8,0:0|0:0,0:0:0:0:
68,60,236622,1,4,0:0:0:0:
68,60,236758,2,0,L|180:48,1,100,2|8,0:0|0:0,0:0:0:0:
96,184,237167,1,4,0:0:0:0:
96,184,237304,2,0,L|228:216,1,100,2|8,0:0|0:0,0:0:0:0:
340,236,237713,1,4,0:0:0:0:
392,96,237849,6,0,L|344:232,1,100,2|8,0:0|0:0,0:0:0:0:
216,236,238258,1,4,0:0:0:0:
308,356,238395,2,0,L|218:239,1,100,2|8,0:0|0:0,0:0:0:0:
156,156,238804,1,4,0:0:0:0:
304,164,238940,2,0,B|384:168|384:168|360:132,1,100,2|8,0:0|0:0,0:0:0:0:
288,28,239349,1,4,0:0:0:0:
204,152,239485,6,0,L|144:248,1,100,2|8,0:0|0:0,0:0:0:0:
56,356,239895,1,4,0:0:0:0:
56,208,240031,6,0,B|60:204|60:204|52:200|52:200|60:196|60:196|52:192|52:192|60:188|60:188|52:184|52:184|60:180|60:180|52:176|52:176|60:172|60:172|52:168|52:168|60:164|60:164|52:160|52:160|60:156|60:156|52:152|52:152|60:148|60:148|52:144|52:144|60:140,1,100,2|8,0:0|0:0,0:0:0:0:
56,12,240576,1,2,0:0:0:0:
192,76,240849,1,8,0:0:0:0:
324,144,241122,2,0,L|424:192,1,100,2|8,0:0|0:0,0:0:0:0:
284,264,241667,2,0,L|212:160,1,100,2|8,0:0|0:0,0:0:0:0:
148,56,242213,5,2,0:0:0:0:
60,176,242485,1,0,0:0:0:0:
204,136,242758,2,2,L|324:100,1,100,0|8,0:0|0:0,0:0:0:0:
448,72,243304,2,0,B|460:124|460:124|448:180,1,100,2|8,0:0|0:0,0:0:0:0:
412,316,243849,1,2,0:0:0:0:
324,196,244122,5,8,0:0:0:0:
200,280,244395,2,0,P|164:300|100:292,1,100,2|8,0:0|0:0,0:0:0:0:
252,264,244940,2,0,P|234:301|178:332,1,100,2|8,0:0|0:0,0:0:0:0:
40,368,245485,1,2,0:0:0:0:
96,228,245758,1,8,0:0:0:0:
72,80,246031,6,0,L|168:52,1,100,2|8,0:0|0:0,0:0:0:0:
136,120,246576,2,0,L|212:32,1,100,2|8,0:0|0:0,0:0:0:0:
196,196,247122,2,0,L|200:84,1,100,2|8,0:0|0:0,0:0:0:0:
200,248,247667,5,2,0:0:0:0:
340,304,247940,1,0,0:0:0:0:
388,160,248213,2,0,L|280:208,1,100,2|0,0:0|0:0,0:0:0:0:
260,136,248758,6,0,B|224:148|224:148|132:152|132:152|96:168,1,150,10|0,0:0|0:0,0:0:0:0:
56,208,249849,1,0,0:0:0:0:
60,284,250122,1,0,0:0:0:0:
124,244,250395,2,0,B|148:232|148:232|192:232,1,50
244,244,250940,2,0,P|300:256|352:232,1,100,2|0,0:0|0:0,0:0:0:0:
404,200,251758,53,0,0:0:0:0:
364,136,252031,2,0,L|332:72,1,50
272,120,252440,1,0,0:0:0:0:
272,120,252576,2,0,L|216:72,1,50
188,148,253122,2,0,L|80:148,1,100,2|0,0:0|0:0,0:0:0:0:
160,280,254213,21,0,0:0:0:0:
308,248,254758,2,0,L|272:256,2,25
380,232,255304,2,0,B|420:188|428:144|428:144|440:188|488:228,1,200,2|0,0:0|0:0,0:0:0:0:
176,124,257485,54,0,B|120:72|128:188|232:176|224:288|168:232,2,200,2|0|2,0:0|0:0|0:0,0:0:0:0:
412,308,260758,2,0,B|456:264|464:192|396:184|372:232|324:176,1,200,0|2,0:0|0:0,0:0:0:0:
88,48,262940,1,0,0:0:0:0:
184,332,264031,1,2,0:0:0:0:
424,52,267304,22,0,L|376:100,1,50
316,72,267849,2,0,L|252:92,1,50
316,144,268395,2,0,L|304:248,1,100,2|0,0:0|0:0,0:0:0:0:
176,320,269485,53,0,0:0:0:0:
140,252,269758,1,0,0:0:0:0:
164,180,270031,2,0,P|172:156|172:116,1,50
168,96,270440,1,0,0:0:0:0:
140,72,270576,22,0,B|164:52|164:52|200:36,1,50,2|0,0:0|0:0,0:0:0:0:
252,24,271122,1,0,0:0:0:0:
380,100,271667,54,0,P|364:148|380:208,1,100
392,228,272349,1,0,0:0:0:0:
396,264,272485,1,0,0:0:0:0:
372,336,272758,22,0,P|320:320|268:328,1,100,2|0,0:0|0:0,0:0:0:0:
128,360,273849,2,0,P|164:324|180:268,1,100
188,128,274940,1,2,0:0:0:0:
256,192,275485,12,0,283667,0:0:0:0:
