osu file format v14

[General]
AudioFilename: teastep.mp3
AudioLeadIn: 0
PreviewTime: 38730
Countdown: 0
SampleSet: Soft
StackLeniency: 0.7
Mode: 0
LetterboxInBreaks: 0
WidescreenStoryboard: 1

[Editor]
Bookmarks: 4367,21821,39276,56730,74185,91639,100366,109093,124366,126548,128730,146184,163638,181093,189820,198547,200729,217092,218183,235638,253092
DistanceSpacing: 1
BeatDivisor: 2
GridSize: 4
TimelineZoom: 1

[Metadata]
Title:Highscore
TitleUnicode:Highscore
Artist:Panda Eyes & Teminite
ArtistUnicode:Panda Eyes & Teminite
Creator:Project Railgun
Version:Easy
Source:||SAS|| Ho-Kago Teastep
Tags:k-on dubstep glitch hop movie amv mio akiyama hirasawa yui nakano azuka azunyan kotobuki tsumugi けいおん! tainaka ritsu yamanaka sawako music video project_railgun soul anime studios moonieamv jumps kiai railgun style 11th anniversary special
BeatmapID:727696
BeatmapSetID:327798

[Difficulty]
HPDrainRate:1.5
CircleSize:2.5
OverallDifficulty:1.5
ApproachRate:3.5
SliderMultiplier:1.5
SliderTickRate:1

[Events]
//Background and Video events
Video,-590,"special.avi"
0,0,"bg.jpg",0,0
//Break Periods
2,91839,98986
//Storyboard Layer 0 (Background)
//Storyboard Layer 1 (Fail)
//Storyboard Layer 2 (Pass)
//Storyboard Layer 3 (Foreground)
//Storyboard Sound Samples

[TimingPoints]
4,545.449586821938,4,2,1,50,1,0
4367,-200,4,2,1,50,0,0
21821,-133.333333333333,4,2,1,50,0,0
39276,-100,4,2,1,50,0,1
39344,-100,4,2,1,50,0,0
48003,-100,4,2,1,50,0,1
48071,-100,4,2,1,50,0,0
109093,-100,4,2,1,50,0,1
124366,-100,4,2,1,50,0,0
128730,-100,4,2,1,50,0,1
128798,-100,4,2,1,50,0,0
137457,-100,4,2,1,50,0,1
137525,-100,4,2,1,50,0,0
181093,-100,4,2,1,50,0,1
181161,-100,4,2,1,50,0,0
200729,-100,4,2,1,50,0,1
217092,-100,4,2,1,50,0,0
218183,-100,4,2,1,50,0,1
218252,-100,4,2,1,50,0,0
226911,-100,4,2,1,50,0,1
226979,-100,4,2,1,50,0,0

[Colours]
Combo1 : 225,136,207
Combo2 : 136,203,103
Combo3 : 210,184,91
Combo4 : 47,156,215

[HitObjects]
129,140,4367,6,0,B|216:168|256:92|256:92|300:168|384:140,1,300
260,320,8731,6,0,B|200:339|164:311|164:311|128:347|96:363|56:363|40:347|24:315|32:287|43:275,1,300
212,128,12549,6,0,L|217:202,1,74.9999999999999
300,280,13912,6,0,B|336:236|351:180|351:180|341:106,1,187.5
236,68,16094,2,0,B|176:80|116:64|116:64|59:99,1,187.5
24,208,18276,2,0,P|78:278|167:267,1,187.5
244,184,20458,2,0,P|307:133|341:206,1,187.5
256,280,22367,6,0,P|203:296|150:280,2,112.500004291535
340,204,24003,2,0,L|345:91,1,112.500004291535
248,36,25094,2,0,B|184:76|184:76|148:136|164:221,1,225.000008583069
279,239,26731,6,0,B|370:226|370:226|338:186|354:142|386:98|434:98|468:113|496:136|493:161,1,337.500012874604
484,272,28912,2,0,B|461:312|316:327|316:327|285:352|285:352|249:304|181:324,1,337.500012874604
43,227,31367,6,0,P|45:145|105:89,1,168.750006437302
216,116,32730,2,0,B|328:144|328:144|436:128,1,225.000008583069
472,20,34367,2,0,L|356:37,1,112.500004291535
200,88,35730,6,0,B|227:190|227:190|252:148|267:142,1,168.750006437302
372,92,37094,2,0,B|337:202|421:202|374:310,1,225.000008583069
256,332,38730,1,0,0:0:0:0:
144,348,39276,6,0,B|120:260|120:260|125:201,1,150
176,144,40094,1,0,0:0:0:0:
240,108,40367,2,0,L|390:108,1,150
488,220,41458,6,0,P|452:283|381:300,1,150
316,260,42276,1,0,0:0:0:0:
256,304,42549,2,0,L|181:306,1,75
124,356,43094,2,0,L|49:349,1,75
56,276,43639,6,0,P|93:212|96:137,1,150
48,80,44458,1,0,0:0:0:0:
100,28,44730,2,0,B|160:8|188:52|247:31,1,150
388,80,45821,6,0,L|400:229,1,150
364,296,46639,1,0,0:0:0:0:
303,340,46912,2,0,P|267:348|230:343,1,75
168,304,47458,2,0,P|130:299|94:307,1,75
24,336,48003,6,0,B|20:292|20:292|36:244|36:244|32:188,1,150
68,124,48821,2,0,L|156:120,1,75
212,148,49367,1,0,0:0:0:0:
268,100,49639,1,0,0:0:0:0:
412,136,50185,6,0,B|392:212|392:212|404:282,1,150
368,348,51003,2,0,P|330:352|294:343,1,75
224,320,51548,2,0,P|187:311|150:315,2,75
276,264,52367,6,0,L|266:114,1,150
212,64,53185,2,0,P|176:100|128:96,1,75
84,76,53730,1,0,0:0:0:0:
32,128,54003,1,0,0:0:0:0:
56,200,54276,1,0,0:0:0:0:
112,252,54548,6,0,B|204:240|204:240|259:253,1,150
324,292,55367,1,0,0:0:0:0:
395,311,55639,6,0,P|489:236|372:209,1,300
244,284,57276,6,0,B|184:280|184:280|144:304|144:304|100:301,2,150
316,256,58639,1,0,0:0:0:0:
380,220,58912,1,0,0:0:0:0:
327,79,59458,6,0,P|256:61|184:81,2,150
388,128,60821,1,0,0:0:0:0:
444,180,61094,1,0,0:0:0:0:
316,258,61639,6,0,L|292:333,1,75
218,329,62185,2,0,L|196:258,1,75
136,216,62730,1,0,0:0:0:0:
72,180,63003,1,0,0:0:0:0:
104,112,63276,6,0,L|253:108,1,150
400,148,64367,2,0,P|404:222|373:289,1,150
256,384,65457,5,0,0:0:0:0:
124,316,66003,2,0,B|96:220|96:220|111:172,1,150
224,76,67094,1,0,0:0:0:0:
296,56,67367,1,0,0:0:0:0:
368,40,67639,1,0,0:0:0:0:
464,156,68185,6,0,B|440:216|440:216|456:256|443:300,1,150
304,356,69276,2,0,P|266:357|230:348,1,75
168,308,69821,1,0,0:0:0:0:
56,208,70366,2,0,L|68:52,1,150
216,40,71457,2,0,L|210:114,1,75
256,176,72003,6,0,P|326:193|388:154,1,150
296,36,73094,2,0,B|228:16|228:16|150:31,1,150
40,132,74185,5,0,0:0:0:0:
156,228,74730,2,0,B|152:301|152:301|99:356,2,150
104,176,76094,1,0,0:0:0:0:
40,132,76366,5,0,0:0:0:0:
188,124,76912,2,0,P|261:127|316:80,2,150
124,88,78276,1,0,0:0:0:0:
60,44,78548,5,0,0:0:0:0:
7,183,79094,2,0,P|40:249|110:272,1,150
180,252,79912,2,0,P|215:240|252:243,1,75
320,276,80457,1,0,0:0:0:0:
392,264,80730,6,0,B|408:188|408:188|396:116,1,150
256,60,81821,2,0,P|184:50|131:100,1,150
256,180,82912,5,0,0:0:0:0:
396,116,83457,2,0,L|408:42,2,75
356,180,84275,2,0,L|368:253,1,75
336,320,84821,1,0,0:0:0:0:
380,380,85094,5,0,0:0:0:0:
236,340,85639,2,0,P|233:302|247:268,1,75
299,212,86185,2,0,P|324:142|302:72,1,150
232,48,87003,1,0,0:0:0:0:
164,80,87275,5,0,0:0:0:0:
76,200,87821,2,0,L|48:304,1,75
104,332,88366,2,0,P|139:343|175:336,1,75
236,296,88912,2,0,P|272:288|307:300,1,75
372,336,89457,6,0,L|388:186,1,150
252,120,90548,2,0,B|240:188|240:188|196:188|166:218,1,150
76,336,91639,5,0,0:0:0:0:
63,331,100366,6,0,P|136:330|178:271,1,150
333,271,101457,2,0,P|375:330|448:331,1,150
440,184,102548,2,0,P|440:146|452:111,2,75
360,56,103639,2,0,P|359:93|347:128,2,75
212,88,104730,6,0,B|136:116|136:116|66:116,1,150
66,267,105821,2,0,B|136:268|136:268|212:296,1,150
348,360,106912,2,0,L|422:350,2,75
296,308,107730,1,0,0:0:0:0:
236,264,108003,2,0,L|161:254,2,75
380,216,109093,6,0,B|400:148|400:148|392:69,1,150
328,32,109912,1,0,0:0:0:0:
264,68,110184,2,0,P|227:77|190:74,1,75
132,28,110730,2,0,P|94:25|58:34,1,75
24,100,111275,6,0,L|43:248,1,150
96,304,112093,1,0,0:0:0:0:
164,336,112366,2,0,B|197:319|197:319|234:319,1,75
304,348,112912,2,0,P|356:344|384:328,1,75
420,272,113457,6,0,P|416:197|431:123,1,150
284,100,114548,2,0,P|287:174|272:248,1,150
220,304,115366,1,0,0:0:0:0:
148,324,115639,6,0,L|128:252,1,75
84,192,116184,2,0,L|103:119,1,75
136,52,116730,2,0,P|181:108|253:108,1,150
320,72,117548,1,0,0:0:0:0:
388,40,117821,6,0,B|380:96|380:96|396:132|396:132|386:185,1,150
256,264,118912,1,0,0:0:0:0:
108,272,119457,2,0,P|61:216|68:143,1,150
128,100,120275,6,0,L|201:86,1,75
348,120,121093,1,0,0:0:0:0:
464,216,121639,2,0,B|480:320|480:320|455:357,1,150
384,340,122457,6,0,P|347:334|310:339,1,75
160,336,123275,2,0,L|145:262,1,75
112,196,123821,2,0,L|123:121,1,75
136,48,124366,5,0,0:0:0:0:
32,156,124911,1,0,0:0:0:0:
180,184,125457,1,0,0:0:0:0:
256,52,126002,1,0,0:0:0:0:
340,176,126548,6,0,B|374:330|251:350|251:350|127:322|165:176,1,450
256,56,128730,6,0,B|264:104|264:104|248:156|248:156|254:202,1,150
304,260,129548,1,0,0:0:0:0:
368,296,129821,2,0,P|408:292|452:256,1,75
480,212,130366,2,0,L|488:112,1,75
464,64,130911,6,0,B|408:52|390:108|319:68,1,150
256,32,131730,1,0,0:0:0:0:
188,60,132002,2,0,P|169:92|169:129,1,75
208,192,132548,2,0,P|207:229|189:261,1,75
120,292,133093,6,0,B|71:256|71:256|59:166,1,150
80,96,133911,1,0,0:0:0:0:
135,44,134184,2,0,P|170:30|205:41,1,75
260,92,134730,2,0,P|295:102|329:89,1,75
404,80,135275,6,0,B|404:126|376:148|376:148|396:184|390:219,1,150
356,284,136093,1,0,0:0:0:0:
292,324,136366,2,0,P|256:335|220:330,2,75
416,240,137457,6,0,P|454:177|448:103,1,150
392,52,138275,2,0,L|317:48,1,75
248,80,138820,2,0,L|173:83,2,75
292,140,139639,6,0,B|272:196|272:196|280:236|280:236|264:284,1,150
208,332,140457,1,0,0:0:0:0:
136,308,140729,2,0,B|112:268|112:268|112:232,1,75
140,172,141275,2,0,L|160:72,1,75
216,56,141820,6,0,B|273:33|313:97|360:72,1,150
432,56,142639,2,0,P|452:86|458:123,1,75
412,184,143184,1,0,0:0:0:0:
356,232,143457,1,0,0:0:0:0:
304,180,143729,1,0,0:0:0:0:
252,124,144002,6,0,B|156:100|156:100|116:132,1,150
76,196,144820,1,0,0:0:0:0:
52,268,145093,6,0,P|127:361|154:244,1,300
72,116,146729,6,0,L|60:16,2,75
120,172,147548,1,0,0:0:0:0:
184,208,147820,2,0,P|256:208|280:196,1,75
320,168,148366,1,0,0:0:0:0:
396,180,148639,6,0,B|436:236|436:236|441:317,1,150
372,344,149457,2,0,P|304:328|200:356,1,150
156,372,150275,1,0,0:0:0:0:
96,328,150548,6,0,L|87:253,1,75
120,184,151093,2,0,P|179:226|252:217,2,150
72,124,152457,1,0,0:0:0:0:
112,60,152729,1,0,0:0:0:0:
188,52,153002,6,0,B|248:40|248:40|334:58,1,150
400,96,153820,2,0,P|429:162|401:230,1,150
352,288,154638,1,0,0:0:0:0:
288,328,154911,6,0,L|214:311,1,75
140,296,155457,2,0,B|124:244|124:244|137:150,1,150
76,108,156275,2,0,P|40:119|3:113,2,75
120,48,157093,1,0,0:0:0:0:
188,80,157366,6,0,L|337:76,1,150
408,104,158184,2,0,P|381:173|380:248,1,150
412,316,159002,1,0,0:0:0:0:
344,344,159275,6,0,L|260:352,1,75
200,328,159820,2,0,P|127:316|64:354,2,150
256,276,161184,1,0,0:0:0:0:
304,216,161457,1,0,0:0:0:0:
356,268,161729,6,0,P|425:289|488:252,1,150
480,176,162547,2,0,L|448:29,2,150
452,324,164184,6,0,P|421:344|384:348,1,75
312,352,164729,2,0,P|240:331|167:346,1,150
96,364,165547,1,0,0:0:0:0:
32,324,165820,1,0,0:0:0:0:
64,256,166093,6,0,B|96:160|-20:160|26:46,1,225
168,92,167457,1,0,0:0:0:0:
228,44,167729,1,0,0:0:0:0:
287,91,168002,6,0,P|299:127|297:164,1,75
264,232,168547,2,0,L|428:216,2,150
200,276,169911,2,0,P|164:287|127:284,1,75
72,236,170456,6,0,L|82:86,1,150
140,36,171275,2,0,B|220:64|284:24|284:24|351:57,1,225
416,95,172366,6,0,P|437:126|447:162,1,75
404,224,172911,2,0,P|392:296|434:355,2,150
340,188,174275,1,0,0:0:0:0:
276,228,174547,1,0,0:0:0:0:
216,184,174820,6,0,B|184:136|200:40|200:40|156:56|124:45,1,225
40,168,176184,2,0,L|49:242,1,75
88,308,176729,6,0,P|124:315|160:305,1,75
224,268,177275,2,0,B|296:260|296:260|373:271,1,150
448,288,178093,2,0,P|470:258|478:222,1,75
440,160,178638,1,0,0:0:0:0:
484,100,178911,1,0,0:0:0:0:
420,60,179184,6,0,L|270:50,1,150
200,28,180002,2,0,P|128:44|85:104,2,150
248,84,181365,6,0,B|272:132|248:196|248:196|320:178|355:205,1,225
432,332,182729,1,0,0:0:0:0:
360,360,183002,1,0,0:0:0:0:
292,324,183275,1,0,0:0:0:0:
220,300,183547,6,0,P|131:351|76:265,1,225
152,136,184911,2,0,P|183:115|220:109,1,75
292,136,185456,1,0,0:0:0:0:
344,193,185729,6,0,B|368:280|368:280|292:256|237:287,1,225
88,288,187093,2,0,P|91:325|108:358,2,75
123,224,187911,6,0,P|145:152|129:80,1,150
76,28,188729,2,0,L|226:28,1,150
296,52,189547,1,0,0:0:0:0:
360,16,189820,1,0,0:0:0:0:
400,80,190093,6,0,B|348:168|432:212|395:297,1,225
252,344,191456,1,0,0:0:0:0:
192,300,191729,1,0,0:0:0:0:
128,340,192002,1,0,0:0:0:0:
64,304,192274,6,0,B|16:212|16:212|35:92,1,225
180,44,193638,2,0,L|254:49,1,75
324,80,194184,1,0,0:0:0:0:
388,120,194456,6,0,P|446:212|419:318,1,225
276,268,195820,2,0,L|260:194,2,75
212,304,196638,6,0,L|182:156,1,150
120,112,197456,2,0,B|80:144|80:144|96:244,1,150
96,316,198274,2,0,P|76:347|43:365,1,75
448,192,200729,6,0,B|390:216|378:152|304:183,1,150
256,240,201547,1,0,0:0:0:0:
192,276,201820,2,0,P|119:289|54:255,2,150
296,168,203456,6,0,L|280:94,1,75
324,32,204002,2,0,B|396:16|396:16|470:32,1,150
508,96,204820,1,0,0:0:0:0:
456,152,205093,5,0,0:0:0:0:
336,240,205638,2,0,L|261:246,1,75
196,280,206183,2,0,P|123:295|56:264,1,150
12,204,207002,1,0,0:0:0:0:
40,136,207274,6,0,B|96:72|96:72|160:63,1,150
224,100,208093,1,0,0:0:0:0:
284,144,208365,2,0,P|357:156|428:136,1,150
