osu file format v14

[General]
AudioFilename: audio.mp3
AudioLeadIn: 0
PreviewTime: 133610
Countdown: 0
SampleSet: Soft
StackLeniency: 0.7
Mode: 3
LetterboxInBreaks: 0
SpecialStyle: 0
WidescreenStoryboard: 1

[Editor]
Bookmarks: 4917,9281,26735,43644,44190,60554,61644,78554,79099,95463,96554,113463,114008,122735,129281,131463,132826,133644,150008,151099,159826,168554,177281,186008,202372,203463,205644,222008,223099,239463,240554,257872
DistanceSpacing: 0.8
BeatDivisor: 4
GridSize: 16
TimelineZoom: 1.8

[Metadata]
Title:Highscore
TitleUnicode:Highscore
Artist:Panda Eyes & Teminite
ArtistUnicode:Panda Eyes & Teminite
Creator:Leniane
Version:Game Over
Source:osu!
Tags:Featured Artist FA Mappers' Guild MG KIKO Glitch Hop video Game Newgrounds Mid Tempo Moombahcore Indie Electronic Instrumental
BeatmapID:2258948
BeatmapSetID:1079712

[Difficulty]
HPDrainRate:8.8
CircleSize:4
OverallDifficulty:8.2
ApproachRate:5
SliderMultiplier:1.4
SliderTickRate:1

[Events]
//Background and Video events
0,0,"Background.jpg",0,0
//Break Periods
//Storyboard Layer 0 (Background)
//Storyboard Layer 1 (Fail)
//Storyboard Layer 2 (Pass)
//Storyboard Layer 3 (Foreground)
//Storyboard Layer 4 (Overlay)
//Storyboard Sound Samples

[TimingPoints]
554,545.454545454546,4,2,1,5,1,0
554,-250,4,2,1,5,0,0
4917,-200,4,2,1,20,0,0
6554,-166.666666666667,4,2,1,20,0,0
8190,-142.857142857143,4,2,1,20,0,0
9281,-125,4,2,1,20,0,0
11463,-121.212121212121,4,2,1,25,0,0
13644,-117.647058823529,4,2,1,30,0,0
15826,-114.285714285714,4,2,1,35,0,0
18008,-111.111111111111,4,2,1,40,0,0
20190,-108.108108108108,4,2,1,40,0,0
22372,-105.263157894737,4,2,1,40,0,0
24554,-102.564102564103,4,2,1,40,0,0
26735,-100,4,2,1,50,0,0
44190,-55.5555555555556,4,2,1,60,0,1
44326,-76.9230769230769,4,2,1,60,0,1
44463,-142.857142857143,4,2,1,60,0,1
44599,-500,4,2,1,60,0,1
44735,-62.5,4,2,1,60,0,1
44803,-250,4,2,1,60,0,1
44872,-62.5,4,2,1,60,0,1
44940,-250,4,2,1,60,0,1
45008,-62.5,4,2,1,60,0,1
45076,-250,4,2,1,60,0,1
45144,-62.5,4,2,1,60,0,1
45212,-250,4,2,1,60,0,1
45281,-62.5,4,2,1,60,0,1
45349,-250,4,2,1,60,0,1
45417,-62.5,4,2,1,60,0,1
45485,-250,4,2,1,60,0,1
45554,-62.5,4,2,1,60,0,1
45622,-250,4,2,1,60,0,1
45690,-62.5,4,2,1,60,0,1
45758,-250,4,2,1,60,0,1
45826,-62.5,4,2,1,60,0,1
45894,-250,4,2,1,60,0,1
45963,-62.5,4,2,1,60,0,1
46031,-250,4,2,1,60,0,1
46099,-62.5,4,2,1,60,0,1
46167,-250,4,2,1,60,0,1
46235,-62.5,4,2,1,60,0,1
46303,-250,4,2,1,60,0,1
46372,-55.5555555555556,4,2,1,60,0,1
46508,-76.9230769230769,4,2,1,60,0,1
46645,-142.857142857143,4,2,1,60,0,1
46781,-500,4,2,1,60,0,1
46917,-62.5,4,2,1,60,0,1
46985,-250,4,2,1,60,0,1
47054,-62.5,4,2,1,60,0,1
47122,-250,4,2,1,60,0,1
47190,-62.5,4,2,1,60,0,1
47258,-250,4,2,1,60,0,1
47326,-62.5,4,2,1,60,0,1
47394,-250,4,2,1,60,0,1
47463,-62.5,4,2,1,60,0,1
47531,-250,4,2,1,60,0,1
47599,-62.5,4,2,1,60,0,1
47667,-250,4,2,1,60,0,1
47736,-62.5,4,2,1,60,0,1
47804,-250,4,2,1,60,0,1
47872,-62.5,4,2,1,60,0,1
47940,-250,4,2,1,60,0,1
48008,-62.5,4,2,1,60,0,1
48076,-250,4,2,1,60,0,1
48145,-62.5,4,2,1,60,0,1
48213,-250,4,2,1,60,0,1
48281,-62.5,4,2,1,60,0,1
48349,-250,4,2,1,60,0,1
48417,-62.5,4,2,1,60,0,1
48485,-250,4,2,1,60,0,1
48554,-55.5555555555556,4,2,1,60,0,1
48690,-76.9230769230769,4,2,1,60,0,1
48827,-142.857142857143,4,2,1,60,0,1
48963,-500,4,2,1,60,0,1
49099,-62.5,4,2,1,60,0,1
49167,-250,4,2,1,60,0,1
49236,-62.5,4,2,1,60,0,1
49304,-250,4,2,1,60,0,1
49372,-62.5,4,2,1,60,0,1
49440,-250,4,2,1,60,0,1
49508,-62.5,4,2,1,60,0,1
49576,-250,4,2,1,60,0,1
49645,-62.5,4,2,1,60,0,1
49713,-250,4,2,1,60,0,1
49781,-62.5,4,2,1,60,0,1
49849,-250,4,2,1,60,0,1
49918,-62.5,4,2,1,60,0,1
49986,-250,4,2,1,60,0,1
50054,-62.5,4,2,1,60,0,1
50122,-250,4,2,1,60,0,1
50190,-62.5,4,2,1,60,0,1
50258,-250,4,2,1,60,0,1
50327,-62.5,4,2,1,60,0,1
50395,-250,4,2,1,60,0,1
50463,-62.5,4,2,1,60,0,1
50531,-250,4,2,1,60,0,1
50599,-62.5,4,2,1,60,0,1
50667,-250,4,2,1,60,0,1
50735,-55.5555555555556,4,2,1,60,0,1
50871,-76.9230769230769,4,2,1,60,0,1
51008,-142.857142857143,4,2,1,60,0,1
51144,-500,4,2,1,60,0,1
51280,-62.5,4,2,1,60,0,1
51348,-250,4,2,1,60,0,1
51417,-62.5,4,2,1,60,0,1
51485,-250,4,2,1,60,0,1
51553,-62.5,4,2,1,60,0,1
51621,-250,4,2,1,60,0,1
51689,-62.5,4,2,1,60,0,1
51757,-250,4,2,1,60,0,1
51826,-62.5,4,2,1,60,0,1
51894,-250,4,2,1,60,0,1
51962,-62.5,4,2,1,60,0,1
52030,-250,4,2,1,60,0,1
52099,-62.5,4,2,1,60,0,1
52167,-250,4,2,1,60,0,1
52235,-62.5,4,2,1,60,0,1
52303,-250,4,2,1,60,0,1
52371,-62.5,4,2,1,60,0,1
52439,-250,4,2,1,60,0,1
52508,-62.5,4,2,1,60,0,1
52576,-250,4,2,1,60,0,1
52644,-62.5,4,2,1,60,0,1
52712,-250,4,2,1,60,0,1
52780,-62.5,4,2,1,60,0,1
52848,-250,4,2,1,60,0,1
52917,-55.5555555555556,4,2,1,60,0,1
53053,-76.9230769230769,4,2,1,60,0,1
53190,-142.857142857143,4,2,1,60,0,1
53326,-500,4,2,1,60,0,1
53462,-62.5,4,2,1,60,0,1
53530,-250,4,2,1,60,0,1
53599,-62.5,4,2,1,60,0,1
53667,-250,4,2,1,60,0,1
53735,-62.5,4,2,1,60,0,1
53803,-250,4,2,1,60,0,1
53871,-62.5,4,2,1,60,0,1
53939,-250,4,2,1,60,0,1
54008,-62.5,4,2,1,60,0,1
54076,-250,4,2,1,60,0,1
54144,-62.5,4,2,1,60,0,1
54212,-250,4,2,1,60,0,1
54281,-62.5,4,2,1,60,0,1
54349,-250,4,2,1,60,0,1
54417,-62.5,4,2,1,60,0,1
54485,-250,4,2,1,60,0,1
54553,-62.5,4,2,1,60,0,1
54621,-250,4,2,1,60,0,1
54690,-62.5,4,2,1,60,0,1
54758,-250,4,2,1,60,0,1
54826,-62.5,4,2,1,60,0,1
54894,-250,4,2,1,60,0,1
54962,-62.5,4,2,1,60,0,1
55030,-250,4,2,1,60,0,1
55099,-55.5555555555556,4,2,1,60,0,1
55235,-76.9230769230769,4,2,1,60,0,1
55372,-142.857142857143,4,2,1,60,0,1
55508,-500,4,2,1,60,0,1
55644,-62.5,4,2,1,60,0,1
55712,-250,4,2,1,60,0,1
55781,-62.5,4,2,1,60,0,1
55849,-250,4,2,1,60,0,1
55917,-62.5,4,2,1,60,0,1
55985,-250,4,2,1,60,0,1
56053,-62.5,4,2,1,60,0,1
56121,-250,4,2,1,60,0,1
56190,-62.5,4,2,1,60,0,1
56258,-250,4,2,1,60,0,1
56326,-62.5,4,2,1,60,0,1
56394,-250,4,2,1,60,0,1
56463,-62.5,4,2,1,60,0,1
56531,-250,4,2,1,60,0,1
56599,-62.5,4,2,1,60,0,1
56667,-250,4,2,1,60,0,1
56735,-62.5,4,2,1,60,0,1
56803,-250,4,2,1,60,0,1
56872,-62.5,4,2,1,60,0,1
56940,-250,4,2,1,60,0,1
57008,-62.5,4,2,1,60,0,1
57076,-250,4,2,1,60,0,1
57144,-62.5,4,2,1,60,0,1
57212,-250,4,2,1,60,0,1
57281,-55.5555555555556,4,2,1,60,0,1
57417,-76.9230769230769,4,2,1,60,0,1
57554,-142.857142857143,4,2,1,60,0,1
57690,-500,4,2,1,60,0,1
57826,-62.5,4,2,1,60,0,1
57894,-250,4,2,1,60,0,1
57963,-62.5,4,2,1,60,0,1
58031,-250,4,2,1,60,0,1
58099,-62.5,4,2,1,60,0,1
58167,-250,4,2,1,60,0,1
58235,-62.5,4,2,1,60,0,1
58303,-250,4,2,1,60,0,1
58372,-62.5,4,2,1,60,0,1
58440,-250,4,2,1,60,0,1
58508,-62.5,4,2,1,60,0,1
58576,-250,4,2,1,60,0,1
58645,-62.5,4,2,1,60,0,1
58713,-250,4,2,1,60,0,1
58781,-62.5,4,2,1,60,0,1
58849,-250,4,2,1,60,0,1
58917,-62.5,4,2,1,60,0,1
58985,-250,4,2,1,60,0,1
59054,-62.5,4,2,1,60,0,1
59122,-250,4,2,1,60,0,1
59190,-62.5,4,2,1,60,0,1
59258,-250,4,2,1,60,0,1
59326,-62.5,4,2,1,60,0,1
59394,-250,4,2,1,60,0,1
59463,-55.5555555555556,4,2,1,60,0,1
59599,-76.9230769230769,4,2,1,60,0,1
59736,-142.857142857143,4,2,1,60,0,1
59872,-500,4,2,1,60,0,1
60008,-62.5,4,2,1,60,0,1
60076,-250,4,2,1,60,0,1
60145,-62.5,4,2,1,60,0,1
60213,-250,4,2,1,60,0,1
60281,-62.5,4,2,1,60,0,1
60349,-250,4,2,1,60,0,1
60417,-62.5,4,2,1,60,0,1
60485,-250,4,2,1,60,0,1
60554,-100,4,2,1,40,0,0
60826,-111.111111111111,4,2,1,40,0,0
60894,-90.9090909090908,4,2,1,45,0,0
60963,-111.111111111111,4,2,1,45,0,0
61031,-90.9090909090908,4,2,1,50,0,0
61167,-111.111111111111,4,2,1,50,0,0
61235,-83.3333333333333,4,2,1,53,0,0
61304,-125,4,2,1,53,0,0
61372,-76.9230769230769,4,2,1,55,0,0
61440,-142.857142857143,4,2,1,55,0,0
61508,-71.4285714285714,4,2,1,58,0,0
61576,-166.666666666667,4,2,1,58,0,0
61644,-55.5555555555556,4,2,1,60,0,1
61713,-76.9230769230769,4,2,1,60,0,1
61781,-142.857142857143,4,2,1,60,0,1
61849,-500,4,2,1,60,0,1
62122,-29.4117647058824,4,2,1,60,0,1
62190,-250,4,2,1,60,0,1
62258,-62.5,4,2,1,60,0,1
62326,-250,4,2,1,60,0,1
62394,-62.5,4,2,1,60,0,1
62463,-250,4,2,1,60,0,1
62531,-62.5,4,2,1,60,0,1
62599,-250,4,2,1,60,0,1
62667,-62.5,4,2,1,60,0,1
62735,-250,4,2,1,60,0,1
62803,-62.5,4,2,1,60,0,1
62872,-250,4,2,1,60,0,1
62940,-62.5,4,2,1,60,0,1
63008,-250,4,2,1,60,0,1
63076,-62.5,4,2,1,60,0,1
63144,-250,4,2,1,60,0,1
63212,-62.5,4,2,1,60,0,1
63281,-250,4,2,1,60,0,1
63349,-62.5,4,2,1,60,0,1
63417,-250,4,2,1,60,0,1
63485,-62.5,4,2,1,60,0,1
63554,-250,4,2,1,60,0,1
63622,-62.5,4,2,1,60,0,1
63690,-250,4,2,1,60,0,1
63758,-62.5,4,2,1,60,0,1
63826,-55.5555555555556,4,2,1,60,0,1
63895,-76.9230769230769,4,2,1,60,0,1
63963,-142.857142857143,4,2,1,60,0,1
64031,-500,4,2,1,60,0,1
64304,-29.4117647058824,4,2,1,60,0,1
64372,-250,4,2,1,60,0,1
64440,-62.5,4,2,1,60,0,1
64508,-250,4,2,1,60,0,1
64576,-62.5,4,2,1,60,0,1
64644,-250,4,2,1,60,0,1
64712,-62.5,4,2,1,60,0,1
64781,-250,4,2,1,60,0,1
64849,-62.5,4,2,1,60,0,1
64917,-250,4,2,1,60,0,1
64985,-62.5,4,2,1,60,0,1
65054,-250,4,2,1,60,0,1
65122,-62.5,4,2,1,60,0,1
65190,-250,4,2,1,60,0,1
65258,-62.5,4,2,1,60,0,1
65326,-250,4,2,1,60,0,1
65394,-62.5,4,2,1,60,0,1
65463,-250,4,2,1,60,0,1
65531,-62.5,4,2,1,60,0,1
65599,-250,4,2,1,60,0,1
65667,-62.5,4,2,1,60,0,1
65735,-250,4,2,1,60,0,1
65803,-62.5,4,2,1,60,0,1
65872,-250,4,2,1,60,0,1
65940,-62.5,4,2,1,60,0,1
66008,-55.5555555555556,4,2,1,60,0,1
66077,-76.9230769230769,4,2,1,60,0,1
66145,-142.857142857143,4,2,1,60,0,1
66213,-500,4,2,1,60,0,1
66486,-29.4117647058824,4,2,1,60,0,1
66554,-250,4,2,1,60,0,1
66622,-62.5,4,2,1,60,0,1
66690,-250,4,2,1,60,0,1
66758,-62.5,4,2,1,60,0,1
66826,-250,4,2,1,60,0,1
66894,-62.5,4,2,1,60,0,1
66963,-250,4,2,1,60,0,1
67031,-62.5,4,2,1,60,0,1
67099,-250,4,2,1,60,0,1
67167,-62.5,4,2,1,60,0,1
67235,-250,4,2,1,60,0,1
67303,-62.5,4,2,1,60,0,1
67372,-250,4,2,1,60,0,1
67440,-62.5,4,2,1,60,0,1
67508,-250,4,2,1,60,0,1
67576,-62.5,4,2,1,60,0,1
67644,-250,4,2,1,60,0,1
67712,-62.5,4,2,1,60,0,1
67781,-250,4,2,1,60,0,1
67849,-62.5,4,2,1,60,0,1
67917,-250,4,2,1,60,0,1
67985,-62.5,4,2,1,60,0,1
68054,-250,4,2,1,60,0,1
68122,-62.5,4,2,1,60,0,1
68190,-66.6666666666667,4,2,1,60,0,1
68326,-166.666666666667,4,2,1,60,0,1
68394,-250,4,2,1,60,0,1
68463,-100,4,2,1,60,0,1
68735,-66.6666666666667,4,2,1,60,0,1
68871,-166.666666666667,4,2,1,60,0,1
68939,-250,4,2,1,60,0,1
69008,-100,4,2,1,60,0,1
70372,-55.5555555555556,4,2,1,60,0,1
70441,-76.9230769230769,4,2,1,60,0,1
70509,-142.857142857143,4,2,1,60,0,1
70577,-500,4,2,1,60,0,1
70644,-250,4,2,1,60,0,1
70850,-35.7142857142857,4,2,1,60,0,1
70917,-250,4,2,1,60,0,1
70985,-62.5,4,2,1,60,0,1
71054,-250,4,2,1,60,0,1
71122,-62.5,4,2,1,60,0,1
71190,-250,4,2,1,60,0,1
71258,-62.5,4,2,1,60,0,1
71326,-250,4,2,1,60,0,1
71394,-62.5,4,2,1,60,0,1
71463,-250,4,2,1,60,0,1
71531,-62.5,4,2,1,60,0,1
71599,-250,4,2,1,60,0,1
71667,-62.5,4,2,1,60,0,1
71804,-250,4,2,1,60,0,1
71872,-62.5,4,2,1,60,0,1
71940,-250,4,2,1,60,0,1
72076,-62.5,4,2,1,60,0,1
72144,-250,4,2,1,60,0,1
72212,-62.5,4,2,1,60,0,1
72281,-250,4,2,1,60,0,1
72349,-62.5,4,2,1,60,0,1
72417,-250,4,2,1,60,0,1
72485,-62.5,4,2,1,60,0,1
72554,-55.5555555555556,4,2,1,60,0,1
72623,-76.9230769230769,4,2,1,60,0,1
72691,-142.857142857143,4,2,1,60,0,1
72759,-500,4,2,1,60,0,1
72826,-166.666666666667,4,2,1,60,0,1
73032,-45.4545454545455,4,2,1,60,0,1
73167,-166.666666666667,4,2,1,60,0,1
73372,-250,4,2,1,60,0,1
73440,-62.5,4,2,1,60,0,1
73508,-250,4,2,1,60,0,1
73576,-62.5,4,2,1,60,0,1
73645,-250,4,2,1,60,0,1
73713,-62.5,4,2,1,60,0,1
73781,-250,4,2,1,60,0,1
73849,-62.5,4,2,1,60,0,1
73986,-250,4,2,1,60,0,1
74054,-62.5,4,2,1,60,0,1
74122,-250,4,2,1,60,0,1
74258,-62.5,4,2,1,60,0,1
74326,-250,4,2,1,60,0,1
74394,-62.5,4,2,1,60,0,1
74463,-250,4,2,1,60,0,1
74531,-62.5,4,2,1,60,0,1
74599,-250,4,2,1,60,0,1
74667,-62.5,4,2,1,60,0,1
74735,-55.5555555555556,4,2,1,60,0,1
74804,-76.9230769230769,4,2,1,60,0,1
74872,-142.857142857143,4,2,1,60,0,1
74940,-500,4,2,1,60,0,1
75008,-166.666666666667,4,2,1,60,0,1
75213,-45.4545454545457,4,2,1,60,0,1
75349,-166.666666666667,4,2,1,60,0,1
75554,-250,4,2,1,60,0,1
75622,-62.5,4,2,1,60,0,1
75690,-250,4,2,1,60,0,1
75758,-62.5,4,2,1,60,0,1
75827,-250,4,2,1,60,0,1
75895,-62.5,4,2,1,60,0,1
75963,-250,4,2,1,60,0,1
76031,-62.5,4,2,1,60,0,1
76168,-250,4,2,1,60,0,1
76236,-62.5,4,2,1,60,0,1
76304,-250,4,2,1,60,0,1
76440,-62.5,4,2,1,60,0,1
76508,-250,4,2,1,60,0,1
76576,-62.5,4,2,1,60,0,1
76645,-250,4,2,1,60,0,1
76713,-62.5,4,2,1,60,0,1
76781,-250,4,2,1,60,0,1
76849,-62.5,4,2,1,60,0,1
76917,-66.6666666666667,4,2,1,60,0,1
77053,-166.666666666667,4,2,1,60,0,1
77121,-250,4,2,1,60,0,1
77190,-100,4,2,1,60,0,1
77463,-66.6666666666667,4,2,1,60,0,1
77599,-166.666666666667,4,2,1,60,0,1
77667,-250,4,2,1,60,0,1
77736,-100,4,2,1,60,0,1
78554,-100,4,2,1,40,0,0
79099,-55.5555555555556,4,2,1,50,0,0
79167,-76.9230769230769,4,2,1,50,0,0
79235,-142.857142857143,4,2,1,50,0,0
79304,-500,4,2,1,50,0,0
79372,-100,4,2,1,50,0,0
79644,-62.5,4,2,1,50,0,0
79679,-76.9230769230769,4,2,1,50,0,0
79713,-142.857142857143,4,2,1,50,0,0
79747,-250,4,2,1,50,0,0
79781,-100,4,2,1,50,0,0
80054,-62.5,4,2,1,50,0,0
80089,-76.9230769230769,4,2,1,50,0,0
80123,-142.857142857143,4,2,1,50,0,0
80157,-250,4,2,1,50,0,0
80191,-100,4,2,1,50,0,0
80463,-62.5,4,2,1,50,0,0
80498,-76.9230769230769,4,2,1,50,0,0
80532,-142.857142857143,4,2,1,50,0,0
80566,-250,4,2,1,50,0,0
80600,-100,4,2,1,50,0,0
80872,-62.5,4,2,1,50,0,0
80907,-76.9230769230769,4,2,1,50,0,0
80941,-142.857142857143,4,2,1,50,0,0
80975,-250,4,2,1,50,0,0
81009,-100,4,2,1,50,0,0
81281,-55.5555555555556,4,2,1,50,0,0
81349,-76.9230769230769,4,2,1,50,0,0
81417,-142.857142857143,4,2,1,50,0,0
81486,-500,4,2,1,50,0,0
81554,-100,4,2,1,50,0,0
81826,-62.5,4,2,1,50,0,0
81861,-76.9230769230769,4,2,1,50,0,0
81895,-142.857142857143,4,2,1,50,0,0
81929,-250,4,2,1,50,0,0
81963,-100,4,2,1,50,0,0
82099,-62.5,4,2,1,50,0,0
82134,-76.9230769230769,4,2,1,50,0,0
82168,-142.857142857143,4,2,1,50,0,0
82202,-250,4,2,1,50,0,0
82235,-62.5,4,2,1,50,0,0
82270,-76.9230769230769,4,2,1,50,0,0
82304,-142.857142857143,4,2,1,50,0,0
82338,-250,4,2,1,50,0,0
82372,-100,4,2,1,50,0,0
82644,-62.5,4,2,1,50,0,0
82679,-76.9230769230769,4,2,1,50,0,0
82713,-142.857142857143,4,2,1,50,0,0
82747,-250,4,2,1,50,0,0
82781,-100,4,2,1,50,0,0
83054,-62.5,4,2,1,50,0,0
83089,-76.9230769230769,4,2,1,50,0,0
83123,-142.857142857143,4,2,1,50,0,0
83157,-250,4,2,1,50,0,0
83191,-100,4,2,1,50,0,0
83463,-55.5555555555556,4,2,1,50,0,0
83531,-76.9230769230769,4,2,1,50,0,0
83599,-142.857142857143,4,2,1,50,0,0
83667,-500,4,2,1,50,0,0
83735,-100,4,2,1,50,0,0
84008,-62.5,4,2,1,50,0,0
84043,-76.9230769230769,4,2,1,50,0,0
84077,-142.857142857143,4,2,1,50,0,0
84111,-250,4,2,1,50,0,0
84145,-100,4,2,1,50,0,0
84417,-62.5,4,2,1,50,0,0
84452,-76.9230769230769,4,2,1,50,0,0
84486,-142.857142857143,4,2,1,50,0,0
84520,-250,4,2,1,50,0,0
84554,-100,4,2,1,50,0,0
84826,-62.5,4,2,1,50,0,0
84861,-76.9230769230769,4,2,1,50,0,0
84895,-142.857142857143,4,2,1,50,0,0
84929,-250,4,2,1,50,0,0
84963,-100,4,2,1,50,0,0
85235,-62.5,4,2,1,50,0,0
85270,-76.9230769230769,4,2,1,50,0,0
85304,-142.857142857143,4,2,1,50,0,0
85338,-250,4,2,1,50,0,0
85372,-100,4,2,1,50,0,0
85644,-66.6666666666667,4,2,1,50,0,0
85780,-166.666666666667,4,2,1,50,0,0
85848,-250,4,2,1,50,0,0
85917,-100,4,2,1,50,0,0
86189,-66.6666666666667,4,2,1,50,0,0
86325,-166.666666666667,4,2,1,50,0,0
86393,-250,4,2,1,50,0,0
86462,-100,4,2,1,50,0,0
87826,-55.5555555555556,4,2,1,50,0,0
87894,-76.9230769230769,4,2,1,50,0,0
87963,-142.857142857143,4,2,1,50,0,0
88031,-500,4,2,1,50,0,0
88099,-100,4,2,1,50,0,0
88372,-62.5,4,2,1,50,0,0
88407,-76.9230769230769,4,2,1,50,0,0
88441,-142.857142857143,4,2,1,50,0,0
88475,-250,4,2,1,50,0,0
88509,-100,4,2,1,50,0,0
88781,-62.5,4,2,1,50,0,0
88816,-76.9230769230769,4,2,1,50,0,0
88850,-142.857142857143,4,2,1,50,0,0
88884,-250,4,2,1,50,0,0
88918,-100,4,2,1,50,0,0
89190,-62.5,4,2,1,50,0,0
89225,-76.9230769230769,4,2,1,50,0,0
89259,-142.857142857143,4,2,1,50,0,0
89293,-250,4,2,1,50,0,0
89327,-100,4,2,1,50,0,0
89599,-62.5,4,2,1,50,0,0
89634,-76.9230769230769,4,2,1,50,0,0
89668,-142.857142857143,4,2,1,50,0,0
89702,-250,4,2,1,50,0,0
89736,-100,4,2,1,50,0,0
90008,-55.5555555555556,4,2,1,50,0,0
90076,-76.9230769230769,4,2,1,50,0,0
90144,-142.857142857143,4,2,1,50,0,0
90213,-500,4,2,1,50,0,0
90281,-100,4,2,1,50,0,0
90554,-62.5,4,2,1,50,0,0
90589,-76.9230769230769,4,2,1,50,0,0
90623,-142.857142857143,4,2,1,50,0,0
90657,-250,4,2,1,50,0,0
90691,-100,4,2,1,50,0,0
90826,-62.5,4,2,1,50,0,0
90861,-76.9230769230769,4,2,1,50,0,0
90895,-142.857142857143,4,2,1,50,0,0
90929,-250,4,2,1,50,0,0
90963,-62.5,4,2,1,50,0,0
90998,-76.9230769230769,4,2,1,50,0,0
91032,-142.857142857143,4,2,1,50,0,0
91066,-250,4,2,1,50,0,0
91100,-100,4,2,1,50,0,0
91372,-62.5,4,2,1,50,0,0
91407,-76.9230769230769,4,2,1,50,0,0
91441,-142.857142857143,4,2,1,50,0,0
91475,-250,4,2,1,50,0,0
91509,-100,4,2,1,50,0,0
91781,-62.5,4,2,1,50,0,0
91816,-76.9230769230769,4,2,1,50,0,0
91850,-142.857142857143,4,2,1,50,0,0
91884,-250,4,2,1,50,0,0
91918,-100,4,2,1,50,0,0
92190,-55.5555555555556,4,2,1,50,0,0
92258,-76.9230769230769,4,2,1,50,0,0
92326,-142.857142857143,4,2,1,50,0,0
92394,-500,4,2,1,50,0,0
92463,-100,4,2,1,50,0,0
92735,-62.5,4,2,1,50,0,0
92770,-76.9230769230769,4,2,1,50,0,0
92804,-142.857142857143,4,2,1,50,0,0
92838,-250,4,2,1,50,0,0
92872,-100,4,2,1,50,0,0
93144,-62.5,4,2,1,50,0,0
93179,-76.9230769230769,4,2,1,50,0,0
93213,-142.857142857143,4,2,1,50,0,0
93247,-250,4,2,1,50,0,0
93281,-100,4,2,1,50,0,0
93554,-62.5,4,2,1,50,0,0
93589,-76.9230769230769,4,2,1,50,0,0
93623,-142.857142857143,4,2,1,50,0,0
93657,-250,4,2,1,50,0,0
93691,-100,4,2,1,50,0,0
94372,-66.6666666666667,4,2,1,50,0,0
94508,-166.666666666667,4,2,1,50,0,0
94576,-250,4,2,1,50,0,0
94645,-100,4,2,1,50,0,0
94917,-83.3333333333333,4,2,1,50,0,0
95054,-62.5,4,2,1,50,0,0
95190,-125,4,2,1,50,0,0
95326,-250,4,2,1,50,0,0
95463,-100,4,2,1,50,0,0
99826,-71.4285714285714,4,2,1,50,0,0
99894,-166.666666666667,4,2,1,50,0,0
99963,-71.4285714285714,4,2,1,50,0,0
100031,-166.666666666667,4,2,1,50,0,0
100099,-71.4285714285714,4,2,1,50,0,0
100167,-166.666666666667,4,2,1,50,0,0
100235,-71.4285714285714,4,2,1,50,0,0
100303,-166.666666666667,4,2,1,50,0,0
100372,-71.4285714285714,4,2,1,50,0,0
100440,-166.666666666667,4,2,1,50,0,0
100508,-71.4285714285714,4,2,1,50,0,0
100576,-166.666666666667,4,2,1,50,0,0
100644,-71.4285714285714,4,2,1,50,0,0
100712,-166.666666666667,4,2,1,50,0,0
100781,-71.4285714285714,4,2,1,50,0,0
100849,-166.666666666667,4,2,1,50,0,0
100917,-100,4,2,1,50,0,0
104190,-71.4285714285714,4,2,1,50,0,0
104258,-166.666666666667,4,2,1,50,0,0
104327,-71.4285714285714,4,2,1,50,0,0
104395,-166.666666666667,4,2,1,50,0,0
104463,-71.4285714285714,4,2,1,50,0,0
104531,-166.666666666667,4,2,1,50,0,0
104599,-71.4285714285714,4,2,1,50,0,0
104667,-166.666666666667,4,2,1,50,0,0
104736,-71.4285714285714,4,2,1,50,0,0
104804,-166.666666666667,4,2,1,50,0,0
104872,-71.4285714285714,4,2,1,50,0,0
104940,-166.666666666667,4,2,1,50,0,0
105008,-71.4285714285714,4,2,1,50,0,0
105076,-166.666666666667,4,2,1,50,0,0
105145,-71.4285714285714,4,2,1,50,0,0
105213,-166.666666666667,4,2,1,50,0,0
105281,-100,4,2,1,50,0,0
108554,-71.4285714285714,4,2,1,50,0,0
108622,-166.666666666667,4,2,1,50,0,0
108691,-71.4285714285714,4,2,1,50,0,0
108759,-166.666666666667,4,2,1,50,0,0
108827,-71.4285714285714,4,2,1,50,0,0
108895,-166.666666666667,4,2,1,50,0,0
108963,-71.4285714285714,4,2,1,50,0,0
109031,-166.666666666667,4,2,1,50,0,0
109100,-71.4285714285714,4,2,1,50,0,0
109168,-166.666666666667,4,2,1,50,0,0
109236,-71.4285714285714,4,2,1,50,0,0
109304,-166.666666666667,4,2,1,50,0,0
109372,-71.4285714285714,4,2,1,50,0,0
109440,-166.666666666667,4,2,1,50,0,0
109509,-71.4285714285714,4,2,1,50,0,0
109577,-166.666666666667,4,2,1,50,0,0
109645,-100,4,2,1,50,0,0
112917,-71.4285714285714,4,2,1,50,0,0
112985,-166.666666666667,4,2,1,50,0,0
113054,-71.4285714285714,4,2,1,50,0,0
113122,-166.666666666667,4,2,1,50,0,0
113190,-71.4285714285714,4,2,1,50,0,0
113258,-166.666666666667,4,2,1,50,0,0
113326,-71.4285714285714,4,2,1,50,0,0
113394,-166.666666666667,4,2,1,50,0,0
113463,-100,4,2,1,50,0,0
133644,-55.5555555555556,4,2,1,60,0,1
133780,-76.9230769230769,4,2,1,60,0,1
133917,-142.857142857143,4,2,1,60,0,1
134053,-500,4,2,1,60,0,1
134189,-62.5,4,2,1,60,0,1
134257,-250,4,2,1,60,0,1
134326,-62.5,4,2,1,60,0,1
134394,-250,4,2,1,60,0,1
134462,-62.5,4,2,1,60,0,1
134530,-250,4,2,1,60,0,1
134598,-62.5,4,2,1,60,0,1
134666,-250,4,2,1,60,0,1
134735,-62.5,4,2,1,60,0,1
134803,-250,4,2,1,60,0,1
134871,-62.5,4,2,1,60,0,1
134939,-250,4,2,1,60,0,1
135008,-62.5,4,2,1,60,0,1
135076,-250,4,2,1,60,0,1
135144,-62.5,4,2,1,60,0,1
135212,-250,4,2,1,60,0,1
135280,-62.5,4,2,1,60,0,1
135348,-250,4,2,1,60,0,1
135417,-62.5,4,2,1,60,0,1
135485,-250,4,2,1,60,0,1
135553,-62.5,4,2,1,60,0,1
135621,-250,4,2,1,60,0,1
135689,-62.5,4,2,1,60,0,1
135757,-250,4,2,1,60,0,1
135826,-55.5555555555556,4,2,1,60,0,1
135962,-76.9230769230769,4,2,1,60,0,1
136099,-142.857142857143,4,2,1,60,0,1
136235,-500,4,2,1,60,0,1
136371,-62.5,4,2,1,60,0,1
136439,-250,4,2,1,60,0,1
136508,-62.5,4,2,1,60,0,1
136576,-250,4,2,1,60,0,1
136644,-62.5,4,2,1,60,0,1
136712,-250,4,2,1,60,0,1
136780,-62.5,4,2,1,60,0,1
136848,-250,4,2,1,60,0,1
136917,-62.5,4,2,1,60,0,1
136985,-250,4,2,1,60,0,1
137053,-62.5,4,2,1,60,0,1
137121,-250,4,2,1,60,0,1
137190,-62.5,4,2,1,60,0,1
137258,-250,4,2,1,60,0,1
137326,-62.5,4,2,1,60,0,1
137394,-250,4,2,1,60,0,1
137462,-62.5,4,2,1,60,0,1
137530,-250,4,2,1,60,0,1
137599,-62.5,4,2,1,60,0,1
137667,-250,4,2,1,60,0,1
137735,-62.5,4,2,1,60,0,1
137803,-250,4,2,1,60,0,1
137871,-62.5,4,2,1,60,0,1
137939,-250,4,2,1,60,0,1
138008,-55.5555555555556,4,2,1,60,0,1
138144,-76.9230769230769,4,2,1,60,0,1
138281,-142.857142857143,4,2,1,60,0,1
138417,-500,4,2,1,60,0,1
138553,-62.5,4,2,1,60,0,1
138621,-250,4,2,1,60,0,1
138690,-62.5,4,2,1,60,0,1
138758,-250,4,2,1,60,0,1
138826,-62.5,4,2,1,60,0,1
138894,-250,4,2,1,60,0,1
138962,-62.5,4,2,1,60,0,1
139030,-250,4,2,1,60,0,1
139099,-62.5,4,2,1,60,0,1
139167,-250,4,2,1,60,0,1
139235,-62.5,4,2,1,60,0,1
139303,-250,4,2,1,60,0,1
139372,-62.5,4,2,1,60,0,1
139440,-250,4,2,1,60,0,1
139508,-62.5,4,2,1,60,0,1
139576,-250,4,2,1,60,0,1
139644,-62.5,4,2,1,60,0,1
139712,-250,4,2,1,60,0,1
139781,-62.5,4,2,1,60,0,1
139849,-250,4,2,1,60,0,1
139917,-62.5,4,2,1,60,0,1
139985,-250,4,2,1,60,0,1
140053,-62.5,4,2,1,60,0,1
140121,-250,4,2,1,60,0,1
140189,-55.5555555555556,4,2,1,60,0,1
140325,-76.9230769230769,4,2,1,60,0,1
140462,-142.857142857143,4,2,1,60,0,1
140598,-500,4,2,1,60,0,1
140734,-62.5,4,2,1,60,0,1
140802,-250,4,2,1,60,0,1
140871,-62.5,4,2,1,60,0,1
140939,-250,4,2,1,60,0,1
141007,-62.5,4,2,1,60,0,1
141075,-250,4,2,1,60,0,1
141143,-62.5,4,2,1,60,0,1
141211,-250,4,2,1,60,0,1
141280,-62.5,4,2,1,60,0,1
141348,-250,4,2,1,60,0,1
141416,-62.5,4,2,1,60,0,1
141484,-250,4,2,1,60,0,1
141553,-62.5,4,2,1,60,0,1
141621,-250,4,2,1,60,0,1
141689,-62.5,4,2,1,60,0,1
141757,-250,4,2,1,60,0,1
141825,-62.5,4,2,1,60,0,1
141893,-250,4,2,1,60,0,1
141962,-62.5,4,2,1,60,0,1
142030,-250,4,2,1,60,0,1
142098,-62.5,4,2,1,60,0,1
142166,-250,4,2,1,60,0,1
142234,-62.5,4,2,1,60,0,1
142302,-250,4,2,1,60,0,1
142371,-55.5555555555556,4,2,1,60,0,1
142507,-76.9230769230769,4,2,1,60,0,1
142644,-142.857142857143,4,2,1,60,0,1
142780,-500,4,2,1,60,0,1
142916,-62.5,4,2,1,60,0,1
142984,-250,4,2,1,60,0,1
143053,-62.5,4,2,1,60,0,1
143121,-250,4,2,1,60,0,1
143189,-62.5,4,2,1,60,0,1
143257,-250,4,2,1,60,0,1
143325,-62.5,4,2,1,60,0,1
143393,-250,4,2,1,60,0,1
143462,-62.5,4,2,1,60,0,1
143530,-250,4,2,1,60,0,1
143598,-62.5,4,2,1,60,0,1
143666,-250,4,2,1,60,0,1
143735,-62.5,4,2,1,60,0,1
143803,-250,4,2,1,60,0,1
143871,-62.5,4,2,1,60,0,1
143939,-250,4,2,1,60,0,1
144007,-62.5,4,2,1,60,0,1
144075,-250,4,2,1,60,0,1
144144,-62.5,4,2,1,60,0,1
144212,-250,4,2,1,60,0,1
144280,-62.5,4,2,1,60,0,1
144348,-250,4,2,1,60,0,1
144416,-62.5,4,2,1,60,0,1
144484,-250,4,2,1,60,0,1
144553,-55.5555555555556,4,2,1,60,0,1
144689,-76.9230769230769,4,2,1,60,0,1
144826,-142.857142857143,4,2,1,60,0,1
144962,-500,4,2,1,60,0,1
145098,-62.5,4,2,1,60,0,1
145166,-250,4,2,1,60,0,1
145235,-62.5,4,2,1,60,0,1
145303,-250,4,2,1,60,0,1
145371,-62.5,4,2,1,60,0,1
145439,-250,4,2,1,60,0,1
145507,-62.5,4,2,1,60,0,1
145575,-250,4,2,1,60,0,1
145644,-62.5,4,2,1,60,0,1
145712,-250,4,2,1,60,0,1
145780,-62.5,4,2,1,60,0,1
145848,-250,4,2,1,60,0,1
145917,-62.5,4,2,1,60,0,1
145985,-250,4,2,1,60,0,1
146053,-62.5,4,2,1,60,0,1
146121,-250,4,2,1,60,0,1
146189,-62.5,4,2,1,60,0,1
146257,-250,4,2,1,60,0,1
146326,-62.5,4,2,1,60,0,1
146394,-250,4,2,1,60,0,1
146462,-62.5,4,2,1,60,0,1
146530,-250,4,2,1,60,0,1
146598,-62.5,4,2,1,60,0,1
146666,-250,4,2,1,60,0,1
146735,-55.5555555555556,4,2,1,60,0,1
146871,-76.9230769230769,4,2,1,60,0,1
147008,-142.857142857143,4,2,1,60,0,1
147144,-500,4,2,1,60,0,1
147280,-62.5,4,2,1,60,0,1
147348,-250,4,2,1,60,0,1
147417,-62.5,4,2,1,60,0,1
147485,-250,4,2,1,60,0,1
147553,-62.5,4,2,1,60,0,1
147621,-250,4,2,1,60,0,1
147689,-62.5,4,2,1,60,0,1
147757,-250,4,2,1,60,0,1
147826,-62.5,4,2,1,60,0,1
147894,-250,4,2,1,60,0,1
147962,-62.5,4,2,1,60,0,1
148030,-250,4,2,1,60,0,1
148099,-62.5,4,2,1,60,0,1
148167,-250,4,2,1,60,0,1
148235,-62.5,4,2,1,60,0,1
148303,-250,4,2,1,60,0,1
148371,-62.5,4,2,1,60,0,1
148439,-250,4,2,1,60,0,1
148508,-62.5,4,2,1,60,0,1
148576,-250,4,2,1,60,0,1
148644,-62.5,4,2,1,60,0,1
148712,-250,4,2,1,60,0,1
148780,-62.5,4,2,1,60,0,1
148848,-250,4,2,1,60,0,1
148917,-55.5555555555556,4,2,1,60,0,1
149053,-76.9230769230769,4,2,1,60,0,1
149190,-142.857142857143,4,2,1,60,0,1
149326,-500,4,2,1,60,0,1
149462,-62.5,4,2,1,60,0,1
149530,-250,4,2,1,60,0,1
149599,-62.5,4,2,1,60,0,1
149667,-250,4,2,1,60,0,1
149735,-62.5,4,2,1,60,0,1
149803,-250,4,2,1,60,0,1
149871,-62.5,4,2,1,60,0,1
149939,-250,4,2,1,60,0,1
150008,-100,4,2,1,40,0,0
150280,-111.111111111111,4,2,1,40,0,0
150348,-90.9090909090908,4,2,1,40,0,0
150417,-111.111111111111,4,2,1,40,0,0
150485,-90.9090909090908,4,2,1,40,0,0
150621,-111.111111111111,4,2,1,40,0,0
150689,-83.3333333333333,4,2,1,43,0,0
150758,-125,4,2,1,43,0,0
150826,-76.9230769230769,4,2,1,45,0,0
150894,-142.857142857143,4,2,1,45,0,0
150962,-71.4285714285714,4,2,1,48,0,0
151030,-166.666666666667,4,2,1,48,0,0
151099,-100,4,2,1,50,0,0
186008,-35.7142857142857,4,2,1,45,0,0
186076,-166.666666666667,4,2,1,45,0,0
186281,-100,4,2,1,45,0,0
187644,-35.7142857142857,4,2,1,45,0,0
187712,-166.666666666667,4,2,1,45,0,0
187917,-35.7142857142857,4,2,1,45,0,0
187985,-166.666666666667,4,2,1,45,0,0
188190,-35.7142857142857,4,2,1,45,0,0
188258,-166.666666666667,4,2,1,45,0,0
188463,-100,4,2,1,45,0,0
189826,-35.7142857142857,4,2,1,45,0,0
189894,-166.666666666667,4,2,1,45,0,0
190099,-35.7142857142857,4,2,1,45,0,0
190167,-166.666666666667,4,2,1,45,0,0
190372,-35.7142857142857,4,2,1,45,0,0
190440,-166.666666666667,4,2,1,45,0,0
190644,-100,4,2,1,45,0,0
192008,-35.7142857142857,4,2,1,45,0,0
192076,-166.666666666667,4,2,1,45,0,0
192281,-35.7142857142857,4,2,1,45,0,0
192349,-166.666666666667,4,2,1,45,0,0
192554,-35.7142857142857,4,2,1,45,0,0
192622,-166.666666666667,4,2,1,45,0,0
192826,-100,4,2,1,45,0,0
193644,-10000,4,2,1,45,0,0
193679,-50.251256281407,4,2,1,45,0,0
193713,-10000,4,2,1,45,0,0
193748,-50.251256281407,4,2,1,45,0,0
193781,-10000,4,2,1,45,0,0
193816,-50.251256281407,4,2,1,45,0,0
193849,-10000,4,2,1,45,0,0
193884,-50.251256281407,4,2,1,45,0,0
193917,-10000,4,2,1,45,0,0
193952,-50.251256281407,4,2,1,45,0,0
193985,-10000,4,2,1,45,0,0
194020,-50.251256281407,4,2,1,45,0,0
194054,-10000,4,2,1,45,0,0
194089,-50.251256281407,4,2,1,45,0,0
194122,-10000,4,2,1,45,0,0
194157,-50.251256281407,4,2,1,45,0,0
194190,-10000,4,2,1,45,0,0
194225,-50.251256281407,4,2,1,45,0,0
194258,-10000,4,2,1,45,0,0
194293,-50.251256281407,4,2,1,45,0,0
194326,-10000,4,2,1,45,0,0
194361,-50.251256281407,4,2,1,45,0,0
194394,-10000,4,2,1,45,0,0
194429,-50.251256281407,4,2,1,45,0,0
194463,-10000,4,2,1,45,0,0
194498,-50.251256281407,4,2,1,45,0,0
194531,-10000,4,2,1,45,0,0
194566,-50.251256281407,4,2,1,45,0,0
194599,-10000,4,2,1,45,0,0
194634,-50.251256281407,4,2,1,45,0,0
194667,-10000,4,2,1,45,0,0
194702,-50.251256281407,4,2,1,45,0,0
194735,-35.7142857142857,4,2,1,45,0,0
194803,-166.666666666667,4,2,1,45,0,0
195008,-100,4,2,1,45,0,0
196371,-35.7142857142857,4,2,1,45,0,0
196439,-166.666666666667,4,2,1,45,0,0
196644,-35.7142857142857,4,2,1,45,0,0
196712,-166.666666666667,4,2,1,45,0,0
196917,-35.7142857142857,4,2,1,45,0,0
196985,-166.666666666667,4,2,1,45,0,0
197190,-100,4,2,1,45,0,0
198554,-35.7142857142857,4,2,1,45,0,0
198622,-166.666666666667,4,2,1,45,0,0
198826,-35.7142857142857,4,2,1,45,0,0
198894,-166.666666666667,4,2,1,45,0,0
199099,-35.7142857142857,4,2,1,45,0,0
199167,-166.666666666667,4,2,1,45,0,0
199372,-100,4,2,1,45,0,0
200735,-35.7142857142857,4,2,1,45,0,0
200803,-166.666666666667,4,2,1,45,0,0
201008,-35.7142857142857,4,2,1,45,0,0
201076,-166.666666666667,4,2,1,45,0,0
201281,-35.7142857142857,4,2,1,45,0,0
201349,-166.666666666667,4,2,1,45,0,0
201553,-100,4,2,1,45,0,0
202371,-10000,4,2,1,45,0,0
202406,-50.251256281407,4,2,1,45,0,0
202440,-10000,4,2,1,45,0,0
202475,-50.251256281407,4,2,1,45,0,0
202508,-10000,4,2,1,45,0,0
202543,-50.251256281407,4,2,1,45,0,0
202576,-10000,4,2,1,45,0,0
202611,-50.251256281407,4,2,1,45,0,0
202644,-10000,4,2,1,45,0,0
202679,-50.251256281407,4,2,1,45,0,0
202712,-10000,4,2,1,45,0,0
202747,-50.251256281407,4,2,1,45,0,0
202781,-10000,4,2,1,45,0,0
202816,-50.251256281407,4,2,1,45,0,0
202849,-10000,4,2,1,45,0,0
202884,-50.251256281407,4,2,1,45,0,0
202917,-10000,4,2,1,45,0,0
202952,-50.251256281407,4,2,1,45,0,0
202985,-10000,4,2,1,45,0,0
203020,-50.251256281407,4,2,1,45,0,0
203053,-10000,4,2,1,45,0,0
203088,-50.251256281407,4,2,1,45,0,0
203121,-10000,4,2,1,45,0,0
203156,-50.251256281407,4,2,1,45,0,0
203190,-10000,4,2,1,45,0,0
203225,-50.251256281407,4,2,1,45,0,0
203258,-10000,4,2,1,45,0,0
203293,-50.251256281407,4,2,1,45,0,0
203326,-10000,4,2,1,45,0,0
203361,-50.251256281407,4,2,1,45,0,0
203394,-10000,4,2,1,45,0,0
203429,-50.251256281407,4,2,1,45,0,0
203463,-166.666666666667,4,2,1,45,0,0
203531,-153.846153846154,4,2,1,45,0,0
203599,-142.857142857143,4,2,1,45,0,0
203667,-133.333333333333,4,2,1,45,0,0
203735,-125,4,2,1,45,0,0
203804,-117.647058823529,4,2,1,45,0,0
203872,-111.111111111111,4,2,1,45,0,0
203940,-105.263157894737,4,2,1,45,0,0
204008,-100,4,2,1,20,0,0
205644,-55.5555555555556,4,2,1,60,0,1
205780,-76.9230769230769,4,2,1,60,0,1
205917,-142.857142857143,4,2,1,60,0,1
206053,-500,4,2,1,60,0,1
206190,-71.4285714285714,4,2,1,60,0,1
206258,-166.666666666667,4,2,1,60,0,1
206326,-71.4285714285714,4,2,1,60,0,1
206394,-166.666666666667,4,2,1,60,0,1
206463,-71.4285714285714,4,2,1,60,0,1
206531,-166.666666666667,4,2,1,60,0,1
206599,-71.4285714285714,4,2,1,60,0,1
206667,-166.666666666667,4,2,1,60,0,1
206735,-71.4285714285714,4,2,1,60,0,1
206803,-166.666666666667,4,2,1,60,0,1
206872,-71.4285714285714,4,2,1,60,0,1
206940,-166.666666666667,4,2,1,60,0,1
207008,-71.4285714285714,4,2,1,60,0,1
207076,-166.666666666667,4,2,1,60,0,1
207144,-71.4285714285714,4,2,1,60,0,1
207212,-166.666666666667,4,2,1,60,0,1
207281,-71.4285714285714,4,2,1,60,0,1
207349,-166.666666666667,4,2,1,60,0,1
207417,-71.4285714285714,4,2,1,60,0,1
207485,-166.666666666667,4,2,1,60,0,1
207554,-71.4285714285714,4,2,1,60,0,1
207622,-166.666666666667,4,2,1,60,0,1
207690,-71.4285714285714,4,2,1,60,0,1
207758,-166.666666666667,4,2,1,60,0,1
207826,-55.5555555555556,4,2,1,60,0,1
207962,-76.9230769230769,4,2,1,60,0,1
208099,-142.857142857143,4,2,1,60,0,1
208235,-500,4,2,1,60,0,1
208372,-71.4285714285714,4,2,1,60,0,1
208440,-166.666666666667,4,2,1,60,0,1
208508,-71.4285714285714,4,2,1,60,0,1
208576,-166.666666666667,4,2,1,60,0,1
208645,-71.4285714285714,4,2,1,60,0,1
208713,-166.666666666667,4,2,1,60,0,1
208781,-71.4285714285714,4,2,1,60,0,1
208849,-166.666666666667,4,2,1,60,0,1
208917,-71.4285714285714,4,2,1,60,0,1
208985,-166.666666666667,4,2,1,60,0,1
209054,-71.4285714285714,4,2,1,60,0,1
209122,-166.666666666667,4,2,1,60,0,1
209190,-71.4285714285714,4,2,1,60,0,1
209258,-166.666666666667,4,2,1,60,0,1
209326,-71.4285714285714,4,2,1,60,0,1
209394,-166.666666666667,4,2,1,60,0,1
209463,-71.4285714285714,4,2,1,60,0,1
209531,-166.666666666667,4,2,1,60,0,1
209599,-71.4285714285714,4,2,1,60,0,1
209667,-166.666666666667,4,2,1,60,0,1
209736,-71.4285714285714,4,2,1,60,0,1
209804,-166.666666666667,4,2,1,60,0,1
209872,-71.4285714285714,4,2,1,60,0,1
209940,-166.666666666667,4,2,1,60,0,1
210008,-55.5555555555556,4,2,1,60,0,1
210144,-76.9230769230769,4,2,1,60,0,1
210281,-142.857142857143,4,2,1,60,0,1
210417,-500,4,2,1,60,0,1
210554,-71.4285714285714,4,2,1,60,0,1
210622,-166.666666666667,4,2,1,60,0,1
210690,-71.4285714285714,4,2,1,60,0,1
210758,-166.666666666667,4,2,1,60,0,1
210827,-71.4285714285714,4,2,1,60,0,1
210895,-166.666666666667,4,2,1,60,0,1
210963,-71.4285714285714,4,2,1,60,0,1
211031,-166.666666666667,4,2,1,60,0,1
211099,-71.4285714285714,4,2,1,60,0,1
211167,-166.666666666667,4,2,1,60,0,1
211236,-71.4285714285714,4,2,1,60,0,1
211304,-166.666666666667,4,2,1,60,0,1
211372,-71.4285714285714,4,2,1,60,0,1
211440,-166.666666666667,4,2,1,60,0,1
211508,-71.4285714285714,4,2,1,60,0,1
211576,-166.666666666667,4,2,1,60,0,1
211645,-71.4285714285714,4,2,1,60,0,1
211713,-166.666666666667,4,2,1,60,0,1
211781,-71.4285714285714,4,2,1,60,0,1
211849,-166.666666666667,4,2,1,60,0,1
211918,-71.4285714285714,4,2,1,60,0,1
211986,-166.666666666667,4,2,1,60,0,1
212054,-71.4285714285714,4,2,1,60,0,1
212122,-166.666666666667,4,2,1,60,0,1
212190,-55.5555555555556,4,2,1,60,0,1
212326,-76.9230769230769,4,2,1,60,0,1
212463,-142.857142857143,4,2,1,60,0,1
212599,-500,4,2,1,60,0,1
212736,-71.4285714285714,4,2,1,60,0,1
212804,-166.666666666667,4,2,1,60,0,1
212872,-71.4285714285714,4,2,1,60,0,1
212940,-166.666666666667,4,2,1,60,0,1
213009,-71.4285714285714,4,2,1,60,0,1
213077,-166.666666666667,4,2,1,60,0,1
213145,-71.4285714285714,4,2,1,60,0,1
213213,-166.666666666667,4,2,1,60,0,1
213281,-71.4285714285714,4,2,1,60,0,1
213349,-166.666666666667,4,2,1,60,0,1
213418,-71.4285714285714,4,2,1,60,0,1
213486,-166.666666666667,4,2,1,60,0,1
213554,-71.4285714285714,4,2,1,60,0,1
213622,-166.666666666667,4,2,1,60,0,1
213690,-71.4285714285714,4,2,1,60,0,1
213758,-166.666666666667,4,2,1,60,0,1
213827,-71.4285714285714,4,2,1,60,0,1
213895,-166.666666666667,4,2,1,60,0,1
213963,-71.4285714285714,4,2,1,60,0,1
214031,-166.666666666667,4,2,1,60,0,1
214100,-71.4285714285714,4,2,1,60,0,1
214168,-166.666666666667,4,2,1,60,0,1
214236,-71.4285714285714,4,2,1,60,0,1
214304,-166.666666666667,4,2,1,60,0,1
214372,-55.5555555555556,4,2,1,60,0,1
214508,-76.9230769230769,4,2,1,60,0,1
214645,-142.857142857143,4,2,1,60,0,1
214781,-500,4,2,1,60,0,1
214918,-71.4285714285714,4,2,1,60,0,1
214986,-166.666666666667,4,2,1,60,0,1
215054,-71.4285714285714,4,2,1,60,0,1
215122,-166.666666666667,4,2,1,60,0,1
215191,-71.4285714285714,4,2,1,60,0,1
215259,-166.666666666667,4,2,1,60,0,1
215327,-71.4285714285714,4,2,1,60,0,1
215395,-166.666666666667,4,2,1,60,0,1
215463,-71.4285714285714,4,2,1,60,0,1
215531,-166.666666666667,4,2,1,60,0,1
215600,-71.4285714285714,4,2,1,60,0,1
215668,-166.666666666667,4,2,1,60,0,1
215736,-71.4285714285714,4,2,1,60,0,1
215804,-166.666666666667,4,2,1,60,0,1
215872,-71.4285714285714,4,2,1,60,0,1
215940,-166.666666666667,4,2,1,60,0,1
216009,-71.4285714285714,4,2,1,60,0,1
216077,-166.666666666667,4,2,1,60,0,1
216145,-71.4285714285714,4,2,1,60,0,1
216213,-166.666666666667,4,2,1,60,0,1
216282,-71.4285714285714,4,2,1,60,0,1
216350,-166.666666666667,4,2,1,60,0,1
216418,-71.4285714285714,4,2,1,60,0,1
216486,-166.666666666667,4,2,1,60,0,1
216554,-55.5555555555556,4,2,1,60,0,1
216690,-76.9230769230769,4,2,1,60,0,1
216827,-142.857142857143,4,2,1,60,0,1
216963,-500,4,2,1,60,0,1
217100,-71.4285714285714,4,2,1,60,0,1
217168,-166.666666666667,4,2,1,60,0,1
217236,-71.4285714285714,4,2,1,60,0,1
217304,-166.666666666667,4,2,1,60,0,1
217373,-71.4285714285714,4,2,1,60,0,1
217441,-166.666666666667,4,2,1,60,0,1
217509,-71.4285714285714,4,2,1,60,0,1
217577,-166.666666666667,4,2,1,60,0,1
217645,-71.4285714285714,4,2,1,60,0,1
217713,-166.666666666667,4,2,1,60,0,1
217782,-71.4285714285714,4,2,1,60,0,1
217850,-166.666666666667,4,2,1,60,0,1
217918,-71.4285714285714,4,2,1,60,0,1
217986,-166.666666666667,4,2,1,60,0,1
218054,-71.4285714285714,4,2,1,60,0,1
218122,-166.666666666667,4,2,1,60,0,1
218191,-71.4285714285714,4,2,1,60,0,1
218259,-166.666666666667,4,2,1,60,0,1
218327,-71.4285714285714,4,2,1,60,0,1
218395,-166.666666666667,4,2,1,60,0,1
218464,-71.4285714285714,4,2,1,60,0,1
218532,-166.666666666667,4,2,1,60,0,1
218600,-71.4285714285714,4,2,1,60,0,1
218668,-166.666666666667,4,2,1,60,0,1
218735,-55.5555555555556,4,2,1,60,0,1
218871,-76.9230769230769,4,2,1,60,0,1
219008,-142.857142857143,4,2,1,60,0,1
219144,-500,4,2,1,60,0,1
219281,-71.4285714285714,4,2,1,60,0,1
219349,-166.666666666667,4,2,1,60,0,1
219417,-71.4285714285714,4,2,1,60,0,1
219485,-166.666666666667,4,2,1,60,0,1
219554,-71.4285714285714,4,2,1,60,0,1
219622,-166.666666666667,4,2,1,60,0,1
219690,-71.4285714285714,4,2,1,60,0,1
219758,-166.666666666667,4,2,1,60,0,1
219826,-71.4285714285714,4,2,1,60,0,1
219894,-166.666666666667,4,2,1,60,0,1
219963,-71.4285714285714,4,2,1,60,0,1
220031,-166.666666666667,4,2,1,60,0,1
220099,-71.4285714285714,4,2,1,60,0,1
220167,-166.666666666667,4,2,1,60,0,1
220235,-71.4285714285714,4,2,1,60,0,1
220303,-166.666666666667,4,2,1,60,0,1
220372,-71.4285714285714,4,2,1,60,0,1
220440,-166.666666666667,4,2,1,60,0,1
220508,-71.4285714285714,4,2,1,60,0,1
220576,-166.666666666667,4,2,1,60,0,1
220645,-71.4285714285714,4,2,1,60,0,1
220713,-166.666666666667,4,2,1,60,0,1
220781,-71.4285714285714,4,2,1,60,0,1
220849,-166.666666666667,4,2,1,60,0,1
220917,-55.5555555555556,4,2,1,60,0,1
221053,-76.9230769230769,4,2,1,60,0,1
221190,-142.857142857143,4,2,1,60,0,1
221326,-500,4,2,1,60,0,1
221463,-71.4285714285714,4,2,1,60,0,1
221531,-166.666666666667,4,2,1,60,0,1
221599,-71.4285714285714,4,2,1,60,0,1
221667,-166.666666666667,4,2,1,60,0,1
221735,-71.4285714285714,4,2,1,60,0,1
221803,-166.666666666667,4,2,1,60,0,1
221872,-71.4285714285714,4,2,1,60,0,1
221940,-166.666666666667,4,2,1,60,0,1
222008,-100,4,2,1,50,0,0
223099,-55.5555555555556,4,2,1,60,0,1
223235,-76.9230769230769,4,2,1,60,0,1
223372,-142.857142857143,4,2,1,60,0,1
223508,-500,4,2,1,60,0,1
223644,-71.4285714285714,4,2,1,60,0,1
223712,-166.666666666667,4,2,1,60,0,1
223781,-71.4285714285714,4,2,1,60,0,1
223849,-166.666666666667,4,2,1,60,0,1
223917,-71.4285714285714,4,2,1,60,0,1
223985,-166.666666666667,4,2,1,60,0,1
224053,-71.4285714285714,4,2,1,60,0,1
224121,-166.666666666667,4,2,1,60,0,1
224190,-71.4285714285714,4,2,1,60,0,1
224258,-166.666666666667,4,2,1,60,0,1
224326,-71.4285714285714,4,2,1,60,0,1
224394,-166.666666666667,4,2,1,60,0,1
224463,-71.4285714285714,4,2,1,60,0,1
224531,-166.666666666667,4,2,1,60,0,1
224599,-71.4285714285714,4,2,1,60,0,1
224667,-166.666666666667,4,2,1,60,0,1
224735,-71.4285714285714,4,2,1,60,0,1
224803,-166.666666666667,4,2,1,60,0,1
224872,-71.4285714285714,4,2,1,60,0,1
224940,-166.666666666667,4,2,1,60,0,1
225008,-71.4285714285714,4,2,1,60,0,1
225076,-166.666666666667,4,2,1,60,0,1
225144,-71.4285714285714,4,2,1,60,0,1
225212,-166.666666666667,4,2,1,60,0,1
225281,-55.5555555555556,4,2,1,60,0,1
225417,-76.9230769230769,4,2,1,60,0,1
225554,-142.857142857143,4,2,1,60,0,1
225690,-500,4,2,1,60,0,1
225826,-71.4285714285714,4,2,1,60,0,1
225894,-166.666666666667,4,2,1,60,0,1
225963,-71.4285714285714,4,2,1,60,0,1
226031,-166.666666666667,4,2,1,60,0,1
226099,-71.4285714285714,4,2,1,60,0,1
226167,-166.666666666667,4,2,1,60,0,1
226235,-71.4285714285714,4,2,1,60,0,1
226303,-166.666666666667,4,2,1,60,0,1
226372,-71.4285714285714,4,2,1,60,0,1
226440,-166.666666666667,4,2,1,60,0,1
226508,-71.4285714285714,4,2,1,60,0,1
226576,-166.666666666667,4,2,1,60,0,1
226645,-71.4285714285714,4,2,1,60,0,1
226713,-166.666666666667,4,2,1,60,0,1
226781,-71.4285714285714,4,2,1,60,0,1
226849,-166.666666666667,4,2,1,60,0,1
226917,-71.4285714285714,4,2,1,60,0,1
226985,-166.666666666667,4,2,1,60,0,1
227054,-71.4285714285714,4,2,1,60,0,1
227122,-166.666666666667,4,2,1,60,0,1
227190,-71.4285714285714,4,2,1,60,0,1
227258,-166.666666666667,4,2,1,60,0,1
227326,-71.4285714285714,4,2,1,60,0,1
227394,-166.666666666667,4,2,1,60,0,1
227463,-55.5555555555556,4,2,1,60,0,1
227599,-76.9230769230769,4,2,1,60,0,1
227736,-142.857142857143,4,2,1,60,0,1
227872,-500,4,2,1,60,0,1
228008,-71.4285714285714,4,2,1,60,0,1
228076,-166.666666666667,4,2,1,60,0,1
228145,-71.4285714285714,4,2,1,60,0,1
228213,-166.666666666667,4,2,1,60,0,1
228281,-71.4285714285714,4,2,1,60,0,1
228349,-166.666666666667,4,2,1,60,0,1
228417,-71.4285714285714,4,2,1,60,0,1
228485,-166.666666666667,4,2,1,60,0,1
228554,-71.4285714285714,4,2,1,60,0,1
228622,-166.666666666667,4,2,1,60,0,1
228690,-71.4285714285714,4,2,1,60,0,1
228758,-166.666666666667,4,2,1,60,0,1
228827,-71.4285714285714,4,2,1,60,0,1
228895,-166.666666666667,4,2,1,60,0,1
228963,-71.4285714285714,4,2,1,60,0,1
229031,-166.666666666667,4,2,1,60,0,1
229099,-71.4285714285714,4,2,1,60,0,1
229167,-166.666666666667,4,2,1,60,0,1
229236,-71.4285714285714,4,2,1,60,0,1
229304,-166.666666666667,4,2,1,60,0,1
229372,-71.4285714285714,4,2,1,60,0,1
229440,-166.666666666667,4,2,1,60,0,1
229508,-71.4285714285714,4,2,1,60,0,1
229576,-166.666666666667,4,2,1,60,0,1
229644,-55.5555555555556,4,2,1,60,0,1
229780,-76.9230769230769,4,2,1,60,0,1
229917,-142.857142857143,4,2,1,60,0,1
230053,-500,4,2,1,60,0,1
230189,-71.4285714285714,4,2,1,60,0,1
230257,-166.666666666667,4,2,1,60,0,1
230326,-71.4285714285714,4,2,1,60,0,1
230394,-166.666666666667,4,2,1,60,0,1
230462,-71.4285714285714,4,2,1,60,0,1
230530,-166.666666666667,4,2,1,60,0,1
230598,-71.4285714285714,4,2,1,60,0,1
230666,-166.666666666667,4,2,1,60,0,1
230735,-71.4285714285714,4,2,1,60,0,1
230803,-166.666666666667,4,2,1,60,0,1
230871,-71.4285714285714,4,2,1,60,0,1
230939,-166.666666666667,4,2,1,60,0,1
231008,-71.4285714285714,4,2,1,60,0,1
231076,-166.666666666667,4,2,1,60,0,1
231144,-71.4285714285714,4,2,1,60,0,1
231212,-166.666666666667,4,2,1,60,0,1
231280,-71.4285714285714,4,2,1,60,0,1
231348,-166.666666666667,4,2,1,60,0,1
231417,-71.4285714285714,4,2,1,60,0,1
231485,-166.666666666667,4,2,1,60,0,1
231553,-71.4285714285714,4,2,1,60,0,1
231621,-166.666666666667,4,2,1,60,0,1
231689,-71.4285714285714,4,2,1,60,0,1
231757,-166.666666666667,4,2,1,60,0,1
231826,-55.5555555555556,4,2,1,60,0,1
231962,-76.9230769230769,4,2,1,60,0,1
232099,-142.857142857143,4,2,1,60,0,1
232235,-500,4,2,1,60,0,1
232371,-71.4285714285714,4,2,1,60,0,1
232439,-166.666666666667,4,2,1,60,0,1
232508,-71.4285714285714,4,2,1,60,0,1
232576,-166.666666666667,4,2,1,60,0,1
232644,-71.4285714285714,4,2,1,60,0,1
232712,-166.666666666667,4,2,1,60,0,1
232780,-71.4285714285714,4,2,1,60,0,1
232848,-166.666666666667,4,2,1,60,0,1
232917,-71.4285714285714,4,2,1,60,0,1
232985,-166.666666666667,4,2,1,60,0,1
233053,-71.4285714285714,4,2,1,60,0,1
233121,-166.666666666667,4,2,1,60,0,1
233190,-71.4285714285714,4,2,1,60,0,1
233258,-166.666666666667,4,2,1,60,0,1
233326,-71.4285714285714,4,2,1,60,0,1
233394,-166.666666666667,4,2,1,60,0,1
233462,-71.4285714285714,4,2,1,60,0,1
233530,-166.666666666667,4,2,1,60,0,1
233599,-71.4285714285714,4,2,1,60,0,1
233667,-166.666666666667,4,2,1,60,0,1
233735,-71.4285714285714,4,2,1,60,0,1
233803,-166.666666666667,4,2,1,60,0,1
233871,-71.4285714285714,4,2,1,60,0,1
233939,-166.666666666667,4,2,1,60,0,1
234008,-55.5555555555556,4,2,1,60,0,1
234144,-76.9230769230769,4,2,1,60,0,1
234281,-142.857142857143,4,2,1,60,0,1
234417,-500,4,2,1,60,0,1
234553,-71.4285714285714,4,2,1,60,0,1
234621,-166.666666666667,4,2,1,60,0,1
234690,-71.4285714285714,4,2,1,60,0,1
234758,-166.666666666667,4,2,1,60,0,1
234826,-71.4285714285714,4,2,1,60,0,1
234894,-166.666666666667,4,2,1,60,0,1
234962,-71.4285714285714,4,2,1,60,0,1
235030,-166.666666666667,4,2,1,60,0,1
235099,-71.4285714285714,4,2,1,60,0,1
235167,-166.666666666667,4,2,1,60,0,1
235235,-71.4285714285714,4,2,1,60,0,1
235303,-166.666666666667,4,2,1,60,0,1
235372,-71.4285714285714,4,2,1,60,0,1
235440,-166.666666666667,4,2,1,60,0,1
235508,-71.4285714285714,4,2,1,60,0,1
235576,-166.666666666667,4,2,1,60,0,1
235644,-71.4285714285714,4,2,1,60,0,1
235712,-166.666666666667,4,2,1,60,0,1
235781,-71.4285714285714,4,2,1,60,0,1
235849,-166.666666666667,4,2,1,60,0,1
235917,-71.4285714285714,4,2,1,60,0,1
235985,-166.666666666667,4,2,1,60,0,1
236053,-71.4285714285714,4,2,1,60,0,1
236121,-166.666666666667,4,2,1,60,0,1
236190,-55.5555555555556,4,2,1,60,0,1
236326,-76.9230769230769,4,2,1,60,0,1
236463,-142.857142857143,4,2,1,60,0,1
236599,-500,4,2,1,60,0,1
236735,-71.4285714285714,4,2,1,60,0,1
236803,-166.666666666667,4,2,1,60,0,1
236872,-71.4285714285714,4,2,1,60,0,1
236940,-166.666666666667,4,2,1,60,0,1
237008,-71.4285714285714,4,2,1,60,0,1
237076,-166.666666666667,4,2,1,60,0,1
237144,-71.4285714285714,4,2,1,60,0,1
237212,-166.666666666667,4,2,1,60,0,1
237281,-71.4285714285714,4,2,1,60,0,1
237349,-166.666666666667,4,2,1,60,0,1
237417,-71.4285714285714,4,2,1,60,0,1
237485,-166.666666666667,4,2,1,60,0,1
237554,-71.4285714285714,4,2,1,60,0,1
237622,-166.666666666667,4,2,1,60,0,1
237690,-71.4285714285714,4,2,1,60,0,1
237758,-166.666666666667,4,2,1,60,0,1
237826,-71.4285714285714,4,2,1,60,0,1
237894,-166.666666666667,4,2,1,60,0,1
237963,-71.4285714285714,4,2,1,60,0,1
238031,-166.666666666667,4,2,1,60,0,1
238099,-71.4285714285714,4,2,1,60,0,1
238167,-166.666666666667,4,2,1,60,0,1
238235,-71.4285714285714,4,2,1,60,0,1
238303,-166.666666666667,4,2,1,60,0,1
238372,-55.5555555555556,4,2,1,60,0,1
238508,-76.9230769230769,4,2,1,60,0,1
238645,-142.857142857143,4,2,1,60,0,1
238781,-500,4,2,1,60,0,1
238917,-71.4285714285714,4,2,1,60,0,1
238985,-166.666666666667,4,2,1,60,0,1
239054,-71.4285714285714,4,2,1,60,0,1
239122,-166.666666666667,4,2,1,60,0,1
239190,-71.4285714285714,4,2,1,60,0,1
239258,-166.666666666667,4,2,1,60,0,1
239326,-71.4285714285714,4,2,1,60,0,1
239394,-166.666666666667,4,2,1,60,0,1
239463,-100,4,2,1,60,0,0
239735,-111.111111111111,4,2,1,60,0,0
239803,-90.9090909090908,4,2,1,60,0,0
239872,-111.111111111111,4,2,1,60,0,0
239940,-90.9090909090908,4,2,1,60,0,0
240076,-111.111111111111,4,2,1,60,0,0
240144,-83.3333333333333,4,2,1,60,0,0
240213,-125,4,2,1,60,0,0
240281,-76.9230769230769,4,2,1,60,0,0
240349,-142.857142857143,4,2,1,60,0,0
240417,-71.4285714285714,4,2,1,60,0,0
240485,-166.666666666667,4,2,1,60,0,0
240554,-100,4,2,1,40,0,0

[HitObjects]
64,192,826,128,0,9281:0:0:0:0:
192,192,4917,1,8,0:0:0:0:
320,192,4917,1,0,0:0:0:0:
448,192,4917,1,0,0:0:0:0:
320,192,9281,1,0,0:0:0:0:
448,192,9281,1,0,0:0:0:0:
192,192,9826,1,0,0:0:0:0:
448,192,10099,1,0,0:0:0:0:
64,192,10372,1,0,0:0:0:0:
320,192,10644,1,0,0:0:0:0:
192,192,10917,1,0,0:0:0:0:
64,192,11190,1,0,0:0:0:0:
192,192,11463,1,0,0:0:0:0:
320,192,11463,128,0,12008:0:0:0:0:
448,192,12008,128,0,12144:0:0:0:0:
192,192,12144,128,0,12281:0:0:0:0:
320,192,12281,128,0,12417:0:0:0:0:
64,192,12417,128,0,12554:0:0:0:0:
192,192,12554,128,0,12826:0:0:0:0:
64,192,12826,128,0,13099:0:0:0:0:
192,192,13099,128,0,13372:0:0:0:0:
320,192,13372,128,0,13644:0:0:0:0:
192,192,13644,1,0,0:0:0:0:
448,192,13644,128,0,14054:0:0:0:0:
448,192,14190,128,0,14326:0:0:0:0:
192,192,14326,128,0,14463:0:0:0:0:
320,192,14463,128,0,14599:0:0:0:0:
64,192,14599,128,0,14735:0:0:0:0:
448,192,14735,128,0,15008:0:0:0:0:
320,192,15008,128,0,15281:0:0:0:0:
64,192,15281,128,0,15554:0:0:0:0:
192,192,15554,128,0,15826:0:0:0:0:
448,192,15826,1,0,0:0:0:0:
320,192,15826,128,0,16372:0:0:0:0:
448,192,16372,128,0,16508:0:0:0:0:
192,192,16508,128,0,16644:0:0:0:0:
320,192,16644,128,0,16781:0:0:0:0:
64,192,16781,128,0,16917:0:0:0:0:
192,192,16917,128,0,17190:0:0:0:0:
64,192,17190,128,0,17463:0:0:0:0:
448,192,17463,128,0,17735:0:0:0:0:
192,192,17463,1,0,0:0:0:0:
320,192,17735,128,0,18008:0:0:0:0:
192,192,18008,1,0,0:0:0:0:
64,192,18008,1,0,0:0:0:0:
320,192,18690,128,0,18826:0:0:0:0:
448,192,18826,128,0,18963:0:0:0:0:
64,192,18963,128,0,19099:0:0:0:0:
192,192,19099,128,0,19372:0:0:0:0:
448,192,19644,128,0,20190:0:0:0:0:
192,192,20190,128,0,20735:0:0:0:0:
320,192,20190,1,0,0:0:0:0:
320,192,20872,128,0,21008:0:0:0:0:
64,192,21008,128,0,21144:0:0:0:0:
448,192,21144,128,0,21281:0:0:0:0:
192,192,21281,128,0,21826:0:0:0:0:
448,192,21826,128,0,22372:0:0:0:0:
320,192,22372,128,0,22917:0:0:0:0:
64,192,22372,1,0,0:0:0:0:
192,192,23054,128,0,23190:0:0:0:0:
64,192,23190,128,0,23326:0:0:0:0:
448,192,23326,128,0,23463:0:0:0:0:
320,192,23463,128,0,24008:0:0:0:0:
448,192,24008,128,0,24554:0:0:0:0:
64,192,24554,128,0,25099:0:0:0:0:
192,192,24554,1,0,0:0:0:0:
192,192,25235,128,0,25372:0:0:0:0:
448,192,25372,128,0,25508:0:0:0:0:
64,192,25508,128,0,25644:0:0:0:0:
320,192,25644,128,0,26190:0:0:0:0:
448,192,26190,128,0,26735:0:0:0:0:
64,192,26735,1,2,0:0:0:0:
192,192,26735,1,0,0:0:0:0:
320,192,27281,128,0,27554:0:0:0:0:
448,192,27554,128,0,27826:0:0:0:0:
192,192,27826,128,0,28099:0:0:0:0:
320,192,28099,128,0,28372:0:0:0:0:
64,192,28372,128,0,28644:0:0:0:0:
192,192,28644,128,0,28917:0:0:0:0:
64,192,28917,128,0,29463:0:0:0:0:
320,192,28917,1,0,0:0:0:0:
192,192,29463,128,0,29599:0:0:0:0:
448,192,29599,128,0,29735:0:0:0:0:
64,192,29735,128,0,29872:0:0:0:0:
320,192,29872,128,0,30008:0:0:0:0:
192,192,30008,128,0,30281:0:0:0:0:
64,192,30281,128,0,30554:0:0:0:0:
192,192,30554,128,0,30826:0:0:0:0:
320,192,30826,128,0,31099:0:0:0:0:
448,192,31099,128,0,31644:0:0:0:0:
64,192,31099,1,0,0:0:0:0:
192,192,31644,128,0,31781:0:0:0:0:
320,192,31781,128,0,31917:0:0:0:0:
64,192,31917,128,0,32054:0:0:0:0:
192,192,32054,128,0,32190:0:0:0:0:
448,192,32190,128,0,32463:0:0:0:0:
320,192,32463,128,0,32735:0:0:0:0:
64,192,32735,128,0,33008:0:0:0:0:
192,192,33008,128,0,33281:0:0:0:0:
320,192,33281,128,0,33826:0:0:0:0:
448,192,33281,1,0,0:0:0:0:
192,192,33826,128,0,33963:0:0:0:0:
448,192,33963,128,0,34099:0:0:0:0:
64,192,34099,128,0,34235:0:0:0:0:
320,192,34235,128,0,34372:0:0:0:0:
192,192,34372,128,0,34644:0:0:0:0:
64,192,34644,128,0,34917:0:0:0:0:
448,192,34917,128,0,35190:0:0:0:0:
192,192,34917,1,0,0:0:0:0:
320,192,35190,128,0,35463:0:0:0:0:
192,192,35463,1,0,0:0:0:0:
64,192,35463,1,2,0:0:0:0:
192,192,36144,128,0,36281:0:0:0:0:
64,192,36281,128,0,36417:0:0:0:0:
320,192,36417,128,0,36554:0:0:0:0:
192,192,36554,128,0,36826:0:0:0:0:
320,192,37099,128,0,37644:0:0:0:0:
64,192,37644,128,0,38190:0:0:0:0:
448,192,37644,1,0,0:0:0:0:
320,192,38326,128,0,38463:0:0:0:0:
192,192,38463,128,0,38599:0:0:0:0:
448,192,38599,128,0,38735:0:0:0:0:
320,192,38735,128,0,39281:0:0:0:0:
448,192,39281,128,0,39826:0:0:0:0:
192,192,39826,128,0,40372:0:0:0:0:
320,192,39826,1,0,0:0:0:0:
320,192,40508,128,0,40644:0:0:0:0:
64,192,40644,128,0,40781:0:0:0:0:
448,192,40781,128,0,40917:0:0:0:0:
192,192,40917,128,0,41463:0:0:0:0:
448,192,41463,128,0,42008:0:0:0:0:
320,192,42008,128,0,42554:0:0:0:0:
64,192,42008,1,0,0:0:0:0:
192,192,42690,128,0,42826:0:0:0:0:
64,192,42826,128,0,42963:0:0:0:0:
448,192,42963,128,0,43099:0:0:0:0:
320,192,43099,128,0,43644:0:0:0:0:
448,192,43644,128,0,44190:0:0:0:0:
192,192,43644,1,0,0:0:0:0:
64,192,43644,1,8,0:0:0:0:
192,192,43781,1,0,0:0:0:0:
320,192,43917,1,0,0:0:0:0:
320,192,44054,1,0,0:0:0:0:
192,192,44190,128,4,44735:0:0:0:0:
64,192,44190,128,2,44735:0:0:0:0:
448,192,44735,1,0,0:0:0:0:
320,192,44735,1,8,0:0:0:0:
448,192,44872,1,0,0:0:0:0:
320,192,45008,1,0,0:0:0:0:
320,192,45144,1,0,0:0:0:0:
64,192,45281,1,2,0:0:0:0:
192,192,45281,1,0,0:0:0:0:
64,192,45417,1,0,0:0:0:0:
192,192,45417,1,0,0:0:0:0:
64,192,45554,1,0,0:0:0:0:
192,192,45554,1,0,0:0:0:0:
64,192,45690,1,0,0:0:0:0:
192,192,45690,1,0,0:0:0:0:
64,192,45826,1,8,0:0:0:0:
192,192,45826,1,0,0:0:0:0:
64,192,45963,1,0,0:0:0:0:
192,192,45963,1,0,0:0:0:0:
64,192,46099,1,0,0:0:0:0:
192,192,46099,1,0,0:0:0:0:
64,192,46235,1,0,0:0:0:0:
192,192,46235,1,0,0:0:0:0:
320,192,46372,128,2,46917:0:0:0:0:
448,192,46372,128,4,46917:0:0:0:0:
64,192,46917,1,8,0:0:0:0:
192,192,46917,1,0,0:0:0:0:
64,192,47054,1,0,0:0:0:0:
192,192,47190,1,0,0:0:0:0:
192,192,47326,1,0,0:0:0:0:
320,192,47463,1,2,0:0:0:0:
448,192,47463,1,0,0:0:0:0:
320,192,47599,1,0,0:0:0:0:
448,192,47599,1,0,0:0:0:0:
320,192,47735,1,0,0:0:0:0:
448,192,47735,1,0,0:0:0:0:
320,192,47872,1,0,0:0:0:0:
448,192,47872,1,0,0:0:0:0:
320,192,48008,1,8,0:0:0:0:
448,192,48008,1,0,0:0:0:0:
448,192,48144,1,0,0:0:0:0:
320,192,48144,1,0,0:0:0:0:
320,192,48281,1,0,0:0:0:0:
448,192,48281,1,0,0:0:0:0:
448,192,48417,1,0,0:0:0:0:
320,192,48417,1,0,0:0:0:0:
192,192,48554,128,4,49099:0:0:0:0:
64,192,48554,128,2,49099:0:0:0:0:
320,192,49099,1,8,0:0:0:0:
448,192,49099,1,0,0:0:0:0:
320,192,49235,1,0,0:0:0:0:
448,192,49372,1,0,0:0:0:0:
448,192,49508,1,0,0:0:0:0:
64,192,49644,1,2,0:0:0:0:
192,192,49644,1,0,0:0:0:0:
64,192,49781,1,0,0:0:0:0:
192,192,49781,1,0,0:0:0:0:
64,192,49917,1,0,0:0:0:0:
192,192,49917,1,0,0:0:0:0:
64,192,50054,1,0,0:0:0:0:
192,192,50054,1,0,0:0:0:0:
64,192,50190,1,8,0:0:0:0:
192,192,50190,1,0,0:0:0:0:
64,192,50326,1,0,0:0:0:0:
192,192,50326,1,0,0:0:0:0:
64,192,50463,1,0,0:0:0:0:
192,192,50463,1,0,0:0:0:0:
64,192,50599,1,0,0:0:0:0:
192,192,50599,1,0,0:0:0:0:
320,192,50735,128,2,51281:0:0:0:0:
448,192,50735,128,4,51281:0:0:0:0:
192,192,51281,1,0,0:0:0:0:
64,192,51281,1,8,0:0:0:0:
192,192,51417,1,0,0:0:0:0:
64,192,51554,1,0,0:0:0:0:
64,192,51690,1,0,0:0:0:0:
320,192,51826,1,2,0:0:0:0:
448,192,51826,1,0,0:0:0:0:
320,192,51963,1,0,0:0:0:0:
448,192,51963,1,0,0:0:0:0:
320,192,52099,1,0,0:0:0:0:
448,192,52099,1,0,0:0:0:0:
320,192,52235,1,0,0:0:0:0:
448,192,52235,1,0,0:0:0:0:
320,192,52372,1,8,0:0:0:0:
448,192,52372,1,0,0:0:0:0:
320,192,52508,1,0,0:0:0:0:
448,192,52508,1,0,0:0:0:0:
320,192,52644,1,0,0:0:0:0:
448,192,52644,1,0,0:0:0:0:
320,192,52781,1,0,0:0:0:0:
448,192,52781,1,0,0:0:0:0:
64,192,52917,128,2,53463:0:0:0:0:
192,192,52917,128,4,53463:0:0:0:0:
320,192,53463,1,8,0:0:0:0:
448,192,53463,1,0,0:0:0:0:
320,192,53599,1,0,0:0:0:0:
192,192,53735,1,0,0:0:0:0:
192,192,53872,1,0,0:0:0:0:
320,192,54008,1,0,0:0:0:0:
64,192,54008,1,2,0:0:0:0:
320,192,54144,1,0,0:0:0:0:
64,192,54144,1,0,0:0:0:0:
320,192,54281,1,0,0:0:0:0:
64,192,54281,1,0,0:0:0:0:
320,192,54417,1,0,0:0:0:0:
64,192,54417,1,0,0:0:0:0:
320,192,54554,1,0,0:0:0:0:
64,192,54554,1,8,0:0:0:0:
320,192,54690,1,0,0:0:0:0:
64,192,54690,1,0,0:0:0:0:
320,192,54826,1,0,0:0:0:0:
64,192,54826,1,0,0:0:0:0:
320,192,54963,1,0,0:0:0:0:
64,192,54963,1,0,0:0:0:0:
192,192,55099,128,2,55644:0:0:0:0:
448,192,55099,128,4,55644:0:0:0:0:
64,192,55644,1,8,0:0:0:0:
320,192,55644,1,0,0:0:0:0:
64,192,55781,1,0,0:0:0:0:
320,192,55917,1,0,0:0:0:0:
320,192,56054,1,0,0:0:0:0:
192,192,56190,1,2,0:0:0:0:
448,192,56190,1,0,0:0:0:0:
192,192,56326,1,0,0:0:0:0:
448,192,56326,1,0,0:0:0:0:
192,192,56463,1,0,0:0:0:0:
448,192,56463,1,0,0:0:0:0:
192,192,56599,1,0,0:0:0:0:
448,192,56599,1,0,0:0:0:0:
192,192,56735,1,8,0:0:0:0:
448,192,56735,1,0,0:0:0:0:
192,192,56872,1,0,0:0:0:0:
448,192,56872,1,0,0:0:0:0:
192,192,57008,1,0,0:0:0:0:
448,192,57008,1,0,0:0:0:0:
192,192,57144,1,0,0:0:0:0:
448,192,57144,1,0,0:0:0:0:
320,192,57281,128,4,57826:0:0:0:0:
64,192,57281,128,2,57826:0:0:0:0:
448,192,57826,1,0,0:0:0:0:
192,192,57826,1,8,0:0:0:0:
448,192,57963,1,0,0:0:0:0:
192,192,58099,1,0,0:0:0:0:
192,192,58235,1,0,0:0:0:0:
64,192,58372,1,2,0:0:0:0:
448,192,58372,1,0,0:0:0:0:
64,192,58508,1,0,0:0:0:0:
448,192,58508,1,0,0:0:0:0:
64,192,58644,1,0,0:0:0:0:
448,192,58644,1,0,0:0:0:0:
64,192,58781,1,0,0:0:0:0:
448,192,58781,1,0,0:0:0:0:
64,192,58917,1,8,0:0:0:0:
448,192,58917,1,0,0:0:0:0:
64,192,59054,1,0,0:0:0:0:
448,192,59054,1,0,0:0:0:0:
64,192,59190,1,0,0:0:0:0:
448,192,59190,1,0,0:0:0:0:
64,192,59326,1,0,0:0:0:0:
448,192,59326,1,0,0:0:0:0:
192,192,59463,128,2,60008:0:0:0:0:
320,192,59463,128,4,60008:0:0:0:0:
64,192,60008,1,8,0:0:0:0:
448,192,60008,1,0,0:0:0:0:
192,192,60144,1,0,0:0:0:0:
320,192,60281,1,0,0:0:0:0:
448,192,60417,1,0,0:0:0:0:
64,192,60554,1,2,0:0:0:0:
192,192,60554,1,0,0:0:0:0:
192,192,60690,1,0,0:0:0:0:
320,192,60826,1,0,0:0:0:0:
320,192,60963,1,0,0:0:0:0:
448,192,61099,1,0,0:0:0:0:
448,192,61235,1,0,0:0:0:0:
448,192,61372,1,0,0:0:0:0:
448,192,61508,1,0,0:0:0:0:
64,192,61644,128,2,61917:0:0:0:0:
192,192,61644,128,4,61917:0:0:0:0:
320,192,61644,1,0,0:0:0:0:
64,192,62190,1,8,0:0:0:0:
192,192,62190,1,0,0:0:0:0:
64,192,62326,1,0,0:0:0:0:
192,192,62326,1,0,0:0:0:0:
64,192,62463,1,0,0:0:0:0:
192,192,62463,1,0,0:0:0:0:
64,192,62599,1,0,0:0:0:0:
192,192,62599,1,0,0:0:0:0:
64,192,62735,1,2,0:0:0:0:
192,192,62735,1,0,0:0:0:0:
64,192,62872,1,0,0:0:0:0:
192,192,62872,1,0,0:0:0:0:
64,192,63008,1,0,0:0:0:0:
192,192,63008,1,0,0:0:0:0:
64,192,63144,1,0,0:0:0:0:
192,192,63144,1,0,0:0:0:0:
320,192,63281,1,8,0:0:0:0:
448,192,63281,1,0,0:0:0:0:
320,192,63417,1,0,0:0:0:0:
64,192,63554,1,0,0:0:0:0:
64,192,63690,1,0,0:0:0:0:
192,192,63826,128,2,64099:0:0:0:0:
320,192,63826,128,4,64099:0:0:0:0:
192,192,64372,1,8,0:0:0:0:
320,192,64372,1,0,0:0:0:0:
192,192,64508,1,0,0:0:0:0:
320,192,64508,1,0,0:0:0:0:
192,192,64644,1,0,0:0:0:0:
320,192,64644,1,0,0:0:0:0:
192,192,64781,1,0,0:0:0:0:
320,192,64781,1,0,0:0:0:0:
192,192,64917,1,2,0:0:0:0:
320,192,64917,1,0,0:0:0:0:
192,192,65054,1,0,0:0:0:0:
320,192,65054,1,0,0:0:0:0:
192,192,65190,1,0,0:0:0:0:
320,192,65190,1,0,0:0:0:0:
192,192,65326,1,0,0:0:0:0:
320,192,65326,1,0,0:0:0:0:
64,192,65463,1,8,0:0:0:0:
448,192,65463,1,0,0:0:0:0:
64,192,65599,1,0,0:0:0:0:
192,192,65735,1,0,0:0:0:0:
192,192,65872,1,0,0:0:0:0:
320,192,66008,128,2,66281:0:0:0:0:
448,192,66008,128,4,66281:0:0:0:0:
320,192,66554,1,8,0:0:0:0:
448,192,66554,1,0,0:0:0:0:
320,192,66690,1,0,0:0:0:0:
448,192,66690,1,0,0:0:0:0:
320,192,66826,1,0,0:0:0:0:
448,192,66826,1,0,0:0:0:0:
320,192,66963,1,0,0:0:0:0:
448,192,66963,1,0,0:0:0:0:
448,192,67099,1,0,0:0:0:0:
320,192,67099,1,2,0:0:0:0:
320,192,67235,1,0,0:0:0:0:
448,192,67235,1,0,0:0:0:0:
448,192,67372,1,0,0:0:0:0:
320,192,67372,1,0,0:0:0:0:
320,192,67508,1,0,0:0:0:0:
448,192,67508,1,0,0:0:0:0:
64,192,67644,1,8,0:0:0:0:
192,192,67644,1,0,0:0:0:0:
64,192,67781,1,0,0:0:0:0:
448,192,67917,1,0,0:0:0:0:
448,192,68054,1,0,0:0:0:0:
64,192,68190,128,2,68735:0:0:0:0:
320,192,68190,128,0,68463:0:0:0:0:
448,192,68735,128,0,69281:0:0:0:0:
320,192,68735,1,0,0:0:0:0:
192,192,68735,128,8,69008:0:0:0:0:
320,192,69281,128,0,69826:0:0:0:0:
192,192,69281,1,2,0:0:0:0:
64,192,69554,128,0,69826:0:0:0:0:
192,192,69826,128,8,70372:0:0:0:0:
448,192,69826,1,0,0:0:0:0:
320,192,70099,1,0,0:0:0:0:
64,192,70235,1,0,0:0:0:0:
320,192,70372,128,2,70644:0:0:0:0:
448,192,70372,128,4,70644:0:0:0:0:
448,192,70917,1,0,0:0:0:0:
320,192,70917,1,8,0:0:0:0:
448,192,71054,1,0,0:0:0:0:
320,192,71054,1,0,0:0:0:0:
448,192,71190,1,0,0:0:0:0:
320,192,71190,1,0,0:0:0:0:
448,192,71326,1,0,0:0:0:0:
320,192,71326,1,0,0:0:0:0:
448,192,71463,1,0,0:0:0:0:
320,192,71463,1,2,0:0:0:0:
448,192,71599,1,0,0:0:0:0:
320,192,71599,1,0,0:0:0:0:
192,192,71735,1,0,0:0:0:0:
192,192,71872,128,0,72008:0:0:0:0:
448,192,72008,1,0,0:0:0:0:
320,192,72008,1,8,0:0:0:0:
448,192,72144,1,0,0:0:0:0:
64,192,72281,1,0,0:0:0:0:
64,192,72417,1,0,0:0:0:0:
320,192,72554,128,4,72826:0:0:0:0:
192,192,72554,128,2,72826:0:0:0:0:
320,192,73099,1,0,0:0:0:0:
192,192,73099,1,8,0:0:0:0:
320,192,73372,1,0,0:0:0:0:
192,192,73372,1,0,0:0:0:0:
320,192,73508,1,0,0:0:0:0:
192,192,73508,1,0,0:0:0:0:
320,192,73644,1,0,0:0:0:0:
192,192,73644,1,2,0:0:0:0:
320,192,73781,1,0,0:0:0:0:
192,192,73781,1,0,0:0:0:0:
64,192,73917,1,0,0:0:0:0:
64,192,74054,128,0,74190:0:0:0:0:
448,192,74190,1,0,0:0:0:0:
192,192,74190,1,8,0:0:0:0:
448,192,74326,1,0,0:0:0:0:
320,192,74463,1,0,0:0:0:0:
320,192,74599,1,0,0:0:0:0:
192,192,74735,128,4,75008:0:0:0:0:
64,192,74735,128,2,75008:0:0:0:0:
192,192,75281,1,0,0:0:0:0:
64,192,75281,1,8,0:0:0:0:
192,192,75554,1,0,0:0:0:0:
64,192,75554,1,0,0:0:0:0:
192,192,75690,1,0,0:0:0:0:
64,192,75690,1,0,0:0:0:0:
64,192,75826,1,2,0:0:0:0:
192,192,75826,1,0,0:0:0:0:
192,192,75963,1,0,0:0:0:0:
64,192,75963,1,0,0:0:0:0:
320,192,76099,1,0,0:0:0:0:
320,192,76235,128,0,76372:0:0:0:0:
448,192,76372,1,0,0:0:0:0:
192,192,76372,1,8,0:0:0:0:
448,192,76508,1,0,0:0:0:0:
64,192,76644,1,0,0:0:0:0:
64,192,76781,1,0,0:0:0:0:
448,192,76917,128,0,77463:0:0:0:0:
192,192,76917,128,2,77190:0:0:0:0:
64,192,77463,128,8,78008:0:0:0:0:
320,192,77463,128,0,77735:0:0:0:0:
192,192,77463,1,0,0:0:0:0:
192,192,78008,128,2,78554:0:0:0:0:
320,192,78008,1,0,0:0:0:0:
448,192,78281,128,0,78554:0:0:0:0:
64,192,78554,128,0,78826:0:0:0:0:
320,192,78826,128,0,78963:0:0:0:0:
448,192,78963,128,0,79099:0:0:0:0:
64,192,79099,128,2,79372:0:0:0:0:
192,192,79099,128,4,79372:0:0:0:0:
320,192,79372,1,0,0:0:0:0:
64,192,79508,1,0,0:0:0:0:
320,192,79644,128,0,79781:0:0:0:0:
448,192,79644,1,0,0:0:0:0:
192,192,79644,1,8,0:0:0:0:
64,192,79917,1,0,0:0:0:0:
320,192,80054,128,0,80190:0:0:0:0:
448,192,80190,1,0,0:0:0:0:
64,192,80190,1,2,0:0:0:0:
192,192,80326,1,0,0:0:0:0:
320,192,80463,128,0,80599:0:0:0:0:
64,192,80599,1,0,0:0:0:0:
64,192,80735,1,8,0:0:0:0:
448,192,80735,1,0,0:0:0:0:
192,192,80735,1,0,0:0:0:0:
320,192,80872,128,0,81008:0:0:0:0:
448,192,81008,1,0,0:0:0:0:
320,192,81144,1,0,0:0:0:0:
64,192,81281,128,2,81554:0:0:0:0:
192,192,81281,128,0,81554:0:0:0:0:
320,192,81554,1,0,0:0:0:0:
64,192,81690,1,0,0:0:0:0:
192,192,81826,1,8,0:0:0:0:
448,192,81826,1,0,0:0:0:0:
320,192,81826,128,0,81963:0:0:0:0:
64,192,82099,128,0,82235:0:0:0:0:
448,192,82235,128,0,82372:0:0:0:0:
320,192,82372,1,0,0:0:0:0:
192,192,82372,1,2,0:0:0:0:
64,192,82508,1,0,0:0:0:0:
320,192,82644,128,0,82781:0:0:0:0:
192,192,82781,1,0,0:0:0:0:
64,192,82917,1,8,0:0:0:0:
320,192,82917,1,0,0:0:0:0:
448,192,82917,1,0,0:0:0:0:
192,192,83054,128,0,83190:0:0:0:0:
320,192,83190,1,0,0:0:0:0:
192,192,83326,1,0,0:0:0:0:
64,192,83463,128,2,83735:0:0:0:0:
448,192,83463,128,0,83735:0:0:0:0:
192,192,83735,1,0,0:0:0:0:
320,192,83872,1,0,0:0:0:0:
448,192,84008,128,0,84144:0:0:0:0:
192,192,84008,1,0,0:0:0:0:
64,192,84008,1,8,0:0:0:0:
192,192,84281,1,0,0:0:0:0:
448,192,84417,128,0,84554:0:0:0:0:
320,192,84554,1,0,0:0:0:0:
64,192,84554,1,2,0:0:0:0:
192,192,84690,1,0,0:0:0:0:
448,192,84826,128,0,84963:0:0:0:0:
192,192,84963,1,0,0:0:0:0:
320,192,85099,1,0,0:0:0:0:
192,192,85099,1,0,0:0:0:0:
64,192,85099,1,8,0:0:0:0:
448,192,85235,128,0,85372:0:0:0:0:
64,192,85372,1,0,0:0:0:0:
192,192,85508,1,0,0:0:0:0:
320,192,85644,128,0,85917:0:0:0:0:
64,192,85644,128,2,86190:0:0:0:0:
448,192,86190,128,0,86735:0:0:0:0:
192,192,86190,128,8,86463:0:0:0:0:
320,192,86190,1,0,0:0:0:0:
320,192,86735,128,0,87281:0:0:0:0:
192,192,86735,1,2,0:0:0:0:
64,192,87008,128,0,87281:0:0:0:0:
192,192,87281,128,8,87826:0:0:0:0:
448,192,87281,1,0,0:0:0:0:
320,192,87554,1,0,0:0:0:0:
64,192,87690,1,0,0:0:0:0:
448,192,87826,128,0,88099:0:0:0:0:
320,192,87826,128,2,88099:0:0:0:0:
192,192,88099,1,0,0:0:0:0:
448,192,88235,1,0,0:0:0:0:
192,192,88372,128,0,88508:0:0:0:0:
64,192,88372,1,8,0:0:0:0:
320,192,88372,1,0,0:0:0:0:
448,192,88644,1,0,0:0:0:0:
192,192,88781,128,0,88917:0:0:0:0:
64,192,88917,1,2,0:0:0:0:
448,192,88917,1,0,0:0:0:0:
320,192,89054,1,0,0:0:0:0:
192,192,89190,128,0,89326:0:0:0:0:
448,192,89326,1,0,0:0:0:0:
448,192,89463,1,0,0:0:0:0:
64,192,89463,1,8,0:0:0:0:
320,192,89463,1,0,0:0:0:0:
192,192,89599,128,0,89735:0:0:0:0:
64,192,89735,1,0,0:0:0:0:
192,192,89872,1,0,0:0:0:0:
448,192,90008,128,0,90281:0:0:0:0:
320,192,90008,128,2,90281:0:0:0:0:
192,192,90281,1,0,0:0:0:0:
448,192,90417,1,0,0:0:0:0:
320,192,90554,1,0,0:0:0:0:
64,192,90554,1,8,0:0:0:0:
192,192,90554,128,0,90690:0:0:0:0:
448,192,90826,128,0,90963:0:0:0:0:
64,192,90963,128,0,91099:0:0:0:0:
192,192,91099,1,2,0:0:0:0:
320,192,91099,1,0,0:0:0:0:
448,192,91235,1,0,0:0:0:0:
192,192,91372,128,0,91508:0:0:0:0:
320,192,91508,1,0,0:0:0:0:
448,192,91644,1,0,0:0:0:0:
192,192,91644,1,0,0:0:0:0:
64,192,91644,1,8,0:0:0:0:
320,192,91781,128,0,91917:0:0:0:0:
192,192,91917,1,0,0:0:0:0:
320,192,92054,1,0,0:0:0:0:
448,192,92190,128,0,92463:0:0:0:0:
64,192,92190,128,2,92463:0:0:0:0:
320,192,92463,1,0,0:0:0:0:
192,192,92599,1,0,0:0:0:0:
64,192,92735,128,8,92872:0:0:0:0:
320,192,92735,1,0,0:0:0:0:
448,192,92735,1,0,0:0:0:0:
320,192,93008,1,0,0:0:0:0:
64,192,93144,128,0,93281:0:0:0:0:
192,192,93281,1,2,0:0:0:0:
448,192,93281,1,0,0:0:0:0:
320,192,93417,1,0,0:0:0:0:
64,192,93554,128,0,93690:0:0:0:0:
320,192,93690,1,0,0:0:0:0:
64,192,93826,1,8,0:0:0:0:
192,192,93826,1,0,0:0:0:0:
448,192,93826,1,0,0:0:0:0:
320,192,93963,1,0,0:0:0:0:
192,192,94099,1,0,0:0:0:0:
64,192,94235,1,0,0:0:0:0:
192,192,94372,128,2,94644:0:0:0:0:
448,192,94372,128,0,94917:0:0:0:0:
64,192,94917,128,8,95463:0:0:0:0:
320,192,94917,128,0,95190:0:0:0:0:
192,192,94917,1,0,0:0:0:0:
448,192,95463,128,0,95735:0:0:0:0:
320,192,95463,1,2,0:0:0:0:
64,192,95735,128,0,96008:0:0:0:0:
192,192,96008,128,0,96281:0:0:0:0:
320,192,96281,128,0,96554:0:0:0:0:
448,192,96554,128,4,97099:0:0:0:0:
64,192,96554,1,2,0:0:0:0:
320,192,96826,1,0,0:0:0:0:
192,192,97099,128,0,97508:0:0:0:0:
320,192,97099,1,0,0:0:0:0:
64,192,97099,1,8,0:0:0:0:
448,192,97372,1,0,0:0:0:0:
192,192,97644,128,0,97917:0:0:0:0:
64,192,97644,1,2,0:0:0:0:
320,192,97917,128,0,98190:0:0:0:0:
64,192,98190,128,8,98735:0:0:0:0:
192,192,98190,1,0,0:0:0:0:
448,192,98190,1,0,0:0:0:0:
448,192,98463,1,0,0:0:0:0:
192,192,98735,128,2,99008:0:0:0:0:
320,192,98735,1,0,0:0:0:0:
448,192,99008,128,0,99281:0:0:0:0:
320,192,99281,128,0,99554:0:0:0:0:
64,192,99281,1,8,0:0:0:0:
192,192,99281,1,0,0:0:0:0:
192,192,99554,128,0,99826:0:0:0:0:
320,192,99826,128,2,100099:0:0:0:0:
448,192,99826,1,0,0:0:0:0:
448,192,99963,1,0,0:0:0:0:
192,192,100099,128,0,100372:0:0:0:0:
64,192,100235,1,0,0:0:0:0:
64,192,100372,128,8,100781:0:0:0:0:
320,192,100372,1,0,0:0:0:0:
448,192,100372,1,0,0:0:0:0:
320,192,100508,1,0,0:0:0:0:
192,192,100644,1,0,0:0:0:0:
192,192,100781,1,0,0:0:0:0:
64,192,100917,128,2,101463:0:0:0:0:
448,192,100917,1,0,0:0:0:0:
320,192,101190,1,0,0:0:0:0:
448,192,101463,128,0,102008:0:0:0:0:
320,192,101463,1,0,0:0:0:0:
192,192,101463,1,8,0:0:0:0:
64,192,101735,1,0,0:0:0:0:
192,192,102008,128,0,102281:0:0:0:0:
64,192,102008,1,2,0:0:0:0:
320,192,102281,128,0,102554:0:0:0:0:
448,192,102554,128,0,103099:0:0:0:0:
64,192,102554,1,8,0:0:0:0:
192,192,102554,1,0,0:0:0:0:
64,192,102826,1,0,0:0:0:0:
192,192,103099,128,2,103372:0:0:0:0:
320,192,103099,1,0,0:0:0:0:
448,192,103372,128,0,103644:0:0:0:0:
192,192,103644,128,0,103917:0:0:0:0:
320,192,103644,1,0,0:0:0:0:
64,192,103644,1,8,0:0:0:0:
64,192,103917,128,0,104190:0:0:0:0:
320,192,104190,128,2,104463:0:0:0:0:
448,192,104190,1,0,0:0:0:0:
448,192,104326,1,0,0:0:0:0:
192,192,104463,128,0,104735:0:0:0:0:
64,192,104599,1,0,0:0:0:0:
64,192,104735,128,8,105281:0:0:0:0:
320,192,104735,1,0,0:0:0:0:
448,192,104735,1,0,0:0:0:0:
320,192,104872,1,0,0:0:0:0:
192,192,105008,1,0,0:0:0:0:
192,192,105144,1,0,0:0:0:0:
448,192,105281,128,4,105826:0:0:0:0:
320,192,105281,1,2,0:0:0:0:
64,192,105554,1,0,0:0:0:0:
192,192,105826,128,0,106235:0:0:0:0:
320,192,105826,1,0,0:0:0:0:
64,192,105826,1,8,0:0:0:0:
320,192,106099,1,0,0:0:0:0:
192,192,106372,128,2,106644:0:0:0:0:
448,192,106372,1,0,0:0:0:0:
320,192,106644,128,0,106917:0:0:0:0:
64,192,106917,128,8,107463:0:0:0:0:
192,192,106917,1,0,0:0:0:0:
448,192,106917,1,0,0:0:0:0:
448,192,107190,1,0,0:0:0:0:
192,192,107463,128,2,107735:0:0:0:0:
320,192,107463,1,0,0:0:0:0:
448,192,107735,128,0,108008:0:0:0:0:
320,192,108008,128,0,108281:0:0:0:0:
192,192,108008,1,0,0:0:0:0:
64,192,108008,1,8,0:0:0:0:
192,192,108281,128,0,108554:0:0:0:0:
320,192,108554,128,2,108826:0:0:0:0:
448,192,108554,1,0,0:0:0:0:
448,192,108690,1,0,0:0:0:0:
192,192,108826,128,0,109099:0:0:0:0:
64,192,108963,1,0,0:0:0:0:
64,192,109099,128,8,109508:0:0:0:0:
320,192,109099,1,0,0:0:0:0:
448,192,109099,1,0,0:0:0:0:
320,192,109235,1,0,0:0:0:0:
192,192,109372,1,0,0:0:0:0:
192,192,109508,1,0,0:0:0:0:
64,192,109644,128,2,110190:0:0:0:0:
320,192,109644,1,0,0:0:0:0:
320,192,109917,1,0,0:0:0:0:
448,192,110190,128,0,110735:0:0:0:0:
192,192,110190,1,8,0:0:0:0:
320,192,110190,1,0,0:0:0:0:
64,192,110463,1,0,0:0:0:0:
192,192,110735,128,0,111008:0:0:0:0:
64,192,110735,1,2,0:0:0:0:
320,192,111008,128,0,111281:0:0:0:0:
448,192,111281,128,0,111826:0:0:0:0:
192,192,111281,1,0,0:0:0:0:
64,192,111281,1,8,0:0:0:0:
320,192,111554,1,0,0:0:0:0:
192,192,111826,128,2,112099:0:0:0:0:
320,192,111826,1,0,0:0:0:0:
448,192,112099,128,0,112372:0:0:0:0:
192,192,112372,128,0,112644:0:0:0:0:
320,192,112372,1,0,0:0:0:0:
64,192,112372,1,8,0:0:0:0:
64,192,112644,128,0,112917:0:0:0:0:
320,192,112917,128,2,113190:0:0:0:0:
448,192,112917,1,0,0:0:0:0:
448,192,113054,1,0,0:0:0:0:
192,192,113190,128,0,113463:0:0:0:0:
64,192,113326,1,0,0:0:0:0:
64,192,113463,128,8,114008:0:0:0:0:
448,192,113463,1,0,0:0:0:0:
320,192,113463,128,0,113599:0:0:0:0:
192,192,113599,128,0,113735:0:0:0:0:
448,192,113735,128,0,113872:0:0:0:0:
320,192,113872,128,0,114008:0:0:0:0:
448,192,114008,128,4,114144:0:0:0:0:
192,192,114008,1,2,0:0:0:0:
192,192,114144,128,0,114281:0:0:0:0:
64,192,114281,128,0,114417:0:0:0:0:
320,192,114417,128,0,114554:0:0:0:0:
192,192,114554,128,8,114690:0:0:0:0:
448,192,114554,1,0,0:0:0:0:
64,192,114690,128,0,114826:0:0:0:0:
448,192,114826,128,0,114963:0:0:0:0:
320,192,114963,128,0,115099:0:0:0:0:
64,192,115099,128,2,115235:0:0:0:0:
192,192,115099,1,0,0:0:0:0:
448,192,115235,128,0,115372:0:0:0:0:
320,192,115372,128,0,115508:0:0:0:0:
192,192,115508,128,0,115644:0:0:0:0:
448,192,115644,128,0,115917:0:0:0:0:
64,192,115644,1,8,0:0:0:0:
64,192,115917,128,0,116054:0:0:0:0:
448,192,116054,128,0,116190:0:0:0:0:
320,192,116190,128,0,116326:0:0:0:0:
64,192,116190,1,2,0:0:0:0:
192,192,116326,128,0,116463:0:0:0:0:
64,192,116463,128,0,116599:0:0:0:0:
320,192,116599,128,0,116735:0:0:0:0:
448,192,116735,128,0,117008:0:0:0:0:
192,192,116735,1,8,0:0:0:0:
64,192,117008,128,0,117144:0:0:0:0:
192,192,117144,128,0,117281:0:0:0:0:
320,192,117281,128,2,117554:0:0:0:0:
448,192,117281,1,0,0:0:0:0:
192,192,117554,128,0,117690:0:0:0:0:
64,192,117690,128,0,117826:0:0:0:0:
448,192,117826,128,0,117963:0:0:0:0:
192,192,117826,1,8,0:0:0:0:
320,192,117963,128,0,118099:0:0:0:0:
192,192,118099,1,0,0:0:0:0:
64,192,118167,1,0,0:0:0:0:
320,192,118235,1,0,0:0:0:0:
192,192,118304,1,0,0:0:0:0:
64,192,118372,1,2,0:0:0:0:
448,192,118372,128,0,118508:0:0:0:0:
320,192,118508,128,0,118644:0:0:0:0:
64,192,118644,128,0,118781:0:0:0:0:
448,192,118781,128,0,118917:0:0:0:0:
192,192,118917,128,8,119054:0:0:0:0:
320,192,118917,1,0,0:0:0:0:
64,192,119054,128,0,119190:0:0:0:0:
320,192,119190,128,0,119394:0:0:0:0:
320,192,119463,128,2,119599:0:0:0:0:
448,192,119463,1,0,0:0:0:0:
192,192,119599,128,0,119735:0:0:0:0:
64,192,119735,128,0,119872:0:0:0:0:
448,192,119872,128,0,120008:0:0:0:0:
320,192,120008,128,0,120144:0:0:0:0:
192,192,120008,1,8,0:0:0:0:
64,192,120144,128,0,120281:0:0:0:0:
448,192,120281,128,0,120554:0:0:0:0:
320,192,120554,128,0,120690:0:0:0:0:
192,192,120554,1,2,0:0:0:0:
64,192,120690,128,0,120826:0:0:0:0:
192,192,120826,128,0,120963:0:0:0:0:
320,192,120963,128,0,121099:0:0:0:0:
448,192,121099,128,0,121235:0:0:0:0:
192,192,121099,1,8,0:0:0:0:
64,192,121235,128,0,121372:0:0:0:0:
192,192,121372,128,0,121508:0:0:0:0:
320,192,121508,128,0,121644:0:0:0:0:
448,192,121644,128,0,121917:0:0:0:0:
64,192,121644,1,2,0:0:0:0:
192,192,121917,1,0,0:0:0:0:
320,192,121985,1,0,0:0:0:0:
64,192,122054,1,0,0:0:0:0:
192,192,122122,1,0,0:0:0:0:
448,192,122190,1,8,0:0:0:0:
320,192,122190,128,0,122463:0:0:0:0:
448,192,122463,128,0,122735:0:0:0:0:
64,192,122735,1,2,0:0:0:0:
320,192,122735,1,4,0:0:0:0:
192,192,123008,1,0,0:0:0:0:
64,192,123281,1,8,0:0:0:0:
320,192,123281,1,0,0:0:0:0:
448,192,123281,1,0,0:0:0:0:
192,192,123417,128,0,123554:0:0:0:0:
64,192,123554,128,0,123690:0:0:0:0:
320,192,123690,128,0,123826:0:0:0:0:
192,192,123826,128,2,124099:0:0:0:0:
448,192,123826,1,0,0:0:0:0:
320,192,124099,1,0,0:0:0:0:
448,192,124372,128,0,124917:0:0:0:0:
192,192,124372,1,0,0:0:0:0:
64,192,124372,1,8,0:0:0:0:
192,192,124644,1,0,0:0:0:0:
64,192,124917,128,2,125326:0:0:0:0:
320,192,124917,1,0,0:0:0:0:
320,192,125190,1,0,0:0:0:0:
192,192,125463,1,0,0:0:0:0:
64,192,125463,1,8,0:0:0:0:
448,192,125463,1,0,0:0:0:0:
320,192,125599,128,0,125735:0:0:0:0:
64,192,125735,128,0,125872:0:0:0:0:
448,192,125872,128,0,126008:0:0:0:0:
192,192,126008,128,2,126554:0:0:0:0:
320,192,126008,1,0,0:0:0:0:
320,192,126144,1,0,0:0:0:0:
64,192,126281,1,0,0:0:0:0:
448,192,126417,1,0,0:0:0:0:
448,192,126554,128,0,127099:0:0:0:0:
64,192,126554,1,8,0:0:0:0:
320,192,126554,1,0,0:0:0:0:
64,192,126690,1,0,0:0:0:0:
320,192,126826,1,0,0:0:0:0:
320,192,126963,1,0,0:0:0:0:
64,192,127099,128,2,127508:0:0:0:0:
192,192,127099,1,0,0:0:0:0:
448,192,127372,1,0,0:0:0:0:
64,192,127644,1,8,0:0:0:0:
320,192,127644,1,0,0:0:0:0:
448,192,127644,1,0,0:0:0:0:
192,192,127781,128,0,127917:0:0:0:0:
64,192,127917,128,0,128054:0:0:0:0:
448,192,128054,128,0,128190:0:0:0:0:
320,192,128190,128,0,128735:0:0:0:0:
192,192,128190,1,2,0:0:0:0:
64,192,128463,1,0,0:0:0:0:
448,192,128735,128,0,129281:0:0:0:0:
192,192,128735,1,0,0:0:0:0:
64,192,128735,1,8,0:0:0:0:
320,192,129008,1,0,0:0:0:0:
64,192,129281,128,2,129690:0:0:0:0:
192,192,129281,1,0,0:0:0:0:
320,192,129554,1,0,0:0:0:0:
64,192,129826,128,0,130235:0:0:0:0:
448,192,130099,1,0,0:0:0:0:
64,192,130372,128,0,130781:0:0:0:0:
320,192,130644,1,0,0:0:0:0:
64,192,130917,128,0,131326:0:0:0:0:
192,192,131190,1,0,0:0:0:0:
448,192,131326,1,0,0:0:0:0:
64,192,131463,1,0,0:0:0:0:
192,192,131599,1,0,0:0:0:0:
64,192,131735,128,0,132008:0:0:0:0:
320,192,131872,1,0,0:0:0:0:
192,192,132008,128,0,132281:0:0:0:0:
448,192,132144,1,0,0:0:0:0:
320,192,132281,128,0,132554:0:0:0:0:
64,192,132417,1,0,0:0:0:0:
448,192,132554,1,0,0:0:0:0:
448,192,132690,1,0,0:0:0:0:
64,192,132826,1,0,0:0:0:0:
64,192,132963,1,0,0:0:0:0:
320,192,133099,1,0,0:0:0:0:
320,192,133235,1,0,0:0:0:0:
192,192,133372,1,0,0:0:0:0:
192,192,133508,1,0,0:0:0:0:
448,192,133644,128,4,134190:0:0:0:0:
320,192,133644,128,2,134190:0:0:0:0:
192,192,134190,1,0,0:0:0:0:
64,192,134190,1,8,0:0:0:0:
64,192,134326,1,0,0:0:0:0:
192,192,134463,1,0,0:0:0:0:
192,192,134599,1,0,0:0:0:0:
320,192,134735,1,2,0:0:0:0:
448,192,134735,1,0,0:0:0:0:
320,192,134872,1,0,0:0:0:0:
448,192,134872,1,0,0:0:0:0:
320,192,135008,1,0,0:0:0:0:
448,192,135008,1,0,0:0:0:0:
320,192,135144,1,0,0:0:0:0:
448,192,135144,1,0,0:0:0:0:
320,192,135281,1,8,0:0:0:0:
448,192,135281,1,0,0:0:0:0:
320,192,135417,1,0,0:0:0:0:
448,192,135417,1,0,0:0:0:0:
320,192,135554,1,0,0:0:0:0:
448,192,135554,1,0,0:0:0:0:
320,192,135690,1,0,0:0:0:0:
448,192,135690,1,0,0:0:0:0:
64,192,135826,128,2,136372:0:0:0:0:
192,192,135826,128,4,136372:0:0:0:0:
320,192,136372,1,8,0:0:0:0:
448,192,136372,1,0,0:0:0:0:
448,192,136508,1,0,0:0:0:0:
320,192,136644,1,0,0:0:0:0:
320,192,136781,1,0,0:0:0:0:
64,192,136917,1,2,0:0:0:0:
192,192,136917,1,0,0:0:0:0:
64,192,137054,1,0,0:0:0:0:
192,192,137054,1,0,0:0:0:0:
64,192,137190,1,0,0:0:0:0:
192,192,137190,1,0,0:0:0:0:
64,192,137326,1,0,0:0:0:0:
192,192,137326,1,0,0:0:0:0:
64,192,137463,1,8,0:0:0:0:
192,192,137463,1,0,0:0:0:0:
192,192,137599,1,0,0:0:0:0:
64,192,137599,1,0,0:0:0:0:
64,192,137735,1,0,0:0:0:0:
192,192,137735,1,0,0:0:0:0:
192,192,137872,1,0,0:0:0:0:
64,192,137872,1,0,0:0:0:0:
448,192,138008,128,4,138554:0:0:0:0:
320,192,138008,128,2,138554:0:0:0:0:
64,192,138554,1,8,0:0:0:0:
192,192,138554,1,0,0:0:0:0:
192,192,138690,1,0,0:0:0:0:
64,192,138826,1,0,0:0:0:0:
64,192,138963,1,0,0:0:0:0:
320,192,139099,1,2,0:0:0:0:
448,192,139099,1,0,0:0:0:0:
320,192,139235,1,0,0:0:0:0:
448,192,139235,1,0,0:0:0:0:
320,192,139372,1,0,0:0:0:0:
448,192,139372,1,0,0:0:0:0:
320,192,139508,1,0,0:0:0:0:
448,192,139508,1,0,0:0:0:0:
320,192,139644,1,8,0:0:0:0:
448,192,139644,1,0,0:0:0:0:
320,192,139781,1,0,0:0:0:0:
448,192,139781,1,0,0:0:0:0:
320,192,139917,1,0,0:0:0:0:
448,192,139917,1,0,0:0:0:0:
320,192,140054,1,0,0:0:0:0:
448,192,140054,1,0,0:0:0:0:
64,192,140190,128,2,140735:0:0:0:0:
192,192,140190,128,4,140735:0:0:0:0:
448,192,140735,1,0,0:0:0:0:
320,192,140735,1,8,0:0:0:0:
320,192,140872,1,0,0:0:0:0:
448,192,141008,1,0,0:0:0:0:
448,192,141144,1,0,0:0:0:0:
64,192,141281,1,2,0:0:0:0:
192,192,141281,1,0,0:0:0:0:
64,192,141417,1,0,0:0:0:0:
192,192,141417,1,0,0:0:0:0:
64,192,141554,1,0,0:0:0:0:
192,192,141554,1,0,0:0:0:0:
64,192,141690,1,0,0:0:0:0:
192,192,141690,1,0,0:0:0:0:
64,192,141826,1,8,0:0:0:0:
192,192,141826,1,0,0:0:0:0:
64,192,141963,1,0,0:0:0:0:
192,192,141963,1,0,0:0:0:0:
64,192,142099,1,0,0:0:0:0:
192,192,142099,1,0,0:0:0:0:
64,192,142235,1,0,0:0:0:0:
192,192,142235,1,0,0:0:0:0:
320,192,142372,128,2,142917:0:0:0:0:
448,192,142372,128,4,142917:0:0:0:0:
64,192,142917,1,8,0:0:0:0:
192,192,142917,1,0,0:0:0:0:
192,192,143054,1,0,0:0:0:0:
320,192,143190,1,0,0:0:0:0:
320,192,143326,1,0,0:0:0:0:
448,192,143463,1,0,0:0:0:0:
192,192,143463,1,2,0:0:0:0:
448,192,143599,1,0,0:0:0:0:
192,192,143599,1,0,0:0:0:0:
448,192,143735,1,0,0:0:0:0:
192,192,143735,1,0,0:0:0:0:
448,192,143872,1,0,0:0:0:0:
192,192,143872,1,0,0:0:0:0:
448,192,144008,1,0,0:0:0:0:
192,192,144008,1,8,0:0:0:0:
448,192,144144,1,0,0:0:0:0:
192,192,144144,1,0,0:0:0:0:
448,192,144281,1,0,0:0:0:0:
192,192,144281,1,0,0:0:0:0:
448,192,144417,1,0,0:0:0:0:
192,192,144417,1,0,0:0:0:0:
64,192,144554,128,2,145099:0:0:0:0:
320,192,144554,128,4,145099:0:0:0:0:
192,192,145099,1,8,0:0:0:0:
448,192,145099,1,0,0:0:0:0:
448,192,145235,1,0,0:0:0:0:
192,192,145372,1,0,0:0:0:0:
192,192,145508,1,0,0:0:0:0:
64,192,145644,1,2,0:0:0:0:
320,192,145644,1,0,0:0:0:0:
64,192,145781,1,0,0:0:0:0:
320,192,145781,1,0,0:0:0:0:
64,192,145917,1,0,0:0:0:0:
320,192,145917,1,0,0:0:0:0:
64,192,146054,1,0,0:0:0:0:
320,192,146054,1,0,0:0:0:0:
64,192,146190,1,8,0:0:0:0:
320,192,146190,1,0,0:0:0:0:
64,192,146326,1,0,0:0:0:0:
320,192,146326,1,0,0:0:0:0:
64,192,146463,1,0,0:0:0:0:
320,192,146463,1,0,0:0:0:0:
64,192,146599,1,0,0:0:0:0:
320,192,146599,1,0,0:0:0:0:
448,192,146735,128,4,147281:0:0:0:0:
192,192,146735,128,2,147281:0:0:0:0:
320,192,147281,1,0,0:0:0:0:
64,192,147281,1,8,0:0:0:0:
64,192,147417,1,0,0:0:0:0:
320,192,147554,1,0,0:0:0:0:
320,192,147690,1,0,0:0:0:0:
64,192,147826,1,2,0:0:0:0:
448,192,147826,1,0,0:0:0:0:
64,192,147963,1,0,0:0:0:0:
448,192,147963,1,0,0:0:0:0:
64,192,148099,1,0,0:0:0:0:
448,192,148099,1,0,0:0:0:0:
64,192,148235,1,0,0:0:0:0:
448,192,148235,1,0,0:0:0:0:
64,192,148372,1,8,0:0:0:0:
448,192,148372,1,0,0:0:0:0:
64,192,148508,1,0,0:0:0:0:
448,192,148508,1,0,0:0:0:0:
64,192,148644,1,0,0:0:0:0:
448,192,148644,1,0,0:0:0:0:
64,192,148781,1,0,0:0:0:0:
448,192,148781,1,0,0:0:0:0:
192,192,148917,128,2,149463:0:0:0:0:
320,192,148917,128,4,149463:0:0:0:0:
64,192,149463,1,8,0:0:0:0:
448,192,149463,1,0,0:0:0:0:
320,192,149599,1,0,0:0:0:0:
192,192,149735,1,0,0:0:0:0:
64,192,149872,1,0,0:0:0:0:
320,192,150008,1,2,0:0:0:0:
448,192,150008,1,0,0:0:0:0:
320,192,150144,1,0,0:0:0:0:
192,192,150281,1,0,0:0:0:0:
192,192,150417,1,0,0:0:0:0:
64,192,150554,1,0,0:0:0:0:
64,192,150690,1,0,0:0:0:0:
64,192,150826,1,0,0:0:0:0:
64,192,150963,1,0,0:0:0:0:
320,192,151099,1,2,0:0:0:0:
448,192,151099,128,4,151372:0:0:0:0:
192,192,151099,1,0,0:0:0:0:
192,192,151372,128,0,151644:0:0:0:0:
320,192,151644,128,0,151781:0:0:0:0:
64,192,151644,1,8,0:0:0:0:
448,192,151644,1,0,0:0:0:0:
64,192,151781,1,0,0:0:0:0:
448,192,151917,1,0,0:0:0:0:
448,192,152054,128,0,152190:0:0:0:0:
64,192,152190,1,2,0:0:0:0:
192,192,152190,1,0,0:0:0:0:
192,192,152326,1,0,0:0:0:0:
320,192,152463,1,0,0:0:0:0:
320,192,152599,1,0,0:0:0:0:
192,192,152735,1,0,0:0:0:0:
448,192,152735,1,0,0:0:0:0:
64,192,152735,128,8,152872:0:0:0:0:
448,192,152872,1,0,0:0:0:0:
192,192,153008,1,0,0:0:0:0:
192,192,153144,128,0,153281:0:0:0:0:
320,192,153281,128,2,153554:0:0:0:0:
448,192,153281,128,0,153417:0:0:0:0:
192,192,153554,128,0,153622:0:0:0:0:
192,192,153690,128,0,153826:0:0:0:0:
320,192,153826,128,0,153894:0:0:0:0:
64,192,153826,1,8,0:0:0:0:
448,192,153826,1,0,0:0:0:0:
320,192,153963,128,0,154099:0:0:0:0:
448,192,154099,128,0,154235:0:0:0:0:
64,192,154235,128,0,154372:0:0:0:0:
320,192,154372,128,0,154644:0:0:0:0:
192,192,154372,1,2,0:0:0:0:
448,192,154508,128,0,154644:0:0:0:0:
192,192,154644,128,0,154781:0:0:0:0:
64,192,154781,128,0,154917:0:0:0:0:
320,192,154917,128,0,155190:0:0:0:0:
192,192,154917,1,8,0:0:0:0:
448,192,154917,1,0,0:0:0:0:
192,192,155190,128,0,155463:0:0:0:0:
64,192,155463,128,2,155735:0:0:0:0:
448,192,155463,1,0,0:0:0:0:
320,192,155735,128,0,156008:0:0:0:0:
64,192,156008,1,8,0:0:0:0:
448,192,156008,1,0,0:0:0:0:
192,192,156008,128,0,156144:0:0:0:0:
448,192,156144,1,0,0:0:0:0:
64,192,156281,1,0,0:0:0:0:
64,192,156417,128,0,156554:0:0:0:0:
320,192,156554,1,2,0:0:0:0:
448,192,156554,1,0,0:0:0:0:
320,192,156690,1,0,0:0:0:0:
192,192,156826,1,0,0:0:0:0:
192,192,156963,1,0,0:0:0:0:
448,192,157099,128,0,157235:0:0:0:0:
64,192,157099,1,8,0:0:0:0:
320,192,157099,1,0,0:0:0:0:
64,192,157235,1,0,0:0:0:0:
320,192,157372,1,0,0:0:0:0:
320,192,157508,128,0,157644:0:0:0:0:
64,192,157644,128,2,157781:0:0:0:0:
192,192,157644,128,0,157917:0:0:0:0:
320,192,157917,128,0,157985:0:0:0:0:
320,192,158054,128,0,158190:0:0:0:0:
64,192,158190,1,8,0:0:0:0:
448,192,158190,1,0,0:0:0:0:
192,192,158190,128,0,158258:0:0:0:0:
192,192,158326,128,0,158463:0:0:0:0:
320,192,158463,128,0,158599:0:0:0:0:
448,192,158599,128,0,158735:0:0:0:0:
64,192,158735,1,2,0:0:0:0:
192,192,158735,128,0,159008:0:0:0:0:
320,192,159008,128,0,159144:0:0:0:0:
448,192,159144,128,0,159281:0:0:0:0:
64,192,159281,1,8,0:0:0:0:
320,192,159281,1,0,0:0:0:0:
192,192,159281,128,0,159417:0:0:0:0:
448,192,159417,128,0,159554:0:0:0:0:
64,192,159554,128,0,159826:0:0:0:0:
320,192,159826,1,2,0:0:0:0:
448,192,159826,128,4,160099:0:0:0:0:
192,192,159826,1,0,0:0:0:0:
192,192,160099,128,0,160372:0:0:0:0:
320,192,160372,128,0,160508:0:0:0:0:
64,192,160372,1,8,0:0:0:0:
448,192,160372,1,0,0:0:0:0:
64,192,160508,1,0,0:0:0:0:
448,192,160644,1,0,0:0:0:0:
448,192,160781,128,0,160917:0:0:0:0:
64,192,160917,1,2,0:0:0:0:
192,192,160917,1,0,0:0:0:0:
192,192,161054,1,0,0:0:0:0:
320,192,161190,1,0,0:0:0:0:
320,192,161326,1,0,0:0:0:0:
192,192,161463,1,0,0:0:0:0:
448,192,161463,1,0,0:0:0:0:
64,192,161463,128,8,161599:0:0:0:0:
448,192,161599,1,0,0:0:0:0:
192,192,161735,1,0,0:0:0:0:
192,192,161872,128,0,162008:0:0:0:0:
320,192,162008,128,2,162281:0:0:0:0:
448,192,162008,128,0,162144:0:0:0:0:
192,192,162281,128,0,162349:0:0:0:0:
192,192,162417,128,0,162554:0:0:0:0:
320,192,162554,128,0,162622:0:0:0:0:
64,192,162554,1,8,0:0:0:0:
448,192,162554,1,0,0:0:0:0:
320,192,162690,128,0,162826:0:0:0:0:
448,192,162826,128,0,162963:0:0:0:0:
64,192,162963,128,0,163099:0:0:0:0:
320,192,163099,128,0,163372:0:0:0:0:
192,192,163099,1,2,0:0:0:0:
448,192,163235,128,0,163372:0:0:0:0:
192,192,163372,128,0,163508:0:0:0:0:
64,192,163508,128,0,163644:0:0:0:0:
320,192,163644,128,0,163917:0:0:0:0:
192,192,163644,1,8,0:0:0:0:
448,192,163644,1,0,0:0:0:0:
192,192,163917,128,0,164190:0:0:0:0:
64,192,164190,128,2,164463:0:0:0:0:
448,192,164190,1,0,0:0:0:0:
320,192,164463,128,0,164735:0:0:0:0:
64,192,164735,1,8,0:0:0:0:
448,192,164735,1,0,0:0:0:0:
192,192,164735,128,0,164872:0:0:0:0:
448,192,164872,1,0,0:0:0:0:
64,192,165008,1,0,0:0:0:0:
64,192,165144,128,0,165281:0:0:0:0:
320,192,165281,1,2,0:0:0:0:
448,192,165281,1,0,0:0:0:0:
320,192,165417,1,0,0:0:0:0:
192,192,165554,1,0,0:0:0:0:
192,192,165690,1,0,0:0:0:0:
448,192,165826,128,0,165963:0:0:0:0:
64,192,165826,1,8,0:0:0:0:
320,192,165826,1,0,0:0:0:0:
64,192,165963,1,0,0:0:0:0:
320,192,166099,1,0,0:0:0:0:
320,192,166235,128,0,166372:0:0:0:0:
64,192,166372,128,2,166508:0:0:0:0:
192,192,166372,128,0,166644:0:0:0:0:
320,192,166644,128,0,166713:0:0:0:0:
320,192,166781,128,0,166917:0:0:0:0:
64,192,166917,1,8,0:0:0:0:
448,192,166917,1,0,0:0:0:0:
192,192,166917,128,0,166985:0:0:0:0:
192,192,167054,128,0,167190:0:0:0:0:
320,192,167190,128,0,167326:0:0:0:0:
448,192,167326,128,0,167463:0:0:0:0:
64,192,167463,1,2,0:0:0:0:
192,192,167463,128,0,167735:0:0:0:0:
320,192,167735,128,0,167872:0:0:0:0:
448,192,167872,128,0,168008:0:0:0:0:
64,192,168008,1,8,0:0:0:0:
320,192,168008,1,0,0:0:0:0:
192,192,168008,128,0,168144:0:0:0:0:
448,192,168144,128,0,168281:0:0:0:0:
64,192,168281,128,0,168554:0:0:0:0:
192,192,168554,128,2,168826:0:0:0:0:
448,192,168554,1,0,0:0:0:0:
320,192,168554,128,4,168690:0:0:0:0:
448,192,168826,128,0,169099:0:0:0:0:
192,192,169099,1,0,0:0:0:0:
64,192,169099,1,8,0:0:0:0:
320,192,169099,128,0,169235:0:0:0:0:
64,192,169235,1,0,0:0:0:0:
448,192,169372,1,0,0:0:0:0:
448,192,169508,128,0,169644:0:0:0:0:
320,192,169644,1,0,0:0:0:0:
64,192,169644,1,2,0:0:0:0:
320,192,169781,1,0,0:0:0:0:
192,192,169917,1,0,0:0:0:0:
192,192,170054,128,0,170190:0:0:0:0:
320,192,170190,1,0,0:0:0:0:
448,192,170190,1,0,0:0:0:0:
64,192,170190,1,8,0:0:0:0:
448,192,170326,1,0,0:0:0:0:
64,192,170463,128,0,170599:0:0:0:0:
192,192,170599,1,0,0:0:0:0:
320,192,170735,128,2,170872:0:0:0:0:
448,192,170735,128,0,171008:0:0:0:0:
64,192,171008,128,0,171144:0:0:0:0:
192,192,171144,128,0,171281:0:0:0:0:
64,192,171281,128,8,171417:0:0:0:0:
320,192,171281,1,0,0:0:0:0:
448,192,171281,1,0,0:0:0:0:
192,192,171417,128,0,171554:0:0:0:0:
320,192,171554,128,0,171690:0:0:0:0:
192,192,171690,128,0,171826:0:0:0:0:
448,192,171826,128,0,172099:0:0:0:0:
320,192,171826,1,2,0:0:0:0:
64,192,171963,128,0,172099:0:0:0:0:
320,192,172099,128,0,172235:0:0:0:0:
192,192,172235,128,0,172372:0:0:0:0:
320,192,172372,1,0,0:0:0:0:
64,192,172372,1,8,0:0:0:0:
448,192,172372,128,0,172644:0:0:0:0:
192,192,172644,128,0,172917:0:0:0:0:
448,192,172917,128,0,173190:0:0:0:0:
320,192,172917,128,2,173054:0:0:0:0:
64,192,173190,128,0,173463:0:0:0:0:
448,192,173463,1,0,0:0:0:0:
320,192,173463,1,0,0:0:0:0:
192,192,173463,128,8,173599:0:0:0:0:
448,192,173599,1,0,0:0:0:0:
320,192,173735,1,0,0:0:0:0:
320,192,173872,128,0,174008:0:0:0:0:
192,192,174008,1,0,0:0:0:0:
64,192,174008,1,2,0:0:0:0:
192,192,174144,1,0,0:0:0:0:
448,192,174281,1,0,0:0:0:0:
448,192,174417,128,0,174554:0:0:0:0:
320,192,174554,1,0,0:0:0:0:
192,192,174554,1,0,0:0:0:0:
64,192,174554,1,8,0:0:0:0:
192,192,174690,1,0,0:0:0:0:
320,192,174826,128,0,174963:0:0:0:0:
448,192,174963,1,0,0:0:0:0:
192,192,175099,128,0,175235:0:0:0:0:
64,192,175099,128,2,175372:0:0:0:0:
320,192,175372,128,0,175508:0:0:0:0:
192,192,175508,128,0,175644:0:0:0:0:
320,192,175644,128,0,175781:0:0:0:0:
448,192,175644,1,0,0:0:0:0:
64,192,175644,1,8,0:0:0:0:
192,192,175781,128,0,175917:0:0:0:0:
448,192,175917,128,0,176054:0:0:0:0:
64,192,176054,128,0,176190:0:0:0:0:
448,192,176190,128,0,176463:0:0:0:0:
320,192,176190,1,2,0:0:0:0:
192,192,176463,128,0,176599:0:0:0:0:
320,192,176599,128,0,176735:0:0:0:0:
192,192,176735,1,0,0:0:0:0:
448,192,176735,1,0,0:0:0:0:
64,192,176735,128,8,176872:0:0:0:0:
320,192,176872,128,0,177008:0:0:0:0:
192,192,177008,128,0,177281:0:0:0:0:
448,192,177281,1,0,0:0:0:0:
320,192,177281,128,4,177417:0:0:0:0:
64,192,177281,128,2,177554:0:0:0:0:
448,192,177554,128,0,177826:0:0:0:0:
192,192,177826,1,0,0:0:0:0:
320,192,177826,128,0,177963:0:0:0:0:
64,192,177826,1,8,0:0:0:0:
64,192,177963,1,0,0:0:0:0:
448,192,178099,1,0,0:0:0:0:
448,192,178235,128,0,178372:0:0:0:0:
320,192,178372,1,0,0:0:0:0:
64,192,178372,1,2,0:0:0:0:
320,192,178508,1,0,0:0:0:0:
192,192,178644,1,0,0:0:0:0:
192,192,178781,128,0,178917:0:0:0:0:
64,192,178917,1,8,0:0:0:0:
320,192,178917,1,0,0:0:0:0:
448,192,178917,1,0,0:0:0:0:
448,192,179054,1,0,0:0:0:0:
64,192,179190,128,0,179326:0:0:0:0:
192,192,179326,1,0,0:0:0:0:
448,192,179463,128,0,179735:0:0:0:0:
320,192,179463,128,2,179599:0:0:0:0:
64,192,179735,128,0,179872:0:0:0:0:
192,192,179872,128,0,180008:0:0:0:0:
448,192,180008,1,0,0:0:0:0:
64,192,180008,128,8,180144:0:0:0:0:
320,192,180008,1,0,0:0:0:0:
192,192,180144,128,0,180281:0:0:0:0:
320,192,180281,128,0,180417:0:0:0:0:
192,192,180417,128,0,180554:0:0:0:0:
320,192,180554,1,2,0:0:0:0:
448,192,180554,128,0,180826:0:0:0:0:
64,192,180690,128,0,180826:0:0:0:0:
320,192,180826,128,0,180963:0:0:0:0:
192,192,180963,128,0,181099:0:0:0:0:
448,192,181099,128,0,181372:0:0:0:0:
320,192,181099,1,0,0:0:0:0:
64,192,181099,1,8,0:0:0:0:
192,192,181372,128,0,181644:0:0:0:0:
448,192,181644,128,0,181917:0:0:0:0:
320,192,181644,128,2,181781:0:0:0:0:
64,192,181917,128,0,182190:0:0:0:0:
448,192,182190,1,0,0:0:0:0:
192,192,182190,128,8,182326:0:0:0:0:
320,192,182190,1,0,0:0:0:0:
448,192,182326,1,0,0:0:0:0:
320,192,182463,1,0,0:0:0:0:
320,192,182599,128,0,182735:0:0:0:0:
192,192,182735,1,0,0:0:0:0:
64,192,182735,1,2,0:0:0:0:
192,192,182872,1,0,0:0:0:0:
448,192,183008,1,0,0:0:0:0:
448,192,183144,128,0,183281:0:0:0:0:
192,192,183281,1,0,0:0:0:0:
64,192,183281,1,8,0:0:0:0:
320,192,183281,1,0,0:0:0:0:
192,192,183417,1,0,0:0:0:0:
320,192,183554,128,0,183690:0:0:0:0:
448,192,183690,1,0,0:0:0:0:
192,192,183826,128,0,183963:0:0:0:0:
64,192,183826,128,2,184099:0:0:0:0:
320,192,184099,128,0,184235:0:0:0:0:
192,192,184235,128,0,184372:0:0:0:0:
320,192,184372,128,0,184508:0:0:0:0:
64,192,184372,1,8,0:0:0:0:
448,192,184372,1,0,0:0:0:0:
192,192,184508,128,0,184644:0:0:0:0:
448,192,184644,128,0,184781:0:0:0:0:
64,192,184781,128,0,184917:0:0:0:0:
448,192,184917,128,0,185190:0:0:0:0:
320,192,184917,1,2,0:0:0:0:
192,192,185190,128,0,185326:0:0:0:0:
320,192,185326,128,0,185463:0:0:0:0:
448,192,185463,1,0,0:0:0:0:
64,192,185463,128,8,185599:0:0:0:0:
192,192,185463,1,0,0:0:0:0:
320,192,185599,128,0,185735:0:0:0:0:
192,192,185735,128,0,186008:0:0:0:0:
64,192,186008,1,4,0:0:0:0:
448,192,186008,1,0,0:0:0:0:
320,192,186008,1,2,0:0:0:0:
448,192,186281,128,0,186554:0:0:0:0:
64,192,186554,1,8,0:0:0:0:
192,192,186554,1,0,0:0:0:0:
320,192,186554,1,0,0:0:0:0:
320,192,186690,128,0,186963:0:0:0:0:
192,192,187099,128,2,187644:0:0:0:0:
448,192,187099,1,0,0:0:0:0:
320,192,187644,1,0,0:0:0:0:
448,192,187644,1,0,0:0:0:0:
64,192,187644,1,8,0:0:0:0:
64,192,188190,1,2,0:0:0:0:
448,192,188190,1,0,0:0:0:0:
320,192,188463,128,0,188735:0:0:0:0:
192,192,188735,1,0,0:0:0:0:
64,192,188735,1,8,0:0:0:0:
448,192,188735,1,0,0:0:0:0:
192,192,188872,128,0,189144:0:0:0:0:
64,192,189281,128,2,189826:0:0:0:0:
320,192,189281,1,0,0:0:0:0:
320,192,189826,1,0,0:0:0:0:
448,192,189826,1,0,0:0:0:0:
192,192,189826,1,8,0:0:0:0:
192,192,190372,1,0,0:0:0:0:
64,192,190372,1,2,0:0:0:0:
320,192,190644,128,0,190917:0:0:0:0:
192,192,190917,1,0,0:0:0:0:
64,192,190917,1,8,0:0:0:0:
448,192,190917,1,0,0:0:0:0:
448,192,191054,128,0,191326:0:0:0:0:
192,192,191463,128,2,192008:0:0:0:0:
320,192,191463,1,0,0:0:0:0:
448,192,192008,1,0,0:0:0:0:
320,192,192008,1,0,0:0:0:0:
64,192,192008,1,8,0:0:0:0:
192,192,192554,1,2,0:0:0:0:
448,192,192554,1,0,0:0:0:0:
320,192,192826,128,0,193099:0:0:0:0:
192,192,193099,1,0,0:0:0:0:
64,192,193099,1,8,0:0:0:0:
448,192,193099,1,0,0:0:0:0:
448,192,193235,128,0,193508:0:0:0:0:
448,192,193644,128,0,194190:0:0:0:0:
320,192,193644,1,2,0:0:0:0:
64,192,194190,128,8,194735:0:0:0:0:
192,192,194190,1,0,0:0:0:0:
320,192,194190,1,0,0:0:0:0:
192,192,194735,1,2,0:0:0:0:
320,192,194735,1,4,0:0:0:0:
448,192,194735,1,0,0:0:0:0:
448,192,195008,128,0,195281:0:0:0:0:
64,192,195281,1,8,0:0:0:0:
192,192,195281,1,0,0:0:0:0:
320,192,195281,1,0,0:0:0:0:
320,192,195417,128,0,195690:0:0:0:0:
192,192,195826,128,2,196372:0:0:0:0:
448,192,195826,1,0,0:0:0:0:
320,192,196372,1,0,0:0:0:0:
448,192,196372,1,0,0:0:0:0:
64,192,196372,1,8,0:0:0:0:
64,192,196917,1,2,0:0:0:0:
448,192,196917,1,0,0:0:0:0:
320,192,197190,128,0,197463:0:0:0:0:
192,192,197463,1,0,0:0:0:0:
64,192,197463,1,8,0:0:0:0:
448,192,197463,1,0,0:0:0:0:
192,192,197599,128,0,197872:0:0:0:0:
64,192,198008,128,2,198554:0:0:0:0:
320,192,198008,1,0,0:0:0:0:
320,192,198554,1,0,0:0:0:0:
448,192,198554,1,0,0:0:0:0:
192,192,198554,1,8,0:0:0:0:
192,192,199099,1,0,0:0:0:0:
64,192,199099,1,2,0:0:0:0:
320,192,199372,128,0,199644:0:0:0:0:
192,192,199644,1,0,0:0:0:0:
64,192,199644,1,8,0:0:0:0:
448,192,199644,1,0,0:0:0:0:
448,192,199781,128,0,200054:0:0:0:0:
192,192,200190,128,2,200735:0:0:0:0:
320,192,200190,1,0,0:0:0:0:
448,192,200735,1,0,0:0:0:0:
320,192,200735,1,0,0:0:0:0:
64,192,200735,1,8,0:0:0:0:
192,192,201281,1,2,0:0:0:0:
448,192,201281,1,0,0:0:0:0:
320,192,201554,128,0,201826:0:0:0:0:
192,192,201826,1,0,0:0:0:0:
64,192,201826,1,8,0:0:0:0:
448,192,201826,1,0,0:0:0:0:
448,192,201963,128,0,202235:0:0:0:0:
448,192,202372,128,0,202917:0:0:0:0:
320,192,202372,1,2,0:0:0:0:
64,192,202917,128,8,203463:0:0:0:0:
192,192,202917,1,0,0:0:0:0:
320,192,202917,1,0,0:0:0:0:
448,192,204008,128,0,205644:0:0:0:0:
320,192,205099,128,0,205644:0:0:0:0:
192,192,205644,128,4,206190:0:0:0:0:
64,192,205644,128,2,206190:0:0:0:0:
320,192,206190,128,8,206463:0:0:0:0:
448,192,206190,1,0,0:0:0:0:
192,192,206326,1,0,0:0:0:0:
448,192,206463,128,0,206735:0:0:0:0:
64,192,206599,1,0,0:0:0:0:
192,192,206735,128,0,207008:0:0:0:0:
64,192,206735,1,2,0:0:0:0:
320,192,206872,1,0,0:0:0:0:
320,192,207008,128,0,207281:0:0:0:0:
64,192,207144,1,0,0:0:0:0:
64,192,207281,128,8,207554:0:0:0:0:
448,192,207281,1,0,0:0:0:0:
192,192,207417,1,0,0:0:0:0:
192,192,207554,128,0,207826:0:0:0:0:
320,192,207690,1,0,0:0:0:0:
64,192,207826,128,2,208372:0:0:0:0:
320,192,207826,128,4,208372:0:0:0:0:
192,192,208372,128,8,208508:0:0:0:0:
448,192,208372,1,0,0:0:0:0:
448,192,208508,128,0,208644:0:0:0:0:
64,192,208644,128,0,208781:0:0:0:0:
320,192,208781,128,0,208917:0:0:0:0:
192,192,208917,128,2,209190:0:0:0:0:
448,192,208917,1,0,0:0:0:0:
448,192,209054,1,0,0:0:0:0:
64,192,209190,128,0,209463:0:0:0:0:
448,192,209326,1,0,0:0:0:0:
192,192,209463,128,8,209735:0:0:0:0:
448,192,209463,1,0,0:0:0:0:
320,192,209599,1,0,0:0:0:0:
320,192,209735,128,0,210008:0:0:0:0:
64,192,209872,1,0,0:0:0:0:
448,192,210008,128,4,210554:0:0:0:0:
64,192,210008,128,2,210554:0:0:0:0:
192,192,210554,128,8,210690:0:0:0:0:
320,192,210554,1,0,0:0:0:0:
320,192,210690,128,0,210826:0:0:0:0:
64,192,210826,128,0,210963:0:0:0:0:
192,192,210963,128,0,211099:0:0:0:0:
448,192,211099,128,0,211372:0:0:0:0:
64,192,211099,1,2,0:0:0:0:
64,192,211235,1,0,0:0:0:0:
320,192,211372,128,0,211644:0:0:0:0:
64,192,211508,1,0,0:0:0:0:
64,192,211644,128,8,211917:0:0:0:0:
448,192,211644,1,0,0:0:0:0:
448,192,211781,1,0,0:0:0:0:
192,192,211917,128,0,212190:0:0:0:0:
320,192,212054,1,0,0:0:0:0:
320,192,212190,128,2,212735:0:0:0:0:
448,192,212190,128,4,212735:0:0:0:0:
192,192,212735,128,0,212872:0:0:0:0:
64,192,212735,1,8,0:0:0:0:
448,192,212872,128,0,213008:0:0:0:0:
64,192,213008,128,0,213144:0:0:0:0:
320,192,213144,128,0,213281:0:0:0:0:
192,192,213281,128,2,213554:0:0:0:0:
448,192,213281,1,0,0:0:0:0:
448,192,213417,1,0,0:0:0:0:
64,192,213554,128,0,213826:0:0:0:0:
448,192,213690,1,0,0:0:0:0:
448,192,213826,128,0,214099:0:0:0:0:
192,192,213826,1,8,0:0:0:0:
192,192,213963,1,0,0:0:0:0:
320,192,214099,128,0,214372:0:0:0:0:
64,192,214235,1,0,0:0:0:0:
192,192,214372,128,4,214917:0:0:0:0:
64,192,214372,128,2,214917:0:0:0:0:
320,192,214917,1,8,0:0:0:0:
448,192,214917,1,0,0:0:0:0:
192,192,215054,128,0,215190:0:0:0:0:
64,192,215190,128,0,215326:0:0:0:0:
320,192,215326,128,0,215463:0:0:0:0:
192,192,215463,128,2,215735:0:0:0:0:
448,192,215463,1,0,0:0:0:0:
448,192,215599,1,0,0:0:0:0:
64,192,215735,1,0,0:0:0:0:
64,192,215872,1,0,0:0:0:0:
320,192,216008,128,0,216554:0:0:0:0:
192,192,216008,1,8,0:0:0:0:
192,192,216144,1,0,0:0:0:0:
192,192,216281,1,0,0:0:0:0:
192,192,216417,1,0,0:0:0:0:
64,192,216554,128,2,217099:0:0:0:0:
448,192,216554,128,4,217099:0:0:0:0:
192,192,217099,1,8,0:0:0:0:
320,192,217099,1,0,0:0:0:0:
320,192,217235,128,0,217372:0:0:0:0:
192,192,217372,128,0,217508:0:0:0:0:
448,192,217508,128,0,217644:0:0:0:0:
320,192,217644,128,0,218190:0:0:0:0:
192,192,217644,1,2,0:0:0:0:
192,192,217781,1,0,0:0:0:0:
448,192,217917,1,0,0:0:0:0:
448,192,218054,1,0,0:0:0:0:
448,192,218190,128,0,218735:0:0:0:0:
64,192,218190,1,8,0:0:0:0:
64,192,218326,1,0,0:0:0:0:
64,192,218463,1,0,0:0:0:0:
64,192,218599,1,0,0:0:0:0:
192,192,218735,128,2,219281:0:0:0:0:
320,192,218735,128,4,219281:0:0:0:0:
448,192,219281,1,0,0:0:0:0:
64,192,219281,1,8,0:0:0:0:
320,192,219417,128,0,219554:0:0:0:0:
64,192,219554,128,0,219690:0:0:0:0:
448,192,219690,128,0,219826:0:0:0:0:
192,192,219826,128,2,220372:0:0:0:0:
320,192,219826,1,0,0:0:0:0:
320,192,219963,1,0,0:0:0:0:
64,192,220099,1,0,0:0:0:0:
64,192,220235,1,0,0:0:0:0:
448,192,220372,128,0,220917:0:0:0:0:
320,192,220372,1,8,0:0:0:0:
192,192,220508,1,0,0:0:0:0:
192,192,220644,1,0,0:0:0:0:
192,192,220781,1,0,0:0:0:0:
320,192,220917,128,4,221463:0:0:0:0:
64,192,220917,128,2,221463:0:0:0:0:
448,192,221463,1,0,0:0:0:0:
192,192,221463,1,8,0:0:0:0:
192,192,221599,128,0,221735:0:0:0:0:
64,192,221735,128,0,221872:0:0:0:0:
448,192,221872,128,0,222008:0:0:0:0:
320,192,222008,128,0,222554:0:0:0:0:
192,192,222008,1,2,0:0:0:0:
448,192,222554,128,0,223099:0:0:0:0:
64,192,222554,1,8,0:0:0:0:
192,192,223099,128,4,223644:0:0:0:0:
64,192,223099,128,2,223644:0:0:0:0:
448,192,223644,1,0,0:0:0:0:
320,192,223644,1,8,0:0:0:0:
448,192,223781,1,0,0:0:0:0:
320,192,223917,1,0,0:0:0:0:
320,192,224054,1,0,0:0:0:0:
64,192,224190,1,2,0:0:0:0:
192,192,224190,1,0,0:0:0:0:
64,192,224326,1,0,0:0:0:0:
192,192,224326,1,0,0:0:0:0:
64,192,224463,1,0,0:0:0:0:
192,192,224463,1,0,0:0:0:0:
64,192,224599,1,0,0:0:0:0:
192,192,224599,1,0,0:0:0:0:
64,192,224735,1,8,0:0:0:0:
192,192,224735,1,0,0:0:0:0:
64,192,224872,1,0,0:0:0:0:
192,192,224872,1,0,0:0:0:0:
64,192,225008,1,0,0:0:0:0:
192,192,225008,1,0,0:0:0:0:
64,192,225144,1,0,0:0:0:0:
192,192,225144,1,0,0:0:0:0:
320,192,225281,128,2,225826:0:0:0:0:
448,192,225281,128,4,225826:0:0:0:0:
64,192,225826,1,8,0:0:0:0:
192,192,225826,1,0,0:0:0:0:
64,192,225963,1,0,0:0:0:0:
192,192,226099,1,0,0:0:0:0:
192,192,226235,1,0,0:0:0:0:
320,192,226372,1,2,0:0:0:0:
448,192,226372,1,0,0:0:0:0:
320,192,226508,1,0,0:0:0:0:
448,192,226508,1,0,0:0:0:0:
320,192,226644,1,0,0:0:0:0:
448,192,226644,1,0,0:0:0:0:
320,192,226781,1,0,0:0:0:0:
448,192,226781,1,0,0:0:0:0:
320,192,226917,1,8,0:0:0:0:
448,192,226917,1,0,0:0:0:0:
448,192,227054,1,0,0:0:0:0:
320,192,227054,1,0,0:0:0:0:
320,192,227190,1,0,0:0:0:0:
448,192,227190,1,0,0:0:0:0:
448,192,227326,1,0,0:0:0:0:
320,192,227326,1,0,0:0:0:0:
192,192,227463,128,4,228008:0:0:0:0:
64,192,227463,128,2,228008:0:0:0:0:
320,192,228008,1,8,0:0:0:0:
448,192,228008,1,0,0:0:0:0:
320,192,228144,1,0,0:0:0:0:
448,192,228281,1,0,0:0:0:0:
448,192,228417,1,0,0:0:0:0:
64,192,228554,1,2,0:0:0:0:
192,192,228554,1,0,0:0:0:0:
64,192,228690,1,0,0:0:0:0:
192,192,228690,1,0,0:0:0:0:
64,192,228826,1,0,0:0:0:0:
192,192,228826,1,0,0:0:0:0:
64,192,228963,1,0,0:0:0:0:
192,192,228963,1,0,0:0:0:0:
64,192,229099,1,8,0:0:0:0:
192,192,229099,1,0,0:0:0:0:
64,192,229235,1,0,0:0:0:0:
192,192,229235,1,0,0:0:0:0:
64,192,229372,1,0,0:0:0:0:
192,192,229372,1,0,0:0:0:0:
64,192,229508,1,0,0:0:0:0:
192,192,229508,1,0,0:0:0:0:
320,192,229644,128,2,230190:0:0:0:0:
448,192,229644,128,4,230190:0:0:0:0:
192,192,230190,1,0,0:0:0:0:
64,192,230190,1,8,0:0:0:0:
192,192,230326,1,0,0:0:0:0:
64,192,230463,1,0,0:0:0:0:
64,192,230599,1,0,0:0:0:0:
320,192,230735,1,2,0:0:0:0:
448,192,230735,1,0,0:0:0:0:
320,192,230872,1,0,0:0:0:0:
448,192,230872,1,0,0:0:0:0:
320,192,231008,1,0,0:0:0:0:
448,192,231008,1,0,0:0:0:0:
320,192,231144,1,0,0:0:0:0:
448,192,231144,1,0,0:0:0:0:
320,192,231281,1,8,0:0:0:0:
448,192,231281,1,0,0:0:0:0:
320,192,231417,1,0,0:0:0:0:
448,192,231417,1,0,0:0:0:0:
320,192,231554,1,0,0:0:0:0:
448,192,231554,1,0,0:0:0:0:
320,192,231690,1,0,0:0:0:0:
448,192,231690,1,0,0:0:0:0:
64,192,231826,128,2,232372:0:0:0:0:
192,192,231826,128,4,232372:0:0:0:0:
320,192,232372,1,8,0:0:0:0:
448,192,232372,1,0,0:0:0:0:
320,192,232508,1,0,0:0:0:0:
192,192,232644,1,0,0:0:0:0:
192,192,232781,1,0,0:0:0:0:
320,192,232917,1,0,0:0:0:0:
64,192,232917,1,2,0:0:0:0:
320,192,233054,1,0,0:0:0:0:
64,192,233054,1,0,0:0:0:0:
320,192,233190,1,0,0:0:0:0:
64,192,233190,1,0,0:0:0:0:
320,192,233326,1,0,0:0:0:0:
64,192,233326,1,0,0:0:0:0:
320,192,233463,1,0,0:0:0:0:
64,192,233463,1,8,0:0:0:0:
320,192,233599,1,0,0:0:0:0:
64,192,233599,1,0,0:0:0:0:
320,192,233735,1,0,0:0:0:0:
64,192,233735,1,0,0:0:0:0:
320,192,233872,1,0,0:0:0:0:
64,192,233872,1,0,0:0:0:0:
192,192,234008,128,2,234554:0:0:0:0:
448,192,234008,128,4,234554:0:0:0:0:
64,192,234554,1,8,0:0:0:0:
320,192,234554,1,0,0:0:0:0:
64,192,234690,1,0,0:0:0:0:
320,192,234826,1,0,0:0:0:0:
320,192,234963,1,0,0:0:0:0:
192,192,235099,1,2,0:0:0:0:
448,192,235099,1,0,0:0:0:0:
192,192,235235,1,0,0:0:0:0:
448,192,235235,1,0,0:0:0:0:
192,192,235372,1,0,0:0:0:0:
448,192,235372,1,0,0:0:0:0:
192,192,235508,1,0,0:0:0:0:
448,192,235508,1,0,0:0:0:0:
192,192,235644,1,8,0:0:0:0:
448,192,235644,1,0,0:0:0:0:
192,192,235781,1,0,0:0:0:0:
448,192,235781,1,0,0:0:0:0:
192,192,235917,1,0,0:0:0:0:
448,192,235917,1,0,0:0:0:0:
192,192,236054,1,0,0:0:0:0:
448,192,236054,1,0,0:0:0:0:
320,192,236190,128,4,236735:0:0:0:0:
64,192,236190,128,2,236735:0:0:0:0:
448,192,236735,1,0,0:0:0:0:
192,192,236735,1,8,0:0:0:0:
448,192,236872,1,0,0:0:0:0:
192,192,237008,1,0,0:0:0:0:
192,192,237144,1,0,0:0:0:0:
64,192,237281,1,2,0:0:0:0:
448,192,237281,1,0,0:0:0:0:
64,192,237417,1,0,0:0:0:0:
448,192,237417,1,0,0:0:0:0:
64,192,237554,1,0,0:0:0:0:
448,192,237554,1,0,0:0:0:0:
64,192,237690,1,0,0:0:0:0:
448,192,237690,1,0,0:0:0:0:
64,192,237826,1,8,0:0:0:0:
448,192,237826,1,0,0:0:0:0:
64,192,237963,1,0,0:0:0:0:
448,192,237963,1,0,0:0:0:0:
64,192,238099,1,0,0:0:0:0:
448,192,238099,1,0,0:0:0:0:
64,192,238235,1,0,0:0:0:0:
448,192,238235,1,0,0:0:0:0:
192,192,238372,128,2,238917:0:0:0:0:
320,192,238372,128,4,238917:0:0:0:0:
64,192,238917,1,8,0:0:0:0:
448,192,238917,1,0,0:0:0:0:
192,192,239054,1,0,0:0:0:0:
320,192,239190,1,0,0:0:0:0:
448,192,239326,1,0,0:0:0:0:
64,192,239463,1,2,0:0:0:0:
192,192,239463,1,0,0:0:0:0:
192,192,239599,1,0,0:0:0:0:
320,192,239735,1,0,0:0:0:0:
320,192,239872,1,0,0:0:0:0:
448,192,240008,1,0,0:0:0:0:
64,192,240008,1,8,0:0:0:0:
448,192,240144,1,0,0:0:0:0:
448,192,240281,1,0,0:0:0:0:
448,192,240417,1,0,0:0:0:0:
64,192,240554,1,2,0:0:0:0:
192,192,240554,1,4,0:0:0:0:
320,192,240554,1,0,0:0:0:0:
448,192,240826,1,0,0:0:0:0:
192,192,240963,1,0,0:0:0:0:
64,192,241099,1,8,0:0:0:0:
320,192,241099,1,0,0:0:0:0:
448,192,241099,1,0,0:0:0:0:
64,192,241372,1,0,0:0:0:0:
320,192,241508,1,0,0:0:0:0:
192,192,241644,1,2,0:0:0:0:
448,192,241644,1,0,0:0:0:0:
64,192,241917,1,0,0:0:0:0:
320,192,242054,1,0,0:0:0:0:
64,192,242190,1,8,0:0:0:0:
192,192,242190,1,0,0:0:0:0:
448,192,242190,1,0,0:0:0:0:
448,192,242463,1,0,0:0:0:0:
192,192,242599,1,0,0:0:0:0:
320,192,242735,1,0,0:0:0:0:
64,192,242735,1,2,0:0:0:0:
448,192,243008,1,0,0:0:0:0:
64,192,243144,1,0,0:0:0:0:
192,192,243281,1,8,0:0:0:0:
320,192,243281,1,0,0:0:0:0:
448,192,243281,1,0,0:0:0:0:
192,192,243554,1,0,0:0:0:0:
320,192,243690,1,0,0:0:0:0:
64,192,243826,1,2,0:0:0:0:
448,192,243826,1,0,0:0:0:0:
192,192,244099,1,0,0:0:0:0:
448,192,244235,1,0,0:0:0:0:
64,192,244372,1,8,0:0:0:0:
192,192,244372,1,0,0:0:0:0:
320,192,244372,1,0,0:0:0:0:
64,192,244644,1,0,0:0:0:0:
192,192,244781,1,0,0:0:0:0:
320,192,244917,1,2,0:0:0:0:
448,192,244917,1,0,0:0:0:0:
448,192,245190,1,0,0:0:0:0:
192,192,245326,1,0,0:0:0:0:
64,192,245463,1,8,0:0:0:0:
320,192,245463,1,0,0:0:0:0:
448,192,245463,1,0,0:0:0:0:
320,192,245735,1,0,0:0:0:0:
448,192,245872,1,0,0:0:0:0:
192,192,246008,1,0,0:0:0:0:
64,192,246008,1,2,0:0:0:0:
320,192,246281,1,0,0:0:0:0:
64,192,246417,1,0,0:0:0:0:
192,192,246554,1,8,0:0:0:0:
320,192,246554,1,0,0:0:0:0:
448,192,246554,1,0,0:0:0:0:
64,192,246826,1,0,0:0:0:0:
448,192,246963,1,0,0:0:0:0:
320,192,247099,1,0,0:0:0:0:
192,192,247099,1,2,0:0:0:0:
448,192,247372,1,0,0:0:0:0:
320,192,247508,1,0,0:0:0:0:
64,192,247644,1,8,0:0:0:0:
192,192,247644,1,0,0:0:0:0:
448,192,247644,1,0,0:0:0:0:
192,192,247917,1,0,0:0:0:0:
448,192,248054,1,0,0:0:0:0:
64,192,248190,1,2,0:0:0:0:
320,192,248190,1,0,0:0:0:0:
192,192,248463,1,0,0:0:0:0:
448,192,248599,1,0,0:0:0:0:
64,192,248735,1,8,0:0:0:0:
192,192,248735,1,0,0:0:0:0:
320,192,248735,1,0,0:0:0:0:
448,192,249008,1,0,0:0:0:0:
64,192,249144,1,0,0:0:0:0:
448,192,249281,1,0,0:0:0:0:
320,192,249281,1,4,0:0:0:0:
192,192,249281,1,2,0:0:0:0:
64,192,249554,1,0,0:0:0:0:
320,192,249690,1,0,0:0:0:0:
448,192,249826,1,0,0:0:0:0:
192,192,249826,1,0,0:0:0:0:
64,192,249826,1,8,0:0:0:0:
448,192,250099,1,0,0:0:0:0:
192,192,250235,1,0,0:0:0:0:
320,192,250372,1,0,0:0:0:0:
64,192,250372,1,2,0:0:0:0:
448,192,250644,1,0,0:0:0:0:
192,192,250781,1,0,0:0:0:0:
448,192,250917,1,0,0:0:0:0:
320,192,250917,1,0,0:0:0:0:
64,192,250917,1,8,0:0:0:0:
64,192,251190,1,0,0:0:0:0:
320,192,251326,1,0,0:0:0:0:
192,192,251463,1,2,0:0:0:0:
448,192,251463,1,0,0:0:0:0:
64,192,251735,1,0,0:0:0:0:
448,192,251872,1,0,0:0:0:0:
320,192,252008,1,0,0:0:0:0:
192,192,252008,1,0,0:0:0:0:
64,192,252008,1,8,0:0:0:0:
320,192,252281,1,0,0:0:0:0:
192,192,252417,1,0,0:0:0:0:
448,192,252554,1,0,0:0:0:0:
64,192,252554,1,2,0:0:0:0:
320,192,252826,1,0,0:0:0:0:
64,192,252963,1,0,0:0:0:0:
448,192,253099,1,0,0:0:0:0:
320,192,253099,1,0,0:0:0:0:
192,192,253099,1,8,0:0:0:0:
448,192,253372,1,0,0:0:0:0:
320,192,253508,1,0,0:0:0:0:
192,192,253644,1,0,0:0:0:0:
64,192,253644,1,2,0:0:0:0:
64,192,253917,1,0,0:0:0:0:
320,192,254054,1,0,0:0:0:0:
448,192,254190,1,0,0:0:0:0:
192,192,254190,1,0,0:0:0:0:
64,192,254190,1,8,0:0:0:0:
192,192,254463,1,0,0:0:0:0:
64,192,254599,1,0,0:0:0:0:
320,192,254735,1,2,0:0:0:0:
448,192,254735,1,0,0:0:0:0:
192,192,255008,1,0,0:0:0:0:
448,192,255144,1,0,0:0:0:0:
320,192,255281,1,0,0:0:0:0:
192,192,255281,1,0,0:0:0:0:
64,192,255281,1,8,0:0:0:0:
448,192,255554,1,0,0:0:0:0:
64,192,255690,1,0,0:0:0:0:
192,192,255826,1,2,0:0:0:0:
320,192,255826,1,0,0:0:0:0:
64,192,256099,1,0,0:0:0:0:
192,192,256235,1,0,0:0:0:0:
448,192,256372,1,0,0:0:0:0:
320,192,256372,1,0,0:0:0:0:
64,192,256372,1,8,0:0:0:0:
320,192,256644,1,0,0:0:0:0:
64,192,256781,1,0,0:0:0:0:
448,192,256917,1,0,0:0:0:0:
192,192,256917,1,2,0:0:0:0:
320,192,257190,1,0,0:0:0:0:
64,192,257326,1,0,0:0:0:0:
448,192,257463,1,0,0:0:0:0:
320,192,257463,1,0,0:0:0:0:
192,192,257463,1,8,0:0:0:0:
192,192,257735,1,0,0:0:0:0:
448,192,257872,1,0,0:0:0:0:
