osu file format v14

[General]
AudioFilename: audio.mp3
AudioLeadIn: 0
PreviewTime: 164931
Countdown: 1
SampleSet: Soft
StackLeniency: 0.7
Mode: 0
LetterboxInBreaks: 0
WidescreenStoryboard: 1

[Editor]
Bookmarks: 206650
DistanceSpacing: 2.9
BeatDivisor: 4
GridSize: 4
TimelineZoom: 2.5

[Metadata]
Title:Adventure Time
TitleUnicode:Adventure Time
Artist:Panda Eyes & Teminite
ArtistUnicode:Panda Eyes & Teminite
Creator:Lilynn
Version:Adventure
Source:
Tags:Teminite Glitchhop Electronic Jumps Venzire Fast Jumps Luna
BeatmapID:958044
BeatmapSetID:445584

[Difficulty]
HPDrainRate:2
CircleSize:4
OverallDifficulty:7.7
ApproachRate:10
SliderMultiplier:2.2
SliderTickRate:1

[Events]
//Background and Video events
0,0,"ADVENTURE.png",0,0
//Break Periods
//Storyboard Layer 0 (Background)
//Storyboard Layer 1 (Fail)
//Storyboard Layer 2 (Pass)
//Storyboard Layer 3 (Foreground)
//Storyboard Sound Samples

[TimingPoints]
400,468.75,4,1,1,70,1,0
164931,-100,4,2,2,70,0,1
165400,-100,4,2,2,70,0,1
179931,-100,4,1,2,70,0,1
180048,-100,4,2,2,70,0,1
195400,-100,4,1,1,70,0,0
208525,-100,4,1,2,70,0,0
208993,-100,4,1,3,70,0,0
209228,-100,4,2,2,70,0,0
223290,-200,4,1,1,70,0,0
223525,-100,4,1,1,70,0,0
224696,-100,4,2,2,70,0,0
224931,-100,4,2,2,70,0,0
225165,-100,4,1,4,70,0,0
225282,-100,4,2,4,70,0,0
225400,-100,4,1,4,70,0,1
225868,-66.6666666666667,4,2,2,70,0,1
226337,-66.6666666666667,4,1,2,70,0,1
226454,-66.6666666666667,4,2,2,70,0,1
226454,-66.6666666666667,4,1,1,70,0,1
226571,-66.6666666666667,4,2,2,70,0,1
226806,-66.6666666666667,4,1,2,70,0,1
226923,-66.6666666666667,4,2,2,70,0,1
227040,-66.6666666666667,4,1,4,70,0,1
227275,-66.6666666666667,4,2,5,70,0,1
227743,-66.6666666666667,4,1,3,70,0,1
227860,-66.6666666666667,4,2,2,70,0,1
228329,-66.6666666666667,4,2,2,70,0,1
228681,-66.6666666666667,4,1,2,70,0,1
228915,-66.6666666666667,4,1,4,70,0,1
229150,-66.6666666666667,4,2,5,70,0,1
229384,-66.6666666666667,4,1,2,70,0,1
229501,-66.6666666666667,4,1,1,70,0,1
229618,-66.6666666666667,4,2,2,70,0,1
229853,-66.6666666666667,4,2,3,70,0,1
230087,-66.6666666666667,4,1,2,70,0,1
230321,-66.6666666666667,4,1,2,70,0,1
230556,-66.6666666666667,4,1,3,70,0,1
231025,-66.6666666666667,4,2,2,70,0,1
231083,-66.6666666666667,4,1,1,10,0,1
231142,-66.6666666666667,4,1,1,70,0,1
231493,-66.6666666666667,4,2,2,70,0,1
231728,-66.6666666666667,4,2,2,70,0,1
231962,-66.6666666666667,4,1,2,70,0,1
232079,-66.6666666666667,4,2,2,70,0,1
232431,-66.6666666666667,4,2,3,70,0,1
232665,-66.6666666666667,4,1,4,70,0,1
232900,-66.6666666666667,4,1,2,70,0,1
233368,-66.6666666666667,4,2,2,70,0,1
234071,-66.6666666666667,4,1,4,70,0,1
234306,-66.6666666666667,4,1,2,70,0,1
234540,-66.6666666666667,4,2,2,70,0,1
234833,-66.6666666666667,4,1,1,10,0,1
234892,-66.6666666666667,4,1,1,70,0,1
235243,-66.6666666666667,4,2,2,70,0,1
235712,-66.6666666666667,4,3,3,70,0,1
235946,-66.6666666666667,4,3,3,70,0,1
236181,-66.6666666666667,4,2,3,70,0,1
236415,-66.6666666666667,4,1,4,70,0,1
236650,-66.6666666666667,4,2,2,70,0,1
236884,-66.6666666666667,4,1,2,70,0,1
237118,-66.6666666666667,4,2,2,70,0,1
237821,-66.6666666666667,4,3,3,70,0,1
238173,-66.6666666666667,4,1,2,70,0,1
238290,-66.6666666666667,4,1,3,70,0,1
238525,-66.6666666666667,4,2,2,70,0,1
240165,-66.6666666666667,4,1,4,70,0,1
240634,-66.6666666666667,4,1,1,10,0,1
240868,-66.6666666666667,4,1,1,70,0,1
242509,-66.6666666666667,4,1,1,30,0,1
242743,-66.6666666666667,4,1,1,70,0,1
244208,-66.6666666666667,4,1,1,10,0,1
244267,-66.6666666666667,4,1,1,50,0,1
244442,-66.6666666666667,4,1,1,10,0,1
244501,-66.6666666666667,4,1,1,70,0,1
246083,-66.6666666666667,4,1,1,10,0,1
246259,-66.6666666666667,4,1,1,30,0,1
246317,-66.6666666666667,4,1,1,10,0,1
246493,-66.6666666666667,4,1,1,70,0,1
248192,-66.6666666666667,4,1,1,10,0,1
248251,-66.6666666666667,4,1,1,70,0,1
251708,-66.6666666666667,4,1,1,10,0,1
251884,-66.6666666666667,4,1,1,50,0,1
251942,-66.6666666666667,4,1,1,10,0,1
252001,-66.6666666666667,4,1,1,70,0,0

[Colours]
Combo1 : 255,165,121
Combo2 : 255,128,128
Combo3 : 98,169,255
Combo4 : 242,36,67

[HitObjects]
64,192,164931,6,0,B|120:200|120:200|184:192,1,110,4|0,1:1|0:0,0:0:0:0:
332,184,165282,1,8,0:0:0:0:
172,180,165400,5,10,0:0:0:0:
296,76,165868,1,0,0:0:0:0:
248,320,165985,1,0,0:0:0:0:
216,52,166103,1,0,0:0:0:0:
264,320,166220,1,0,0:0:0:0:
332,184,166337,6,0,P|384:200|440:188,1,110
492,132,166689,5,0,0:0:0:0:
240,120,166806,1,8,0:0:0:0:
4,216,166923,5,0,0:0:0:0:
256,204,167040,1,8,0:0:0:0:
20,132,167157,1,0,0:0:0:0:
272,208,167275,2,0,P|304:208|336:197,1,55
300,272,167743,5,10,0:0:0:0:
192,48,167860,1,2,0:0:0:0:
184,344,167978,1,2,0:0:0:0:
192,24,168095,1,8,0:0:0:0:
84,260,168212,6,0,P|48:220|38:164,1,110,10|0,0:0|0:0,0:0:0:0:
80,12,168564,1,2,0:0:0:0:
184,60,168681,6,0,L|36:44,1,110
340,80,169032,1,2,0:0:0:0:
124,188,169150,5,8,0:0:0:0:
388,188,169618,1,10,0:0:0:0:
252,28,169735,1,2,0:0:0:0:
124,188,169853,5,8,0:0:0:0:
264,24,169970,1,8,0:0:0:0:
152,100,170087,6,0,P|104:88|72:40,1,110,2|0,0:0|0:0,0:0:0:0:
148,20,170439,1,2,0:0:0:0:
200,228,170556,2,0,B|208:272|208:272|200:304|200:304|208:348,1,110,8|0,0:0|0:0,0:0:0:0:
264,32,170907,1,0,0:0:0:0:
205,335,171025,5,2,0:0:0:0:
388,200,171493,5,0,0:0:0:0:
56,160,171610,1,0,0:0:0:0:
276,232,171728,1,0,0:0:0:0:
176,48,171845,5,0,0:0:0:0:
268,256,171962,2,0,P|284:280|316:296,1,55,2|0,0:0|0:0,0:0:0:0:
492,320,172196,1,0,0:0:0:0:
116,156,172314,1,0,0:0:0:0:
400,140,172431,2,0,L|480:132,1,55,2|0,0:0|0:0,0:0:0:0:
268,256,172665,5,0,0:0:0:0:
400,12,172782,1,0,0:0:0:0:
248,272,172900,5,8,0:0:0:0:
164,168,173368,5,8,0:0:0:0:
424,116,173485,1,0,0:0:0:0:
64,76,173603,1,0,0:0:0:0:
144,308,173720,5,0,0:0:0:0:
348,304,173837,2,0,B|296:296|296:296|233:294,1,110,2|0,0:0|0:0,0:0:0:0:
36,352,174189,37,0,0:0:0:0:
112,232,174306,2,0,L|120:140,1,55,8|0,0:0|0:0,0:0:0:0:
132,20,174540,1,0,0:0:0:0:
140,352,174657,1,0,0:0:0:0:
148,20,174775,5,2,0:0:0:0:
143,172,175243,5,8,3:0:0:0:
415,193,175360,1,0,3:0:0:0:
248,89,175478,1,0,3:0:0:0:
160,258,175595,5,0,3:0:0:0:
440,88,175712,2,0,L|375:102,1,55,8|0,0:0|0:0,0:0:0:0:
60,176,175946,1,0,3:0:0:0:
308,172,176064,1,0,0:0:0:0:
200,88,176181,6,0,P|204:36|196:0,1,55,8|0,0:0|0:0,0:0:0:0:
156,260,176415,5,0,0:0:0:0:
320,148,176532,1,0,0:0:0:0:
24,216,176650,1,2,0:0:0:0:
344,144,177118,5,0,0:0:0:0:
96,88,177235,1,0,0:0:0:0:
400,188,177353,1,0,0:0:0:0:
216,24,177470,5,0,0:0:0:0:
172,208,177587,2,0,B|136:248|136:248|84:280,1,110
120,52,177939,1,0,0:0:0:0:
260,112,178056,6,0,L|328:116,1,55
484,128,178290,1,0,0:0:0:0:
176,108,178407,1,0,0:0:0:0:
504,120,178525,5,2,0:0:0:0:
176,108,178993,5,2,0:0:0:0:
328,136,179110,1,2,0:0:0:0:
52,200,179228,1,2,0:0:0:0:
212,12,179345,5,2,0:0:0:0:
216,232,179462,2,0,L|216:304,1,55,8|0,0:0|0:0,0:0:0:0:
324,120,179696,5,2,0:0:0:0:
24,96,179814,1,2,0:0:0:0:
464,184,179931,6,0,B|436:168|436:168|408:156,1,55,8|0,0:0|0:0,0:0:0:0:
172,68,180165,1,2,0:0:0:0:
344,368,180282,1,10,0:0:0:0:
324,120,180400,5,10,0:0:0:0:
105,88,180868,6,0,L|160:96,1,55
344,124,181103,1,0,0:0:0:0:
64,116,181220,1,0,0:0:0:0:
340,140,181337,6,0,B|400:148|400:148|472:144,1,110
392,60,181689,5,0,0:0:0:0:
160,96,181806,2,0,L|104:104,1,55
400,16,182040,5,2,0:0:0:0:
24,120,182157,1,2,0:0:0:0:
250,32,182275,5,8,0:0:0:0:
250,333,182743,5,0,0:0:0:0:
250,32,182860,1,0,0:0:0:0:
174,312,182978,1,0,0:0:0:0:
325,52,183095,1,0,0:0:0:0:
119,257,183212,2,0,P|65:264|13:248,1,110
216,208,183564,5,0,0:0:0:0:
364,216,183681,2,0,L|444:232,1,55
228,208,183915,5,0,0:0:0:0:
200,12,184032,1,0,0:0:0:0:
125,256,184150,5,10,0:0:0:0:
16,156,184618,1,0,0:0:0:0:
364,140,184735,1,0,0:0:0:0:
88,280,184853,5,0,0:0:0:0:
116,36,184970,1,0,0:0:0:0:
288,160,185087,2,0,L|380:156,1,55
496,160,185321,5,0,0:0:0:0:
264,24,185439,1,0,0:0:0:0:
144,244,185556,2,0,L|89:247,1,55
348,156,185790,1,0,0:0:0:0:
408,360,185907,1,0,0:0:0:0:
356,48,186025,5,8,0:0:0:0:
84,48,186493,5,0,0:0:0:0:
72,296,186610,1,0,0:0:0:0:
204,16,186728,1,0,0:0:0:0:
192,316,186845,1,0,0:0:0:0:
300,132,186962,6,0,L|304:228,1,55
304,332,187196,1,0,0:0:0:0:
356,8,187314,1,2,0:0:0:0:
168,204,187431,1,0,0:0:0:0:
464,104,187548,5,0,0:0:0:0:
48,104,187665,1,0,0:0:0:0:
352,176,187782,1,0,0:0:0:0:
156,8,187900,5,8,0:0:0:0:
300,329,188368,1,0,0:0:0:0:
138,106,188485,1,0,0:0:0:0:
401,192,188603,1,0,0:0:0:0:
138,277,188720,1,0,0:0:0:0:
232,137,188837,6,8,P|277:95|306:32,1,110
148,168,189189,1,0,0:0:0:0:
384,200,189306,6,8,P|444:213|512:201,1,110
213,89,189658,1,0,0:0:0:0:
256,324,189775,5,8,0:0:0:0:
144,68,190243,5,0,0:0:0:0:
468,104,190360,1,0,0:0:0:0:
248,168,190478,1,0,0:0:0:0:
288,16,190595,5,0,0:0:0:0:
284,232,190712,2,0,L|280:356,1,110
156,132,191064,5,0,0:0:0:0:
284,232,191181,2,0,P|232:240|184:212,1,110
148,36,191532,5,0,0:0:0:0:
164,328,191650,5,8,0:0:0:0:
202,285,192118,1,0,0:0:0:0:
202,98,192235,1,0,0:0:0:0:
363,192,192353,1,0,0:0:0:0:
96,240,192470,5,0,0:0:0:0:
352,216,192587,2,0,L|432:216,1,55
328,100,192821,5,0,0:0:0:0:
336,348,192939,1,0,0:0:0:0:
228,260,193056,2,0,L|156:264,1,55
8,288,193290,5,0,0:0:0:0:
440,248,193407,1,0,0:0:0:0:
108,216,193525,5,2,0:0:0:0:
226,80,193993,5,0,0:0:0:0:
393,115,194110,1,0,0:0:0:0:
279,243,194228,1,0,0:0:0:0:
240,44,194345,5,0,0:0:0:0:
132,120,194462,6,0,L|124:192,1,55
168,340,194696,1,0,0:0:0:0:
168,340,194814,1,0,0:0:0:0:
168,340,194931,2,0,L|180:264,1,55
200,88,195165,5,0,0:0:0:0:
364,272,195282,1,0,0:0:0:0:
124,180,195400,1,0,0:0:0:0:
416,176,195517,1,0,0:0:0:0:
420,184,195634,6,0,P|415:148|420:124,1,55
328,140,195868,2,0,P|328:108|320:80,1,55
232,316,196103,5,0,0:0:0:0:
304,0,196220,1,0,0:0:0:0:
183,147,196337,1,0,0:0:0:0:
464,200,196454,5,0,0:0:0:0:
40,236,196571,1,0,0:0:0:0:
296,160,196689,1,0,0:0:0:0:
74,137,196806,6,0,L|184:148,1,110
384,168,197157,5,0,0:0:0:0:
284,252,197275,6,0,L|296:320,1,55
312,384,197509,5,0,0:0:0:0:
192,80,197626,1,0,0:0:0:0:
384,176,197743,2,2,L|440:184,1,55
88,144,197978,5,0,0:0:0:0:
384,88,198095,1,0,0:0:0:0:
40,264,198212,1,0,0:0:0:0:
364,224,198329,5,0,0:0:0:0:
64,172,198446,1,0,0:0:0:0:
492,148,198564,1,0,0:0:0:0:
384,88,198681,6,0,B|332:96|332:96|268:96,1,110
60,80,199032,1,0,0:0:0:0:
280,292,199150,2,0,B|260:272,1,27.5
164,276,199267,6,0,B|159:248,1,27.5
76,200,199384,6,0,B|87:174,1,27.5
36,93,199501,6,0,B|60:78,1,27.5
160,20,199618,5,0,0:0:0:0:
160,276,199735,5,0,0:0:0:0:
224,152,199853,1,0,0:0:0:0:
312,256,199970,1,0,0:0:0:0:
328,256,200087,2,0,L|388:252,1,55
484,252,200321,5,0,0:0:0:0:
424,68,200439,1,0,0:0:0:0:
244,224,200556,2,0,P|240:280|272:324,2,110
316,132,201142,6,0,L|348:128,1,27.5
496,156,201259,2,0,L|444:160,1,27.5
316,144,201376,5,0,0:0:0:0:
480,88,201493,1,0,0:0:0:0:
244,224,201610,1,0,0:0:0:0:
248,28,201728,5,0,0:0:0:0:
308,312,201845,1,0,0:0:0:0:
184,140,201962,2,0,L|128:128,1,55
40,116,202196,5,0,0:0:0:0:
352,128,202314,1,0,0:0:0:0:
56,212,202431,5,6,0:0:0:0:
64,12,202548,5,0,0:0:0:0:
152,360,202665,1,0,0:0:0:0:
60,116,202782,1,0,0:0:0:0:
240,144,202900,6,0,L|360:136,1,110
472,128,203251,5,0,0:0:0:0:
176,248,203368,1,0,0:0:0:0:
176,248,203485,1,0,0:0:0:0:
176,248,203603,2,0,L|168:184,1,55
232,132,203837,2,0,L|236:72,1,55
248,4,204071,5,0,0:0:0:0:
56,80,204189,1,0,0:0:0:0:
428,56,204306,1,0,0:0:0:0:
80,20,204423,5,0,0:0:0:0:
256,192,204540,1,0,0:0:0:0:
296,48,204657,5,0,0:0:0:0:
136,212,204775,2,0,L|136:288,2,55
136,108,205126,1,0,0:0:0:0:
136,108,205243,2,0,L|136:64,4,27.5
112,304,205595,1,0,0:0:0:0:
252,240,205712,6,0,L|400:248,2,110,0|0|4,0:0|0:0|0:0,0:0:0:0:
144,236,206415,5,0,0:0:0:0:
180,96,206650,6,0,L|164:168,1,55
256,320,206884,5,0,0:0:0:0:
432,256,207001,1,0,0:0:0:0:
136,236,207118,1,0,0:0:0:0:
468,64,207235,5,0,0:0:0:0:
104,48,207353,1,0,0:0:0:0:
280,304,207470,1,0,0:0:0:0:
440,36,207587,5,0,0:0:0:0:
60,120,207704,1,0,0:0:0:0:
324,92,207821,1,0,0:0:0:0:
72,36,207939,5,0,0:0:0:0:
452,120,208056,1,0,0:0:0:0:
188,92,208173,1,0,0:0:0:0:
496,56,208290,5,0,0:0:0:0:
0,128,208407,1,0,0:0:0:0:
244,204,208525,6,0,L|376:196,1,110,8|0,0:0|0:0,0:0:0:0:
180,160,208993,6,0,P|168:188|168:224,1,55,4|0,0:0|0:0,0:0:0:0:
208,284,209228,1,8,0:0:0:0:
80,240,209345,1,0,0:0:0:0:
272,232,209462,6,0,P|288:268|292:292,1,55,2|0,0:0|0:0,0:0:0:0:
256,352,209696,1,2,0:0:0:0:
352,144,209814,1,0,0:0:0:0:
272,232,209931,5,2,0:0:0:0:
202,52,210048,1,0,0:0:0:0:
392,82,210165,1,8,0:0:0:0:
176,116,210282,5,0,0:0:0:0:
348,280,210400,2,0,P|340:253|335:226,1,55,2|0,0:0|0:0,0:0:0:0:
320,40,210634,1,0,0:0:0:0:
411,207,210751,5,0,0:0:0:0:
472,44,210868,1,0,0:0:0:0:
204,96,210985,1,0,0:0:0:0:
348,312,211103,5,0,0:0:0:0:
365,56,211220,1,0,0:0:0:0:
248,312,211337,1,0,0:0:0:0:
264,40,211454,5,0,0:0:0:0:
136,288,211571,1,0,0:0:0:0:
376,136,211689,1,0,0:0:0:0:
176,144,211806,2,0,L|76:128,1,55
16,120,212040,5,0,0:0:0:0:
376,260,212157,5,0,0:0:0:0:
397,255,212275,2,0,P|336:264|288:248,1,110
480,280,212743,5,0,0:0:0:0:
464,192,212978,1,0,0:0:0:0:
464,192,213095,1,0,0:0:0:0:
464,192,213212,2,0,P|416:168|400:148,1,55
364,104,213446,1,0,0:0:0:0:
400,272,213564,1,0,0:0:0:0:
312,206,213681,1,0,0:0:0:0:
468,148,213798,5,0,0:0:0:0:
260,172,213915,1,0,0:0:0:0:
504,240,214032,1,0,0:0:0:0:
388,276,214150,6,0,L|312:272,1,55
136,232,214384,2,0,L|212:228,1,55
328,160,214618,5,0,0:0:0:0:
176,132,214735,1,0,0:0:0:0:
272,28,214853,1,0,0:0:0:0:
284,190,214970,5,0,0:0:0:0:
192,60,215087,2,0,L|136:64,1,55
48,76,215321,5,0,0:0:0:0:
104,148,215439,1,0,0:0:0:0:
104,148,215556,2,0,L|168:160,1,55
240,160,215790,5,0,0:0:0:0:
72,320,215907,1,0,0:0:0:0:
295,216,216025,2,0,P|248:240|192:224,1,110
332,132,216493,5,0,0:0:0:0:
332,132,216610,1,0,0:0:0:0:
332,132,216728,2,0,L|432:120,1,55
464,64,216962,5,0,0:0:0:0:
376,308,217079,1,0,0:0:0:0:
332,132,217196,1,0,0:0:0:0:
464,228,217314,5,0,0:0:0:0:
256,108,217431,2,0,L|132:132,1,110
296,38,217900,6,0,P|334:83|327:141,1,110
280,212,218251,5,0,0:0:0:0:
472,260,218368,1,0,0:0:0:0:
256,108,218485,1,0,0:0:0:0:
296,316,218603,5,0,0:0:0:0:
348,56,218720,1,0,0:0:0:0:
192,272,218837,1,0,0:0:0:0:
380,260,218954,5,0,0:0:0:0:
208,28,219071,1,0,0:0:0:0:
272,352,219189,1,0,0:0:0:0:
244,280,219306,2,0,L|252:208,1,55
296,132,219540,2,0,L|292:60,1,55
272,352,219775,6,0,P|216:356|176:324,1,110
144,244,220243,5,0,0:0:0:0:
144,244,220360,1,0,0:0:0:0:
144,244,220478,2,0,L|172:172,1,55
224,48,220712,1,0,0:0:0:0:
456,96,220829,1,0,0:0:0:0:
84,108,220946,1,0,0:0:0:0:
316,148,221064,5,0,0:0:0:0:
124,20,221181,1,0,0:0:0:0:
300,320,221298,1,0,0:0:0:0:
360,0,221415,5,0,0:0:0:0:
124,216,221532,1,0,0:0:0:0:
124,20,221650,5,0,0:0:0:0:
360,248,221767,1,0,0:0:0:0:
388,20,221884,1,0,0:0:0:0:
116,296,222001,5,0,0:0:0:0:
352,156,222118,1,0,0:0:0:0:
48,88,222235,1,0,0:0:0:0:
216,344,222353,5,0,0:0:0:0:
228,48,222470,1,0,0:0:0:0:
116,296,222587,1,0,0:0:0:0:
160,96,222704,1,0,0:0:0:0:
200,304,222821,1,0,0:0:0:0:
72,168,222939,1,0,0:0:0:0:
343,135,223056,6,6,L|288:142,1,55
384,40,223290,2,0,L|440:48,2,55
284,88,223993,5,0,0:0:0:0:
284,88,224110,1,0,0:0:0:0:
284,88,224228,2,0,L|292:176,1,55
296,268,224462,5,0,0:0:0:0:
128,128,224579,1,0,0:0:0:0:
448,268,224696,1,4,0:0:0:0:
52,208,224814,5,0,0:0:0:0:
484,176,224931,1,10,0:0:0:0:
104,308,225048,5,0,0:0:0:0:
212,40,225165,1,10,0:0:0:0:
228,324,225282,1,4,0:0:0:0:
212,12,225400,5,12,0:0:0:0:
212,200,225868,5,4,0:0:0:0:
508,140,225985,1,0,0:0:0:0:
4,60,226103,5,0,0:0:0:0:
300,120,226220,1,0,0:0:0:0:
108,184,226337,2,0,L|96:292,1,82.5000031471254,0|10,0:0|0:0,0:0:0:0:
80,360,226571,5,4,0:0:0:0:
184,56,226689,1,2,0:0:0:0:
40,224,226806,1,8,0:0:0:0:
200,360,226923,5,4,0:0:0:0:
112,44,227040,1,8,0:0:0:0:
98,265,227157,1,0,0:0:0:0:
272,136,227275,2,0,L|340:140,1,41.2500015735627,4|0,0:0|0:0,0:0:0:0:
420,144,227743,5,4,0:0:0:0:
28,144,227860,1,0,0:0:0:0:
236,60,227978,1,0,0:0:0:0:
108,296,228095,5,0,0:0:0:0:
376,80,228212,1,4,0:0:0:0:
96,80,228329,1,0,0:0:0:0:
456,240,228446,5,8,0:0:0:0:
160,32,228564,1,0,0:0:0:0:
284,232,228681,2,0,L|264:328,1,82.5000031471254,10|0,0:0|0:0,0:0:0:0:
176,344,228915,5,8,0:0:0:0:
316,32,229032,1,0,0:0:0:0:
213,98,229150,2,0,L|153:94,1,41.2500015735627,6|0,0:0|0:0,0:0:0:0:
40,120,229384,2,0,L|100:116,1,41.2500015735627,8|0,0:0|0:0,0:0:0:0:
424,108,229618,5,12,0:0:0:0:
140,172,229735,1,0,0:0:0:0:
424,204,229853,1,8,0:0:0:0:
0,112,229970,5,10,0:0:0:0:
300,176,230087,1,8,0:0:0:0:
64,196,230204,1,0,0:0:0:0:
216,48,230321,5,0,0:0:0:0:
164,336,230439,1,0,0:0:0:0:
292,258,230556,2,0,L|300:170,1,82.5000031471254,4|2,0:0|0:0,0:0:0:0:
316,52,230790,5,2,0:0:0:0:
124,144,230907,1,0,0:0:0:0:
388,96,231025,2,0,L|440:88,1,41.2500015735627,12|4,0:0|0:0,0:0:0:0:
124,128,231493,5,8,0:0:0:0:
256,344,231610,1,0,0:0:0:0:
400,108,231728,5,2,0:0:0:0:
252,356,231845,1,0,0:0:0:0:
88,56,231962,1,6,0:0:0:0:
264,360,232079,1,0,0:0:0:0:
312,40,232196,5,12,0:0:0:0:
248,360,232314,1,0,0:0:0:0:
184,216,232431,2,0,P|144:200|100:204,1,82.5000031471254,4|0,0:0|0:0,0:0:0:0:
24,236,232665,5,8,0:0:0:0:
304,128,232782,1,0,0:0:0:0:
128,280,232900,5,12,0:0:0:0:
304,128,233368,5,8,0:0:0:0:
128,280,233485,1,0,0:0:0:0:
196,0,233603,1,2,0:0:0:0:
40,164,233720,5,0,0:0:0:0:
323,218,233837,2,0,L|320:136,1,82.5000031471254,4|0,0:0|0:0,0:0:0:0:
332,312,234071,5,8,0:0:0:0:
208,24,234189,1,0,0:0:0:0:
196,208,234306,2,0,L|192:312,1,82.5000031471254,8|0,0:0|0:0,0:0:0:0:
296,24,234540,5,8,0:0:0:0:
240,368,234657,1,0,0:0:0:0:
353,284,234775,6,0,L|360:244,1,41.2500015735627,4|0,0:0|0:0,0:0:0:0:
128,340,235243,5,12,0:0:0:0:
456,268,235360,1,0,0:0:0:0:
8,256,235478,1,10,0:0:0:0:
372,336,235595,5,0,0:0:0:0:
252,148,235712,2,0,L|148:128,1,82.5000031471254,4|0,0:0|0:0,0:0:0:0:
48,116,235946,5,4,0:0:0:0:
424,256,236064,1,0,0:0:0:0:
152,312,236181,1,12,0:0:0:0:
312,216,236298,5,0,0:0:0:0:
256,344,236415,1,8,0:0:0:0:
296,48,236532,1,0,0:0:0:0:
136,120,236650,6,0,L|192:130,1,41.2500015735627,4|0,0:0|0:0,0:0:0:0:
312,216,236884,2,0,L|256:226,1,41.2500015735627,8|0,0:0|0:0,0:0:0:0:
88,260,237118,5,6,0:0:0:0:
148,32,237235,1,0,0:0:0:0:
196,264,237353,1,6,0:0:0:0:
56,240,237470,5,0,0:0:0:0:
256,48,237587,1,12,0:0:0:0:
142,305,237704,1,0,0:0:0:0:
16,160,237821,5,4,0:0:0:0:
352,156,237939,1,0,0:0:0:0:
152,223,238056,6,0,L|140:315,1,82.5000031471254,4|8,0:0|0:0,0:0:0:0:
128,384,238290,5,4,0:0:0:0:
432,328,238407,1,0,0:0:0:0:
228,132,238525,5,4,0:0:0:0:
432,316,238993,5,0,0:0:0:0:
464,76,239110,1,0,0:0:0:0:
332,364,239228,5,0,0:0:0:0:
316,80,239345,1,0,0:0:0:0:
216,244,239462,2,0,L|224:336,1,82.5000031471254
416,340,239696,5,0,0:0:0:0:
420,56,239814,1,0,0:0:0:0:
128,185,239931,2,0,B|85:183|85:183|28:181,1,82.5000031471254
492,244,240165,5,8,0:0:0:0:
128,185,240282,1,0,0:0:0:0:
351,259,240400,1,6,0:0:0:0:
128,144,240634,6,0,L|128:216,1,41.2500015735627
132,336,240868,1,0,0:0:0:0:
196,64,240985,1,0,0:0:0:0:
72,232,241103,5,0,0:0:0:0:
360,64,241220,1,0,0:0:0:0:
128,144,241337,2,0,L|36:132,1,82.5000031471254
368,232,241571,5,0,0:0:0:0:
200,348,241689,1,0,0:0:0:0:
329,138,241806,2,0,P|353:102|360:62,1,82.5000031471254
296,8,242040,5,0,0:0:0:0:
472,140,242157,1,0,0:0:0:0:
140,40,242275,5,6,0:0:0:0:
308,44,242509,5,0,0:0:0:0:
36,72,242743,5,0,0:0:0:0:
440,96,242860,1,0,0:0:0:0:
128,116,242978,1,0,0:0:0:0:
444,164,243095,5,0,0:0:0:0:
76,192,243212,1,0,0:0:0:0:
76,192,243329,2,8,B|110:211|110:211|151:244,1,82.5000031471254
220,312,243564,5,0,0:0:0:0:
336,92,243681,6,0,P|300:120|284:160,1,82.5000031471254
220,312,243915,5,0,0:0:0:0:
216,16,244032,1,0,0:0:0:0:
488,72,244150,6,0,L|480:132,1,41.2500015735627,6|0,0:0|0:0,0:0:0:0:
408,232,244384,2,0,L|413:272,1,41.2500015735627,6|0,0:0|0:0,0:0:0:0:
196,208,244618,5,0,0:0:0:0:
496,192,244735,1,0,0:0:0:0:
44,152,244853,1,0,0:0:0:0:
256,356,244970,1,0,0:0:0:0:
336,68,245087,5,0,0:0:0:0:
228,184,245204,1,0,0:0:0:0:
384,212,245321,1,0,0:0:0:0:
76,164,245439,1,0,0:0:0:0:
456,84,245556,1,0,0:0:0:0:
236,20,245673,5,0,0:0:0:0:
184,320,245790,1,0,0:0:0:0:
360,188,245907,1,0,0:0:0:0:
117,165,246025,6,0,L|59:163,1,41.2500015735627
256,144,246259,2,0,L|314:142,1,41.2500015735627,2|0,0:0|0:0,0:0:0:0:
464,136,246493,5,0,0:0:0:0:
172,228,246610,1,0,0:0:0:0:
256,52,246728,1,0,0:0:0:0:
201,358,246845,5,0,0:0:0:0:
397,88,246962,2,0,P|384:128|392:168,1,82.5000031471254
180,72,247196,5,0,0:0:0:0:
471,233,247314,1,0,0:0:0:0:
172,228,247431,2,0,P|136:240|103:268,1,82.5000031471254,0|0,3:0|3:0,3:0:0:0:
28,340,247665,5,0,0:0:0:0:
140,20,247782,1,0,0:0:0:0:
172,228,247900,5,6,0:0:0:0:
276,284,248134,6,0,L|288:228,1,41.2500015735627
328,72,248368,5,0,0:0:0:0:
72,120,248485,1,0,0:0:0:0:
440,144,248603,1,0,0:0:0:0:
84,48,248720,5,0,0:0:0:0:
368,256,248837,1,0,0:0:0:0:
240,32,248954,1,0,0:0:0:0:
208,344,249071,5,0,0:0:0:0:
320,144,249189,1,0,0:0:0:0:
96,144,249306,1,0,0:0:0:0:
484,208,249423,5,0,0:0:0:0:
256,224,249540,1,0,0:0:0:0:
368,24,249657,1,0,0:0:0:0:
260,264,249775,5,6,0:0:0:0:
208,36,250009,1,0,0:0:0:0:
388,247,250243,5,0,0:0:0:0:
318,53,250360,1,0,0:0:0:0:
124,124,250478,1,0,0:0:0:0:
195,318,250595,1,0,0:0:0:0:
432,176,250712,2,0,L|512:192,1,82.5000031471254
164,248,250946,5,0,0:0:0:0:
308,12,251064,1,0,0:0:0:0:
288,176,251181,1,6,0:0:0:0:
128,48,251298,5,0,0:0:0:0:
500,88,251415,1,0,0:0:0:0:
224,120,251532,1,0,0:0:0:0:
288,176,251650,6,0,L|276:232,1,41.2500015735627,6|0,0:0|0:0,0:0:0:0:
216,288,251884,2,0,L|228:344,1,41.2500015735627
310,358,252118,5,0,0:0:0:0:
114,88,252235,1,0,0:0:0:0:
431,192,252353,1,0,0:0:0:0:
114,295,252470,5,0,0:0:0:0:
310,25,252587,2,0,B|304:72|304:72|304:124,1,82.5000031471254
324,268,252821,5,0,0:0:0:0:
32,96,252939,1,0,0:0:0:0:
240,52,253056,1,0,0:0:0:0:
88,288,253173,5,0,0:0:0:0:
296,108,253290,1,0,0:0:0:0:
48,172,253407,1,0,0:0:0:0:
312,100,253525,5,6,0:0:0:0:
256,296,253759,5,0,0:0:0:0:
108,56,253993,1,0,0:0:0:0:
102,295,254110,1,0,0:0:0:0:
277,127,254228,1,0,0:0:0:0:
178,31,254345,5,0,0:0:0:0:
22,243,254462,1,0,0:0:0:0:
286,202,254579,1,0,0:0:0:0:
336,72,254696,5,0,0:0:0:0:
0,148,254814,1,0,0:0:0:0:
456,132,254931,1,0,0:0:0:0:
80,96,255048,5,0,0:0:0:0:
464,200,255165,1,0,0:0:0:0:
176,188,255282,1,0,0:0:0:0:
364,124,255400,5,6,0:0:0:0:
