osu file format v14

[General]
AudioFilename: audio.mp3
AudioLeadIn: 0
PreviewTime: 178909
Countdown: 1
SampleSet: Soft
StackLeniency: 0.7
Mode: 0
LetterboxInBreaks: 0
WidescreenStoryboard: 0

[Editor]
Bookmarks: 21818,56727,74182,178909
DistanceSpacing: 1.5
BeatDivisor: 4
GridSize: 4
TimelineZoom: 1.8

[Metadata]
Title:Immortal Flame
TitleUnicode:Immortal Flame
Artist:Panda Eyes & Teminite (feat. Anna Yvette)
ArtistUnicode:Panda Eyes & Teminite (feat. Anna Yvette)
Creator:_Acerola
Version:Wings of Inferno
Source:
Tags:Panda Eyes Teminite Anna Yvette Immortal Flame dubstep fullscreen jumps omg wtf
BeatmapID:1362955
BeatmapSetID:642911

[Difficulty]
HPDrainRate:6.7
CircleSize:4
OverallDifficulty:8.4
ApproachRate:9.6
SliderMultiplier:2.1
SliderTickRate:1

[Events]
//Background and Video events
0,0,"blue_flame.jpg",0,0
//Break Periods
2,39473,47491
2,144200,146764
2,148564,152218
2,152927,155491
2,161654,169673
//Storyboard Layer 0 (Background)
//Storyboard Layer 1 (Fail)
//Storyboard Layer 2 (Pass)
//Storyboard Layer 3 (Foreground)
//Storyboard Sound Samples

[TimingPoints]
4364,545.454545454546,4,2,0,100,1,0
21818,-200,4,2,3,100,0,0
30545,-200,4,2,2,100,0,0
39273,-200,4,2,3,100,0,0
48000,-200,4,2,2,100,0,0
56182,-50,4,2,1,70,0,1
56727,-50,4,2,1,100,0,1
73091,-66.6666666666667,4,2,1,100,0,1
74182,-66.6666666666667,4,2,1,100,0,0
100091,-66.6666666666667,4,2,1,40,0,0
100364,-66.6666666666667,4,2,1,100,0,0
117545,-66.6666666666667,4,2,1,40,0,0
117818,-66.6666666666667,4,2,1,100,0,0
126545,-83.3333333333333,4,2,1,100,0,0
144000,-83.3333333333333,4,2,2,100,0,0
161454,-83.3333333333333,4,2,3,100,0,0
170182,-200,4,2,3,100,0,0
178364,-50,4,2,1,70,0,0
178909,-66.6666666666667,4,2,1,100,0,1
196364,-66.6666666666667,4,2,1,100,0,0
214364,-66.6666666666667,4,2,1,100,0,1
214909,-66.6666666666667,4,2,1,60,0,1
215454,-66.6666666666667,4,2,1,100,0,1
217091,-66.6666666666667,4,2,1,60,0,1
217636,-66.6666666666667,4,2,1,100,0,1
219273,-66.6666666666667,4,2,1,70,0,1
219818,-66.6666666666667,4,2,1,100,0,1
223636,-66.6666666666667,4,2,1,60,0,1
224182,-66.6666666666667,4,2,1,100,0,1
225818,-66.6666666666667,4,2,1,60,0,1
226364,-66.6666666666667,4,2,1,100,0,1
228000,-66.6666666666667,4,2,1,70,0,1
228545,-66.6666666666667,4,2,1,100,0,1
231273,-66.6666666666667,4,2,1,100,0,0
248727,-66.6666666666667,4,2,3,100,0,0
248864,-66.6666666666667,4,2,2,100,0,0
251727,-100,4,2,2,60,0,0
252000,-100,4,2,2,5,0,0
253091,-100,4,2,2,80,0,0
253227,-100,4,2,2,5,0,0
254727,-100,4,2,2,60,0,0
255273,-100,4,2,2,80,0,0
256227,-100,4,2,2,5,0,0
257454,-133.333333333333,4,2,2,80,0,0
259500,-133.333333333333,4,2,2,5,0,0
259636,-133.333333333333,4,2,2,80,0,0
260454,-133.333333333333,4,2,2,5,0,0
261818,-133.333333333333,4,2,2,80,0,0
261954,-133.333333333333,4,2,2,5,0,0
264000,-133.333333333333,4,2,2,80,0,0
267273,-133.333333333333,4,2,2,5,0,0
268364,-133.333333333333,4,2,2,80,0,0
268909,-133.333333333333,4,2,2,5,0,0
269454,-133.333333333333,4,2,2,60,0,0
270545,-133.333333333333,4,2,2,80,0,0
271091,-133.333333333333,4,2,2,5,0,0
272182,-133.333333333333,4,2,2,60,0,0
272727,-133.333333333333,4,2,2,80,0,0
273682,-133.333333333333,4,2,2,5,0,0
273818,-133.333333333333,4,2,2,80,0,0
274364,-133.333333333333,4,2,2,5,0,0
274909,-133.333333333333,4,2,2,80,0,0
275864,-133.333333333333,4,2,2,5,0,0
277091,-133.333333333333,4,2,2,80,0,0
277227,-133.333333333333,4,2,2,5,0,0
279273,-133.333333333333,4,2,2,80,0,0
279409,-133.333333333333,4,2,2,5,0,0
281454,-133.333333333333,4,2,2,80,0,0
281591,-133.333333333333,4,2,2,5,0,0
283636,-133.333333333333,4,2,3,100,0,0

[HitObjects]
168,280,21818,6,0,P|128:316|104:364,1,105,4|0,0:0|0:0,0:0:0:0:
136,176,22909,2,0,B|128:140|128:140|140:108|140:60,1,105
300,56,24000,2,0,B|332:36|332:36|376:52|412:40|412:40|440:28|460:16,1,157.5
344,120,25091,6,0,L|304:176,1,52.5
355,136,25636,2,0,L|306:184,1,52.5
363,154,26182,2,0,B|300:208|300:208|252:200|252:200|228:236|228:236|176:256,1,210
160,288,28364,6,0,P|124:300|88:272,2,78.75
216,352,29454,2,0,P|244:328|240:244,1,105
92,164,30545,6,0,P|72:196|184:280,1,210,4|0,0:0|0:0,0:0:0:0:
236,96,32182,1,0,0:0:0:0:
416,60,32727,2,0,P|470:110|442:179,1,157.5,4|0,0:0|0:0,0:0:0:0:
288,272,33818,6,0,L|360:252,1,52.5
416,312,34364,1,0,0:0:0:0:
288,352,34636,2,0,L|220:328,1,52.5,0|4,0:0|0:0,0:0:0:0:
100,184,35454,6,0,P|80:156|88:80,1,105,0|4,0:0|0:0,0:0:0:0:
276,80,36818,1,0,0:0:0:0:
276,80,37091,2,0,P|260:116|260:160,1,78.75,4|0,0:0|0:0,0:0:0:0:
344,300,37909,1,0,0:0:0:0:
412,248,38182,2,0,P|384:232|304:224,1,105
32,36,39273,5,4,0:0:0:0:
252,48,48000,6,0,P|208:48|184:56,1,52.5,4|0,0:0|0:0,0:0:0:0:
228,112,48409,2,0,L|176:120,1,52.5
300,120,48818,2,0,L|312:88,1,26.25
264,188,49091,6,0,P|231:218|219:240,1,52.5
290,251,49500,2,0,L|257:292,1,52.5
348,207,49909,2,0,L|334:175,1,26.25
412,168,50182,6,0,P|454:179|479:177,1,52.5,4|0,0:0|0:0,0:0:0:0:
451,112,50591,2,0,L|503:117,1,52.5
384,86,51000,2,0,L|364:113,1,26.25
280,116,51273,6,0,L|248:112,2,26.25
328,184,51682,2,0,L|348:248,1,52.5
280,276,52091,2,0,L|268:244,1,26.25
216,176,52364,6,0,L|248:152,2,26.25,4|0|0,0:0|0:0|0:0,0:0:0:0:
156,256,52773,2,0,P|140:232|136:196,1,52.5
56,212,53182,2,0,L|68:244,1,26.25
92,344,53454,6,0,L|56:340,2,26.25
196,340,53864,2,0,B|232:348|232:348|252:344,1,52.5
344,312,54273,2,0,L|376:320,1,26.25
456,260,54545,6,0,P|444:224|448:188,1,52.5,4|0,0:0|0:0,0:0:0:0:
480,136,54954,2,0,P|472:112|452:88,1,52.5
368,80,55364,2,0,L|376:48,1,26.25
472,52,55636,2,0,P|464:80|424:128,1,78.75,4|0,0:0|0:0,0:0:0:0:
324,124,56182,6,0,L|204:180,1,105,12|0,0:1|0:0,0:0:0:0:
108,132,56454,1,2,0:0:0:0:
16,72,56591,1,2,0:0:0:0:
256,232,56727,6,0,B|308:220|308:220|360:192,1,105,14|0,0:1|0:0,0:0:0:0:
40,200,57000,1,2,0:0:0:0:
360,296,57136,2,0,B|392:248|392:248|412:196,1,105,2|8,0:0|0:1,0:0:0:0:
256,28,57409,5,2,0:0:0:0:
488,216,57545,1,2,0:0:0:0:
168,120,57682,5,2,0:0:0:0:
512,136,57818,1,2,0:1:0:0:
75,229,57954,5,2,0:0:0:0:
468,60,58091,1,2,0:0:0:0:
144,300,58227,6,0,P|76:232|76:208,1,105,2|8,0:0|0:1,0:0:0:0:
112,32,58500,1,2,0:0:0:0:
144,216,58636,1,2,0:0:0:0:
16,32,58773,1,2,0:0:0:0:
224,280,58909,6,0,B|260:284|260:284|304:276|304:276|336:264,1,105,6|0,0:1|0:0,0:0:0:0:
212,56,59182,5,2,0:0:0:0:
480,128,59318,1,2,0:0:0:0:
216,168,59454,5,10,0:1:0:0:
452,52,59591,1,2,0:0:0:0:
128,120,59727,5,2,0:0:0:0:
504,84,59864,1,2,0:0:0:0:
232,296,60000,2,0,P|128:320|120:328,1,105,2|0,0:1|0:0,0:0:0:0:
432,340,60273,5,2,0:0:0:0:
360,184,60409,2,0,L|344:64,1,105,2|8,0:0|0:1,0:0:0:0:
156,264,60682,5,2,0:0:0:0:
280,156,60818,1,2,0:0:0:0:
20,204,60954,1,2,0:0:0:0:
404,92,61091,2,0,B|432:84|432:84|452:80|452:80|488:84|488:84|512:80,1,105,6|0,0:1|0:0,0:0:0:0:
64,88,61364,5,2,0:0:0:0:
252,192,61500,2,0,B|280:192|280:192|320:180|320:180|340:184|340:184|360:180,1,105,2|8,0:0|0:1,0:0:0:0:
32,264,61773,5,2,0:0:0:0:
452,200,61909,1,2,0:0:0:0:
56,344,62045,1,2,0:0:0:0:
205,149,62182,2,0,L|341:81,1,105,2|0,0:1|0:0,0:0:0:0:
8,264,62454,5,2,0:0:0:0:
192,68,62591,2,0,L|328:32,1,105,2|8,0:0|0:1,0:0:0:0:
192,256,62864,5,2,0:0:0:0:
344,24,63000,1,2,0:0:0:0:
264,344,63136,1,2,0:0:0:0:
388,200,63273,6,0,L|356:92,1,105,6|0,0:1|0:0,0:0:0:0:
72,88,63545,1,2,0:0:0:0:
344,24,63682,2,0,L|373:124,1,105,2|8,0:0|0:1,0:0:0:0:
256,312,63954,5,2,0:0:0:0:
404,60,64091,1,2,0:0:0:0:
344,336,64227,1,2,0:0:0:0:
296,48,64364,5,2,0:1:0:0:
432,324,64500,1,2,0:0:0:0:
216,72,64636,1,2,0:0:0:0:
464,176,64773,5,2,0:0:0:0:
152,120,64909,1,10,0:1:0:0:
392,284,65045,5,2,0:0:0:0:
112,112,65182,1,2,0:0:0:0:
276,336,65318,5,2,0:0:0:0:
84,84,65454,2,0,B|116:60|116:60|148:48|148:48|184:44|196:44,1,105,6|0,0:1|0:0,0:0:0:0:
384,96,65727,1,2,0:0:0:0:
224,268,65864,2,0,P|120:240|116:236,1,105,2|8,0:0|0:1,0:0:0:0:
256,52,66136,5,2,0:0:0:0:
484,200,66273,1,2,0:0:0:0:
256,332,66409,1,2,0:0:0:0:
88,192,66545,6,0,P|112:88|116:84,1,105,2|0,0:1|0:0,0:0:0:0:
352,112,66818,1,2,0:0:0:0:
80,296,66954,2,0,P|184:316|200:312,1,105,2|8,0:0|0:1,0:0:0:0:
412,192,67227,5,2,0:0:0:0:
204,40,67364,1,2,0:0:0:0:
68,224,67500,1,2,0:0:0:0:
272,336,67636,6,0,B|308:332|308:332|344:320|344:320|368:296|376:288,1,105,6|0,0:1|0:0,0:0:0:0:
460,108,67909,1,2,0:0:0:0:
352,216,68045,2,0,B|312:228|312:228|272:228|272:228|232:208|216:196,1,105,2|8,0:0|0:1,0:0:0:0:
116,60,68318,5,2,0:0:0:0:
192,336,68454,1,2,0:0:0:0:
116,60,68591,1,2,0:0:0:0:
288,256,68727,6,0,P|392:282|399:278,1,105,2|0,0:1|0:0,0:0:0:0:
248,80,69000,1,2,0:0:0:0:
232,316,69136,2,0,P|127:342|120:338,1,105,2|8,0:0|0:1,0:0:0:0:
56,104,69409,5,2,0:0:0:0:
252,244,69545,1,2,0:0:0:0:
368,36,69682,1,2,0:0:0:0:
136,188,69818,6,0,B|108:204|108:204|92:224|92:224|80:252|80:252|80:280|80:288,1,105,6|0,0:1|0:0,0:0:0:0:
300,336,70091,1,2,0:0:0:0:
452,184,70227,2,0,B|456:160|456:160|452:124|452:124|436:92|436:92|416:80|404:72,1,105,2|8,0:0|0:1,0:0:0:0:
224,28,70500,5,2,0:0:0:0:
36,248,70636,1,2,0:0:0:0:
296,328,70773,1,2,0:0:0:0:
380,60,70909,6,0,P|276:24|256:24,1,105,2|0,0:1|0:0,0:0:0:0:
80,136,71182,1,2,0:0:0:0:
332,152,71318,2,0,L|240:216,1,105,2|8,0:0|0:1,0:0:0:0:
196,352,71591,5,2,0:0:0:0:
440,216,71727,1,2,0:0:0:0:
328,348,71864,5,2,0:0:0:0:
464,116,72000,1,2,0:1:0:0:
196,216,72136,5,2,0:0:0:0:
512,352,72273,1,2,0:0:0:0:
188,80,72409,5,2,0:0:0:0:
404,352,72545,1,10,0:1:0:0:
364,32,72682,5,2,0:0:0:0:
368,320,72818,1,2,0:0:0:0:
108,200,72954,1,2,0:0:0:0:
312,40,73091,2,0,B|360:32|360:32|401:48|401:48|433:37|433:37|469:45,1,157.500006008148,2|0,0:0|0:0,0:0:0:0:
392,212,73500,5,2,0:0:0:0:
248,116,73636,2,0,B|204:120|204:120|156:96,1,78.7500030040742,2|0,0:0|0:0,0:0:0:0:
84,20,73909,2,0,B|52:56|52:56|12:64,1,78.7500030040742
72,260,74182,6,0,B|104:272|104:272|136:316|172:332|172:332|240:332,1,157.500006008148,6|4,0:1|0:0,0:0:0:0:
464,236,74727,5,8,0:1:0:0:
312,208,74864,1,2,0:0:0:0:
436,100,75000,1,4,0:0:0:0:
280,84,75136,2,0,L|204:128,1,78.7500030040742,2|2,0:0|0:1,0:0:0:0:
156,28,75545,6,0,B|120:48|120:48|92:80|72:124|72:124|68:156,1,157.500006008148,4|8,0:0|0:1,0:0:0:0:
120,272,75954,1,2,0:0:0:0:
264,176,76091,2,0,P|344:160|360:164,1,78.7500030040742,4|2,0:0|0:0,0:0:0:0:
76,32,76364,6,0,P|31:101|31:180,1,157.500006008148,6|4,0:1|0:0,0:0:0:0:
184,312,76909,5,8,0:1:0:0:
128,188,77045,1,2,0:0:0:0:
268,128,77182,1,4,0:0:0:0:
320,264,77318,2,0,L|400:320,1,78.7500030040742,2|2,0:0|0:1,0:0:0:0:
476,320,77727,6,0,B|452:256|452:256|476:216|476:216|472:160,1,157.500006008148,4|8,0:0|0:1,0:0:0:0:
316,172,78136,1,2,0:0:0:0:
240,40,78273,2,0,L|164:72,1,78.7500030040742,4|2,0:0|0:0,0:0:0:0:
359,274,78545,2,0,P|435:230|479:154,1,157.500006008148,6|4,0:1|0:0,0:0:0:0:
320,44,78954,5,2,0:0:0:0:
300,208,79091,1,8,0:1:0:0:
176,88,79227,1,2,0:0:0:0:
64,240,79364,1,4,0:0:0:0:
264,296,79500,1,2,0:0:0:0:
380,136,79636,6,0,L|360:56,1,78.7500030040742,2|0,0:1|0:0,0:0:0:0:
112,168,79909,2,0,B|124:184|124:184|152:204|152:204|208:216|244:216|244:216|276:208,1,157.500006008148,4|8,0:0|0:1,0:0:0:0:
168,20,80318,1,2,0:0:0:0:
388,72,80454,6,0,L|407:148,1,78.7500030040742,4|2,0:0|0:0,0:0:0:0:
200,308,80727,2,0,P|122:294|-8:180,1,236.250009012223,6|2,0:1|0:0,0:0:0:0:
180,56,81272,5,8,0:1:0:0:
408,40,81409,1,2,0:0:0:0:
252,184,81545,5,4,0:0:0:0:
480,80,81681,1,2,0:1:0:0:
284,112,81818,2,0,B|244:48|244:48|252:32,1,78.7500030040742,2|0,0:0|0:0,0:0:0:0:
448,40,82090,5,4,0:0:0:0:
296,284,82227,1,8,0:1:0:0:
488,144,82363,5,2,0:0:0:0:
312,364,82500,1,2,0:0:0:0:
176,216,82636,6,0,P|244:160|248:160,1,78.7500030040742,4|2,0:0|0:1,0:0:0:0:
184,324,82909,2,0,P|104:288|64:220,1,157.500006008148,6|4,0:1|0:0,0:0:0:0:
212,76,83454,5,8,0:1:0:0:
428,168,83591,1,2,0:0:0:0:
200,184,83727,1,4,0:0:0:0:
400,72,83864,2,0,P|472:40|480:40,1,78.7500030040742,2|2,0:0|0:1,0:0:0:0:
492,216,84273,6,0,B|468:236|468:236|408:260|376:260|376:260|332:256,1,157.500006008148,4|8,0:0|0:1,0:0:0:0:
428,116,84682,1,2,0:0:0:0:
208,204,84818,2,0,P|176:280|180:296,1,78.7500030040742,4|2,0:0|0:0,0:0:0:0:
284,136,85091,2,0,B|224:88|224:88|168:96|168:96|104:84,1,157.500006008148,6|4,0:1|0:0,0:0:0:0:
64,224,85636,5,8,0:1:0:0:
224,92,85773,1,2,0:0:0:0:
304,272,85909,1,4,0:0:0:0:
40,176,86045,2,0,P|20:96|24:88,1,78.7500030040742,2|2,0:0|0:1,0:0:0:0:
156,136,86454,6,0,P|228:196|320:184,1,157.500006008148,4|8,0:0|0:1,0:0:0:0:
204,36,86864,1,2,0:0:0:0:
416,140,87000,2,0,P|444:216|440:232,1,78.7500030040742,4|2,0:0|0:0,0:0:0:0:
304,156,87273,2,0,P|344:80|356:72,1,78.7500030040742,6|2,0:1|0:0,0:0:0:0:
448,36,87545,2,0,L|360:16,1,78.7500030040742,4|2,0:0|0:0,0:0:0:0:
160,128,87818,5,8,0:1:0:0:
464,152,87954,1,2,0:0:0:0:
164,220,88090,5,4,0:0:0:0:
496,44,88227,1,2,0:0:0:0:
356,296,88364,2,0,L|372:212,1,78.7500030040742,2|2,0:1|0:0,0:0:0:0:
76,228,88636,2,0,L|112:320,1,78.7500030040742,4|2,0:0|0:0,0:0:0:0:
256,196,88909,6,0,P|208:96|148:64,1,157.500006008148,8|4,0:1|0:0,0:0:0:0:
188,296,89318,1,2,0:0:0:0:
356,130,89454,2,0,P|316:60|301:54,1,78.7500030040742,6|2,0:1|0:0,0:0:0:0:
72,256,89727,5,4,0:0:0:0:
256,176,89864,1,2,0:0:0:0:
152,288,90000,2,0,L|92:352,1,78.7500030040742,12|2,0:1|0:0,0:0:0:0:
344,156,90273,5,4,0:0:0:0:
320,336,90409,1,2,0:0:0:0:
424,176,90545,2,0,L|444:88,1,78.7500030040742,6|2,0:1|0:0,0:0:0:0:
112,192,90818,5,4,0:0:0:0:
416,276,90954,1,2,0:0:0:0:
276,72,91091,1,8,0:1:0:0:
208,284,91227,1,2,0:0:0:0:
324,232,91364,1,4,0:0:0:0:
224,184,91500,1,2,0:0:0:0:
196,304,91636,6,0,L|280:344,1,78.7500030040742,6|0,0:1|0:0,0:0:0:0:
120,232,91909,2,0,L|112:332,1,78.7500030040742,2|0,0:0|0:0,0:0:0:0:
68,88,92182,1,10,0:1:0:0:
96,320,92318,2,0,L|92:280,1,39.3750015020371,2|0,0:0|0:0,0:0:0:0:
88,236,92727,6,0,L|40:304,1,78.7500030040742,2|0,0:1|0:0,0:0:0:0:
172,132,93000,2,0,L|68:156,1,78.7500030040742,2|0,0:0|0:0,0:0:0:0:
280,84,93273,2,0,L|192:48,1,78.7500030040742,10|0,0:1|0:0,0:0:0:0:
184,292,93545,1,4,0:0:0:0:
316,68,93682,1,2,0:0:0:0:
280,196,93818,6,0,L|308:276,1,78.7500030040742,6|0,0:1|0:0,0:0:0:0:
392,228,94091,2,0,L|408:320,1,78.7500030040742,2|0,0:0|0:0,0:0:0:0:
464,84,94364,1,10,0:1:0:0:
436,304,94500,2,0,L|448:260,1,39.3750015020371,2|0,0:0|0:0,0:0:0:0:
420,216,94909,6,0,L|492:280,1,78.7500030040742,2|0,0:1|0:0,0:0:0:0:
348,156,95182,2,0,L|336:240,1,78.7500030040742,2|0,0:0|0:0,0:0:0:0:
348,72,95454,2,0,L|264:92,1,78.7500030040742,10|0,0:1|0:0,0:0:0:0:
504,232,95727,1,4,0:0:0:0:
240,40,95864,1,2,0:0:0:0:
175,155,96000,6,0,L|252:172,1,78.7500030040742,6|0,0:1|0:0,0:0:0:0:
290,236,96273,2,0,L|364:208,1,78.7500030040742,2|0,0:0|0:0,0:0:0:0:
56,252,96545,1,10,0:1:0:0:
404,252,96682,2,0,L|352:248,1,39.3750015020371,2|0,0:0|0:0,0:0:0:0:
296,240,97091,6,0,L|352:328,1,78.7500030040742,2|0,0:1|0:0,0:0:0:0:
164,148,97364,2,0,L|280:220,1,78.7500030040742,2|0,0:0|0:0,0:0:0:0:
80,24,97636,2,0,L|128:108,1,78.7500030040742,10|0,0:1|0:0,0:0:0:0:
168,308,97909,1,4,0:0:0:0:
176,40,98045,1,2,0:0:0:0:
132,236,98182,6,0,L|60:304,1,78.7500030040742,6|0,0:1|0:0,0:0:0:0:
240,88,98454,2,0,L|304:24,1,78.7500030040742,2|0,0:0|0:0,0:0:0:0:
296,320,98727,1,10,0:1:0:0:
368,144,98864,2,0,L|456:180,1,78.7500030040742,2|2,0:0|0:0,0:0:0:0:
124,196,99136,1,2,0:0:0:0:
288,236,99273,6,0,L|216:296,1,78.7500030040742,2|0,0:1|0:0,0:0:0:0:
212,112,99545,2,0,L|112:108,1,78.7500030040742,2|0,0:0|0:0,0:0:0:0:
384,56,99818,2,0,L|312:8,1,78.7500030040742,10|0,0:1|0:0,0:0:0:0:
328,164,100091,6,0,L|296:200,1,39.3750015020371,6|0,0:1|0:0,0:0:0:0:
360,248,100227,2,0,L|324:288,1,39.3750015020371,6|0,0:1|0:0,0:0:0:0:
432,336,100364,6,0,L|452:248,1,78.7500030040742,6|0,0:1|0:0,0:0:0:0:
336,64,100636,2,0,L|224:20,1,78.7500030040742,2|0,0:0|0:0,0:0:0:0:
448,256,100909,1,10,0:1:0:0:
220,56,101045,2,0,L|260:76,1,39.3750015020371,2|0,0:0|0:0,0:0:0:0:
304,104,101454,6,0,L|380:68,1,78.7500030040742,2|0,0:1|0:0,0:0:0:0:
192,216,101727,2,0,L|112:184,1,78.7500030040742,2|0,0:0|0:0,0:0:0:0:
368,316,102000,2,0,L|452:268,1,78.7500030040742,10|0,0:1|0:0,0:0:0:0:
300,48,102273,1,4,0:0:0:0:
144,312,102409,1,2,0:0:0:0:
189,151,102545,6,0,L|93:199,1,78.7500030040742,6|0,0:1|0:0,0:0:0:0:
421,134,102818,2,0,L|369:62,1,78.7500030040742,2|0,0:0|0:0,0:0:0:0:
268,312,103091,1,10,0:1:0:0:
352,80,103227,2,0,L|368:120,1,39.3750015020371,2|0,0:0|0:0,0:0:0:0:
352,160,103636,6,0,L|304:228,1,78.7500030040742,2|0,0:1|0:0,0:0:0:0:
192,120,103909,2,0,L|112:168,1,78.7500030040742,2|0,0:0|0:0,0:0:0:0:
306,224,104182,2,0,L|274:316,1,78.7500030040742,10|0,0:1|0:0,0:0:0:0:
432,92,104454,1,4,0:0:0:0:
124,176,104591,1,2,0:0:0:0:
360,144,104727,6,0,L|412:216,1,78.7500030040742,6|0,0:1|0:0,0:0:0:0:
192,204,105000,2,0,L|176:296,1,78.7500030040742,2|0,0:0|0:0,0:0:0:0:
296,72,105273,1,10,0:1:0:0:
208,304,105409,2,0,L|224:252,1,39.3750015020371,2|0,0:0|0:0,0:0:0:0:
264,236,105818,6,0,L|344:176,1,78.7500030040742,2|0,0:1|0:0,0:0:0:0:
208,132,106091,2,0,L|144:40,1,78.7500030040742,2|0,0:0|0:0,0:0:0:0:
112,228,106364,2,0,L|16:232,1,78.7500030040742,10|0,0:1|0:0,0:0:0:0:
316,336,106636,1,4,0:0:0:0:
88,140,106773,1,2,0:0:0:0:
276,248,106909,6,0,L|356:268,1,78.7500030040742,6|0,0:1|0:0,0:0:0:0:
372,136,107182,2,0,L|436:88,1,78.7500030040742,2|0,0:0|0:0,0:0:0:0:
176,192,107454,1,10,0:1:0:0:
412,232,107591,2,0,L|472:304,1,78.7500030040742,2|2,0:0|0:0,0:0:0:0:
160,136,107864,1,2,0:0:0:0:
272,328,108000,6,0,B|240:364|240:364|192:376,1,78.7500030040742,2|0,0:1|0:0,0:0:0:0:
24,160,108273,2,0,B|38:129|38:129|78:109,1,78.7500030040742,2|0,0:0|0:0,0:0:0:0:
376,72,108545,5,14,0:1:0:0:
96,276,108682,1,2,0:0:0:0:
208,36,108818,1,6,0:0:0:0:
400,292,108954,1,2,0:0:0:0:
256,316,109091,6,0,L|176:352,1,78.7500030040742,6|0,0:1|0:0,0:0:0:0:
132,180,109364,2,0,L|108:80,1,78.7500030040742,2|0,0:0|0:0,0:0:0:0:
320,264,109636,1,10,0:1:0:0:
156,104,109773,2,0,L|160:56,1,39.3750015020371,2|0,0:0|0:0,0:0:0:0:
208,44,110182,6,0,L|300:60,1,78.7500030040742,2|0,0:1|0:0,0:0:0:0:
320,240,110454,2,0,L|248:164,1,78.7500030040742,2|0,0:0|0:0,0:0:0:0:
104,168,110727,2,0,L|48:240,1,78.7500030040742,10|0,0:1|0:0,0:0:0:0:
372,104,111000,5,4,0:0:0:0:
28,160,111136,1,2,0:0:0:0:
264,68,111273,6,0,L|312:144,1,78.7500030040742,6|0,0:1|0:0,0:0:0:0:
208,276,111545,2,0,L|284:212,1,78.7500030040742,2|0,0:0|0:0,0:0:0:0:
0,312,111818,1,10,0:1:0:0:
244,204,111954,2,0,L|276:172,1,39.3750015020371,2|0,0:0|0:0,0:0:0:0:
320,176,112364,6,0,L|400:160,1,78.7500030040742,2|0,0:1|0:0,0:0:0:0:
72,272,112636,2,0,L|192:260,1,78.7500030040742,2|0,0:0|0:0,0:0:0:0:
472,296,112909,2,0,L|364:308,1,78.7500030040742,10|0,0:1|0:0,0:0:0:0:
72,176,113182,5,4,0:0:0:0:
336,352,113318,1,2,0:0:0:0:
204,168,113454,6,0,L|240:88,1,78.7500030040742,6|0,0:1|0:0,0:0:0:0:
352,152,113727,2,0,L|432:108,1,78.7500030040742,2|0,0:0|0:0,0:0:0:0:
256,336,114000,1,10,0:1:0:0:
440,136,114136,2,0,L|488:120,1,39.3750015020371,2|0,0:0|0:0,0:0:0:0:
484,76,114545,6,0,L|416:32,1,78.7500030040742,2|0,0:1|0:0,0:0:0:0:
160,112,114818,2,0,L|236:48,1,78.7500030040742,2|0,0:0|0:0,0:0:0:0:
368,236,115091,2,0,L|348:156,1,78.7500030040742,10|0,0:1|0:0,0:0:0:0:
232,316,115364,5,4,0:0:0:0:
392,104,115500,1,2,0:0:0:0:
224,232,115636,6,0,L|140:216,1,78.7500030040742,6|0,0:1|0:0,0:0:0:0:
240,64,115909,2,0,L|368:52,1,78.7500030040742,2|0,0:0|0:0,0:0:0:0:
40,160,116182,1,10,0:1:0:0:
318,56,116318,2,0,L|398:92,1,78.7500030040742,2|2,0:0|0:0,0:0:0:0:
136,44,116591,1,2,0:0:0:0:
376,136,116727,6,0,L|440:216,1,78.7500030040742,2|0,0:1|0:0,0:0:0:0:
264,232,117000,2,0,L|276:324,1,78.7500030040742,2|0,0:0|0:0,0:0:0:0:
104,248,117273,2,0,L|56:332,1,78.7500030040742,10|0,0:1|0:0,0:0:0:0:
28,176,117545,6,0,L|8:136,1,39.3750015020371,6|0,0:1|0:0,0:0:0:0:
76,100,117682,2,0,L|88:56,1,39.3750015020371,6|0,0:1|0:0,0:0:0:0:
188,88,117818,6,0,L|280:56,1,78.7500030040742,6|0,0:1|0:0,0:0:0:0:
296,180,118091,2,0,L|400:212,1,78.7500030040742,2|0,0:0|0:0,0:0:0:0:
92,272,118364,1,10,0:1:0:0:
376,232,118500,2,0,L|404:260,1,39.3750015020371,2|0,0:0|0:0,0:0:0:0:
396,304,118909,6,0,L|304:328,1,78.7500030040742,2|0,0:1|0:0,0:0:0:0:
192,148,119182,2,0,L|288:200,1,78.7500030040742,2|0,0:0|0:0,0:0:0:0:
456,40,119454,2,0,L|384:84,1,78.7500030040742,10|0,0:1|0:0,0:0:0:0:
236,296,119727,5,4,0:0:0:0:
316,44,119864,1,2,0:0:0:0:
192,216,120000,6,0,L|116:276,1,78.7500030040742,6|0,0:1|0:0,0:0:0:0:
120,80,120273,2,0,L|212:48,1,78.7500030040742,2|0,0:0|0:0,0:0:0:0:
452,192,120545,1,10,0:1:0:0:
196,80,120682,2,0,L|236:76,1,39.3750015020371,2|0,0:0|0:0,0:0:0:0:
268,112,121091,6,0,L|328:188,1,78.7500030040742,2|0,0:1|0:0,0:0:0:0:
288,312,121364,2,0,L|212:352,1,78.7500030040742,2|0,0:0|0:0,0:0:0:0:
108,268,121636,2,0,L|52:200,1,78.7500030040742,10|0,0:1|0:0,0:0:0:0:
352,252,121909,5,4,0:0:0:0:
88,104,122045,1,2,0:0:0:0:
324,44,122182,6,0,L|396:92,1,78.7500030040742,6|0,0:1|0:0,0:0:0:0:
148,172,122454,2,0,L|220:220,1,78.7500030040742,2|0,0:0|0:0,0:0:0:0:
472,64,122727,1,10,0:1:0:0:
228,196,122864,2,0,L|272:208,1,39.3750015020371,2|0,0:0|0:0,0:0:0:0:
304,180,123273,6,0,L|388:168,1,78.7500030040742,2|0,0:1|0:0,0:0:0:0:
192,56,123545,2,0,L|140:132,1,78.7500030040742,2|0,0:0|0:0,0:0:0:0:
284,324,123818,2,0,L|364:268,1,78.7500030040742,10|0,0:1|0:0,0:0:0:0:
272,44,124091,5,4,0:0:0:0:
208,328,124227,1,2,0:0:0:0:
384,184,124364,6,0,L|416:100,1,78.7500030040742,6|0,0:1|0:0,0:0:0:0:
180,168,124636,2,0,L|144:244,1,78.7500030040742,2|0,0:0|0:0,0:0:0:0:
360,344,124909,1,10,0:1:0:0:
280,76,125045,2,0,L|180:56,1,78.7500030040742,2|2,0:0|0:0,0:0:0:0:
28,264,125318,1,2,0:0:0:0:
256,344,125454,6,0,L|320:280,1,78.7500030040742,2|0,0:1|0:0,0:0:0:0:
128,88,125727,2,0,L|64:152,1,78.7500030040742,2|0,0:0|0:0,0:0:0:0:
256,335,126000,5,14,0:1:0:0:
376,56,126136,1,2,0:0:0:0:
76,227,126273,1,6,0:0:0:0:
440,228,126409,1,2,0:0:0:0:
140,56,126545,2,0,P|68:100|32:160,1,125.999996154785,6|0,0:1|0:0,0:0:0:0:
232,188,127091,5,10,0:1:0:0:
88,308,127227,1,2,0:0:0:0:
264,328,127364,1,2,0:0:0:0:
136,220,127500,1,2,0:0:0:0:
332,244,127636,6,0,L|328:168,1,62.9999980773926,2|0,0:1|0:0,0:0:0:0:
136,128,127909,2,0,L|64:168,1,62.9999980773926,2|0,0:0|0:0,0:0:0:0:
88,348,128182,5,10,0:1:0:0:
360,160,128318,1,2,0:0:0:0:
116,56,128454,2,0,L|52:88,1,62.9999980773926,2|0,0:0|0:0,0:0:0:0:
200,336,128727,2,0,P|264:308|308:248,1,125.999996154785,6|0,0:1|0:0,0:0:0:0:
344,172,129273,5,10,0:1:0:0:
344,16,129409,1,2,0:0:0:0:
476,176,129545,1,2,0:0:0:0:
224,168,129682,1,2,0:0:0:0:
472,40,129818,6,0,L|496:112,1,62.9999980773926,2|0,0:1|0:0,0:0:0:0:
348,252,130091,2,0,L|268:240,1,62.9999980773926,2|0,0:0|0:0,0:0:0:0:
452,176,130364,5,10,0:1:0:0:
208,40,130500,1,2,0:0:0:0:
460,48,130636,5,2,0:0:0:0:
160,144,130773,1,2,0:0:0:0:
484,244,130909,2,0,P|412:268|340:272,1,125.999996154785,6|0,0:1|0:0,0:0:0:0:
252,160,131318,5,0,0:0:0:0:
144,220,131454,1,10,0:1:0:0:
176,60,131591,1,2,0:0:0:0:
344,84,131727,1,2,0:0:0:0:
316,252,131864,1,2,0:0:0:0:
104,144,132000,6,0,L|84:72,1,62.9999980773926,2|0,0:1|0:0,0:0:0:0:
396,152,132273,2,0,L|412:212,1,62.9999980773926,2|0,0:0|0:0,0:0:0:0:
280,32,132545,5,10,0:1:0:0:
152,40,132682,1,2,0:0:0:0:
304,324,132818,1,2,0:0:0:0:
164,288,132954,1,2,0:0:0:0:
392,88,133091,2,0,P|424:152|424:216,1,125.999996154785,6|0,0:1|0:0,0:0:0:0:
388,344,133500,5,2,0:0:0:0:
336,216,133636,2,0,L|308:144,1,62.9999980773926,10|0,0:1|0:0,0:0:0:0:
132,276,133909,1,2,0:0:0:0:
324,136,134045,2,0,L|380:108,2,62.9999980773926,2|2|0,0:0|0:1|0:0,0:0:0:0:
232,32,134454,5,2,0:0:0:0:
56,208,134591,1,2,0:0:0:0:
280,348,134727,1,10,0:1:0:0:
472,176,134864,1,2,0:0:0:0:
136,80,135000,6,0,L|64:96,1,62.9999980773926,2|0,0:0|0:0,0:0:0:0:
372,316,135273,2,0,P|440:288|484:240,1,125.999996154785,6|0,0:1|0:0,0:0:0:0:
288,248,135682,5,2,0:0:0:0:
292,152,135818,2,0,L|368:200,1,62.9999980773926,10|0,0:1|0:0,0:0:0:0:
124,252,136091,5,4,0:0:0:0:
424,136,136227,1,2,0:0:0:0:
192,136,136364,6,0,L|256:88,1,62.9999980773926,2|0,0:1|0:0,0:0:0:0:
308,324,136636,2,0,L|372:276,1,62.9999980773926,6|0,0:0|0:0,0:0:0:0:
484,92,136909,5,10,0:1:0:0:
232,28,137045,1,2,0:0:0:0:
212,256,137182,5,2,0:0:0:0:
316,24,137318,1,2,0:0:0:0:
480,196,137454,2,0,P|448:256|380:288,1,125.999996154785,6|0,0:1|0:0,0:0:0:0:
228,284,137864,5,2,0:0:0:0:
352,208,138000,2,0,L|392:156,1,62.9999980773926,10|0,0:1|0:0,0:0:0:0:
120,204,138273,5,4,0:0:0:0:
472,152,138409,1,2,0:0:0:0:
176,56,138545,6,0,L|120:84,1,62.9999980773926,2|0,0:1|0:0,0:0:0:0:
448,76,138818,2,0,L|376:36,1,62.9999980773926,6|0,0:0|0:0,0:0:0:0:
152,192,139091,5,10,0:1:0:0:
468,160,139227,1,2,0:0:0:0:
132,128,139364,1,2,0:0:0:0:
488,224,139500,1,2,0:0:0:0:
132,268,139636,2,0,P|84:224|72:140,1,125.999996154785,6|0,0:1|0:0,0:0:0:0:
164,60,140045,5,2,0:0:0:0:
208,212,140182,2,0,L|236:144,1,62.9999980773926,10|0,0:1|0:0,0:0:0:0:
376,64,140454,5,4,0:0:0:0:
84,220,140591,1,2,0:0:0:0:
376,184,140727,6,0,L|300:136,1,62.9999980773926,2|0,0:1|0:0,0:0:0:0:
228,316,141000,2,0,L|152:340,1,62.9999980773926,6|0,0:0|0:0,0:0:0:0:
148,64,141273,2,0,P|224:40|288:44,1,125.999996154785,10|0,0:1|0:0,0:0:0:0:
416,136,141682,5,2,0:0:0:0:
208,188,141818,2,0,P|136:216|124:224,1,62.9999980773926,6|0,0:1|0:0,0:0:0:0:
248,344,142091,5,4,0:0:0:0:
44,196,142227,1,2,0:0:0:0:
264,344,142364,2,0,L|344:328,1,62.9999980773926,12|0,0:1|0:0,0:0:0:0:
468,140,142636,5,4,0:0:0:0:
264,288,142772,1,2,0:0:0:0:
452,140,142909,2,0,L|390:127,1,62.9999980773926,6|0,0:1|0:0,0:0:0:0:
80,256,143182,5,2,0:0:0:0:
444,48,143318,1,2,0:0:0:0:
104,152,143454,5,10,0:1:0:0:
400,152,143591,1,2,0:0:0:0:
200,112,143727,5,2,0:0:0:0:
312,224,143864,1,2,0:0:0:0:
308,40,144000,5,4,0:0:0:0:
344,136,147273,5,4,0:0:0:0:
424,192,148364,5,4,0:0:0:0:
280,280,152727,5,4,0:0:0:0:
124,176,156000,5,4,0:0:0:0:
192,288,157091,5,4,0:0:0:0:
256,192,157227,12,4,161454,0:0:0:0:
464,148,170182,6,0,P|480:112|456:44,1,105,4|0,0:0|0:0,0:0:0:0:
404,212,171273,2,0,P|456:232|516:216,2,105,4|0|4,0:0|0:0|0:0,0:0:0:0:
240,216,173182,6,0,L|216:252,2,26.25,0|0|4,0:0|0:0|0:0,0:0:0:0:
308,172,173591,2,0,L|324:208,2,26.25
236,112,174000,2,0,L|236:144,3,26.25,4|0|0|0,0:0|0:0|0:0|0:0,0:0:0:0:
148,200,174545,5,6,0:0:0:0:
72,344,175091,1,2,0:0:0:0:
72,64,175636,1,4,0:0:0:0:
88,64,175909,1,2,0:0:0:0:
32,160,176454,6,0,P|96:168|196:128,1,157.5,6|0,0:0|0:0,0:0:0:0:
280,48,177818,2,0,L|284:108,1,52.5,2|0,0:0|0:0,0:0:0:0:
377,147,178364,6,0,L|273:95,1,105,12|0,0:1|0:0,0:0:0:0:
152,128,178636,1,0,0:0:0:0:
204,60,178773,1,0,0:0:0:0:
448,80,178909,6,0,P|472:188|360:300,1,236.250009012223,4|0,0:1|0:0,0:0:0:0:
160,272,179454,5,10,0:1:0:0:
272,32,179591,1,2,0:0:0:0:
392,184,179727,1,2,0:0:0:0:
104,104,179864,1,2,0:0:0:0:
352,20,180000,2,0,L|432:40,1,78.7500030040742,2|0,0:1|0:0,0:0:0:0:
188,184,180273,5,2,0:0:0:0:
476,108,180409,1,2,0:0:0:0:
224,56,180545,2,0,P|184:56|52:84,1,157.500006008148,10|0,0:1|0:0,0:0:0:0:
328,152,180954,1,2,0:0:0:0:
108,148,181091,2,0,P|40:212|140:308,1,236.250009012223,6|0,0:1|0:0,0:0:0:0:
228,64,181636,5,10,0:1:0:0:
172,312,181773,1,2,0:0:0:0:
417,112,181909,5,6,0:0:0:0:
153,223,182045,1,6,0:0:0:0:
380,204,182182,5,2,0:1:0:0:
156,38,182318,1,6,0:0:0:0:
273,369,182454,5,6,0:0:0:0:
371,0,182591,1,6,0:0:0:0:
56,296,182727,5,10,0:1:0:0:
480,248,182864,1,6,0:0:0:0:
34,18,183000,5,6,0:0:0:0:
273,369,183136,1,6,0:0:0:0:
176,68,183273,6,0,B|140:36|112:24|112:24|100:88|36:96|36:96|52:196,1,236.250009012223,6|0,0:1|0:0,0:0:0:0:
204,260,183818,5,10,0:1:0:0:
76,60,183954,1,2,0:0:0:0:
280,188,184091,5,2,0:0:0:0:
24,152,184227,1,2,0:0:0:0:
276,92,184364,6,0,L|372:64,1,78.7500030040742,2|0,0:1|0:0,0:0:0:0:
112,184,184636,1,6,0:0:0:0:
396,164,184773,1,2,0:0:0:0:
156,100,184909,2,0,L|232:32,1,78.7500030040742,10|0,0:1|0:0,0:0:0:0:
104,296,185182,5,4,0:0:0:0:
80,40,185318,1,2,0:0:0:0:
200,300,185454,2,0,L|448:276,1,236.250009012223,6|0,0:1|0:0,0:0:0:0:
292,164,186000,6,0,L|200:200,1,78.7500030040742,10|0,0:1|0:0,0:0:0:0:
296,40,186273,1,2,0:0:0:0:
108,232,186409,1,2,0:0:0:0:
204,88,186545,6,0,P|208:8|192:-4,1,78.7500030040742,2|0,0:1|0:0,0:0:0:0:
344,228,186818,6,0,P|422:244|429:263,1,78.7500030040742,2|0,0:0|0:0,0:0:0:0:
184,304,187091,5,10,0:1:0:0:
384,136,187227,1,2,0:0:0:0:
128,228,187364,1,2,0:0:0:0:
400,132,187500,1,2,0:0:0:0:
108,136,187636,6,0,P|195:69|322:32,1,236.250009012223,6|0,0:1|0:0,0:0:0:0:
164,200,188182,2,0,P|76:209|45:85,1,236.250009012223,10|0,0:1|0:0,0:0:0:0:
260,160,188727,5,2,0:1:0:0:
384,336,188864,1,2,0:0:0:0:
400,120,189000,5,2,0:0:0:0:
256,300,189136,1,2,0:0:0:0:
216,108,189273,6,0,L|324:229,1,157.500006008148,10|0,0:1|0:0,0:0:0:0:
408,320,189681,1,2,0:0:0:0:
420,68,189818,6,0,L|184:112,1,236.250009012223,6|0,0:1|0:0,0:0:0:0:
368,192,190364,5,8,0:1:0:0:
84,84,190500,1,2,0:0:0:0:
296,320,190636,5,6,0:0:0:0:
180,24,190773,1,6,0:0:0:0:
116,312,190909,5,2,0:1:0:0:
340,32,191045,1,6,0:0:0:0:
16,264,191182,5,6,0:0:0:0:
472,192,191318,1,6,0:0:0:0:
16,120,191454,1,8,0:1:0:0:
496,264,191591,5,6,0:0:0:0:
40,192,191727,1,6,0:0:0:0:
496,120,191863,1,6,0:0:0:0:
136,248,192000,6,0,L|292:316,1,157.500006008148,6|0,0:1|0:0,0:0:0:0:
228,68,192409,5,2,0:0:0:0:
308,324,192545,1,10,0:1:0:0:
408,92,192682,1,2,0:0:0:0:
181,246,192818,1,2,0:0:0:0:
448,228,192954,1,2,0:0:0:0:
184,144,193091,6,0,L|100:172,1,78.7500030040742,2|0,0:1|0:0,0:0:0:0:
300,32,193364,1,2,0:0:0:0:
96,292,193500,1,2,0:0:0:0:
348,272,193636,5,10,0:1:0:0:
84,80,193773,1,2,0:0:0:0:
196,292,193909,2,0,P|284:312|300:296,1,78.7500030040742,2|0,0:0|0:0,0:0:0:0:
364,116,194182,6,0,B|372:84|372:84|340:56|340:56|312:68|312:68|296:96|296:96|296:132|296:132|316:168|316:168|332:176|332:176|352:176|352:176|388:176|388:176,1,236.250009012223,6|0,0:1|0:0,0:0:0:0:
432,168,194727,2,0,B|504:200|504:200|424:228|424:228|352:268,1,236.250009012223,12|0,0:1|0:0,0:0:0:0:
184,276,195273,2,0,L|92:292,1,78.7500030040742,2|0,0:1|0:0,0:0:0:0:
272,348,195545,2,0,L|364:364,1,78.7500030040742,2|0,0:0|0:0,0:0:0:0:
328,144,195818,5,10,0:1:0:0:
272,272,195954,1,2,0:0:0:0:
208,52,196091,1,2,0:0:0:0:
248,188,196227,1,2,0:0:0:0:
336,48,196364,6,0,P|424:56|496:104,1,157.500006008148,6|0,0:1|0:0,0:0:0:0:
440,308,196909,2,0,L|384:148,1,157.500006008148,10|0,0:1|0:0,0:0:0:0:
248,324,197454,5,2,0:1:0:0:
184,68,197727,1,4,0:0:0:0:
409,222,198000,1,10,0:1:0:0:
86,222,198273,1,4,0:0:0:0:
328,68,198545,2,0,B|404:48|424:32|424:32|412:128,1,157.500006008148,6|0,0:1|0:0,0:0:0:0:
360,244,199091,2,0,B|436:200|436:200|496:108,1,157.500006008148,10|0,0:1|0:0,0:0:0:0:
256,60,199636,5,2,0:1:0:0:
31,225,199909,1,4,0:0:0:0:
305,326,200182,1,10,0:1:0:0:
264,44,200454,1,4,0:0:0:0:
92,176,200727,2,0,B|120:256|120:256|212:292,1,157.500006008148,6|0,0:1|0:0,0:0:0:0:
320,136,201273,2,0,B|228:152|228:152|164:212,1,157.500006008148,10|0,0:1|0:0,0:0:0:0:
255,370,201818,5,2,0:1:0:0:
434,192,202091,1,4,0:0:0:0:
256,13,202364,1,10,0:1:0:0:
77,191,202636,1,4,0:0:0:0:
368,296,202909,6,0,B|400:260|400:260|428:244|428:244|428:196|428:196|436:160,1,157.500006008148,6|0,0:1|0:0,0:0:0:0:
192,232,203454,1,10,0:1:0:0:
384,72,203727,2,0,B|340:60|340:60|304:40|304:40|256:48|256:48|212:40,1,157.500006008148,4|2,0:0|0:1,0:0:0:0:
312,224,204273,5,4,0:0:0:0:
40,240,204545,1,10,0:1:0:0:
288,116,204818,1,4,0:0:0:0:
192,336,205091,6,0,B|176:304|176:304|144:268|144:268|104:176,1,157.500006008148,6|4,0:1|0:0,0:0:0:0:
256,40,205636,1,10,0:1:0:0:
464,188,205909,1,4,0:0:0:0:
124,248,206182,2,0,P|80:180|160:168,1,157.500006008148,0|4,0:1|0:0,0:0:0:0:
356,328,206727,1,10,0:1:0:0:
128,200,207000,1,4,0:0:0:0:
364,112,207273,6,0,B|405:87|405:87|411:46|411:46|375:30|375:30|320:64,1,157.500006008148,6|4,0:1|0:0,0:0:0:0:
220,284,207818,1,8,0:1:0:0:
252,32,208091,1,4,0:0:0:0:
336,272,208364,2,0,B|412:232|412:232|456:148,1,157.500006008148,2|4,0:1|0:0,0:0:0:0:
152,168,208909,2,0,B|76:208|76:208|32:292,1,157.500006008148,10|4,0:1|0:0,0:0:0:0:
284,324,209454,6,0,B|236:276|296:212|268:156,1,157.500006008148,6|4,0:1|0:0,0:0:0:0:
456,48,210000,1,10,0:1:0:0:
220,128,210273,2,0,B|208:144|208:144|200:168|200:168|208:196|208:196|196:240|192:268|204:304,1,157.500006008148,6|0,0:0|0:1,0:0:0:0:
456,336,210818,1,6,0:0:0:0:
148,104,211091,2,0,P|212:48|288:96,1,157.500006008148,10|4,0:1|0:0,0:0:0:0:
124,312,211636,6,0,P|76:232|68:152,1,157.500006008148,2|4,0:1|0:0,0:0:0:0:
384,280,212182,1,10,0:1:0:0:
140,180,212454,2,0,P|170:91|226:34,1,157.500006008148,6|2,0:0|0:1,0:0:0:0:
476,192,213000,5,0,0:0:0:0:
64,192,213273,1,8,0:1:0:0:
404,72,213545,1,0,0:0:0:0:
128,280,213818,6,0,B|120:304|120:304|152:336|192:324|192:324|236:316|236:316|272:328|272:328|300:312|368:328,1,236.250009012223,6|0,0:1|0:0,0:0:0:0:
404,180,214364,5,10,0:1:0:0:
280,248,214500,1,2,0:0:0:0:
456,260,214636,1,2,0:0:0:0:
388,80,214773,1,2,0:0:0:0:
192,240,214909,2,0,B|168:208|168:208|128:204|128:204|80:196|80:196|44:176|44:176|8:132|44:84,1,236.250009012223,6|0,0:1|0:0,0:0:0:0:
252,48,215454,5,10,0:1:0:0:
100,124,215591,1,2,0:0:0:0:
316,156,215727,1,2,0:0:0:0:
136,32,215864,1,2,0:0:0:0:
244,184,216000,2,0,P|332:228|392:128,1,236.250009012223,6|0,0:1|0:0,0:0:0:0:
208,76,216545,6,0,L|160:148,1,78.7500030040742,10|2,0:1|0:0,0:0:0:0:
456,36,216818,1,2,0:0:0:0:
120,32,216954,1,2,0:0:0:0:
316,160,217091,2,0,B|324:200|364:228|392:236|392:236|368:256|368:256|332:280|332:280|304:300|304:336,1,236.250009012223,6|0,0:1|0:0,0:0:0:0:
456,328,217636,5,10,0:1:0:0:
480,140,217773,1,2,0:0:0:0:
336,32,217909,1,2,0:0:0:0:
148,44,218045,1,2,0:0:0:0:
76,236,218182,2,0,B|100:268|100:268|132:276|132:276|144:296|200:276|200:276|212:332|312:304,1,236.250009012223,6|0,0:1|0:0,0:0:0:0:
280,104,218727,5,10,0:1:0:0:
400,312,218864,1,2,0:0:0:0:
268,96,219000,5,2,0:0:0:0:
492,240,219136,1,2,0:0:0:0:
144,108,219273,2,0,B|88:136|88:136|44:160|44:160|32:212|32:212|120:168,1,236.250009012223,6|0,0:1|0:0,0:0:0:0:
312,96,219818,5,10,0:1:0:0:
444,296,219954,1,2,0:0:0:0:
356,8,220091,5,2,0:0:0:0:
264,196,220227,1,2,0:0:0:0:
488,176,220364,2,0,B|456:24|456:24|412:96|376:80,1,236.250009012223,6|0,0:1|0:0,0:0:0:0:
100,152,220909,5,10,0:1:0:0:
408,152,221045,1,2,0:0:0:0:
88,272,221182,1,2,0:0:0:0:
424,272,221318,1,2,0:0:0:0:
252,76,221454,2,0,B|144:76|144:24|144:24|112:40|104:64|72:84|40:84,1,236.250009012223,6|0,0:1|0:0,0:0:0:0:
132,284,222000,5,10,0:1:0:0:
410,65,222136,1,2,0:0:0:0:
432,344,222273,5,2,0:0:0:0:
144,28,222409,1,2,0:0:0:0:
36,336,222545,6,0,B|132:364|132:364|192:344|192:344|204:308|204:308|264:328,1,236.250009012223,6|0,0:1|0:0,0:0:0:0:
56,244,223091,5,10,0:1:0:0:
268,168,223227,1,2,0:0:0:0:
304,352,223364,1,2,0:0:0:0:
136,284,223500,1,2,0:0:0:0:
328,104,223636,2,0,B|400:68|400:68|424:152|424:152|484:200,1,236.250009012223,6|0,0:1|0:0,0:0:0:0:
472,24,224182,5,10,0:1:0:0:
352,176,224318,1,2,0:0:0:0:
348,20,224454,1,2,0:0:0:0:
438,262,224591,1,2,0:0:0:0:
276,104,224727,2,0,P|200:63|261:136,1,236.250009012223,6|0,0:1|0:0,0:0:0:0:
304,328,225273,6,0,L|224:292,1,78.7500030040742,10|2,0:1|0:0,0:0:0:0:
480,288,225545,1,2,0:0:0:0:
228,104,225682,1,2,0:0:0:0:
120,312,225818,2,0,B|60:244|72:172|72:172|144:220,1,236.250009012223,6|0,0:1|0:0,0:0:0:0:
376,280,226364,5,10,0:1:0:0:
72,172,226500,1,2,0:0:0:0:
340,36,226636,5,2,0:0:0:0:
312,324,226773,1,2,0:0:0:0:
440,200,226909,2,0,B|488:124|416:60|416:60|392:112|332:116,1,236.250009012223,6|0,0:1|0:0,0:0:0:0:
64,76,227454,5,10,0:1:0:0:
160,288,227591,1,2,0:0:0:0:
280,48,227727,5,2,0:0:0:0:
248,288,227864,1,2,0:0:0:0:
488,104,228000,6,0,B|432:164|472:236|472:236|408:236|380:292,1,236.250009012223,6|0,0:1|0:0,0:0:0:0:
104,196,228545,5,10,0:1:0:0:
380,184,228682,1,2,0:0:0:0:
100,200,228818,1,2,0:0:0:0:
376,188,228954,1,2,0:0:0:0:
60,268,229091,6,0,P|24:192|72:128,1,157.500006008148,6|0,0:1|0:0,0:0:0:0:
296,88,229500,1,2,0:0:0:0:
344,320,229636,2,0,L|264:336,1,78.7500030040742,10|2,0:1|0:0,0:0:0:0:
100,200,229909,1,2,0:0:0:0:
416,156,230045,1,2,0:0:0:0:
196,344,230182,6,0,B|136:300|176:232|176:232|176:172,1,157.500006008148,6|0,0:1|0:0,0:0:0:0:
424,48,230591,5,2,0:0:0:0:
104,120,230727,1,10,0:1:0:0:
484,236,230864,5,2,0:0:0:0:
80,104,231000,1,2,0:0:0:0:
380,356,231136,5,2,0:0:0:0:
52,88,231273,2,0,B|48:36|80:4|80:4|160:40,1,157.500006008148,6|0,0:1|0:0,0:0:0:0:
212,236,231682,5,2,0:0:0:0:
328,92,231818,2,0,P|408:40|412:36,1,78.7500030040742,10|0,0:1|0:0,0:0:0:0:
232,124,232091,2,0,P|300:188|312:192,1,78.7500030040742,2|0,0:0|0:0,0:0:0:0:
104,96,232364,6,0,B|80:128|80:128|72:176|72:176|92:216|72:272,1,157.500006008148,6|0,0:1|0:0,0:0:0:0:
244,332,232773,1,2,0:0:0:0:
416,216,232909,2,0,L|460:144,1,78.7500030040742,10|0,0:1|0:0,0:0:0:0:
285,264,233182,2,0,L|241:336,1,78.7500030040742,2|0,0:0|0:0,0:0:0:0:
216,104,233454,6,0,P|304:96|239:141,1,157.500006008148,6|0,0:1|0:0,0:0:0:0:
96,280,233864,1,2,0:0:0:0:
301,118,234000,2,0,P|385:134|397:142,1,78.7500030040742,10|0,0:1|0:0,0:0:0:0:
216,104,234273,2,0,P|132:120|120:128,1,78.7500030040742,2|0,0:0|0:0,0:0:0:0:
260,284,234545,6,0,B|324:284|324:284|352:296|352:296|372:280|372:280|436:264,1,157.500006008148,6|0,0:1|0:0,0:0:0:0:
200,208,234954,1,2,0:0:0:0:
428,136,235091,2,0,P|476:68|476:64,1,78.7500030040742,10|0,0:1|0:0,0:0:0:0:
368,76,235364,2,0,P|381:-6|379:-9,1,78.7500030040742,2|0,0:0|0:0,0:0:0:0:
116,140,235636,6,0,P|68:220|56:316,1,157.500006008148,6|0,0:1|0:0,0:0:0:0:
344,192,236045,1,2,0:0:0:0:
180,168,236182,2,0,P|132:248|120:304,1,78.7500030040742,10|0,0:1|0:0,0:0:0:0:
344,344,236454,2,0,P|392:264|404:208,1,78.7500030040742,2|0,0:0|0:0,0:0:0:0:
352,68,236727,6,0,B|320:56|320:56|264:56|264:56|212:40|212:40|160:40,1,157.500006008148,6|0,0:1|0:0,0:0:0:0:
137,233,237136,1,2,0:0:0:0:
352,160,237273,2,0,B|312:148|312:148|268:156,1,78.7500030040742,10|0,0:1|0:0,0:0:0:0:
476,224,237545,2,0,B|436:236|436:236|392:228,1,78.7500030040742,2|0,0:0|0:0,0:0:0:0:
124,140,237818,6,0,P|172:72|180:96,1,157.500006008148,6|0,0:1|0:0,0:0:0:0:
256,304,238227,1,2,0:0:0:0:
436,140,238364,2,0,P|369:85|363:91,1,78.7500030040742,10|0,0:1|0:0,0:0:0:0:
136,96,238636,2,0,P|64:144|56:156,1,78.7500030040742,2|0,0:0|0:0,0:0:0:0:
184,320,238909,6,0,B|184:276|184:276|220:236|220:236|224:156,1,157.500006008148,6|0,0:1|0:0,0:0:0:0:
56,32,239318,5,2,0:0:0:0:
112,280,239454,1,10,0:1:0:0:
156,36,239591,5,2,0:0:0:0:
32,280,239727,1,2,0:0:0:0:
36,24,239864,5,2,0:0:0:0:
132,292,240000,2,0,B|152:336|192:352|192:352|232:328|232:328|272:328,1,157.500006008148,6|0,0:1|0:0,0:0:0:0:
400,172,240409,1,2,0:0:0:0:
248,56,240545,2,0,L|160:72,1,78.7500030040742,10|0,0:1|0:0,0:0:0:0:
255,328,240818,2,0,L|343:312,1,78.7500030040742,2|0,0:0|0:0,0:0:0:0:
228,132,241091,6,0,P|144:172|88:232,1,157.500006008148,6|0,0:1|0:0,0:0:0:0:
332,313,241500,1,2,0:0:0:0:
52,112,241636,2,0,L|32:196,1,78.7500030040742,10|0,0:1|0:0,0:0:0:0:
384,184,241909,2,0,L|404:100,1,78.7500030040742,2|0,0:0|0:0,0:0:0:0:
144,252,242182,6,0,B|176:284|216:292|216:292|224:256|256:244|256:244|276:244,1,157.500006008148,6|0,0:1|0:0,0:0:0:0:
496,364,242591,1,2,0:0:0:0:
328,116,242727,2,0,P|360:36|372:28,1,78.7500030040742,10|0,0:1|0:0,0:0:0:0:
356,288,243000,2,0,P|272:310|259:305,1,78.7500030040742,2|0,0:0|0:0,0:0:0:0:
424,132,243273,6,0,B|452:148|460:180|460:180|440:216|472:244|472:244|460:296,1,157.500006008148,6|0,0:1|0:0,0:0:0:0:
124,320,243682,1,2,0:0:0:0:
240,136,243818,2,0,B|220:96|220:96|184:68,1,78.7500030040742,10|0,0:1|0:0,0:0:0:0:
236,252,244091,2,0,B|256:292|256:292|292:320,1,78.7500030040742,2|0,0:0|0:0,0:0:0:0:
440,184,244364,6,0,B|416:160|416:160|412:132|412:132|380:124|380:124|368:80|312:60,1,157.500006008148,6|0,0:1|0:0,0:0:0:0:
152,256,244773,1,2,0:0:0:0:
268,68,244909,2,0,L|172:64,1,78.7500030040742,10|0,0:1|0:0,0:0:0:0:
412,132,245182,2,0,P|448:60|448:52,1,78.7500030040742,2|0,0:0|0:0,0:0:0:0:
100,116,245454,6,0,B|80:148|80:148|92:180|68:212|68:212|48:244|68:280,1,157.500006008148,6|0,0:1|0:0,0:0:0:0:
332,100,245864,1,2,0:0:0:0:
232,292,246000,2,0,L|280:360,1,78.7500030040742,10|0,0:1|0:0,0:0:0:0:
136,44,246273,2,0,P|44:56|36:60,1,78.7500030040742,2|0,0:0|0:0,0:0:0:0:
252,280,246545,6,0,P|345:221|241:200,1,236.250009012223,6|0,0:1|0:0,0:0:0:0:
36,264,247091,2,0,P|76:340|92:348,1,78.7500030040742,10|0,0:1|0:0,0:0:0:0:
288,235,247364,5,2,0:0:0:0:
36,172,247500,1,2,0:0:0:0:
296,292,247636,6,0,B|348:284|352:228|348:208,1,78.7500030040742,6|0,0:1|0:0,0:0:0:0:
128,128,247909,2,0,B|86:160|111:211|124:226,1,78.7500030040742,2|0,0:0|0:0,0:0:0:0:
348,144,248182,2,0,B|375:99|334:59|317:50,1,78.7500030040742,14|0,0:1|0:0,0:0:0:0:
132,285,248454,5,2,0:0:0:0:
453,177,248591,1,2,0:0:0:0:
152,29,248727,1,6,0:0:0:0:
256,192,248864,12,4,250909,0:0:0:0:
272,72,251727,5,0,0:0:0:0:
180,256,252000,2,0,B|140:236|144:184|144:184|84:164|88:104,1,157.5
220,192,252545,2,0,B|256:224|252:264|252:264|344:308,1,157.5
283,155,253091,2,0,P|192:122|148:208,1,210,4|0,0:0|0:0,0:0:0:0:
424,128,254182,6,0,B|408:164|424:196|424:196|436:232|392:268,1,105
256,320,254727,1,0,0:0:0:0:
88,192,255000,1,0,0:0:0:0:
244,76,255273,6,0,B|196:72|196:72|152:68|120:36|120:36|96:80|96:80|48:48|24:88|24:88|72:140|4:144|16:180|16:180|20:216,1,367.5,4|0,0:0|0:0,0:0:0:0:
108,152,256364,2,0,B|136:156|144:132|144:132|196:152|240:140|268:152|268:152|312:112,1,210
384,40,257454,6,0,B|340:116|404:128|404:128|456:84|456:84|480:172|412:208|412:208|332:200|296:128|296:128|308:264,1,590.625022530557
368,288,259636,2,0,B|335:313|309:325|267:320|235:292|234:236|234:236|182:216,1,236.250009012223,4|0,0:0|0:0,0:0:0:0:
56,252,260727,6,0,B|92:296|144:272|144:272|188:300|236:264|236:264|300:268|316:320,1,275.62501051426
376,348,261818,2,0,B|368:312|388:280|356:244|356:244|392:216|432:248|432:248|472:264|496:216|428:164|428:164,1,315.000012016297,4|0,0:0|0:0,0:0:0:0:
256,128,264000,5,4,0:0:0:0:
256,160,265091,6,0,B|224:136|224:136|152:176|123:136|96:96|92:64|112:32|164:8|200:32|204:72|160:104,1,315.000012016297,4|4,0:0|0:0,0:0:0:0:
80,288,267273,6,0,P|129:315|199:282,1,118.125004506111
138,245,267818,2,0,P|193:228|244:256,1,118.125004506111
185,298,268364,2,0,P|234:325|316:240,1,157.500006008148,4|0,0:0|0:0,0:0:0:0:
284,88,269454,5,0,0:0:0:0:
185,298,269727,1,0,0:0:0:0:
428,208,270000,1,0,0:0:0:0:
140,112,270273,1,0,0:0:0:0:
349,310,270545,2,0,P|403:296|405:178,1,157.500006008148,4|0,0:0|0:0,0:0:0:0:
100,124,271636,6,0,B|72:164|72:164|72:216,1,78.7500030040742
300,280,272182,1,0,0:0:0:0:
292,44,272454,1,0,0:0:0:0:
72,193,272727,2,0,B|56:245|92:285|92:285|144:253|144:253|148:313|252:321,1,275.62501051426,4|0,0:0|0:0,0:0:0:0:
224,240,273818,2,0,P|276:260|292:360,1,157.500006008148,4|0,0:0|0:0,0:0:0:0:
230,154,274909,6,0,B|222:112|250:93|270:76|272:24|272:24|297:61|293:101|293:101|284:148|315:179,1,275.62501051426,4|0,0:0|0:0,0:0:0:0:
80,132,277091,6,0,B|72:192|20:224|20:224|96:264|40:316|40:316|132:360,1,315.000012016297,4|0,0:0|0:0,0:0:0:0:
332,184,279273,6,0,B|368:192|396:168|396:168|360:128|360:128|408:152|456:140|456:140|424:96|456:72|456:72|496:40,1,315.000012016297,4|0,0:0|0:0,0:0:0:0:
252,32,281454,6,0,B|256:68|232:100|232:100|272:136|272:180|272:180|224:208|224:248|224:248|264:276|248:336,1,315.000012016297,4|0,0:0|0:0,0:0:0:0:
32,36,283636,5,4,0:0:0:0:
