osu file format v14

[General]
AudioFilename: meowmeow.mp3
AudioLeadIn: 0
PreviewTime: 191802
Countdown: 0
SampleSet: Soft
StackLeniency: 0.7
Mode: 0
LetterboxInBreaks: 0
WidescreenStoryboard: 0

[Editor]
Bookmarks: 21468,42801,74885,117468
DistanceSpacing: 1
BeatDivisor: 8
GridSize: 32
TimelineZoom: 2

[Metadata]
Title:CUT
TitleUnicode:CUT
Artist:Panchiko
ArtistUnicode:Panchiko
Creator:Hanakumo Rin
Version:separate
Source:
Tags:dog food english rock indie shoegaze owain D>E>A>T>H>M>E>T>A>L death metal deathmetal
BeatmapID:4028991
BeatmapSetID:1947220

[Difficulty]
HPDrainRate:7
CircleSize:4
OverallDifficulty:7.6
ApproachRate:8
SliderMultiplier:2.8
SliderTickRate:1

[Events]
//Background and Video events
0,0,"cut.jpg",0,0
//Break Periods
2,64168,71385
2,160168,167385
//Storyboard Layer 0 (Background)
//Storyboard Layer 1 (Fail)
//Storyboard Layer 2 (Pass)
//Storyboard Layer 3 (Foreground)
//Storyboard Layer 4 (Overlay)
//Storyboard Sound Samples

[TimingPoints]
135,666.666666666667,4,2,1,50,1,0
135,-125,4,2,1,50,0,0
21468,-111.111111111111,4,2,1,55,0,0
42801,-100,4,2,1,70,0,0
75135,-100,4,2,1,60,0,0
96135,-111.111111111111,4,2,1,55,0,0
117468,-100,4,2,1,70,0,0
170801,-100,4,2,1,60,0,0
192135,-90.9090909090909,4,2,1,80,0,1
234801,-100,4,2,1,75,0,0
245468,-100,4,2,1,85,0,1
250801,-100,4,2,1,75,0,0
278468,-100,4,2,1,40,0,0

[Colours]
Combo1 : 166,242,96
Combo2 : 157,222,253
Combo3 : 255,255,13

[HitObjects]
396,116,135,6,0,B|404:78|412:47|412:47,1,56,6|0,3:2|0:0,0:0:0:0:
316,178,468,2,0,B|308:216|300:247|300:247,1,56,0|0,3:2|0:0,0:0:0:0:
213,80,801,2,0,B|154:79|109:36|109:36,2,112,2|2|0,1:2|0:0|0:0,0:0:0:0:
213,80,1635,1,0,0:0:0:0:
153,153,1801,2,0,B|102:172|84:177|84:177,1,56,2|0,3:2|0:0,0:0:0:0:
0,305,2135,2,0,B|73:266|160:248|160:248,1,168,2|0,1:2|0:0,0:0:0:0:
219,322,2801,6,0,B|250:312|277:295|277:295,1,56,2|0,3:2|0:0,0:0:0:0:
456,326,3135,2,0,B|425:336|398:353|398:353,1,56,0|0,3:2|0:0,0:0:0:0:
288,221,3468,2,0,B|346:203|402:173|402:173,1,112,2|2,1:2|0:0,0:0:0:0:
391,178,3968,1,0,3:0:0:0:
487,223,4135,2,0,B|471:143|435:54|435:54,1,168,2|0,0:0|0:0,0:0:0:0:
303,17,4801,2,0,B|311:74|328:127|328:127,1,112,2|2,1:2|0:3,0:0:0:0:
133,254,5468,6,0,B|78:274|6:296|6:296,1,112,6|0,3:2|3:0,0:0:0:0:
133,254,5968,1,0,0:0:0:0:
206,301,6135,2,0,B|242:298|276:275|276:275,1,56,2|0,1:2|0:0,0:0:0:0:
355,342,6468,2,0,B|411:313|467:313|467:313,1,112,2|0,0:0|0:0,0:0:0:0:
498,249,6968,1,2,0:3:0:0:
441,201,7135,1,0,3:0:0:0:
303,168,7468,2,0,B|279:77|286:-7|286:-7,1,168,2|0,1:2|0:0,0:0:0:0:
235,220,8135,6,0,B|249:277|247:343|247:343,1,112,2|0,3:2|3:0,0:0:0:0:
247,331,8635,1,0,0:0:0:0:
324,370,8801,2,0,B|355:361|395:344|395:344,1,56,2|0,1:2|0:0,0:0:0:0:
168,305,9135,2,0,B|137:314|97:331|97:331,1,56,2|0,0:2|3:0,0:0:0:0:
44,378,9468,2,0,B|43:324|35:254|35:254,1,112,2|0,0:0|3:0,0:0:0:0:
92,146,10135,2,0,B|85:110|84:75|84:75,1,56,2|0,1:2|0:0,0:0:0:0:
33,32,10468,1,2,0:3:0:0:
157,193,10801,6,0,B|158:255|169:312|169:312,1,112,6|0,3:2|3:0,0:0:0:0:
167,304,11301,1,0,0:0:0:0:
103,370,11468,2,0,B|90:313|87:298|87:298,1,56,2|0,1:2|0:0,0:0:0:0:
242,374,11801,2,0,B|255:317|258:302|258:302,1,56,2|0,0:2|3:0,0:0:0:0:
326,362,12135,2,0,B|382:361|440:337|440:337,2,112,2|0|0,0:0|3:0|1:0,0:0:0:0:
349,284,12968,2,0,B|360:252|368:219|368:219,2,56,2|0|0,0:0|0:0|0:0,0:0:0:0:
458,186,13468,6,0,B|469:163|481:109|481:109,1,56,2|0,3:2|0:0,0:0:0:0:
433,58,13801,2,0,B|448:12|453:-3|453:-3,1,56,0|0,3:0|0:0,0:0:0:0:
336,86,14135,2,0,B|275:70|227:33|227:33,2,112,2|2|2,1:2|0:0|0:0,0:0:0:0:
336,86,14968,1,0,1:0:0:0:
289,153,15135,2,0,B|248:167|235:173|235:173,1,56,0|0,3:0|0:0,0:0:0:0:
172,124,15468,2,0,B|78:114|12:46|12:46,1,168,2|0,1:3|0:0,0:0:0:0:
236,73,16135,6,0,B|247:42|255:16|255:16,1,56,2|0,3:2|0:0,0:0:0:0:
371,169,16468,2,0,B|360:200|352:226|352:226,1,56,0|0,3:2|0:0,0:0:0:0:
282,325,16801,2,0,B|232:309|163:286|163:286,2,112,2|2|0,1:2|0:0|0:0,0:0:0:0:
282,325,17635,1,0,0:0:0:0:
365,304,17801,2,0,B|397:310|424:323|424:323,1,56,0|0,3:0|0:0,0:0:0:0:
456,384,18135,2,0,B|479:308|487:207|487:207,1,168,2|0,1:2|0:0,0:0:0:0:
452,133,18801,6,0,B|466:96|475:64|475:64,1,56,2|0,3:2|0:0,0:0:0:0:
392,59,19135,2,0,B|406:22|415:-10|415:-10,1,56,0|0,3:2|0:0,0:0:0:0:
273,86,19468,2,0,B|224:70|162:45|162:45,2,112,2|2|2,1:2|0:0|0:0,0:0:0:0:
273,86,20301,1,0,0:0:0:0:
331,169,20468,2,0,B|321:203|313:231|313:231,1,56,0|0,3:0|0:0,0:0:0:0:
244,254,20801,2,0,B|183:247|130:214|130:214,1,112,2|2,1:2|0:3,0:0:0:0:
376,376,21468,6,0,B|408:321|413:241|413:241,1,125.999996154785,6|0,3:2|3:0,0:0:0:0:
411,255,21968,1,0,0:0:0:0:
439,183,22135,2,0,B|476:173|509:159|509:159,1,62.9999980773926,0|0,1:0|0:0,0:0:0:0:
302,178,22468,1,2,0:0:0:0:
234,139,22635,2,0,B|165:151|102:187|102:187,1,125.999996154785,0|0,3:0|0:0,0:0:0:0:
50,227,23135,2,0,B|37:189|25:156|25:156,1,62.9999980773926,0|0,3:0|0:0,0:0:0:0:
62,97,23468,1,0,1:0:0:0:
106,282,23635,2,0,B|72:301|41:311|41:311,2,62.9999980773926,2|0|2,0:3|0:0|0:3,0:0:0:0:
211,375,24135,6,0,B|264:358|341:326|341:326,1,125.999996154785,2|0,3:2|3:0,0:0:0:0:
397,361,24635,1,0,0:0:0:0:
274,264,24801,2,0,B|340:247|411:207|411:207,1,125.999996154785,4|0,1:0|0:0,0:0:0:0:
480,248,25301,2,0,B|470:206|462:164|462:164,1,62.9999980773926,0|0,3:2|0:0,0:0:0:0:
346,82,25635,1,2,0:3:0:0:
346,82,25801,2,0,B|338:33|327:-1|327:-1,1,62.9999980773926,0|0,3:0|0:0,0:0:0:0:
181,179,26135,2,0,B|247:183|320:162|320:162,2,125.999996154785,2|2|4,1:2|0:3|3:1,0:0:0:0:
66,65,26968,5,0,0:0:0:0:
66,65,27135,2,0,B|86:13|91:-6|91:-6,1,62.9999980773926,0|0,3:0|0:0,0:0:0:0:
156,54,27468,2,0,B|189:50|230:39|230:39,1,62.9999980773926,2|0,1:2|0:0,0:0:0:0:
286,15,27801,1,2,0:0:0:0:
438,143,27968,2,0,B|374:135|290:157|290:157,1,125.999996154785,0|0,3:0|0:0,0:0:0:0:
236,146,28468,2,0,B|250:201|257:220|257:220,1,62.9999980773926,0|0,3:0|0:0,0:0:0:0:
424,365,28801,2,0,B|399:298|383:233|383:233,2,125.999996154785,2|2|4,1:2|0:0|3:1,0:0:0:0:
290,337,29635,5,0,0:0:0:0:
218,362,29801,2,0,B|185:355|158:340|158:340,1,62.9999980773926,0|0,3:2|0:0,0:0:0:0:
61,358,30135,2,0,B|74:326|84:290|84:290,1,62.9999980773926,6|0,1:2|0:0,0:0:0:0:
81,298,30468,1,2,0:0:0:0:
13,185,30635,2,0,B|15:121|51:56|51:56,1,125.999996154785,0|0,3:0|0:0,0:0:0:0:
122,35,31135,2,0,B|153:49|197:59|197:59,1,62.9999980773926,0|0,3:0|0:0,0:0:0:0:
290,210,31468,2,0,B|236:185|159:168|159:168,1,125.999996154785,0|2,1:0|0:0,0:0:0:0:
380,161,32051,5,2,0:0:0:0:
380,161,32135,2,0,B|404:99|411:26|411:26,1,125.999996154785,6|0,3:2|3:0,0:0:0:0:
338,5,32635,1,0,0:0:0:0:
451,218,32801,2,0,B|481:233|514:246|514:246,1,62.9999980773926,2|0,1:2|0:0,0:0:0:0:
288,288,33135,1,2,0:0:0:0:
343,366,33301,2,0,B|366:309|373:240|373:240,1,125.999996154785,0|0,3:0|0:0,0:0:0:0:
426,357,33801,2,0,B|436:315|445:279|445:279,1,62.9999980773926,0|0,3:0|0:0,0:0:0:0:
302,171,34135,2,0,B|268:161|240:142|240:142,1,62.9999980773926,2|0,1:2|0:0,0:0:0:0:
211,76,34468,1,0,0:0:0:0:
211,76,34635,1,0,0:0:0:0:
296,37,34801,6,0,B|336:22|360:13|360:13,1,62.9999980773926,2|0,3:2|0:0,0:0:0:0:
357,92,35135,2,0,B|397:77|421:68|421:68,1,62.9999980773926,2|0,3:2|0:0,0:0:0:0:
156,14,35468,2,0,B|124:28|86:30|86:30,1,62.9999980773926,6|0,1:2|0:0,0:0:0:0:
34,76,35801,1,2,0:0:0:0:
86,130,35968,1,0,3:0:0:0:
0,298,36135,2,0,B|17:224|28:169|28:169,1,125.999996154785,2|0,0:0|3:0,0:0:0:0:
86,130,36635,1,0,0:0:0:0:
148,176,36801,2,0,B|186:167|221:154|221:154,1,62.9999980773926,0|0,1:0|0:0,0:0:0:0:
341,14,37135,2,0,B|303:23|268:36|268:36,1,62.9999980773926,2|0,0:0|0:0,0:0:0:0:
334,98,37468,6,0,B|393:86|478:64|478:64,2,125.999996154785,4|0|0,3:1|3:0|1:0,0:0:0:0:
283,158,38301,1,2,0:3:0:0:
163,54,38468,2,0,B|201:71|231:82|231:82,1,62.9999980773926,2|0,0:0|3:0,0:0:0:0:
285,39,38801,1,2,0:0:0:0:
159,139,38968,1,2,0:3:0:0:
11,63,39135,2,0,B|54:44|84:30|84:30,1,62.9999980773926,0|0,3:0|0:0,0:0:0:0:
159,139,39468,2,0,B|95:159|34:198|34:198,2,125.999996154785,0|2|4,1:2|0:0|3:1,0:0:0:0:
255,235,40301,5,0,0:0:0:0:
255,235,40468,2,0,B|223:219|188:205|188:205,1,62.9999980773926,0|0,3:0|0:0,0:0:0:0:
388,135,40801,2,0,B|421:79|429:-3|429:-3,1,125.999996154785,6|2,1:2|0:0,0:0:0:0:
293,88,41301,2,0,B|242:105|221:111|221:111,1,62.9999980773926,0|0,3:0|0:0,0:0:0:0:
233,107,41635,1,2,0:3:0:0:
347,236,41801,2,0,B|401:283|468:285|468:285,1,125.999996154785,0|0,3:0|1:0,0:0:0:0:
461,284,42468,1,2,0:3:0:0:
391,164,42801,6,0,B|426:110|436:15|436:15,2,140,6|2|0,3:2|0:3|1:0,0:0:0:0:
413,239,43635,2,0,B|450:258|480:268|480:268,1,70,2|2,0:0|0:3,0:0:0:0:
276,296,43968,2,0,B|199:264|132:247|132:247,1,140,0|0,3:2|0:0,0:0:0:0:
64,269,44468,1,2,0:3:0:0:
114,329,44635,1,0,3:0:0:0:
86,195,44801,2,0,B|122:130|119:54|119:54,2,140,2|2|4,1:0|3:3|3:1,0:0:0:0:
86,195,45801,6,0,B|121:210|154:226|154:226,1,70,2|0,3:0|0:0,0:0:0:0:
203,323,46135,2,0,B|269:352|353:374|353:374,1,140,0|2,1:0|3:0,0:0:0:0:
455,246,46635,2,0,B|465:206|481:160|481:160,1,70,0|0,1:0|0:0,0:0:0:0:
290,220,46968,1,0,3:0:0:0:
342,292,47135,2,0,B|371:225|383:151|383:151,2,140,2|2|2,3:0|1:0|3:0,0:0:0:0:
256,295,47968,1,0,1:0:0:0:
396,363,48135,6,0,B|440:351|469:339|469:339,1,70,6|0,3:2|0:0,0:0:0:0:
256,295,48468,2,0,B|271:351|279:381|279:381,1,70,2|0,0:3|0:0,0:0:0:0:
411,213,48801,2,0,B|394:169|381:122|381:122,1,70,0|0,1:0|0:0,0:0:0:0:
313,124,49135,1,2,0:3:0:0:
458,7,49301,2,0,B|481:64|491:147|491:147,1,140,0|0,3:2|0:0,0:0:0:0:
389,284,49801,1,2,0:3:0:0:
491,348,49968,1,2,3:2:0:0:
423,371,50135,2,0,B|363:373|266:358|266:358,2,140,2|2|4,1:2|3:3|3:1,0:0:0:0:
409,205,50968,5,2,0:0:0:0:
465,274,51135,2,0,B|479:234|494:195|494:195,1,70,2|0,0:3|0:0,0:0:0:0:
396,87,51468,2,0,B|409:50|424:2|424:2,1,70,2|0,1:2|0:0,0:0:0:0:
298,171,51801,2,0,B|230:149|92:109|92:109,1,210,2|2,3:2|0:3,0:0:0:0:
24,270,52468,2,0,B|98:281|145:211|145:211,1,140,6|0,1:2|0:0,0:0:0:0:
6,58,52968,1,0,3:0:0:0:
77,43,53135,2,0,B|87:83|97:112|97:112,1,70,2|0,0:0|0:0,0:0:0:0:
50,173,53468,5,6,3:2:0:0:
193,12,53635,1,2,0:3:0:0:
170,88,53801,1,0,3:0:0:0:
228,134,53968,1,2,0:0:0:0:
399,8,54135,2,0,B|358:24|324:37|324:37,1,70,2|0,1:2|0:0,0:0:0:0:
269,236,54468,2,0,B|331:202|413:191|413:191,1,140,2|0,0:3|0:0,0:0:0:0:
447,128,54968,1,0,1:0:0:0:
365,293,55135,1,2,0:3:0:0:
424,346,55301,1,2,3:2:0:0:
326,190,55468,2,0,B|308:144|299:108|299:108,1,70,0|0,1:0|0:0,0:0:0:0:
163,53,55801,1,2,1:3:0:0:
226,13,55968,1,0,1:0:0:0:
136,131,56135,5,6,3:2:0:0:
136,131,56468,2,0,B|99:143|57:157|57:157,1,70,2|0,0:3|0:0,0:0:0:0:
310,111,56801,2,0,B|323:68|334:27|334:27,1,70,2|0,1:2|0:0,0:0:0:0:
156,235,57135,2,0,B|132:316|106:401|106:401,1,140,2|0,0:3|0:0,0:0:0:0:
251,256,57635,1,2,0:0:0:0:
320,296,57801,2,0,B|359:295|398:273|398:273,1,70,2|0,0:3|3:0,0:0:0:0:
447,350,58135,2,0,B|461:313|472:270|472:270,1,70,0|0,1:0|0:0,0:0:0:0:
357,139,58468,2,0,B|343:176|332:219|332:219,1,70,2|0,3:0|0:0,0:0:0:0:
464,157,58801,6,0,B|503:92|487:10|487:10,1,140,6|2,3:2|0:3,0:0:0:0:
488,21,59301,1,0,0:0:0:0:
386,48,59468,2,0,B|337:30|307:15|307:15,1,70,0|0,1:0|0:0,0:0:0:0:
258,88,59801,2,0,B|244:41|233:10|233:10,1,70,2|0,0:3|3:0,0:0:0:0:
153,191,60135,2,0,B|171:235|177:270|177:270,1,70,2|0,0:0|0:0,0:0:0:0:
150,323,60468,1,2,0:3:0:0:
300,278,60635,1,2,3:2:0:0:
259,358,60801,1,2,1:2:0:0:
323,302,60968,1,0,0:0:0:0:
439,359,61135,6,0,B|423:305|420:274|420:274,1,70,2|0,3:0|0:0,0:0:0:0:
273,203,61468,2,0,B|223:143|238:54|238:54,1,140,6|2,3:2|0:3,0:0:0:0:
81,216,61968,1,0,3:0:0:0:
132,278,62135,2,0,B|67:305|-6:340|-6:340,1,140,2|2,3:2|0:3,0:0:0:0:
195,228,62635,1,0,3:0:0:0:
253,300,62801,2,0,B|294:362|373:367|373:367,1,140,2|2,3:2|0:3,0:0:0:0:
505,234,63301,1,0,3:0:0:0:
459,179,63468,2,0,B|390:199|314:221|314:221,1,140,2|2,3:2|0:3,0:0:0:0:
324,217,63968,1,0,3:0:0:0:
256,192,72135,12,4,74801,3:2:0:0:
339,115,75135,6,0,B|357:75|364:35|364:35,1,70,0|0,3:2|0:0,0:0:0:0:
418,188,75468,2,0,B|450:206|494:218|494:218,1,70,2|0,1:2|0:0,0:0:0:0:
484,288,75801,1,2,0:0:0:0:
282,186,75968,2,0,B|238:122|260:37|260:37,1,140,0|0,3:0|0:0,0:0:0:0:
360,48,76468,2,0,B|396:34|432:20|432:20,1,70,0|0,3:0|0:0,0:0:0:0:
483,69,76801,1,2,1:2:0:0:
355,149,76968,1,0,0:0:0:0:
419,187,77135,1,2,0:3:0:0:
354,225,77301,1,2,0:3:0:0:
220,294,77468,6,0,B|174:308|131:324|131:324,1,70,2|0,3:2|0:0,0:0:0:0:
317,384,77801,2,0,B|334:331|341:308|341:308,1,70,0|0,3:0|0:0,0:0:0:0:
209,207,78135,2,0,B|226:164|234:129|234:129,1,70,6|0,1:2|0:0,0:0:0:0:
386,78,78468,2,0,B|403:32|414:1|414:1,1,70,2|0,0:0|3:0,0:0:0:0:
321,20,78801,1,2,0:0:0:0:
450,144,78968,1,2,0:3:0:0:
403,218,79135,2,0,B|412:254|422:291|422:291,1,70,2|0,3:2|0:0,0:0:0:0:
388,355,79468,2,0,B|315:346|254:315|254:315,2,140,2|2|4,1:2|0:0|3:1,0:0:0:0:
177,360,80468,6,0,B|164:317|157:282|157:282,1,70,0|0,3:0|0:0,0:0:0:0:
93,345,80801,2,0,B|78:282|58:202|58:202,1,140,2|2,1:2|0:0,0:0:0:0:
195,137,81301,2,0,B|171:65|173:-2|173:-2,1,140,0|0,3:0|0:0,0:0:0:0:
96,48,81801,2,0,B|58:34|22:18|22:18,1,70,0|0,3:2|0:0,0:0:0:0:
278,16,82135,2,0,B|336:35|363:43|363:43,1,70,2|0,1:2|0:0,0:0:0:0:
358,116,82468,2,0,B|434:128|492:76|492:76,1,140,2|4,0:3|3:1,0:0:0:0:
283,258,83135,6,0,B|242:249|203:239|203:239,1,70,0|0,3:0|0:0,0:0:0:0:
154,291,83468,2,0,B|86:264|-3:255|-3:255,1,140,6|2,1:2|0:3,0:0:0:0:
133,159,83968,1,0,3:0:0:0:
93,94,84135,2,0,B|105:53|112:16|112:16,1,70,2|0,0:0|0:0,0:0:0:0:
231,174,84468,2,0,B|219:215|212:252|212:252,1,70,2|0,3:2|0:0,0:0:0:0:
154,291,84801,2,0,B|86:287|12:254|12:254,2,140,0|2|4,1:2|0:3|3:1,0:0:0:0:
278,342,85635,5,0,0:0:0:0:
278,342,85801,2,0,B|234:360|194:370|194:370,1,70,0|0,3:0|0:0,0:0:0:0:
370,313,86135,2,0,B|379:274|391:233|391:233,1,70,2|0,1:2|0:0,0:0:0:0:
345,180,86468,1,2,0:3:0:0:
463,283,86635,1,0,3:0:0:0:
357,160,86801,2,0,B|389:141|424:133|424:133,1,70,2|0,0:1|0:0,0:0:0:0:
429,32,87135,2,0,B|462:47|500:66|500:66,1,70,2|0,3:1|0:0,0:0:0:0:
492,62,87468,1,2,1:0:0:0:
288,24,87635,1,0,0:0:0:0:
288,24,87801,1,2,0:1:0:0:
210,85,87968,1,0,0:0:0:0:
210,85,88135,6,0,B|171:73|141:54|141:54,1,70,6|0,3:1|0:0,0:0:0:0:
254,188,88468,2,0,B|236:237|226:267|226:267,1,70,0|0,3:0|0:0,0:0:0:0:
168,329,88801,2,0,B|154:293|145:252|145:252,1,70,6|0,1:2|0:0,0:0:0:0:
298,374,89135,2,0,B|309:331|320:296|320:296,1,70,2|0,0:0|3:0,0:0:0:0:
394,294,89468,1,2,0:0:0:0:
332,187,89635,1,2,0:3:0:0:
381,128,89801,2,0,B|412:118|446:100|446:100,1,70,0|0,3:0|0:0,0:0:0:0:
230,253,90135,2,0,B|159:270|90:297|90:297,2,140,2|2|4,1:0|0:3|3:1,0:0:0:0:
239,169,90968,5,2,0:3:0:0:
309,196,91135,1,0,3:0:0:0:
243,142,91301,1,2,0:3:0:0:
364,72,91468,2,0,B|351:18|343:-18|343:-18,1,70,2|0,1:0|0:0,0:0:0:0:
451,173,91801,2,0,B|396:181|306:208|306:208,1,140,2|2,0:1|0:3,0:0:0:0:
314,205,92301,1,0,0:0:0:0:
420,309,92468,2,0,B|452:327|484:341|484:341,1,70,2|0,3:1|0:0,0:0:0:0:
347,377,92801,2,0,B|328:337|323:299|323:299,1,70,2|0,1:0|0:0,0:0:0:0:
417,197,93135,2,0,B|458:184|496:170|496:170,1,70,2|0,0:1|0:0,0:0:0:0:
245,314,93468,6,0,B|172:321|101:360|101:360,1,140,4|0,3:1|3:0,0:0:0:0:
111,354,93968,1,0,0:0:0:0:
6,197,94135,2,0,B|44:219|76:229|76:229,1,70,6|0,1:2|0:0,0:0:0:0:
185,87,94468,2,0,B|168:37|162:9|162:9,1,70,2|0,0:0|3:0,0:0:0:0:
164,20,94801,1,2,0:3:0:0:
273,122,94968,1,0,0:0:0:0:
206,163,95135,1,0,3:0:0:0:
257,215,95301,1,2,0:3:0:0:
202,352,95468,1,0,1:0:0:0:
202,352,96135,6,0,B|140:327|68:313|68:313,1,125.999996154785,6|0,3:2|3:0,0:0:0:0:
81,315,96635,1,0,0:0:0:0:
21,376,96802,2,0,B|9:341|-2:303|-2:303,1,62.9999980773926,0|0,1:0|0:0,0:0:0:0:
134,238,97135,1,2,0:0:0:0:
68,193,97302,2,0,B|45:126|33:70|33:70,1,125.999996154785,0|0,3:0|0:0,0:0:0:0:
199,185,97802,2,0,B|212:223|224:256|224:256,1,62.9999980773926,0|0,3:0|0:0,0:0:0:0:
197,319,98135,1,0,1:0:0:0:
264,361,98302,2,0,B|296:356|325:335|325:335,2,62.9999980773926,2|0|2,0:3|0:0|0:3,0:0:0:0:
347,237,98802,6,0,B|413:231|472:287|472:287,1,125.999996154785,2|0,3:2|3:0,0:0:0:0:
462,279,99302,1,0,0:0:0:0:
273,163,99468,2,0,B|341:149|410:136|410:136,1,125.999996154785,4|0,1:0|0:0,0:0:0:0:
478,150,99968,2,0,B|464:107|460:66|460:66,1,62.9999980773926,0|0,3:2|0:0,0:0:0:0:
394,61,100302,1,2,0:3:0:0:
394,61,100468,2,0,B|386:12|375:-22|375:-22,1,62.9999980773926,0|0,3:0|0:0,0:0:0:0:
318,155,100802,2,0,B|309:86|294:16|294:16,1,125.999996154785,2|2,1:2|0:3,0:0:0:0:
121,219,101385,5,2,0:0:0:0:
121,219,101468,2,0,B|50:223|6:164|6:164,1,125.999996154785,6|0,3:2|3:0,0:0:0:0:
114,301,101968,1,0,0:0:0:0:
191,279,102135,2,0,B|223:290|268:305|268:305,1,62.9999980773926,2|0,1:2|0:0,0:0:0:0:
446,212,102468,1,2,0:0:0:0:
378,250,102635,2,0,B|310:242|255:206|255:206,1,125.999996154785,0|0,3:0|0:0,0:0:0:0:
197,163,103135,2,0,B|186:128|179:83|179:83,1,62.9999980773926,0|0,3:0|0:0,0:0:0:0:
75,129,103468,2,0,B|64:66|52:1|52:1,2,125.999996154785,2|2|4,1:2|0:0|3:1,0:0:0:0:
71,222,104302,5,0,0:0:0:0:
71,222,104468,2,0,B|38:215|11:200|11:200,1,62.9999980773926,0|0,3:2|0:0,0:0:0:0:
113,369,104801,2,0,B|124:336|136:301|136:301,1,62.9999980773926,6|0,1:2|0:0,0:0:0:0:
208,332,105135,1,2,0:0:0:0:
281,366,105302,2,0,B|298:307|312:232|312:232,1,125.999996154785,0|0,3:0|0:0,0:0:0:0:
378,201,105802,2,0,B|409:215|453:225|453:225,1,62.9999980773926,0|0,3:0|0:0,0:0:0:0:
290,82,106135,2,0,B|236:57|159:40|159:40,1,125.999996154785,0|2,1:0|0:0,0:0:0:0:
442,147,106718,5,2,0:0:0:0:
442,147,106802,2,0,B|470:86|473:12|473:12,1,125.999996154785,6|0,3:2|3:0,0:0:0:0:
472,25,107302,1,0,0:0:0:0:
332,106,107468,2,0,B|299:116|262:123|262:123,1,62.9999980773926,2|0,1:2|0:0,0:0:0:0:
361,243,107802,1,2,0:0:0:0:
280,365,107968,2,0,B|247:306|250:239|250:239,1,125.999996154785,0|0,3:0|0:0,0:0:0:0:
410,316,108468,2,0,B|439:330|477:342|477:342,1,62.9999980773926,0|0,3:0|0:0,0:0:0:0:
432,202,108802,2,0,B|421:162|411:130|411:130,1,62.9999980773926,2|0,1:2|0:0,0:0:0:0:
468,11,109135,1,2,0:3:0:0:
490,83,109302,1,0,0:0:0:0:
413,68,109468,6,0,B|373:53|349:44|349:44,1,62.9999980773926,2|0,3:2|0:0,0:0:0:0:
181,104,109802,2,0,B|141:89|117:80|117:80,1,62.9999980773926,2|0,3:2|0:0,0:0:0:0:
50,184,110135,2,0,B|86:180|123:161|123:161,1,62.9999980773926,6|0,1:2|0:0,0:0:0:0:
207,27,110468,1,2,0:0:0:0:
292,169,110635,1,0,3:0:0:0:
227,308,110802,2,0,B|196:245|199:179|199:179,1,125.999996154785,2|0,0:0|3:0,0:0:0:0:
174,110,111302,1,0,0:0:0:0:
174,110,111468,2,0,B|136:99|101:83|101:83,1,62.9999980773926,0|0,1:0|0:0,0:0:0:0:
324,40,111802,2,0,B|362:49|397:62|397:62,1,62.9999980773926,2|0,0:0|0:0,0:0:0:0:
373,137,112135,6,0,B|437:155|508:173|508:173,2,125.999996154785,4|0|0,3:1|3:0|1:0,0:0:0:0:
300,217,112968,1,2,0:3:0:0:
360,301,113135,2,0,B|376:264|388:233|388:233,1,62.9999980773926,2|0,0:0|3:0,0:0:0:0:
258,296,113468,1,2,0:0:0:0:
299,362,113635,1,2,0:3:0:0:
222,363,113802,2,0,B|179:344|149:330|149:330,1,62.9999980773926,0|0,3:0|0:0,0:0:0:0:
21,373,114135,2,0,B|41:314|62:240|62:240,2,125.999996154785,0|2|4,1:2|0:0|3:1,0:0:0:0:
145,240,114968,5,0,0:0:0:0:
102,171,115135,2,0,B|69:157|35:141|35:141,1,62.9999980773926,0|0,3:0|0:0,0:0:0:0:
247,120,115468,2,0,B|280:64|288:-18|288:-18,1,125.999996154785,0|2,1:0|0:0,0:0:0:0:
275,199,115968,2,0,B|312:217|347:231|347:231,1,62.9999980773926,0|0,3:0|0:0,0:0:0:0:
260,277,116302,1,2,0:3:0:0:
365,151,116468,2,0,B|432:160|484:108|484:108,2,125.999996154785,0|0|2,3:0|1:0|0:3,0:0:0:0:
77,361,117468,6,0,B|104:302|122:212|122:212,1,140,6|2,3:2|0:3,0:0:0:0:
28,260,117968,1,2,0:0:0:0:
185,170,118135,2,0,B|202:116|210:90|210:90,1,70,0|0,1:0|0:0,0:0:0:0:
296,197,118468,1,2,0:3:0:0:
498,193,118635,2,0,B|426:171|352:146|352:146,1,140,0|0,3:2|0:0,0:0:0:0:
273,18,119135,1,2,0:3:0:0:
336,63,119302,1,0,3:0:0:0:
205,103,119468,2,0,B|133:101|78:41|78:41,2,140,2|2|4,1:0|3:3|3:1,0:0:0:0:
321,281,120301,5,0,0:0:0:0:
321,281,120468,2,0,B|356:296|389:312|389:312,1,70,2|0,3:0|0:0,0:0:0:0:
244,371,120802,2,0,B|219:298|222:229|222:229,1,140,0|2,1:0|3:0,0:0:0:0:
347,120,121302,2,0,B|365:84|369:31|369:31,1,70,0|0,3:0|0:0,0:0:0:0:
271,75,121635,1,0,1:0:0:0:
307,191,121801,1,2,0:3:0:0:
434,161,121968,1,0,3:0:0:0:
492,222,122135,2,0,B|444:235|415:243|415:243,1,70,0|0,1:0|0:0,0:0:0:0:
260,273,122468,1,2,1:3:0:0:
300,349,122635,1,0,1:0:0:0:
133,277,122802,6,0,B|76:258|47:246|47:246,1,70,6|0,3:2|0:0,0:0:0:0:
156,110,123135,1,2,3:0:0:0:
16,156,123301,1,0,1:0:0:0:
61,83,123468,2,0,B|40:38|31:-8|31:-8,1,70,6|0,1:2|0:0,0:0:0:0:
233,168,123801,2,0,B|219:285|195:381|195:381,1,210,2|0,3:0|3:0,0:0:0:0:
379,326,124468,1,2,0:3:0:0:
309,346,124635,1,2,3:2:0:0:
480,261,124802,2,0,B|415:250|329:226|329:226,1,140,0|2,1:2|3:3,0:0:0:0:
470,123,125301,1,0,1:0:0:0:
423,36,125468,5,6,3:2:0:0:
304,104,125635,1,2,0:0:0:0:
189,69,125802,2,0,B|175:29|160:-10|160:-10,1,70,2|0,0:3|0:0,0:0:0:0:
233,251,126135,2,0,B|247:215|261:166|261:166,1,70,2|0,1:2|0:0,0:0:0:0:
157,208,126468,1,2,0:3:0:0:
217,354,126635,2,0,B|288:358|376:346|376:346,1,140,0|0,3:0|0:0,0:0:0:0:
406,192,127135,1,2,0:3:0:0:
320,229,127301,1,0,3:0:0:0:
457,300,127468,2,0,B|446:345|437:378|437:378,1,70,2|0,1:2|0:0,0:0:0:0:
331,142,127801,2,0,B|345:95|353:69|353:69,1,70,2|0,3:0|0:0,0:0:0:0:
296,10,128135,5,6,3:2:0:0:
130,72,128302,1,2,0:3:0:0:
214,103,128468,1,0,3:0:0:0:
71,175,128635,1,2,1:2:0:0:
160,326,128801,2,0,B|170:288|179:250|179:250,1,70,2|0,1:2|0:0,0:0:0:0:
331,142,129135,2,0,B|406:166|467:95|467:95,1,140,6|0,3:2|0:0,0:0:0:0:
321,51,129635,1,0,3:0:0:0:
175,153,129801,1,2,0:3:0:0:
251,189,129968,1,2,0:0:0:0:
209,81,130135,2,0,B|191:35|182:-1|182:-1,1,70,0|0,1:0|0:0,0:0:0:0:
121,58,130468,1,2,3:3:0:0:
264,7,130635,1,0,1:0:0:0:
120,217,130802,5,6,3:2:0:0:
120,217,131135,2,0,B|83:229|41:243|41:243,1,70,2|0,0:3|0:0,0:0:0:0:
193,325,131468,2,0,B|223:345|271:353|271:353,1,70,2|0,1:2|0:0,0:0:0:0:
332,379,131802,2,0,B|356:298|382:213|382:213,1,140,2|0,0:3|0:0,0:0:0:0:
374,112,132302,1,2,0:0:0:0:
445,146,132468,2,0,B|481:136|521:122|521:122,1,70,2|0,0:3|3:0,0:0:0:0:
308,73,132802,2,0,B|300:27|264:-7|264:-7,1,70,0|0,1:0|0:0,0:0:0:0:
299,210,133135,2,0,B|286:251|271:289|271:289,1,70,2|0,3:0|0:0,0:0:0:0:
367,362,133468,6,0,B|388:290|414:213|414:213,1,140,6|2,3:2|0:3,0:0:0:0:
408,228,133968,1,0,0:0:0:0:
445,146,134135,2,0,B|396:128|366:113|366:113,1,70,0|0,1:0|0:0,0:0:0:0:
214,72,134468,2,0,B|200:25|189:-6|189:-6,1,70,2|0,0:3|3:0,0:0:0:0:
262,220,134802,2,0,B|298:210|338:187|338:187,1,70,2|0,0:0|0:0,0:0:0:0:
326,193,135135,1,2,0:3:0:0:
275,300,135302,1,2,3:2:0:0:
325,361,135468,1,2,1:2:0:0:
249,312,135635,1,0,0:0:0:0:
444,354,135802,2,0,B|426:301|423:269|423:269,1,70,2|0,3:0|0:0,0:0:0:0:
372,229,136135,6,0,B|361:150|339:75|339:75,1,140,6|2,3:2|0:3,0:0:0:0:
394,35,136635,1,0,0:0:0:0:
258,88,136801,2,0,B|222:80|190:67|190:67,1,70,0|0,1:0|0:0,0:0:0:0:
444,158,137135,2,0,B|487:138|517:129|517:129,1,70,2|0,0:3|3:0,0:0:0:0:
510,211,137468,2,0,B|446:233|370:260|370:260,1,140,2|2,0:0|0:3,0:0:0:0:
203,355,137968,1,0,3:0:0:0:
299,364,138135,2,0,B|278:310|267:277|267:277,1,70,0|0,1:0|0:0,0:0:0:0:
354,130,138468,2,0,B|385:145|430:157|430:157,1,70,2|0,3:0|0:0,0:0:0:0:
419,154,138801,6,0,B|369:23|249:73|249:73,1,210,6|0,3:2|0:0,0:0:0:0:
188,19,139468,2,0,B|178:60|168:94|168:94,1,70,0|0,1:0|0:0,0:0:0:0:
56,156,139801,1,2,0:3:0:0:
119,204,139968,1,0,3:0:0:0:
14,68,140135,2,0,B|53:57|85:43|85:43,1,70,2|0,0:0|0:0,0:0:0:0:
80,45,140468,1,2,0:3:0:0:
33,231,140635,1,2,3:2:0:0:
134,313,140801,2,0,B|194:298|274:279|274:279,2,140,0|2|4,1:0|3:0|3:1,0:0:0:0:
357,322,141635,5,0,0:0:0:0:
357,322,141801,2,0,B|407:343|433:349|433:349,1,70,2|0,0:3|0:0,0:0:0:0:
439,218,142135,2,0,B|476:202|509:193|509:193,1,70,2|0,1:2|0:0,0:0:0:0:
355,48,142468,1,2,0:3:0:0:
375,122,142635,2,0,B|309:151|228:163|228:163,1,140,0|0,3:0|0:0,0:0:0:0:
155,96,143135,2,0,B|148:51|141:20|141:20,1,70,2|0,0:3|3:0,0:0:0:0:
142,27,143468,1,0,1:0:0:0:
211,236,143801,2,0,B|218:281|225:312|225:312,1,70,2|0,3:3|0:0,0:0:0:0:
284,384,144135,6,0,B|325:319|304:238|304:238,1,140,6|0,3:2|3:0,0:0:0:0:
264,179,144635,1,2,1:3:0:0:
399,313,144801,2,0,B|433:306|483:284|483:284,1,70,2|0,1:3|0:0,0:0:0:0:
211,236,145135,2,0,B|137:261|51:284|51:284,1,140,6|0,3:2|0:0,0:0:0:0:
149,152,145635,1,0,3:0:0:0:
75,159,145801,2,0,B|61:94|58:73|58:73,1,70,2|0,0:3|0:0,0:0:0:0:
211,236,146135,2,0,B|227:322|241:387|241:387,1,140,0|0,1:0|3:0,0:0:0:0:
358,264,146635,5,0,1:0:0:0:
311,201,146801,2,0,B|306:127|287:43|287:43,1,140,2|2,3:2|0:3,0:0:0:0:
291,62,147301,1,0,0:0:0:0:
418,135,147468,2,0,B|454:125|490:107|490:107,1,70,0|0,1:0|0:0,0:0:0:0:
439,229,147801,2,0,B|477:245|513:260|513:260,1,70,2|0,0:3|3:0,0:0:0:0:
503,256,148135,2,0,B|426:262|353:303|353:303,1,140,2|2,0:0|0:3,0:0:0:0:
244,286,148635,1,0,3:0:0:0:
231,367,148801,2,0,B|271:357|310:341|310:341,1,70,2|0,1:2|0:0,0:0:0:0:
136,288,149135,2,0,B|121:234|109:198|109:198,1,70,2|0,3:0|0:0,0:0:0:0:
155,146,149468,6,0,B|128:76|108:-9|108:-9,2,140,6|2|0,3:2|3:0|1:0,0:0:0:0:
219,191,150301,1,2,0:3:0:0:
288,153,150468,1,0,3:0:0:0:
224,108,150635,1,0,1:0:0:0:
350,222,150801,1,2,0:3:0:0:
408,177,150968,1,0,3:0:0:0:
426,253,151135,2,0,B|464:264|505:277|505:277,1,70,2|2,3:0|0:0,0:0:0:0:
326,30,151468,2,0,B|385:47|463:68|463:68,1,140,2|0,1:2|3:0,0:0:0:0:
350,222,151968,5,0,1:0:0:0:
363,299,152135,2,0,B|345:356|337:384|337:384,1,70,6|0,3:2|0:0,0:0:0:0:
203,242,152468,2,0,B|216:203|226:166|226:166,1,70,2|0,0:3|0:0,0:0:0:0:
182,90,152801,2,0,B|138:75|112:61|112:61,1,70,2|0,1:2|0:0,0:0:0:0:
115,294,153135,2,0,B|173:314|255:339|255:339,2,140,2|2|0,3:0|0:0|1:0,0:0:0:0:
115,294,154135,1,2,0:0:0:0:
212,174,154301,1,0,3:0:0:0:
113,149,154468,2,0,B|80:163|35:170|35:170,1,70,2|0,0:3|0:0,0:0:0:0:
197,70,154801,6,0,B|247:54|274:49|274:49,1,70,2|0,3:2|0:0,0:0:0:0:
382,158,155135,1,2,3:0:0:0:
308,182,155301,1,0,1:0:0:0:
437,98,155468,2,0,B|452:54|467:10|467:10,1,70,2|0,0:0|0:0,0:0:0:0:
364,240,155801,2,0,B|332:352|320:390|320:390,1,140,2|0,3:3|0:0,0:0:0:0:
416,346,156301,1,0,3:2:0:0:
264,304,156468,2,0,B|218:318|190:326|190:326,1,70,2|0,0:3|0:0,0:0:0:0:
132,371,156801,2,0,B|102:303|117:224|117:224,1,140,0|0,1:0|3:0,0:0:0:0:
196,144,157301,1,0,1:0:0:0:
146,84,157468,6,0,B|160:40|167:5|167:5,1,70,6|0,3:2|0:0,0:0:0:0:
4,152,157801,2,0,B|52:139|85:128|85:128,1,70,2|0,0:3|0:0,0:0:0:0:
245,48,158135,2,0,B|303:27|385:12|385:12,1,140,0|2,1:0|0:3,0:0:0:0:
269,189,158635,2,0,B|211:210|129:225|129:225,1,140,0|0,3:0|0:0,0:0:0:0:
68,300,159135,2,0,B|54:243|50:218|50:218,1,70,2|0,0:3|3:0,0:0:0:0:
192,288,159468,1,0,1:0:0:0:
252,330,159635,1,0,0:0:0:0:
329,332,159801,1,2,3:0:0:0:
392,368,159968,1,0,0:0:0:0:
256,192,168135,12,2,170801,0:0:0:0:
159,274,171135,6,0,B|177:234|184:194|184:194,1,70,0|0,3:2|0:0,0:0:0:0:
282,321,171468,2,0,B|314:333|358:351|358:351,1,70,2|0,1:2|0:0,0:0:0:0:
413,302,171801,1,2,0:0:0:0:
385,227,171968,2,0,B|407:169|426:88|426:88,1,140,0|0,3:0|0:0,0:0:0:0:
292,97,172468,2,0,B|306:61|315:23|315:23,1,70,0|0,3:0|0:0,0:0:0:0:
384,15,172801,1,2,1:2:0:0:
258,168,172968,1,0,0:0:0:0:
116,84,173135,2,0,B|70:98|31:110|31:110,1,70,2|0,0:3|0:0,0:0:0:0:
133,172,173468,6,0,B|147:218|163:261|163:261,1,70,2|0,3:2|0:0,0:0:0:0:
37,375,173801,2,0,B|20:322|13:299|13:299,1,70,0|0,3:0|0:0,0:0:0:0:
222,298,174135,2,0,B|252:315|296:327|296:327,1,70,6|0,1:2|0:0,0:0:0:0:
365,379,174468,2,0,B|382:333|393:302|393:302,1,70,2|0,0:0|3:0,0:0:0:0:
355,142,174801,1,2,0:0:0:0:
437,184,174968,1,2,0:3:0:0:
371,245,175135,2,0,B|380:281|390:318|390:318,1,70,2|0,3:2|0:0,0:0:0:0:
269,161,175468,2,0,B|239:86|242:17|242:17,2,140,2|2|4,1:2|0:0|3:1,0:0:0:0:
245,362,176468,6,0,B|232:319|225:284|225:284,1,70,0|0,3:0|0:0,0:0:0:0:
161,237,176801,2,0,B|95:260|18:272|18:272,1,140,2|2,1:2|0:0,0:0:0:0:
190,142,177301,2,0,B|175:64|173:-2|173:-2,1,140,0|0,3:0|0:0,0:0:0:0:
296,84,177801,2,0,B|333:95|372:109|372:109,1,70,0|0,3:2|0:0,0:0:0:0:
430,218,178135,2,0,B|488:237|515:245|515:245,1,70,2|0,1:2|0:0,0:0:0:0:
352,372,178468,2,0,B|337:302|320:225|320:225,1,140,2|4,0:3|3:1,0:0:0:0:
322,235,179135,6,0,B|281:229|242:216|242:216,1,70,0|0,3:0|0:0,0:0:0:0:
145,329,179468,2,0,B|73:309|-12:293|-12:293,1,140,6|2,1:2|0:3,0:0:0:0:
129,169,179968,1,0,3:0:0:0:
88,99,180135,2,0,B|100:58|107:21|107:21,1,70,2|0,0:0|0:0,0:0:0:0:
189,17,180468,2,0,B|177:58|170:95|170:95,1,70,2|0,3:2|0:0,0:0:0:0:
165,253,180801,2,0,B|96:240|23:216|23:216,2,140,0|2|4,1:2|0:3|3:1,0:0:0:0:
260,259,181635,5,0,0:0:0:0:
161,357,181801,2,0,B|117:375|77:385|77:385,1,70,0|0,3:0|0:0,0:0:0:0:
333,339,182135,2,0,B|344:304|354:259|354:259,1,70,2|0,1:2|0:0,0:0:0:0:
409,205,182468,1,2,0:0:0:0:
449,282,182635,1,0,3:0:0:0:
321,155,182801,2,0,B|353:143|389:128|389:128,1,70,2|0,0:0|0:0,0:0:0:0:
263,249,183135,2,0,B|230:265|192:283|192:283,1,70,2|0,3:0|0:0,0:0:0:0:
152,333,183468,1,2,1:2:0:0:
42,248,183635,1,0,0:0:0:0:
134,143,183801,2,0,B|119:98|109:66|109:66,1,70,2|0,0:3|0:0,0:0:0:0:
190,70,184135,6,0,B|178:30|166:-5|166:-5,1,70,4|0,3:1|0:0,0:0:0:0:
328,172,184468,2,0,B|341:214|356:254|356:254,1,70,0|0,3:0|0:0,0:0:0:0:
448,276,184801,2,0,B|434:240|425:199|425:199,1,70,6|0,1:2|0:0,0:0:0:0:
346,94,185135,2,0,B|358:53|368:16|368:16,1,70,2|0,0:0|3:0,0:0:0:0:
365,26,185468,1,2,0:0:0:0:
430,87,185635,1,2,0:3:0:0:
212,84,185801,2,0,B|243:74|277:56|277:56,1,70,0|0,3:0|0:0,0:0:0:0:
137,221,186135,2,0,B|66:238|-3:265|-3:265,2,140,2|2|4,1:2|0:3|3:1,0:0:0:0:
213,264,186968,5,2,0:3:0:0:
130,335,187135,1,0,3:0:0:0:
255,365,187301,1,2,0:3:0:0:
358,328,187468,2,0,B|345:274|337:238|337:238,1,70,2|0,1:2|0:0,0:0:0:0:
422,15,187801,2,0,B|430:70|453:160|453:160,1,140,2|0,0:0|0:0,0:0:0:0:
407,223,188301,1,2,0:3:0:0:
431,306,188468,2,0,B|468:322|500:336|500:336,1,70,0|0,3:0|0:0,0:0:0:0:
329,172,188801,2,0,B|307:131|305:94|305:94,1,70,0|0,1:2|0:0,0:0:0:0:
355,37,189135,2,0,B|396:24|434:10|434:10,1,70,2|0,0:3|0:0,0:0:0:0:
242,169,189468,6,0,B|171:191|98:215|98:215,1,140,4|0,3:1|3:0,0:0:0:0:
229,321,189968,1,0,0:0:0:0:
169,380,190135,2,0,B|157:339|139:295|139:295,1,70,6|0,1:2|0:0,0:0:0:0:
29,166,190468,2,0,B|12:116|6:88|6:88,1,70,2|0,0:0|3:0,0:0:0:0:
280,235,190801,2,0,B|306:312|327:377|327:377,1,140,2|0,0:0|3:0,0:0:0:0:
280,235,191301,1,0,3:0:0:0:
295,137,191468,1,0,1:0:0:0:
158,112,191802,5,2,0:0:0:0:
158,112,191885,1,2,0:0:0:0:
158,112,191969,1,2,0:0:0:0:
158,112,192052,1,2,0:0:0:0:
158,112,192135,2,0,B|118:104|64:86|64:86,1,77.0000023498536,6|0,3:2|0:0,0:0:0:0:
237,282,192468,2,0,B|223:327|210:375|210:375,1,77.0000023498536,2|0,0:2|0:0,0:0:0:0:
489,237,192801,2,0,B|400:232|378:144|378:144,1,154.000004699707,2|6,1:2|0:2,0:0:0:0:
459,108,193301,5,0,3:2:0:0:
281,173,193468,2,0,B|238:191|193:208|193:208,1,77.0000023498536,2|0,0:0|0:0,0:0:0:0:
375,362,193801,1,2,0:3:0:0:
271,283,193968,1,2,3:2:0:0:
146,298,194135,2,0,B|52:293|17:213|17:213,2,154.000004699707,2|2|4,1:2|3:0|3:1,0:0:0:0:
343,169,195135,6,0,B|332:129|325:84|325:84,1,77.0000023498536,2|0,3:0|0:0,0:0:0:0:
260,351,195468,2,0,B|255:267|232:172|232:172,1,154.000004699707,2|6,1:2|0:0,0:0:0:0:
248,123,195968,1,2,3:0:0:0:
413,236,196135,1,2,0:0:0:0:
491,200,196301,1,2,0:3:0:0:
486,285,196468,1,4,1:2:0:0:
486,285,196801,1,6,1:0:0:0:
416,131,196968,1,0,1:0:0:0:
266,199,197135,1,2,1:0:0:0:
332,350,197301,1,0,1:0:0:0:
411,329,197468,6,0,B|456:348|502:370|502:370,1,77.0000023498536,6|0,3:2|0:0,0:0:0:0:
248,123,197801,2,0,B|203:104|157:82|157:82,1,77.0000023498536,2|0,3:0|0:0,0:0:0:0:
349,188,198135,2,0,B|399:115|398:34|398:34,1,154.000004699707,2|6,1:2|3:2,0:0:0:0:
233,267,198635,2,0,B|186:278|142:297|142:297,1,77.0000023498536,0|0,1:0|0:0,0:0:0:0:
99,233,198968,1,0,3:2:0:0:
182,371,199135,2,0,B|95:375|49:298|49:298,2,154.000004699707,2|0|2,3:0|1:0|3:0,0:0:0:0:
305,246,199968,1,0,1:0:0:0:
360,309,200135,6,0,B|419:331|515:363|515:363,1,154.000004699707,4|2,3:1|3:0,0:0:0:0:
319,158,200635,1,0,0:0:0:0:
293,237,200801,2,0,B|244:260|217:271|217:271,1,77.0000023498536,2|0,1:2|0:0,0:0:0:0:
443,136,201135,1,6,3:2:0:0:
367,87,201301,2,0,B|358:42|351:1|351:1,1,77.0000023498536,0|0,1:0|0:0,0:0:0:0:
389,198,201635,1,0,1:2:0:0:
249,110,201801,2,0,B|170:85|101:56|101:56,2,154.000004699707,2|2|2,3:0|1:0|3:0,0:0:0:0:
299,302,202635,1,0,1:0:0:0:
222,366,202801,6,0,B|191:331|191:287|191:287,1,77.0000023498536,6|0,3:2|0:0,0:0:0:0:
417,267,203135,2,0,B|462:287|504:302|504:302,1,77.0000023498536,2|0,0:3|0:0,0:0:0:0:
321,165,203468,2,0,B|261:95|292:0|292:0,1,154.000004699707,2|6,1:2|0:0,0:0:0:0:
363,51,203968,1,0,3:0:0:0:
206,173,204135,2,0,B|151:193|105:203|105:203,1,77.0000023498536,2|0,0:0|0:0,0:0:0:0:
68,155,204468,1,6,0:0:0:0:
195,277,204635,1,0,3:0:0:0:
23,302,204801,2,0,B|68:368|173:365|173:365,2,154.000004699707,0|2|4,1:2|3:3|3:1,0:0:0:0:
132,196,205635,5,0,1:0:0:0:
186,13,205801,1,2,0:3:0:0:
114,68,205968,1,6,3:2:0:0:
277,46,206135,1,2,0:0:0:0:
447,21,206301,1,2,0:3:0:0:
387,100,206468,2,0,B|374:171|367:200|367:200,1,77.0000023498536,6|0,3:2|0:0,0:0:0:0:
303,220,206801,5,2,3:0:0:0:
418,368,206968,1,2,0:0:0:0:
331,323,207135,1,2,0:0:0:0:
454,191,207301,1,2,3:2:0:0:
244,153,207468,2,0,B|191:168|154:188|154:188,1,77.0000023498536,6|0,1:0|0:0,0:0:0:0:
150,306,207801,2,0,B|196:285|240:271|240:271,1,77.0000023498536,2|0,0:1|3:0,0:0:0:0:
303,220,208135,6,0,B|360:281|468:267|468:267,2,154.000004699707,6|2|2,3:2|0:0|1:2,0:0:0:0:
303,220,209135,1,6,0:0:0:0:
122,203,209301,1,0,3:0:0:0:
168,134,209468,2,0,B|153:93|144:46|144:46,1,77.0000023498536,2|0,0:0|0:0,0:0:0:0:
74,286,209801,2,0,B|89:327|98:374|98:374,1,77.0000023498536,2|0,0:3|3:0,0:0:0:0:
95,360,210135,2,0,B|169:333|248:319|248:319,2,154.000004699707,0|2|4,1:0|3:0|3:1,0:0:0:0:
324,207,210968,5,0,1:0:0:0:
253,237,211135,1,2,3:0:0:0:
408,233,211301,1,6,0:0:0:0:
424,313,211468,2,0,B|457:335|504:346|504:346,1,77.0000023498536,2|0,1:0|0:0,0:0:0:0:
259,152,211801,2,0,B|226:130|179:119|179:119,1,77.0000023498536,6|0,3:2|3:0,0:0:0:0:
114,159,212135,1,6,3:2:0:0:
153,320,212301,1,0,1:0:0:0:
57,366,212468,1,2,3:0:0:0:
130,303,212635,1,0,3:0:0:0:
249,342,212801,2,0,B|297:363|349:381|349:381,1,77.0000023498536,6|0,1:2|0:0,0:0:0:0:
196,204,213135,1,2,1:3:0:0:
296,79,213301,1,0,1:0:0:0:
428,179,213468,6,0,B|463:107|455:22|455:22,1,154.000004699707,6|0,3:2|3:0,0:0:0:0:
356,232,213968,1,0,1:3:0:0:
419,298,214135,2,0,B|459:289|495:265|495:265,1,77.0000023498536,2|0,1:3|0:0,0:0:0:0:
197,179,214468,2,0,B|136:165|23:133|23:133,1,154.000004699707,6|0,3:2|0:0,0:0:0:0:
267,84,214968,2,0,B|275:37|285:-6|285:-6,1,77.0000023498536,2|0,3:0|0:0,0:0:0:0:
281,8,215301,1,0,0:0:0:0:
123,198,215468,2,0,B|96:298|79:372|79:372,1,154.000004699707,4|2,1:2|3:0,0:0:0:0:
275,267,215968,1,0,1:0:0:0:
316,336,216135,6,0,B|359:358|392:361|392:361,1,77.0000023498536,6|0,3:2|0:0,0:0:0:0:
245,182,216468,2,0,B|257:129|261:90|261:90,1,77.0000023498536,2|0,0:3|0:0,0:0:0:0:
335,150,216801,2,0,B|346:73|363:-6|363:-6,1,154.000004699707,6|2,1:2|0:3,0:0:0:0:
335,150,217301,1,4,3:2:0:0:
210,32,217468,1,2,0:0:0:0:
155,85,217635,1,2,0:0:0:0:
99,31,217801,2,0,B|55:16|25:3|25:3,1,77.0000023498536,2|0,0:3|3:0,0:0:0:0:
133,174,218135,2,0,B|218:164|276:236|276:236,2,154.000004699707,6|2|4,1:2|3:0|3:1,0:0:0:0:
0,245,218968,5,0,0:0:0:0:
67,287,219135,1,2,3:0:0:0:
15,349,219301,1,6,1:2:0:0:
200,266,219468,1,2,0:3:0:0:
132,358,219635,1,2,0:0:0:0:
330,294,219801,2,0,B|319:208|307:127|307:127,1,154.000004699707,6|0,3:2|0:0,0:0:0:0:
387,122,220301,1,2,3:0:0:0:
242,44,220468,2,0,B|190:67|164:79|164:79,1,77.0000023498536,2|0,0:0|0:0,0:0:0:0:
11,264,220801,2,0,B|98:230|167:200|167:200,1,154.000004699707,4|0,1:2|3:0,0:0:0:0:
225,247,221301,1,0,1:0:0:0:
44,147,221468,5,4,3:1:0:0:
44,147,221801,1,6,3:2:0:0:
81,70,221968,1,2,0:3:0:0:
17,30,222135,1,2,1:2:0:0:
162,109,222301,1,6,0:0:0:0:
115,182,222468,1,2,3:0:0:0:
265,88,222635,1,0,1:0:0:0:
404,195,222801,2,0,B|387:255|377:289|377:289,1,77.0000023498536,6|0,0:0|3:0,0:0:0:0:
284,323,223135,2,0,B|307:254|328:170|328:170,1,154.000004699707,2|6,3:0|1:0,0:0:0:0:
448,20,223635,1,0,0:0:0:0:
392,79,223801,1,2,3:1:0:0:
470,98,223968,1,0,1:0:0:0:
231,14,224135,6,0,B|166:38|143:42|143:42,1,77.0000023498536,6|0,3:2|0:0,0:0:0:0:
349,189,224468,2,0,B|414:165|437:161|437:161,1,77.0000023498536,6|0,3:2|0:0,0:0:0:0:
489,216,224801,1,6,1:2:0:0:
255,229,224968,1,2,0:3:0:0:
300,287,225135,1,6,0:0:0:0:
137,379,225301,2,0,B|171:312|179:214|179:214,1,154.000004699707,0|0,3:0|0:0,0:0:0:0:
109,118,225801,1,2,0:3:0:0:
106,194,225968,1,0,3:0:0:0:
192,88,226135,2,0,B|205:27|211:-4|211:-4,1,77.0000023498536,0|0,1:0|0:0,0:0:0:0:
38,148,226468,2,0,B|21:251|0:332|0:332,1,154.000004699707,2|4,3:0|3:1,0:0:0:0:
262,145,226968,5,0,1:0:0:0:
184,232,227135,1,2,0:0:0:0:
243,274,227301,1,0,3:0:0:0:
160,367,227468,1,6,1:2:0:0:
329,210,227801,2,0,B|402:198|492:166|492:166,1,154.000004699707,6|4,3:2|3:1,0:0:0:0:
306,40,228301,1,0,1:0:0:0:
332,110,228468,1,2,0:3:0:0:
405,88,228635,1,0,3:0:0:0:
241,104,228801,2,0,B|228:59|214:17|214:17,1,77.0000023498536,6|0,1:0|0:0,0:0:0:0:
374,290,229135,2,0,B|387:335|401:377|401:377,1,77.0000023498536,2|0,0:1|3:0,0:0:0:0:
396,363,229468,6,0,B|438:354|483:330|483:330,1,77.0000023498536,6|0,3:2|0:0,0:0:0:0:
211,260,229801,2,0,B|167:253|128:217|128:217,1,77.0000023498536,6|0,3:2|0:0,0:0:0:0:
262,384,230135,2,6,B|279:343|291:302|291:302,1,77.0000023498536,6|0,1:2|0:0,0:0:0:0:
431,207,230468,2,0,B|453:135|484:48|484:48,2,154.000004699707,6|2|2,0:2|0:0|0:3,0:0:0:0:
357,232,231301,1,0,3:0:0:0:
388,306,231468,2,0,B|429:323|463:340|463:340,1,77.0000023498536,0|0,1:0|0:0,0:0:0:0:
315,150,231801,2,0,B|332:109|349:75|349:75,1,77.0000023498536,2|0,3:0|0:0,0:0:0:0:
188,205,232135,6,0,B|155:285|127:354|127:354,1,154.000004699707,2|2,3:2|0:3,0:0:0:0:
129,347,232635,1,0,0:0:0:0:
266,377,232801,2,0,B|251:333|238:283|238:283,1,77.0000023498536,0|0,1:0|0:0,0:0:0:0:
25,116,233135,2,0,B|48:186|69:265|69:265,1,154.000004699707,2|4,3:0|0:0,0:0:0:0:
147,115,233635,1,0,3:0:0:0:
238,169,233801,2,0,B|193:187|161:198|161:198,1,77.0000023498536,0|0,1:0|0:0,0:0:0:0:
286,63,234135,1,2,3:2:0:0:
214,39,234301,1,0,1:0:0:0:
341,139,234468,1,0,3:2:0:0:
468,87,234635,1,0,1:0:0:0:
366,15,234801,6,0,B|329:29|292:39|292:39,1,70,6|0,3:2|0:0,0:0:0:0:
299,36,235135,1,0,3:0:0:0:
433,168,235301,1,2,1:3:0:0:
326,233,235468,2,0,B|341:179|351:150|351:150,1,70,0|0,1:3|0:0,0:0:0:0:
175,364,235801,2,0,B|203:302|221:221|221:221,1,140,6|0,3:2|0:0,0:0:0:0:
155,168,236301,1,0,3:0:0:0:
294,307,236468,2,0,B|304:344|318:385|318:385,1,70,2|0,0:3|0:0,0:0:0:0:
356,172,236801,2,0,B|341:120|334:95|334:95,1,70,0|0,1:0|0:0,0:0:0:0:
263,83,237135,1,2,3:0:0:0:
432,197,237301,1,0,1:0:0:0:
294,307,237468,6,0,B|234:329|157:350|157:350,2,140,6|2|0,3:2|3:0|1:0,0:0:0:0:
458,360,238301,1,0,0:0:0:0:
396,303,238468,2,0,B|378:365|372:384|372:384,1,70,2|0,3:0|1:0,0:0:0:0:
492,170,238801,1,2,0:0:0:0:
464,101,238968,1,0,3:0:0:0:
415,157,239135,2,0,B|367:175|344:182|344:182,1,70,2|0,3:3|0:0,0:0:0:0:
173,58,239468,2,0,B|236:80|307:103|307:103,1,140,2|2,1:0|3:0,0:0:0:0:
198,207,239968,1,0,1:0:0:0:
133,157,240135,6,0,B|56:153|1:203|1:203,2,140,6|2|0,3:2|0:3|1:0,0:0:0:0:
258,69,240968,1,0,0:0:0:0:
258,69,241135,2,0,B|272:23|280:-6|280:-6,1,70,2|0,3:0|0:0,0:0:0:0:
451,105,241468,1,2,0:3:0:0:
341,141,241635,1,0,0:0:0:0:
442,79,241801,2,0,B|396:64|360:48|360:48,1,70,0|0,1:0|0:0,0:0:0:0:
459,222,242135,2,0,B|472:255|484:297|484:297,1,70,2|0,0:0|3:0,0:0:0:0:
417,360,242468,2,0,B|394:313|378:223|378:223,1,140,2|4,0:3|3:1,0:0:0:0:
378,225,242968,5,0,0:0:0:0:
264,324,243135,2,0,B|227:336|192:353|192:353,1,70,2|0,0:3|3:0,0:0:0:0:
136,313,243468,1,2,3:2:0:0:
16,334,243635,1,0,0:0:0:0:
57,264,243801,1,2,0:3:0:0:
153,287,243968,1,0,3:0:0:0:
52,186,244135,2,0,B|37:118|21:43|21:43,1,140,0|2,3:0|3:3,0:0:0:0:
52,186,244635,1,0,3:0:0:0:
169,52,244801,2,0,B|182:129|206:206|206:206,1,140,2|2,3:2|0:3,0:0:0:0:
200,188,245301,1,0,3:0:0:0:
29,47,245468,5,4,3:2:0:0:
97,90,245635,1,0,3:0:0:0:
100,14,245801,1,0,3:0:0:0:
284,76,245968,1,0,3:0:0:0:
226,132,246135,1,2,3:0:0:0:
324,163,246301,1,0,3:0:0:0:
172,200,246468,1,2,3:0:0:0:
20,221,246635,1,0,3:0:0:0:
83,265,246801,1,0,3:0:0:0:
46,192,246968,1,0,3:0:0:0:
153,339,247135,5,2,3:0:0:0:
285,284,247301,1,0,3:0:0:0:
408,334,247468,1,2,3:0:0:0:
360,275,247635,1,0,3:0:0:0:
431,247,247801,1,0,3:0:0:0:
482,308,247968,1,2,3:0:0:0:
347,105,248135,5,6,3:2:0:0:
290,150,248301,1,0,3:0:0:0:
346,14,248468,1,0,3:0:0:0:
430,63,248635,1,0,3:0:0:0:
399,162,248801,1,2,3:0:0:0:
276,77,248968,1,0,3:0:0:0:
133,99,249135,5,2,3:0:0:0:
192,47,249301,1,0,3:0:0:0:
25,150,249468,1,0,3:0:0:0:
67,59,249635,1,0,3:0:0:0:
189,173,249801,1,2,3:0:0:0:
135,256,249968,1,0,3:0:0:0:
0,378,250135,1,2,3:0:0:0:
67,342,250301,1,2,3:0:0:0:
67,342,250468,1,0,3:0:0:0:
67,342,250635,1,0,3:0:0:0:
337,380,250801,6,0,B|315:305|313:211|313:211,1,140,6|0,3:2|3:0,0:0:0:0:
314,242,251301,1,0,0:0:0:0:
354,123,251468,2,0,B|394:115|440:96|440:96,1,70,0|0,1:0|0:0,0:0:0:0:
485,144,251801,1,2,0:3:0:0:
361,35,251968,1,0,3:0:0:0:
232,131,252135,2,0,B|245:182|260:217|260:217,1,70,2|0,0:0|0:0,0:0:0:0:
446,351,252468,2,0,B|428:294|407:212|407:212,1,140,2|0,3:0|1:0,0:0:0:0:
408,216,252968,1,0,0:0:0:0:
308,322,253135,2,0,B|271:310|238:299|238:299,1,70,2|0,0:3|0:0,0:0:0:0:
157,356,253468,6,0,B|143:302|128:212|128:212,1,140,2|2,3:2|3:0,0:0:0:0:
129,218,253968,1,0,0:0:0:0:
60,180,254135,2,0,B|54:129|46:92|46:92,1,70,2|0,1:2|0:0,0:0:0:0:
201,58,254468,1,2,0:0:0:0:
138,140,254635,2,0,B|122:67|122:-1|122:-1,2,140,2|2|2,3:0|0:3|0:3,0:0:0:0:
97,291,255468,2,0,B|63:306|28:319|28:319,1,70,2|0,1:2|0:0,0:0:0:0:
221,205,255801,2,0,B|234:158|241:120|241:120,1,70,2|0,0:3|0:0,0:0:0:0:
359,368,256135,6,0,B|320:313|328:221|328:221,1,140,6|2,3:2|3:0,0:0:0:0:
379,78,256635,1,0,0:0:0:0:
415,143,256801,2,0,B|453:160|485:167|485:167,1,70,0|0,1:0|0:0,0:0:0:0:
311,31,257135,2,0,B|271:18|236:13|236:13,1,70,2|0,0:3|3:0,0:0:0:0:
175,53,257468,1,2,0:0:0:0:
244,162,257635,1,0,0:0:0:0:
181,228,257801,1,2,3:0:0:0:
268,144,257968,1,0,0:0:0:0:
155,43,258135,2,0,B|88:64|19:88|19:88,2,140,0|2|4,1:0|0:3|3:1,0:0:0:0:
110,178,258968,5,0,0:0:0:0:
110,178,259135,2,0,B|100:224|90:266|90:266,1,70,2|0,3:0|0:0,0:0:0:0:
193,367,259468,2,0,B|203:324|210:290|210:290,1,70,0|0,1:0|0:0,0:0:0:0:
278,271,259801,1,2,0:3:0:0:
191,153,259968,2,0,B|209:92|217:10|217:10,1,140,0|0,3:0|0:0,0:0:0:0:
125,44,260468,2,0,B|87:32|56:17|56:17,1,70,2|0,3:0|0:0,0:0:0:0:
274,133,260801,2,0,B|347:141|405:80|405:80,1,140,2|2,1:2|0:3,0:0:0:0:
400,84,261301,1,0,0:0:0:0:
415,190,261468,6,0,B|449:204|490:220|490:220,1,70,2|0,3:2|0:0,0:0:0:0:
290,283,261801,2,0,B|256:269|215:253|215:253,1,70,2|0,3:0|0:0,0:0:0:0:
141,329,262135,2,0,B|92:351|60:362|60:362,1,70,2|0,1:2|0:0,0:0:0:0:
34,294,262468,1,2,0:3:0:0:
131,179,262635,1,0,3:0:0:0:
61,145,262801,2,0,B|32:68|19:-5|19:-5,1,140,2|2,0:0|3:0,0:0:0:0:
22,10,263301,1,0,0:0:0:0:
138,78,263468,2,0,B|172:87|216:102|216:102,1,70,0|0,1:0|0:0,0:0:0:0:
333,73,263801,2,0,B|348:38|363:-8|363:-8,1,70,2|0,0:3|0:0,0:0:0:0:
381,191,264135,6,0,B|353:252|340:333|340:333,1,140,2|2,3:2|3:0,0:0:0:0:
409,365,264635,1,0,0:0:0:0:
256,296,264801,2,0,B|216:309|180:317|180:317,1,70,0|0,1:0|0:0,0:0:0:0:
132,368,265135,1,2,0:3:0:0:
291,212,265301,2,0,B|356:193|428:173|428:173,1,140,0|0,3:0|0:0,0:0:0:0:
292,80,265801,2,0,B|278:38|269:1|269:1,1,70,2|0,3:0|0:0,0:0:0:0:
402,60,266135,2,0,B|439:74|474:87|474:87,1,70,2|0,1:2|0:0,0:0:0:0:
229,145,266468,2,0,B|192:131|157:118|157:118,1,70,2|0,0:3|0:0,0:0:0:0:
22,284,266801,6,0,B|81:226|154:242|154:242,1,140,6|2,3:2|3:0,0:0:0:0:
258,353,267301,1,0,0:0:0:0:
332,322,267468,2,0,B|362:337|403:351|403:351,1,70,0|0,1:0|0:0,0:0:0:0:
294,200,267801,2,0,B|278:155|266:113|266:113,1,70,2|0,0:3|3:0,0:0:0:0:
241,16,268135,1,2,0:0:0:0:
308,59,268301,1,0,0:0:0:0:
400,11,268468,2,0,B|437:27|472:42|472:42,1,70,2|0,3:0|0:0,0:0:0:0:
438,109,268801,2,0,B|398:94|305:58|305:58,2,140,0|2|4,1:0|0:3|3:1,0:0:0:0:
352,199,269635,5,2,0:0:0:0:
354,277,269801,1,2,3:0:0:0:
282,304,269968,1,2,0:0:0:0:
464,239,270135,2,0,B|449:298|441:333|441:333,1,70,0|0,1:0|0:0,0:0:0:0:
386,349,270468,1,2,0:3:0:0:
271,215,270635,2,0,B|288:148|295:74|295:74,1,140,0|0,3:0|0:0,0:0:0:0:
369,69,271135,2,0,B|378:22|386:-14|386:-14,1,70,2|0,3:0|0:0,0:0:0:0:
212,105,271468,2,0,B|177:91|141:74|141:74,1,70,0|0,1:0|0:0,0:0:0:0:
402,138,271801,2,0,B|448:123|484:111|484:111,1,70,2|0,0:3|0:0,0:0:0:0:
468,116,272135,5,6,3:2:0:0:
373,251,272301,1,0,0:0:0:0:
408,322,272468,1,2,3:0:0:0:
453,257,272635,1,0,0:0:0:0:
281,336,272801,2,0,B|239:351|206:362|206:362,1,70,0|0,1:0|0:0,0:0:0:0:
128,265,273135,1,2,0:3:0:0:
55,318,273301,2,0,B|45:247|34:160|34:160,1,140,0|0,3:0|0:0,0:0:0:0:
89,87,273801,2,0,B|81:46|77:4|77:4,1,70,2|0,3:0|0:0,0:0:0:0:
180,139,274135,2,0,B|215:159|261:169|261:169,1,70,0|0,1:0|0:0,0:0:0:0:
381,82,274468,2,0,B|400:40|410:9|410:9,1,70,2|0,0:3|0:0,0:0:0:0:
346,208,274801,6,0,B|357:245|368:287|368:287,1,70,2|0,3:2|0:0,0:0:0:0:
418,363,275135,1,2,3:0:0:0:
462,295,275301,1,0,0:0:0:0:
302,351,275468,2,0,B|269:342|233:327|233:327,1,70,0|0,1:0|0:0,0:0:0:0:
173,366,275801,1,2,0:3:0:0:
232,229,275968,2,0,B|298:247|370:277|370:277,1,140,0|0,3:0|0:0,0:0:0:0:
465,158,276468,1,2,3:0:0:0:
335,177,276635,1,2,0:0:0:0:
283,122,276801,2,0,B|300:74|309:30|309:30,1,70,0|0,1:0|0:0,0:0:0:0:
303,54,277135,1,2,0:3:0:0:
189,109,277301,1,0,0:0:0:0:
229,238,277468,6,0,B|196:253|161:263|161:263,1,70,6|0,3:2|0:0,0:0:0:0:
349,368,277801,2,0,B|364:326|375:292|375:292,1,70,2|0,3:0|0:0,0:0:0:0:
436,251,278135,2,0,B|449:179|475:117|475:117,1,140,2|2,1:2|0:3,0:0:0:0:
256,192,278551,12,0,288801,0:0:0:0:
