osu file format v14

[General]
AudioFilename: audio.mp3
AudioLeadIn: 0
PreviewTime: 53136
Countdown: 0
SampleSet: Soft
StackLeniency: 0.3
Mode: 0
LetterboxInBreaks: 0
WidescreenStoryboard: 1

[Editor]
Bookmarks: 32882
DistanceSpacing: 0.8
BeatDivisor: 4
GridSize: 8
TimelineZoom: 1.7

[Metadata]
Title:NatsuYuki TokiMeki High Tension!
TitleUnicode:夏ゆきトキメキHigh Tension!
Artist:Palette Project
ArtistUnicode:Palette Project
Creator:-Atri-
Version:Summertime Canvas
Source:
Tags:KuranteMelodii krt Firis Mistlud パレプロ パレットプロジェクト PalePro virtual youtuber vtuber idol jpop pop rock Japanese j-pop j-rock 暁月クララ Akatsuki clara Kurara 七海ロナ Nanami Rona 藤宮コトハ Fujimiya Kotoha 常磐カナメ Tikiwa Kaname 神菜コハネ Kamina Kohane 江波キョウカ Eba Kyouka kyoka 鬼多見アユム Kitami Ayumu 香鳴ハノン Kanaru Hanon
BeatmapID:4104989
BeatmapSetID:1977450

[Difficulty]
HPDrainRate:7
CircleSize:4.2
OverallDifficulty:8.5
ApproachRate:9.4
SliderMultiplier:2
SliderTickRate:1

[Events]
//Background and Video events
0,0,"summer.jpg",0,0
Video,-54,"natsuyuki.mp4"
//Break Periods
2,144946,148274
//Storyboard Layer 0 (Background)
//Storyboard Layer 1 (Fail)
//Storyboard Layer 2 (Pass)
//Storyboard Layer 3 (Foreground)
//Storyboard Layer 4 (Overlay)
//Storyboard Sound Samples

[TimingPoints]
2374,338.983050847458,4,2,1,50,1,0
6102,-76.9230769230769,4,2,1,50,0,0
6441,-55.5555555555556,4,2,1,60,0,0
6696,-45.4545454545455,4,2,1,60,0,0
6950,-66.6666666666667,4,2,1,60,0,0
7458,-50,4,2,2,60,0,0
7797,-83.3333333333333,4,2,1,70,0,0
11865,-71.4285714285714,4,2,1,70,0,0
13221,-83.3333333333333,4,2,1,70,0,0
18306,-250,4,2,1,70,0,0
18645,-133.333333333333,4,2,1,70,0,0
18729,-133.333333333333,4,2,1,50,0,0
26780,-117.647058823529,4,2,1,50,0,0
29492,-100,4,2,1,60,0,0
33560,-83.3333333333333,4,2,1,60,0,0
35255,-100,4,2,1,60,0,0
40340,-133.333333333333,4,2,1,70,0,0
40424,-133.333333333333,4,2,1,50,0,0
45763,-133.333333333333,4,2,1,60,0,0
46272,-117.647058823529,4,2,1,60,0,0
51526,-117.647058823529,4,2,1,45,0,0
51865,-133.333333333333,4,2,1,50,0,0
52204,-83.3333333333333,4,2,1,55,0,0
52543,-83.3333333333333,4,2,1,65,0,0
52712,-66.6666666666667,4,2,1,65,0,0
53560,-66.6666666666667,4,2,1,50,0,0
53899,-83.3333333333333,4,2,1,80,0,1
63560,-66.6666666666667,4,2,1,80,0,1
64407,-66.6666666666667,4,2,1,80,0,0
64746,-66.6666666666667,4,2,1,80,0,1
67458,-76.9230769230769,4,2,1,80,0,1
69662,-76.9230769230769,4,2,1,80,0,0
70001,-83.3333333333333,4,2,1,80,0,1
71018,-83.3333333333333,4,2,1,80,0,0
71357,-83.3333333333333,4,2,1,80,0,1
72374,-83.3333333333333,4,2,1,80,0,0
72712,-83.3333333333333,4,2,1,80,0,1
75085,-83.3333333333333,4,2,1,80,0,0
83729,-71.4285714285714,4,2,1,80,0,0
86441,-71.4285714285714,4,2,1,50,0,0
86780,-71.4285714285714,4,2,1,55,0,0
87119,-71.4285714285714,4,2,1,60,0,0
87458,-71.4285714285714,4,2,1,65,0,0
87797,-153.846153846153,4,2,1,70,0,0
87882,-153.846153846153,4,2,1,40,0,0
92882,-133.333333333333,4,2,1,40,0,0
93221,-133.333333333333,4,2,1,50,0,0
98645,-100,4,2,1,60,0,0
102712,-83.3333333333333,4,2,1,60,0,0
104407,-100,4,2,1,60,0,0
109492,-133.333333333333,4,2,1,70,0,0
109577,-133.333333333333,4,2,1,50,0,0
114916,-133.333333333333,4,2,1,60,0,0
115424,-117.647058823529,4,2,1,60,0,0
120679,-117.647058823529,4,2,1,45,0,0
121018,-133.333333333333,4,2,1,50,0,0
121357,-83.3333333333333,4,2,1,55,0,0
121696,-83.3333333333333,4,2,1,70,0,0
121865,-66.6666666666667,4,2,1,70,0,0
123051,-83.3333333333333,4,2,1,80,0,1
132882,-133.333333333333,4,2,1,80,0,1
133221,-100,4,2,1,80,0,1
133560,-83.3333333333333,4,2,1,80,0,1
133899,-66.6666666666667,4,2,1,80,0,0
135424,-55.5555555555556,4,2,1,80,0,0
135933,-66.6666666666667,4,2,1,80,0,0
139323,-55.5555555555556,4,2,1,80,0,0
139831,-100,4,2,1,80,0,0
140001,-66.6666666666667,4,2,1,80,0,0
142712,-83.3333333333333,4,2,1,80,0,0
143390,-66.6666666666667,4,2,1,80,0,0
144068,-100,4,2,1,80,0,0
148814,-133.333333333333,4,2,1,60,0,0
149492,-83.3333333333333,4,2,1,60,0,0
149831,-66.6666666666667,4,2,1,60,0,0
150170,-100,4,2,1,60,0,0
150509,-76.9230769230769,4,2,1,60,0,0
150848,-100,4,2,1,60,0,0
151187,-76.9230769230769,4,2,1,60,0,0
151526,-100,4,2,1,60,0,0
151865,-76.9230769230769,4,2,1,60,0,0
152204,-100,4,2,1,60,0,0
152543,-76.9230769230769,4,2,1,60,0,0
152882,-100,4,2,1,60,0,0
153221,-76.9230769230769,4,2,1,60,0,0
153560,-100,4,2,1,60,0,0
153899,-76.9230769230769,4,2,1,60,0,0
154238,-100,4,2,1,60,0,0
154577,-76.9230769230769,4,2,1,60,0,0
154916,-100,4,2,1,60,0,0
155255,-76.9230769230769,4,2,1,60,0,0
155594,-83.3333333333333,4,2,1,60,0,0
163729,-100,4,2,1,70,0,0
167628,-83.3333333333333,4,2,1,70,0,0
169153,-133.333333333333,4,2,1,80,0,1
169492,-83.3333333333333,4,2,1,80,0,1
174238,-83.3333333333333,4,2,1,80,0,0
174577,-83.3333333333333,4,2,1,80,0,1
185085,-83.3333333333333,4,2,1,80,0,0
185424,-83.3333333333333,4,2,1,80,0,1
188136,-76.9230769230769,4,2,1,80,0,1
190340,-76.9230769230769,4,2,1,80,0,0
190679,-83.3333333333333,4,2,1,80,0,1
191696,-83.3333333333333,4,2,1,80,0,0
192035,-83.3333333333333,4,2,1,80,0,1
193051,-83.3333333333333,4,2,1,80,0,0
193390,-83.3333333333333,4,2,1,80,0,1
195763,-83.3333333333333,4,2,1,80,0,0
204407,-71.4285714285714,4,2,1,80,0,0
207119,-83.3333333333333,4,2,1,80,0,0
216950,-83.3333333333333,4,2,1,50,0,0
217289,-83.3333333333333,4,2,1,60,0,0
217628,-83.3333333333333,4,2,1,70,0,0
217967,-153.846153846154,4,2,1,80,0,0
220679,-333.333333333333,4,2,1,80,0,0
221018,-333.333333333333,4,2,1,5,0,0

[Colours]
Combo1 : 240,240,240
Combo2 : 0,223,223
Combo3 : 0,0,255
Combo4 : 255,255,0
Combo5 : 255,0,0
Combo6 : 255,128,0
Combo7 : 157,157,157

[HitObjects]
307,294,2374,6,0,P|319:224|290:190,1,100,4|0,3:2|3:0,0:0:0:0:
358,141,2628,1,0,3:0:0:0:
358,141,2712,2,0,P|288:129|254:158,1,100,2|0,3:0|3:0,0:0:0:0:
205,90,2967,1,0,3:0:0:0:
205,90,3051,2,0,P|193:160|222:194,1,100,2|0,3:0|3:0,0:0:0:0:
154,243,3306,1,0,3:0:0:0:
154,243,3390,2,0,P|224:255|258:226,1,100,2|0,3:0|3:0,0:0:0:0:
307,294,3645,1,0,3:0:0:0:
307,294,3729,6,0,L|420:289,1,100,2|0,3:0|3:0,0:0:0:0:
431,298,3984,1,0,3:0:0:0:
455,306,4068,1,2,3:0:0:0:
324,211,4238,1,0,3:0:0:0:
324,211,4323,1,0,3:0:0:0:
324,211,4407,1,2,3:0:0:0:
359,372,4577,1,0,3:0:0:0:
359,372,4662,1,0,3:0:0:0:
359,372,4746,1,2,3:0:0:0:
505,226,4916,1,0,3:0:0:0:
505,226,5001,1,0,3:0:0:0:
505,226,5085,6,0,P|428:214|380:248,1,100,2|0,3:0|3:0,0:0:0:0:
360,276,5340,1,0,3:0:0:0:
360,276,5424,2,0,P|283:288|235:254,1,100,2|0,3:0|3:0,0:0:0:0:
399,380,5763,6,0,L|413:317,1,50,2|0,3:0|0:0,0:0:0:0:
296,171,5933,2,0,L|310:234,1,50,0|0,1:0|0:0,0:0:0:0:
231,346,6102,2,0,B|144:341|186:391|84:379,1,130,8|0,0:0|0:0,0:0:0:0:
32,314,6441,6,0,B|112:287|166:347|169:385|138:386|111:366|129:342,1,180,8|0,1:0|0:0,0:0:0:0:
32,314,6696,6,0,B|74:214|177:212|217:244|191:276|149:283|142:245,1,220,8|0,1:0|0:0,0:0:0:0:
257,227,6950,2,0,B|279:252|281:296|248:291|263:262,1,75,8|0,1:0|0:0,0:0:0:0:
32,314,7119,6,0,B|12:286|16:236|46:259|58:205|26:147,1,150,8|0,1:0|0:0,0:0:0:0:
19,93,7374,1,0,1:0:0:0:
19,93,7458,6,0,B|16:42|82:-24|165:37|128:98|79:35,1,200,8|0,0:1|0:0,0:0:0:0:
7,184,7797,6,0,B|102:177|62:249|212:243,1,180,4|0,1:0|0:0,0:0:0:0:
185,252,8136,1,10,0:0:0:0:
378,139,8306,1,0,0:0:0:0:
319,342,8475,2,0,L|330:263,1,60,2|0,1:2|0:0,0:0:0:0:
235,155,8645,2,0,P|231:80|223:13,1,120,2|8,0:0|0:0,0:0:0:0:
396,243,8984,6,0,P|332:204|255:271,1,180,2|0,0:0|0:0,0:0:0:0:
247,231,9323,1,0,0:0:0:0:
426,313,9492,2,0,B|500:326|508:233|454:266|462:288,1,120,10|0,0:0|0:0,0:0:0:0:
412,103,9831,2,0,L|423:182,1,60,2|0,1:2|0:0,0:0:0:0:
355,304,10001,2,0,B|306:361|383:415|381:351|358:347,1,120,2|8,0:0|0:0,0:0:0:0:
447,384,10340,1,2,0:0:0:0:
502,254,10509,5,2,1:2:0:0:
405,212,10679,1,2,0:2:0:0:
367,119,10848,2,0,P|350:96|352:41,1,60,10|0,0:2|0:0,0:0:0:0:
384,6,11018,1,2,0:2:0:0:
473,105,11187,5,2,1:2:0:0:
320,46,11357,1,2,0:2:0:0:
191,105,11526,2,0,P|174:128|176:183,1,60,10|0,0:2|0:0,0:0:0:0:
305,57,11696,1,2,0:2:0:0:
181,277,11865,6,0,P|178:195|139:203,1,140,4|8,0:0|1:2,0:0:0:0:
104,268,12119,1,8,1:2:0:0:
102,280,12204,2,0,P|141:349|205:350,1,140,12|0,0:0|1:0,0:0:0:0:
205,367,12458,1,0,1:2:0:0:
258,314,12543,6,0,L|336:302,1,70,8|8,0:0|0:0,0:0:0:0:
110,356,12712,2,0,L|40:366,1,70,0|0,1:0|0:0,0:0:0:0:
128,198,12882,1,8,0:0:0:0:
130,163,12967,1,8,0:0:0:0:
132,128,13051,1,8,0:0:0:0:
134,93,13136,1,8,0:0:0:0:
136,58,13221,6,0,B|117:-19|-6:-50|-10:34|32:44|58:57|77:12,1,180,4|0,1:2|0:0,0:0:0:0:
58,47,13560,1,10,0:0:0:0:
208,157,13729,1,0,0:0:0:0:
57,127,13899,2,0,L|50:197,1,60,2|0,1:2|0:0,0:0:0:0:
238,228,14068,2,0,B|287:242|345:182|298:153|279:174|262:178|282:209,1,120,2|8,0:0|0:0,0:0:0:0:
98,375,14407,6,0,P|110:303|123:226,1,120,2|0,0:0|1:0,0:0:0:0:
19,207,14746,1,0,0:0:0:0:
186,310,14916,2,0,B|248:296|242:345|340:317,1,120,10|0,0:0|0:0,0:0:0:0:
332,188,15255,2,0,L|254:200,1,60,2|0,1:2|0:0,0:0:0:0:
115,263,15424,2,0,B|100:334|56:293|31:392,1,120,2|8,0:0|0:0,0:0:0:0:
120,380,15763,1,2,0:0:0:0:
61,195,15933,6,0,P|133:220|193:132,1,180,2|0,1:2|0:0,0:0:0:0:
164,80,16272,2,0,B|163:29|212:30|212:30|233:58|174:94,1,120,10|0,0:0|0:0,0:0:0:0:
237,263,16611,6,0,P|222:188|117:180,1,180,2|0,1:2|0:0,0:0:0:0:
61,195,16950,1,10,0:0:0:0:
47,193,17035,1,0,3:3:0:0:
33,190,17119,1,0,3:3:0:0:
165,70,17289,5,8,0:0:0:0:
335,302,17458,1,8,0:0:0:0:
134,271,17628,1,0,1:0:0:0:
366,101,17797,1,8,0:0:0:0:
366,101,18306,6,0,L|375:174,1,60,0|0,1:0|0:0,0:0:0:0:
421,220,18645,6,0,P|382:195|372:159,1,75.0000000000002,6|0,1:2|0:0,0:0:0:0:
492,206,18984,2,0,P|489:252|463:278,1,75.0000000000002,0|2,1:2|0:0,0:0:0:0:
445,152,19323,2,0,P|486:130|522:140,1,75.0000000000002,2|0,1:2|0:0,0:0:0:0:
486,213,19577,1,0,0:0:0:0:
476,223,19662,2,0,L|375:216,1,75.0000000000002,0|2,1:2|0:0,0:0:0:0:
338,283,20001,6,0,P|377:308|387:344,1,75.0000000000002,2|0,1:2|0:0,0:0:0:0:
267,297,20340,2,0,P|269:250|295:224,1,75.0000000000002,0|2,1:2|0:0,0:0:0:0:
314,351,20679,2,0,P|272:372|236:362,1,75.0000000000002,2|0,1:2|0:0,0:0:0:0:
273,290,20933,1,0,0:0:0:0:
283,280,21018,2,0,L|384:287,1,75.0000000000002,0|0,1:2|0:0,0:0:0:0:
188,311,21357,6,0,L|87:318,1,75.0000000000002,2|0,1:2|0:0,0:0:0:0:
199,237,21696,2,0,L|98:244,1,75.0000000000002,2|0,1:2|0:0,0:0:0:0:
66,164,22035,2,0,L|167:171,1,75.0000000000002,2|0,1:2|0:0,0:0:0:0:
144,100,22289,1,0,0:0:0:0:
129,95,22374,2,0,L|55:90,1,75.0000000000002,2|0,1:2|0:0,0:0:0:0:
212,133,22712,6,0,P|247:94|248:-2,1,150,2|0,1:2|1:2,0:0:0:0:
249,0,23221,1,2,0:0:0:0:
144,100,23390,2,0,P|136:151|156:185,1,75.0000000000002,0|2,1:2|0:0,0:0:0:0:
149,176,23645,1,0,0:0:0:0:
154,180,23729,1,0,1:0:0:0:
224,210,23899,1,0,3:0:0:0:
129,334,24068,6,0,B|224:339|185:283|271:290,1,150,6|0,1:2|1:2,0:0:0:0:
322,341,24577,2,0,L|406:334,1,75.0000000000002,2|0,0:2|1:2,0:0:0:0:
461,378,24916,1,2,0:2:0:0:
353,265,25085,2,0,L|346:181,1,75.0000000000002,10|0,0:2|0:0,0:0:0:0:
465,161,25424,6,0,B|383:167|422:111|327:116,1,150,2|2,1:2|1:2,0:0:0:0:
270,170,25933,1,2,0:0:0:0:
270,170,26102,2,0,P|249:129|258:80,1,75.0000000000002,0|0,1:2|0:0,0:0:0:0:
430,19,26441,2,0,P|448:50|450:88,1,75.0000000000002,10|2,0:2|0:0,0:0:0:0:
399,269,26780,6,0,P|400:201|447:168,1,127.5,6|0,1:2|0:0,0:0:0:0:
465,161,27119,2,0,L|368:151,1,85.0000000000003,2|0,1:2|0:0,0:0:0:0:
261,217,27458,2,0,P|299:171|293:137,1,85.0000000000003,2|0,1:2|3:0,0:0:0:0:
256,56,27712,1,0,3:0:0:0:
246,75,27797,2,0,P|266:130|299:142,1,85.0000000000003,10|0,3:2|0:0,0:0:0:0:
448,35,28136,5,8,0:1:0:0:
193,170,28306,1,8,0:1:0:0:
193,170,28645,2,0,L|130:165,1,42.5000000000001,0|0,3:0|3:0,0:0:0:0:
163,86,28814,5,8,0:1:0:0:
435,239,28984,1,8,0:1:0:0:
143,352,29492,6,0,P|96:306|139:205,1,150,4|0,1:0|0:0,0:0:0:0:
115,216,29831,1,8,0:0:0:0:
64,162,30001,1,2,0:2:0:0:
150,55,30170,2,0,P|160:102|135:145,1,100,2|0,1:2|1:0,0:0:0:0:
0,124,30509,2,0,P|36:91|85:91,1,100,8|2,0:0|0:2,0:0:0:0:
319,45,30848,5,2,1:2:0:0:
347,170,31018,1,0,1:0:0:0:
313,26,31187,1,8,0:0:0:0:
422,176,31357,2,0,B|382:169|338:175|364:227|324:242|249:216,1,150,2|0,1:2|0:0,0:0:0:0:
272,208,31696,1,0,1:0:0:0:
390,343,31865,2,0,L|408:239,1,100,8|0,0:0|0:0,0:0:0:0:
197,200,32204,6,0,P|134:202|36:224,1,150,2|0,1:2|0:0,0:0:0:0:
27,238,32543,1,10,0:2:0:0:
207,186,32712,1,0,0:0:0:0:
155,363,32882,2,0,P|112:305|125:266,1,100,2|0,1:2|1:0,0:0:0:0:
81,113,33221,2,0,P|124:171|111:210,1,100,10|0,0:2|0:0,0:0:0:0:
47,33,33560,6,0,L|118:38,1,60,4|0,1:2|0:0,0:0:0:0:
238,111,33729,1,0,0:0:0:0:
257,73,33814,1,0,1:0:0:0:
253,31,33899,1,8,0:0:0:0:
47,33,34068,6,0,B|32:17|32:17|138:1|191:69,1,180,4|0,1:2|0:0,0:0:0:0:
238,111,34407,2,0,L|231:191,1,60,0|0,1:0|0:0,0:0:0:0:
187,237,34577,1,8,0:0:0:0:
187,237,34662,1,8,0:0:0:0:
187,237,34746,1,0,1:0:0:0:
383,358,34916,5,6,1:2:0:0:
457,214,35085,1,0,0:0:0:0:
296,222,35255,2,0,P|293:253|305:275,1,50,10|0,0:2|0:0,0:0:0:0:
459,374,35424,2,0,B|494:327|469:258|421:270|426:324|462:323,1,150,2|0,1:2|0:0,0:0:0:0:
383,358,35763,1,2,1:2:0:0:
457,214,35933,2,0,P|460:183|448:161,1,50,8|0,0:0|0:0,0:0:0:0:
314,142,36102,1,2,0:2:0:0:
494,27,36272,5,6,1:2:0:0:
377,196,36441,1,0,0:0:0:0:
289,9,36611,2,0,P|284:34|293:57,1,50,10|0,0:2|0:0,0:0:0:0:
470,98,36780,2,0,B|505:145|480:214|432:202|437:148|473:149,1,150,2|0,1:2|0:0,0:0:0:0:
389,113,37119,1,2,1:2:0:0:
503,250,37289,2,0,L|494:305,1,50,8|0,0:0|0:0,0:0:0:0:
398,379,37458,1,0,3:0:0:0:
361,344,37543,1,0,3:0:0:0:
311,351,37628,5,6,1:2:0:0:
503,250,37797,1,0,0:0:0:0:
314,142,37967,1,10,0:0:0:0:
512,178,38136,2,0,P|435:185|360:224,1,150,6|0,1:2|0:0,0:0:0:0:
313,267,38475,1,2,1:2:0:0:
166,141,38645,1,10,0:2:0:0:
163,384,38814,6,0,B|135:337|149:269|219:328|228:204|196:181,1,200,6|0,0:2|1:0,0:0:0:0:
73,309,39323,5,8,0:3:0:0:
35,247,39492,1,8,0:0:0:0:
69,183,39662,5,8,0:0:0:0:
288,216,39831,1,0,1:0:0:0:
326,154,40001,5,0,1:0:0:0:
292,90,40170,1,0,0:0:0:0:
115,1,40340,6,0,B|137:21|135:40|114:69|114:69|90:100|109:154|165:155|191:119|182:82,1,225.000000000001,4|0,1:2|1:0,0:0:0:0:
183,100,41018,2,0,B|176:93|176:93|138:146|157:244,1,150,8|0,0:0|3:0,0:0:0:0:
206,299,41526,1,0,0:0:0:0:
153,367,41696,2,0,B|83:311|80:371|8:324,2,150,0|0|8,1:0|3:0|0:0,0:0:0:0:
206,299,42543,1,0,3:0:0:0:
206,299,42712,1,0,3:0:0:0:
397,383,43051,6,0,B|375:363|377:344|398:315|398:315|422:284|403:230|347:229|321:265|330:302,1,225.000000000001,0|0,1:0|1:0,0:0:0:0:
329,284,43729,2,0,B|336:291|336:291|374:238|355:140,1,150,8|0,0:0|3:0,0:0:0:0:
297,108,44238,1,0,0:0:0:0:
376,14,44407,2,0,P|363:58|372:87,1,75.0000000000002,0|0,1:0|0:0,0:0:0:0:
512,42,44746,2,0,L|435:50,1,75.0000000000002,0|0,3:0|3:0,0:0:0:0:
437,49,45001,1,0,3:0:0:0:
437,49,45085,1,8,0:0:0:0:
288,29,45255,1,0,1:0:0:0:
288,29,45424,1,0,1:0:0:0:
485,334,45763,5,6,1:2:0:0:
432,267,45933,1,2,0:0:0:0:
348,250,46102,1,2,1:2:0:0:
273,291,46272,2,0,L|287:374,1,85.0000000000003,2|0,0:0|1:2,0:0:0:0:
348,250,46611,1,2,0:0:0:0:
273,291,46780,2,0,L|190:305,1,85.0000000000003,2|0,1:2|0:0,0:0:0:0:
42,370,47119,5,2,1:2:0:0:
109,317,47289,1,2,0:0:0:0:
126,233,47458,1,2,1:2:0:0:
85,158,47628,2,0,L|2:172,1,85.0000000000003,2|0,0:0|1:2,0:0:0:0:
126,233,47967,1,2,0:0:0:0:
85,158,48136,2,0,L|71:75,1,85.0000000000003,2|0,1:2|3:0,0:0:0:0:
58,62,48390,1,0,3:0:0:0:
58,62,48475,5,6,1:2:0:0:
8,176,48645,1,2,0:0:0:0:
42,295,48814,1,2,1:2:0:0:
144,364,48984,2,0,P|196:347|228:349,1,85.0000000000003,2|0,0:0|1:2,0:0:0:0:
298,230,49323,1,2,0:0:0:0:
244,352,49492,1,2,1:2:0:0:
244,352,49662,1,2,0:0:0:0:
364,266,49831,6,0,P|370:214|340:170,1,85.0000000000003,0|0,1:0|0:0,0:0:0:0:
148,118,50170,2,0,P|142:170|172:214,1,85.0000000000003,0|0,1:0|0:0,0:0:0:0:
330,84,50509,2,0,P|278:78|234:108,1,85.0000000000003,0|0,1:0|0:0,0:0:0:0:
182,300,50848,2,0,P|234:306|278:276,1,85.0000000000003,0|0,1:0|0:0,0:0:0:0:
294,281,51102,1,0,0:0:0:0:
327,285,51187,5,4,0:0:0:0:
327,285,51526,5,0,1:0:0:0:
358,188,51696,1,0,1:0:0:0:
458,268,51865,6,0,L|419:258,1,37.5000000000001,8|0,0:0|0:0,0:0:0:0:
337,183,52035,2,0,L|298:193,1,37.5000000000001,8|0,0:0|0:0,0:0:0:0:
345,55,52204,6,0,P|379:65|413:50,1,60,8|0,0:0|0:0,0:0:0:0:
456,158,52374,2,0,P|490:148|524:163,1,60,8|0,0:0|0:0,0:0:0:0:
204,117,52543,5,0,1:0:0:0:
204,117,52712,2,0,L|176:34,1,75,8|0,0:1|0:0,0:0:0:0:
308,267,52882,2,0,L|336:350,1,75,8|0,0:1|0:0,0:0:0:0:
402,116,53051,5,0,0:0:0:0:
402,116,53221,2,0,L|331:140,1,75,8|0,0:1|0:0,0:0:0:0:
109,267,53390,2,0,L|181:244,1,75,8|0,0:1|0:0,0:0:0:0:
256,192,53560,5,2,0:0:0:0:
256,192,53729,1,2,0:0:0:0:
0,317,53899,6,0,B|113:306|42:381|190:371,1,180,4|0,1:0|0:0,0:0:0:0:
244,374,54238,2,0,P|240:336|207:307,1,60,10|0,0:0|0:0,0:0:0:0:
40,233,54407,2,0,B|1:213|-22:165|59:120|44:178|20:196,1,120,2|0,0:0|1:0,0:0:0:0:
256,80,54746,5,2,0:2:0:0:
108,182,54916,1,8,0:0:0:0:
0,38,55085,1,2,0:2:0:0:
123,266,55255,6,0,B|122:343|44:379|-8:313|52:307,1,180,2|0,1:2|0:0,0:0:0:0:
40,233,55594,2,0,P|69:234|96:248,1,60,10|0,0:0|0:0,0:0:0:0:
175,380,55763,2,0,P|242:375|313:371,1,120,2|0,0:0|1:0,0:0:0:0:
479,274,56102,1,0,0:0:0:0:
479,274,56187,1,0,0:0:0:0:
479,274,56272,2,0,B|444:259|448:214|448:214|476:204|488:168,1,120,10|0,0:0|0:0,0:0:0:0:
489,24,56611,5,2,1:2:0:0:
392,67,56780,1,0,0:0:0:0:
329,149,56950,2,0,P|323:124|286:68,1,60,10|0,0:0|0:0,0:0:0:0:
311,252,57119,1,2,0:0:0:0:
512,384,57289,5,2,1:2:0:0:
437,281,57458,1,2,0:2:0:0:
327,224,57628,2,0,P|351:218|407:181,1,60,10|0,0:2|0:0,0:0:0:0:
203,226,57797,1,2,0:2:0:0:
329,149,57967,5,2,1:2:0:0:
269,334,58136,1,0,3:0:0:0:
85,274,58306,2,0,P|68:255|7:225,1,60,10|0,3:2|0:0,0:0:0:0:
143,90,58475,1,0,3:0:0:0:
1,384,58645,5,2,3:2:0:0:
19,346,58729,1,0,0:3:0:0:
12,304,58814,1,8,0:0:0:0:
48,117,58984,2,0,L|68:40,1,60,8|0,0:0|0:0,0:0:0:0:
2,204,59153,1,8,0:0:0:0:
2,204,59238,1,8,0:0:0:0:
2,204,59323,6,0,B|84:186|156:216|156:216|106:230,1,180,4|0,1:2|0:0,0:0:0:0:
169,291,59662,2,0,L|189:368,1,60,10|0,0:0|0:0,0:0:0:0:
245,162,59831,2,0,B|270:101|232:111|259:39,1,120,2|0,0:0|1:0,0:0:0:0:
178,208,60170,5,2,0:2:0:0:
353,164,60340,1,8,0:0:0:0:
413,323,60509,1,2,0:2:0:0:
512,145,60679,6,0,B|430:163|358:133|358:133|408:119,1,180,2|0,1:2|0:0,0:0:0:0:
345,58,61018,2,0,L|325:-19,1,60,10|0,0:0|0:0,0:0:0:0:
471,241,61187,1,2,0:0:0:0:
471,241,61272,1,0,0:0:0:0:
471,241,61357,2,0,B|446:302|484:292|457:364,1,120,0|0,1:0|0:0,0:0:0:0:
380,223,61696,2,0,L|303:243,1,60,10|0,0:0|0:0,0:0:0:0:
449,74,61865,1,2,0:2:0:0:
478,247,62035,5,2,1:2:0:0:
358,249,62204,1,2,0:2:0:0:
256,192,62374,2,0,L|244:124,1,60,10|0,0:2|0:0,0:0:0:0:
201,71,62543,1,2,0:2:0:0:
387,5,62712,5,2,1:2:0:0:
345,117,62882,1,2,0:2:0:0:
261,199,63051,2,0,L|249:267,1,60,10|0,0:2|0:0,0:0:0:0:
136,200,63221,1,2,0:2:0:0:
220,86,63390,5,0,1:0:0:0:
22,8,63560,2,0,P|32:44|39:81,1,75,8|0,0:0|0:0,0:0:0:0:
138,190,63729,2,0,P|128:154|122:118,1,75,8|0,0:0|0:0,0:0:0:0:
115,39,63899,1,0,1:0:0:0:
34,247,64068,5,0,1:0:0:0:
34,247,64153,1,0,1:0:0:0:
34,247,64238,1,0,1:0:0:0:
34,247,64323,1,0,1:0:0:0:
34,247,64407,2,0,B|88:259|88:259|114:289|114:289|192:304,1,150,8|0,0:0|0:0,0:0:0:0:
295,115,64746,5,12,0:0:0:0:
494,231,64916,1,0,0:0:0:0:
395,58,65085,5,8,0:0:0:0:
395,290,65255,1,0,0:0:0:0:
494,115,65424,5,8,0:0:0:0:
295,231,65594,1,0,1:0:0:0:
394,173,65763,5,8,0:0:0:0:
394,173,65933,1,0,1:0:0:0:
212,338,66102,5,8,0:0:0:0:
83,140,66272,1,0,0:0:0:0:
123,354,66441,5,8,0:0:0:0:
172,124,66611,1,0,0:0:0:0:
49,303,66780,5,8,0:0:0:0:
246,175,66950,1,0,1:0:0:0:
32,214,67119,5,8,0:0:0:0:
262,263,67289,1,0,1:0:0:0:
123,58,67458,6,0,B|96:32|117:4|117:4|156:23|170:76|116:150,1,195,12|0,0:0|0:0,0:0:0:0:
106,187,67797,2,0,P|69:159|65:122,1,65,8|0,0:0|0:0,0:0:0:0:
221,31,67967,1,0,0:0:0:0:
183,195,68136,6,0,L|166:284,1,65,12|0,0:0|0:0,0:0:0:0:
37,70,68306,1,0,1:0:0:0:
106,187,68475,2,0,L|17:170,1,65,8|0,0:0|0:0,0:0:0:0:
269,112,68645,1,0,1:0:0:0:
170,331,68814,6,0,P|213:320|232:266,1,65,12|0,0:0|0:0,0:0:0:0:
259,232,68984,1,0,0:0:0:0:
139,60,69153,2,0,P|127:102|164:146,1,65,8|0,0:0|0:0,0:0:0:0:
183,195,69323,1,0,0:0:0:0:
350,63,69492,1,0,1:0:0:0:
259,232,69662,5,2,1:2:0:0:
262,257,69746,1,0,1:0:0:0:
265,283,69831,1,2,1:2:0:0:
269,309,69916,1,0,1:0:0:0:
272,336,70001,6,0,B|384:313|345:386|475:361,1,180,4|0,0:0|0:0,0:0:0:0:
463,352,70340,1,2,1:2:0:0:
365,384,70509,2,0,P|357:354|354:325,1,60,10|0,0:0|0:0,0:0:0:0:
502,262,70679,2,0,P|497:225|484:182,1,60,10|0,0:0|0:0,0:0:0:0:
445,140,70848,1,0,1:0:0:0:
485,348,71018,5,2,3:2:0:0:
332,222,71187,1,10,0:2:0:0:
482,58,71357,6,0,P|387:58|306:5,1,180,4|0,0:0|0:0,0:0:0:0:
331,11,71696,1,2,1:2:0:0:
374,150,71865,2,0,P|381:120|384:91,1,60,10|0,0:0|0:0,0:0:0:0:
240,10,72035,2,0,P|232:39|229:68,1,60,10|0,0:0|0:0,0:0:0:0:
249,144,72204,1,0,1:0:0:0:
346,19,72374,5,2,3:2:0:0:
220,219,72543,1,10,0:2:0:0:
56,26,72712,6,0,P|122:111|205:86,1,180,4|0,0:0|0:0,0:0:0:0:
197,83,73051,1,2,1:2:0:0:
71,188,73221,2,0,P|54:219|61:267,1,60,10|0,0:2|0:0,0:0:0:0:
262,106,73390,1,2,3:2:0:0:
271,84,73475,1,0,3:0:0:0:
271,60,73560,2,0,P|252:29|207:11,1,60,8|0,0:0|0:0,0:0:0:0:
134,139,73729,1,0,1:0:0:0:
282,298,73899,2,0,P|317:297|355:267,1,60,8|0,0:0|0:0,0:0:0:0:
226,239,74068,1,0,1:0:0:0:
46,321,74238,5,8,1:0:0:0:
329,195,74407,1,8,1:0:0:0:
1,91,74916,5,8,1:0:0:0:
335,210,75085,1,8,1:0:0:0:
335,210,75594,6,0,L|419:195,1,60,4|0,1:0|0:0,0:0:0:0:
477,343,75763,2,0,P|406:343|367:284,1,120,0|10,0:0|0:0,0:0:0:0:
443,269,76102,1,0,0:0:0:0:
303,288,76272,2,0,P|300:317|309:345,1,60,2|0,1:2|0:0,0:0:0:0:
469,196,76441,2,0,P|471:166|462:138,1,60,2|0,2:0|0:0,0:0:0:0:
350,12,76611,2,0,B|337:81|367:66|351:142,1,120,8|0,0:0|0:0,0:0:0:0:
303,288,76950,6,0,L|219:273,1,60,0|0,1:0|0:0,0:0:0:0:
82,148,77119,2,0,P|153:148|192:207,1,120,0|10,0:0|0:0,0:0:0:0:
114,218,77458,1,0,0:0:0:0:
7,127,77628,2,0,P|5:156|14:185,1,60,2|0,1:2|0:0,0:0:0:0:
192,238,77797,2,0,P|193:208|184:179,1,60,2|0,2:0|0:0,0:0:0:0:
88,28,77967,2,0,L|81:147,1,120,8|0,0:0|0:0,0:0:0:0:
40,324,78306,6,0,L|45:261,1,60,0|0,1:0|0:0,0:0:0:0:
170,163,78475,2,0,B|242:168|205:112|310:132,1,120,0|10,0:0|0:0,0:0:0:0:
332,187,78814,1,0,0:0:0:0:
488,74,78984,2,0,L|424:85,1,60,2|0,1:2|0:0,0:0:0:0:
364,242,79153,2,0,L|353:182,1,60,2|0,2:0|0:0,0:0:0:0:
363,0,79323,2,0,P|338:64|361:111,1,120,8|0,0:0|0:0,0:0:0:0:
512,305,79662,6,0,P|470:239|367:260,1,180,0|0,1:0|0:0,0:0:0:0:
368,323,80001,2,0,L|308:333,1,60,10|0,0:0|0:0,0:0:0:0:
456,224,80170,1,0,0:0:0:0:
233,381,80340,1,0,1:2:0:0:
236,350,80424,1,0,1:0:0:0:
239,319,80509,1,0,1:0:0:0:
243,288,80594,1,0,1:0:0:0:
246,257,80679,1,8,0:0:0:0:
361,120,80848,1,8,0:0:0:0:
341,157,80933,1,8,0:0:0:0:
301,172,81018,6,0,L|222:165,1,60,4|0,1:2|0:0,0:0:0:0:
105,69,81187,2,0,P|38:75|6:120,1,120,0|10,0:0|0:0,0:0:0:0:
81,143,81526,1,0,0:0:0:0:
180,26,81696,2,0,L|186:93,1,60,2|0,1:2|0:0,0:0:0:0:
75,158,81865,2,0,L|81:225,1,60,2|0,2:0|0:0,0:0:0:0:
248,241,82035,2,0,P|209:185|154:180,1,120,8|0,0:0|0:0,0:0:0:0:
90,346,82374,6,0,L|158:343,1,60,0|0,1:2|0:0,0:0:0:0:
287,309,82543,2,0,B|361:300|333:363|443:337,1,120,0|10,0:0|0:0,0:0:0:0:
402,267,82882,1,0,0:0:0:0:
240,377,83051,2,0,P|187:368|163:345,1,60,2|0,1:2|0:0,0:0:0:0:
412,258,83221,2,0,P|465:267|489:290,1,60,2|0,2:0|0:0,0:0:0:0:
248,241,83390,1,8,0:0:0:0:
248,241,83475,1,0,1:0:0:0:
248,241,83560,1,0,1:0:0:0:
431,140,83729,6,0,B|516:124|537:27|466:0|416:27|427:70,1,210,12|0,0:0|0:0,0:0:0:0:
424,62,84068,1,0,1:0:0:0:
352,222,84238,2,0,B|323:303|396:370|456:323|457:265|413:253,1,210,12|0,0:0|0:0,0:0:0:0:
423,254,84577,1,0,1:0:0:0:
320,112,84746,2,0,B|263:46|168:76|180:151|229:181|261:149,1,210,12|0,0:0|0:0,0:0:0:0:
257,158,85085,5,4,1:2:0:0:
353,43,85255,2,0,P|391:21|438:23,1,70,8|0,0:0|0:0,0:0:0:0:
328,195,85424,2,0,P|328:238|302:278,1,70,8|0,0:0|0:0,0:0:0:0:
196,89,85594,1,0,1:0:0:0:
314,274,85763,1,0,1:0:0:0:
312,297,85848,1,0,1:0:0:0:
310,321,85933,1,0,1:0:0:0:
308,345,86018,1,0,1:0:0:0:
307,369,86102,1,8,0:0:0:0:
196,89,86441,5,4,1:2:0:0:
115,67,86611,1,0,1:0:0:0:
94,151,86780,5,8,0:0:0:0:
207,127,86950,1,8,0:0:0:0:
228,212,87119,5,8,0:0:0:0:
85,186,87289,1,8,0:0:0:0:
64,282,87458,5,8,0:0:0:0:
239,249,87628,1,8,0:0:0:0:
309,357,87797,6,0,B|415:359|369:279|495:296,1,195.000000000001,4|0,0:0|0:0,0:0:0:0:
485,294,88475,1,0,0:0:0:0:
256,280,88984,1,0,0:0:0:0:
203,357,89153,6,0,B|97:359|143:279|17:296,1,195.000000000001,2|0,0:0|0:0,0:0:0:0:
26,294,89831,1,0,0:0:0:0:
94,127,90509,6,0,B|53:79|67:25|98:19|119:36|84:65,2,130.000000000001,2|0|0,0:0|0:0|0:0,0:0:0:0:
94,127,91526,1,0,0:0:0:0:
146,205,91865,6,0,P|188:183|275:174,1,130.000000000001,2|0,0:0|0:0,0:0:0:0:
326,114,92374,2,0,P|347:145|350:177,1,65.0000000000004
444,112,92712,1,0,3:0:0:0:
444,112,92882,2,0,P|446:153|433:195,1,75.0000000000002,0|0,3:0|1:0,0:0:0:0:
491,312,93221,6,0,P|426:316|316:338,1,150,4|0,1:2|0:0,0:0:0:0:
342,330,93729,1,0,0:0:0:0:
197,366,93899,2,0,P|161:327|163:290,1,75.0000000000002,8|0,0:0|0:0,0:0:0:0:
214,247,94238,2,0,L|207:166,1,75.0000000000002,0|0,1:0|0:0,0:0:0:0:
266,25,94577,5,2,0:0:0:0:
282,140,94746,2,0,P|311:88|272:6,1,150,0|0,1:0|1:0,0:0:0:0:
217,78,95255,2,0,P|247:129|338:136,1,150,8|0,0:0|1:0,0:0:0:0:
406,89,95763,1,0,3:0:0:0:
406,89,95848,1,0,3:0:0:0:
406,89,95933,6,0,L|485:79,1,75.0000000000002
436,167,96272,2,0,L|515:157,1,75.0000000000002
405,248,96611,5,8,0:0:0:0:
446,166,96780,1,0,1:0:0:0:
460,326,96950,1,8,0:0:0:0:
460,326,97035,1,8,0:0:0:0:
460,326,97119,1,0,1:0:0:0:
256,192,97289,5,8,0:1:0:0:
496,243,97458,1,8,0:1:0:0:
74,209,98645,6,0,B|118:198|171:228|166:275|166:275|156:270|133:265,1,150,4|0,1:0|0:0,0:0:0:0:
157,352,98984,2,0,P|130:302|160:261,1,100,8|2,0:0|0:2,0:0:0:0:
156,139,99323,1,2,1:2:0:0:
134,57,99492,1,0,1:0:0:0:
291,153,99662,2,0,P|261:201|210:195,1,100,8|2,0:0|0:2,0:0:0:0:
59,225,100001,5,2,1:2:0:0:
233,192,100170,1,0,1:0:0:0:
55,237,100340,1,8,0:0:0:0:
240,306,100509,2,0,B|329:307|280:362|411:362,1,150,2|0,1:2|0:0,0:0:0:0:
406,343,100848,1,0,1:0:0:0:
184,358,101018,2,0,P|162:312|175:263,1,100,8|0,0:0|0:0,0:0:0:0:
379,133,101357,6,0,B|326:127|326:127|294:91|294:91|229:83,1,150,2|0,1:2|0:0,0:0:0:0:
177,117,101696,2,0,B|188:149|188:149|252:159,1,100,10|0,0:2|0:0,0:0:0:0:
375,21,102035,1,2,1:2:0:0:
259,175,102204,1,0,1:0:0:0:
450,100,102374,2,0,B|438:67|438:67|374:57,1,100,10|0,0:2|0:0,0:0:0:0:
319,277,102712,6,0,L|330:200,1,60,4|0,1:2|0:0,0:0:0:0:
266,34,102882,1,0,1:0:0:0:
302,41,102967,1,0,1:0:0:0:
331,65,103051,1,0,1:0:0:0:
344,100,103136,1,0,1:0:0:0:
339,137,103221,2,0,B|308:241|359:202|316:338,1,180,4|0,1:2|0:0,0:0:0:0:
309,354,103560,1,0,1:0:0:0:
477,245,103729,2,0,L|412:248,1,60,8|8,0:0|0:0,0:0:0:0:
239,367,103899,1,0,1:0:0:0:
224,327,103984,1,0,0:0:0:0:
185,311,104068,5,6,1:2:0:0:
50,221,104238,1,0,0:0:0:0:
210,109,104407,2,0,L|287:112,1,50,10|0,0:2|0:0,0:0:0:0:
113,288,104577,2,0,B|82:299|38:344|88:390|136:391|132:344|100:340,1,150,2|0,1:2|0:0,0:0:0:0:
185,311,104916,1,2,1:2:0:0:
50,221,105085,2,0,P|42:187|50:149,1,50,8|0,0:0|0:0,0:0:0:0:
124,30,105255,1,2,0:2:0:0:
152,9,105340,1,0,0:0:0:0:
185,16,105424,5,6,1:2:0:0:
211,193,105594,1,0,0:0:0:0:
50,221,105763,2,0,L|-27:218,1,50,10|0,0:2|0:0,0:0:0:0:
282,222,105933,2,0,B|313:211|357:166|307:120|259:119|263:166|295:170,1,150,2|0,1:2|0:0,0:0:0:0:
211,193,106272,1,2,1:2:0:0:
345,278,106441,2,0,L|394:276,1,50,8|0,0:0|0:0,0:0:0:0:
481,182,106611,1,0,3:0:0:0:
446,178,106696,1,0,3:0:0:0:
418,199,106780,5,6,1:2:0:0:
319,365,106950,1,0,0:0:0:0:
467,258,107119,1,10,0:0:0:0:
347,146,107289,2,0,B|375:67|320:80|353:-10,1,150,6|0,1:2|0:0,0:0:0:0:
365,9,107628,1,2,1:2:0:0:
276,106,107797,2,0,L|206:99,1,50,10|0,0:2|0:0,0:0:0:0:
499,285,107967,6,0,P|479:226|372:245,1,150,6|0,0:2|0:0,0:0:0:0:
373,238,108306,1,0,1:0:0:0:
349,339,108475,5,0,3:0:0:0:
379,249,108645,1,8,0:3:0:0:
258,314,108814,5,8,0:0:0:0:
255,219,108984,1,0,1:0:0:0:
163,321,109153,5,0,1:0:0:0:
128,233,109323,1,0,1:0:0:0:
21,102,109492,6,0,P|58:48|143:42,1,150,4|0,1:2|1:2,0:0:0:0:
196,93,110001,1,8,0:0:0:0:
196,93,110170,2,0,L|277:83,1,75.0000000000002,0|0,1:0|0:0,0:0:0:0:
324,137,110509,2,0,P|346:97|340:57,1,75.0000000000002,8|0,0:0|0:0,0:0:0:0:
448,126,110848,5,0,1:0:0:0:
447,43,111018,2,0,L|457:124,1,75.0000000000002,8|0,0:0|1:0,0:0:0:0:
498,214,111357,1,0,0:0:0:0:
485,204,111441,1,0,3:0:0:0:
470,202,111526,1,8,0:0:0:0:
391,207,111696,1,0,1:0:0:0:
391,207,111865,1,0,1:0:0:0:
140,379,112204,5,4,1:2:0:0:
220,364,112374,2,0,P|255:335|257:294,1,75.0000000000002,0|0,0:0|1:2,0:0:0:0:
202,252,112712,1,8,0:0:0:0:
202,252,112882,2,0,L|214:158,1,75.0000000000002,0|0,1:0|0:0,0:0:0:0:
258,112,113221,1,8,0:0:0:0:
258,112,113390,1,0,0:0:0:0:
108,51,113560,5,0,1:0:0:0:
175,110,113729,2,0,P|98:87|78:20,1,150,8|0,0:0|0:0,0:0:0:0:
161,196,114238,1,8,0:0:0:0:
198,196,114323,1,8,0:0:0:0:
231,179,114407,1,0,1:0:0:0:
253,149,114492,1,0,1:0:0:0:
258,112,114577,1,0,1:0:0:0:
258,130,114662,1,0,1:0:0:0:
266,147,114746,1,0,3:0:0:0:
281,158,114831,1,0,3:0:0:0:
300,160,114916,5,6,1:2:0:0:
401,100,115085,1,2,0:0:0:0:
503,157,115255,1,2,1:2:0:0:
504,273,115424,2,0,P|472:307|426:307,1,85.0000000000003,2|0,0:0|1:2,0:0:0:0:
504,382,115763,1,2,0:0:0:0:
369,345,115933,2,0,P|355:300|378:260,1,85.0000000000003,2|0,1:2|0:0,0:0:0:0:
300,160,116272,5,2,1:2:0:0:
260,270,116441,1,2,0:0:0:0:
146,292,116611,1,2,1:2:0:0:
71,204,116780,2,0,P|73:157|108:127,1,85.0000000000003,2|0,0:0|1:2,0:0:0:0:
0,120,117119,1,2,0:0:0:0:
128,62,117289,2,0,P|167:87|175:132,1,85.0000000000003,2|0,1:2|3:0,0:0:0:0:
173,130,117543,1,0,3:0:0:0:
170,138,117628,5,6,1:2:0:0:
0,109,117797,1,2,0:0:0:0:
57,287,117967,1,2,1:2:0:0:
231,277,118136,2,0,P|152:284|129:368,1,170.000000000001,2|2,0:0|0:0,0:0:0:0:
213,376,118645,1,2,1:2:0:0:
213,376,118814,1,2,0:0:0:0:
311,229,118984,6,0,P|318:275|331:315,1,85.0000000000003,0|0,1:0|0:0,0:0:0:0:
201,155,119323,2,0,P|194:109|181:69,1,85.0000000000003,0|0,1:0|0:0,0:0:0:0:
219,247,119662,2,0,P|173:254|133:267,1,85.0000000000003,0|0,1:0|0:0,0:0:0:0:
293,137,120001,2,0,P|339:130|379:117,1,85.0000000000003,0|0,1:0|0:0,0:0:0:0:
407,106,120255,1,0,0:0:0:0:
438,92,120340,5,4,0:0:0:0:
438,92,120679,5,0,1:0:0:0:
397,190,120848,1,0,1:0:0:0:
463,257,121018,6,0,L|482:213,1,37.5000000000001,8|0,0:0|0:0,0:0:0:0:
343,122,121187,2,0,L|324:78,1,37.5000014305115,8|0,0:0|0:0,0:0:0:0:
226,227,121357,6,0,P|274:221|298:194,1,60,8|0,0:0|0:0,0:0:0:0:
438,92,121526,2,0,P|486:98|510:125,1,60,8|0,0:0|0:0,0:0:0:0:
362,327,121696,5,0,1:0:0:0:
362,327,121865,2,0,L|350:229,1,75,8|0,0:1|0:0,0:0:0:0:
325,60,122035,2,0,L|335:135,1,75,8|0,0:1|0:0,0:0:0:0:
476,180,122204,1,0,0:0:0:0:
476,180,122374,6,0,L|378:192,1,75,8|0,0:1|0:0,0:0:0:0:
283,207,122543,2,0,L|209:217,1,75,8|0,0:1|0:0,0:0:0:0:
134,294,122712,5,8,0:0:0:0:
87,266,122797,1,8,0:0:0:0:
61,217,122882,1,8,0:0:0:0:
63,161,122967,1,8,0:0:0:0:
93,115,123051,6,0,B|155:71|119:14|119:14|81:34|107:79,1,180,4|0,1:0|0:0,0:0:0:0:
23,26,123390,2,0,P|20:65|35:99,1,60,10|0,0:0|0:0,0:0:0:0:
50,225,123560,2,0,P|116:195|194:196,1,120,2|0,0:0|1:0,0:0:0:0:
348,286,123899,5,2,0:2:0:0:
340,94,124068,1,8,0:0:0:0:
179,197,124238,1,2,0:2:0:0:
419,269,124407,6,0,B|357:313|393:370|393:370|431:350|405:305,1,180,2|0,1:2|0:0,0:0:0:0:
489,358,124746,2,0,P|492:319|477:285,1,60,10|0,0:0|0:0,0:0:0:0:
462,159,124916,2,0,P|396:189|318:188,1,120,2|0,0:0|1:0,0:0:0:0:
214,347,125255,1,0,0:0:0:0:
214,347,125340,1,0,0:0:0:0:
214,347,125424,2,0,L|64:361,1,120,10|0,0:0|0:0,0:0:0:0:
13,168,125763,5,2,1:2:0:0:
113,59,125933,1,0,0:0:0:0:
256,90,126102,2,0,P|283:107|291:150,1,60,10|0,0:0|0:0,0:0:0:0:
301,229,126272,1,2,0:0:0:0:
492,326,126441,5,2,1:2:0:0:
341,292,126611,1,2,0:2:0:0:
295,146,126780,2,0,P|295:112|331:82,1,60,10|0,0:2|0:0,0:0:0:0:
396,34,126950,1,2,0:2:0:0:
218,157,127119,5,2,1:2:0:0:
404,202,127289,1,0,3:0:0:0:
469,65,127458,2,0,P|470:94|487:119,1,60,10|0,3:2|0:0,0:0:0:0:
224,2,127628,1,0,3:0:0:0:
404,202,127797,5,2,3:2:0:0:
366,225,127882,1,8,0:0:0:0:
342,263,127967,1,8,0:0:0:0:
337,307,128051,1,8,0:0:0:0:
351,349,128136,1,8,0:0:0:0:
510,296,128306,1,8,0:0:0:0:
469,304,128390,1,8,0:0:0:0:
433,280,128475,6,0,P|316:281|238:314,1,180,4|0,1:2|0:0,0:0:0:0:
187,311,128814,2,0,P|198:346|216:362,1,60,10|0,0:0|0:0,0:0:0:0:
430,359,128984,2,0,P|494:331|500:255,1,120,2|0,0:0|1:0,0:0:0:0:
333,191,129323,5,2,0:2:0:0:
494,294,129492,1,8,0:0:0:0:
502,102,129662,1,2,0:2:0:0:
350,266,129831,6,0,P|271:241|269:140,1,180,2|0,1:2|0:0,0:0:0:0:
274,85,130170,2,0,P|320:111|328:132,1,60,10|0,0:0|0:0,0:0:0:0:
421,226,130340,1,2,0:0:0:0:
421,226,130424,1,0,0:0:0:0:
421,226,130509,2,0,P|430:290|396:338,1,120,0|0,1:0|0:0,0:0:0:0:
480,173,130848,2,0,L|491:112,1,60,10|0,0:0|0:0,0:0:0:0:
350,266,131018,1,2,0:2:0:0:
480,357,131187,5,2,1:2:0:0:
362,283,131357,1,2,0:2:0:0:
319,150,131526,2,0,L|302:207,1,60,10|0,0:2|0:0,0:0:0:0:
371,20,131696,1,2,0:2:0:0:
495,194,131865,5,2,1:2:0:0:
391,100,132035,1,2,0:2:0:0:
251,96,132204,2,0,L|234:39,1,60,10|0,0:2|0:0,0:0:0:0:
141,182,132374,1,2,0:2:0:0:
119,348,132543,6,0,B|91:344|47:302|82:180|161:238|148:309|96:280,1,180,4|0,1:2|0:0,0:0:0:0:
64,283,132882,6,0,P|83:284|101:291,1,37.5000000000001,8|0,0:0|0:0,0:0:0:0:
198,322,133051,2,0,P|217:321|235:315,1,37.5000000000001,8|0,0:0|0:0,0:0:0:0:
258,226,133221,6,0,P|233:230|209:228,1,50,8|0,0:0|0:0,0:0:0:0:
117,170,133390,2,0,P|96:157|71:152,1,50,8|0,0:0|0:0,0:0:0:0:
101,18,133560,6,0,P|128:30|151:49,1,60,8|0,0:0|0:0,0:0:0:0:
226,135,133729,2,0,P|254:143|284:143,1,60,8|0,0:0|0:0,0:0:0:0:
473,70,133899,6,0,P|451:85|430:152,1,75,4|0,1:0|0:0,0:0:0:0:
353,290,134068,1,0,0:0:0:0:
359,299,134153,1,0,0:0:0:0:
349,306,134238,1,10,2:2:0:0:
343,296,134323,1,0,0:0:0:0:
420,259,134407,6,0,B|430:218|412:185|366:211|342:166|364:88,1,150,2|0,2:0|1:0,0:0:0:0:
256,72,134662,1,0,0:0:0:0:
256,72,134746,1,0,0:0:0:0:
256,72,134831,1,0,0:0:0:0:
256,72,134916,6,0,P|257:98|305:150,1,75,10|0,0:0|0:0,0:0:0:0:
433,330,135085,1,0,0:0:0:0:
448,334,135170,1,0,0:0:0:0:
443,351,135255,1,2,1:2:0:0:
426,346,135340,1,0,0:0:0:0:
420,259,135424,6,0,B|395:224|358:217|338:264|293:260|253:191,1,180,2|8,0:2|0:0,0:0:0:0:
211,145,135679,1,0,0:0:0:0:
211,145,135763,1,2,0:0:0:0:
211,145,135848,1,0,0:0:0:0:
211,145,135933,6,0,L|117:158,1,75,2|0,1:2|0:0,0:0:0:0:
256,72,136102,2,0,L|330:61,1,75,2|0,0:2|0:0,0:0:0:0:
176,0,136272,1,10,0:0:0:0:
158,32,136357,1,0,0:0:0:0:
176,64,136441,1,2,0:0:0:0:
15,173,136611,5,2,1:2:0:0:
33,171,136696,1,0,0:0:0:0:
51,177,136780,1,0,0:0:0:0:
65,190,136865,1,0,0:0:0:0:
74,206,136950,1,10,0:2:0:0:
69,243,137035,1,0,0:0:0:0:
65,280,137119,1,2,0:2:0:0:
61,317,137204,1,0,0:0:0:0:
35,352,137289,6,0,L|44:271,1,75,2|0,1:2|0:0,0:0:0:0:
140,288,137458,2,0,L|149:207,1,75
88,56,137628,1,10,0:2:0:0:
96,92,137712,1,0,0:0:0:0:
119,120,137797,1,0,0:0:0:0:
154,135,137882,1,0,0:0:0:0:
191,132,137967,6,0,P|243:114|288:129,1,75,4|0,0:0|0:0,0:0:0:0:
292,44,138136,1,8,1:2:0:0:
292,44,138221,1,8,1:2:0:0:
292,44,138306,2,0,P|333:79|343:126,1,75,12|0,0:0|0:0,0:0:0:0:
406,52,138475,1,0,1:0:0:0:
412,68,138560,1,0,1:2:0:0:
414,83,138645,2,0,P|403:137|368:168,1,75,8|0,0:0|0:0,0:0:0:0:
481,187,138814,5,0,1:0:0:0:
488,208,138899,1,0,1:0:0:0:
472,224,138984,1,8,0:0:0:0:
435,230,139068,1,8,0:0:0:0:
397,234,139153,2,0,L|300:241,1,75,8|8,0:0|0:0,0:0:0:0:
219,318,139323,6,0,B|187:277|162:313|130:275|126:228|173:247|164:269,1,89.9999999999999,6|0,1:2|0:0,0:0:0:0:
170,179,139492,6,0,B|150:226|194:230|177:277|139:304|132:252|155:250,1,89.9999999999999,2|0,0:2|0:0,0:0:0:0:
75,290,139662,6,0,B|126:283|107:242|156:234|198:254|158:285|144:266,1,89.9999999999999,10|0,0:2|0:0,0:0:0:0:
202,255,139831,6,0,L|256:251,1,50,2|0,0:2|0:0,0:0:0:0:
264,378,140001,6,0,P|287:349|289:302,1,75,2|0,1:2|0:0,0:0:0:0:
158,198,140170,2,0,P|171:232|211:257,1,75,2|0,0:2|0:0,0:0:0:0:
366,196,140340,1,8,0:0:0:0:
366,196,140424,1,0,0:0:0:0:
366,196,140509,2,0,P|329:190|287:212,1,75,2|0,2:0|0:0,0:0:0:0:
88,149,140679,5,2,1:2:0:0:
88,129,140763,1,0,0:0:0:0:
91,111,140848,1,0,0:0:0:0:
92,93,140933,1,0,0:0:0:0:
24,59,141018,5,10,0:2:0:0:
23,77,141102,1,0,0:0:0:0:
20,95,141187,1,0,0:0:0:0:
20,115,141272,1,0,0:0:0:0:
13,187,141357,6,0,P|63:193|90:226,1,75.0000028610231,2|0,1:2|0:0,0:0:0:0:
92,93,141526,2,0,P|142:87|169:54,1,75.0000028610231,2|0,0:2|0:0,0:0:0:0:
204,227,141696,2,0,P|230:269|222:311,1,75.0000028610231,10|0,0:2|0:0,0:0:0:0:
275,65,141865,2,0,P|301:22|293:-19,1,75.0000028610231,2|0,0:2|0:0,0:0:0:0:
479,184,142035,6,0,B|422:240|338:220|280:114|336:65|439:73|406:156|362:155,1,300,2|8,1:2|0:0,0:0:0:0:
476,287,142543,1,2,2:0:0:0:
476,287,142628,1,2,2:0:0:0:
476,287,142712,6,0,B|539:269|559:201|508:115|449:135|413:212|486:223|503:191,1,240,2|8,2:0|0:0,0:0:0:0:
512,360,143221,1,0,0:0:0:0:
512,360,143306,1,0,0:0:0:0:
512,360,143390,6,0,P|504:300|471:291,1,75,4|0,1:2|0:0,0:0:0:0:
387,187,143560,2,0,P|339:223|347:257,1,75,8|0,0:0|0:0,0:0:0:0:
282,374,143729,2,0,B|241:320|232:366|152:335|183:242,1,150,8|0,0:0|0:0,0:0:0:0:
214,216,143984,1,0,0:0:0:0:
214,216,144068,6,0,P|209:132|195:43,2,150,8|8|8,0:0|0:0|0:0,0:0:0:0:
112,363,144746,5,4,0:1:0:0:
500,308,148814,6,0,P|456:272|392:327,1,150,0|0,3:0|0:0,0:0:0:0:
493,283,149323,1,0,1:0:0:0:
493,283,149407,1,0,1:0:0:0:
493,283,149492,6,0,P|453:259|422:268,1,60,0|0,3:0|0:0,0:0:0:0:
362,188,149662,2,0,P|321:210|313:241,1,60,0|0,1:0|0:0,0:0:0:0:
198,354,149831,6,0,P|227:279|228:359,1,225,0|0,3:0|0:0,0:0:0:0:
220,319,150170,6,0,P|211:254|150:229,1,100,4|0,1:2|0:0,0:0:0:0:
77,233,150424,1,0,1:0:0:0:
77,233,150509,2,0,P|103:299|165:287,1,130,8|0,0:0|0:0,0:0:0:0:
383,228,150848,6,0,P|318:237|293:298,1,100,0|0,1:2|0:0,0:0:0:0:
297,371,151102,1,0,1:0:0:0:
297,371,151187,2,0,P|363:345|351:283,1,130,8|0,0:0|0:0,0:0:0:0:
292,65,151526,6,0,P|301:130|362:155,1,100,0|0,1:2|0:0,0:0:0:0:
435,151,151780,1,0,1:0:0:0:
435,151,151865,2,0,P|409:85|347:97,1,130,8|0,0:0|0:0,0:0:0:0:
129,156,152204,6,0,P|194:147|219:86,1,100,0|0,1:2|0:0,0:0:0:0:
215,13,152458,1,0,1:0:0:0:
215,13,152543,2,0,P|149:39|161:101,1,130,8|0,0:0|0:0,0:0:0:0:
256,236,152882,6,0,P|252:304|240:356,1,100,4|0,1:2|0:0,0:0:0:0:
174,311,153136,1,0,1:0:0:0:
174,311,153221,2,0,P|152:241|200:215,1,130,8|0,0:0|0:0,0:0:0:0:
300,192,153560,6,0,P|368:196|420:208,1,100,0|0,1:2|0:0,0:0:0:0:
375,274,153814,1,0,1:0:0:0:
375,274,153899,2,0,P|305:296|279:248,1,130,8|0,0:0|0:0,0:0:0:0:
256,148,154238,6,0,P|260:80|272:28,1,100,0|0,1:2|0:0,0:0:0:0:
338,73,154492,1,0,1:0:0:0:
338,73,154577,2,0,P|360:143|312:169,1,130,8|0,0:0|0:0,0:0:0:0:
212,192,154916,6,0,P|144:188|92:176,1,100,0|0,1:2|0:0,0:0:0:0:
137,110,155170,1,0,1:0:0:0:
137,110,155255,2,0,P|197:111|207:124,1,65,8|0,0:0|1:0,0:0:0:0:
215,197,155424,2,0,P|184:248|167:250,1,65,0|0,1:0|1:0,0:0:0:0:
76,365,155594,6,0,B|82:292|47:319|52:226,1,120,4|0,1:2|0:0,0:0:0:0:
7,101,155933,2,0,P|-2:44|40:5,1,120,8|0,0:0|0:0,0:0:0:0:
104,34,156272,1,0,1:0:0:0:
0,191,156441,6,0,P|57:174|128:275,1,180,0|0,1:0|0:0,0:0:0:0:
128,267,156780,1,8,0:0:0:0:
256,120,156950,6,0,B|293:89|264:48|264:48|244:67|250:94,1,120,4|0,1:2|0:0,0:0:0:0:
256,264,157289,2,0,B|219:295|248:336|248:336|268:317|262:290,1,120,8|0,0:0|0:0,0:0:0:0:
184,192,157628,2,0,B|153:155|112:184|112:184|131:204|158:198,1,120,0|0,1:0|1:0,0:0:0:0:
328,192,157967,2,0,B|359:229|400:200|400:200|381:180|354:186,1,120,8|0,0:0|0:0,0:0:0:0:
183,282,158306,6,0,B|82:276|126:359|-5:336,1,180,4|0,1:2|0:0,0:0:0:0:
5,311,158645,2,0,P|87:320|111:360,1,120,8|0,0:0|0:0,0:0:0:0:
256,176,158984,1,0,1:0:0:0:
256,336,159153,1,0,1:0:0:0:
335,208,159323,2,0,P|346:180|340:150,1,60,8|0,0:0|0:0,0:0:0:0:
171,150,159492,2,0,P|165:180|176:208,1,60,0|0,1:0|0:0,0:0:0:0:
405,345,159662,6,0,P|448:306|507:311,1,120,0|0,1:0|0:0,0:0:0:0:
335,292,160001,1,8,0:0:0:0:
492,184,160170,2,0,B|498:83|415:127|438:-4,1,180,0|0,1:0|0:0,0:0:0:0:
451,8,160509,1,0,1:0:0:0:
415,173,160679,1,8,0:0:0:0:
308,68,160848,1,0,3:0:0:0:
308,68,160933,1,0,3:0:0:0:
308,68,161018,5,12,0:0:0:0:
494,181,161187,1,0,0:0:0:0:
290,299,161357,1,8,0:0:0:0:
462,383,161526,1,0,3:0:0:0:
482,346,161611,1,0,3:0:0:0:
484,303,161696,5,8,0:0:0:0:
280,168,161865,1,0,1:0:0:0:
160,370,162035,1,8,0:0:0:0:
14,187,162204,1,0,1:0:0:0:
14,187,162289,1,0,1:0:0:0:
14,187,162374,6,0,B|106:200|106:200|126:224,1,120,8|0,0:0|0:0,0:0:0:0:
187,180,162628,2,0,B|279:193|279:193|299:217,1,120,8|0,0:0|0:0,0:0:0:0:
371,180,162882,2,0,P|374:225|361:255,1,60,8|0,0:0|0:0,0:0:0:0:
459,319,163051,5,8,0:0:0:0:
257,35,163729,6,0,B|271:56|271:96|262:165|182:75|142:147|139:206|190:250|234:246|258:204|255:192,1,300,4|0,0:0|0:0,0:0:0:0:
414,195,164407,6,0,B|394:209|354:209|284:200|374:120|302:80|243:77|199:128|203:172|245:196|256:193,1,300,4|0,0:0|0:0,0:0:0:0:
253,349,165085,6,0,B|240:329|240:289|248:219|328:309|368:237|371:178|320:134|276:138|252:180|256:193,1,300,4|0,0:0|0:0,0:0:0:0:
99,189,165763,6,0,B|120:176|160:176|229:184|139:264|211:304|270:307|314:256|310:212|268:188|256:192,1,300,4|0,0:0|0:0,0:0:0:0:
354,191,166441,6,0,B|379:179|411:145|385:75|320:56|295:85|271:115|319:167|332:96,1,200,4|0,0:0|0:0,0:0:0:0:
207,277,167119,2,0,B|205:305|218:350|292:362|340:315|328:279|314:243|246:259|301:305,1,200,4|0,0:0|0:0,0:0:0:0:
231,203,167628,6,0,B|195:192|140:194|161:246|107:258|57:240,1,180,12|0,0:0|0:0,0:0:0:0:
34,210,167967,2,0,P|99:225|108:283,1,120,8|0,0:0|0:0,0:0:0:0:
98,367,168221,2,0,P|78:303|124:266,1,120,8|0,0:0|0:0,0:0:0:0:
207,277,168475,5,8,0:0:0:0:
159,66,169153,6,0,P|121:71|94:7,1,112.5,4|0,1:0|0:0,0:0:0:0:
159,66,169492,6,0,P|194:137|179:199,1,120,10|2,0:0|0:0,0:0:0:0:
150,246,169831,1,0,1:0:0:0:
305,118,170001,5,2,0:2:0:0:
108,141,170170,1,8,0:0:0:0:
227,301,170340,1,2,0:2:0:0:
39,148,170509,6,0,P|122:169|136:253,1,180,2|0,1:2|0:0,0:0:0:0:
119,333,170848,2,0,P|72:304|67:285,1,60,10|0,0:0|0:0,0:0:0:0:
147,169,171018,1,2,0:0:0:0:
147,169,171102,1,0,0:0:0:0:
147,169,171187,2,0,B|156:110|135:117|146:24,1,120,0|0,1:0|0:0,0:0:0:0:
17,250,171526,2,0,P|65:223|84:228,1,60,10|0,0:0|0:0,0:0:0:0:
196,309,171696,1,2,0:2:0:0:
355,143,171865,5,2,1:2:0:0:
304,291,172035,1,2,0:2:0:0:
156,240,172204,2,0,P|141:234|93:241,1,60,10|0,0:2|0:0,0:0:0:0:
207,92,172374,1,2,0:2:0:0:
308,300,172543,5,2,1:2:0:0:
202,82,172712,1,2,0:2:0:0:
355,143,172882,2,0,P|371:150|419:143,1,60,10|0,0:2|0:0,0:0:0:0:
156,240,173051,1,2,0:2:0:0:
388,349,173221,6,0,P|352:291|389:244,1,120,0|0,1:0|1:0,0:0:0:0:
458,283,173475,1,0,1:0:0:0:
463,297,173560,2,0,P|430:357|371:348,1,120,8|0,0:0|1:0,0:0:0:0:
363,264,173814,1,0,1:0:0:0:
347,263,173899,2,0,P|298:214|324:160,1,120,8|0,0:0|1:0,0:0:0:0:
402,162,174153,1,0,1:0:0:0:
436,151,174238,1,8,0:0:0:0:
462,128,174323,1,8,0:0:0:0:
476,95,174407,1,8,0:0:0:0:
474,59,174492,1,8,0:0:0:0:
457,28,174577,6,0,B|356:17|386:85|252:62,1,180,4|0,1:0|0:0,0:0:0:0:
226,13,174916,2,0,P|206:48|206:80,1,60,10|0,0:0|0:0,0:0:0:0:
240,252,175085,2,0,L|249:128,1,120,2|0,0:0|1:0,0:0:0:0:
237,330,175424,1,2,0:2:0:0:
339,184,175594,1,8,0:0:0:0:
147,173,175763,1,2,0:2:0:0:
321,267,175933,5,2,1:2:0:0:
237,102,176102,1,0,0:0:0:0:
402,18,176272,2,0,P|427:33|436:68,1,60,10|0,0:0|0:0,0:0:0:0:
486,183,176441,1,2,0:0:0:0:
486,183,176526,1,0,0:0:0:0:
486,183,176611,2,0,P|416:202|382:156,1,120,0|0,1:0|0:0,0:0:0:0:
355,99,176865,1,0,0:0:0:0:
355,99,176950,2,0,P|285:80|251:126,1,120,10|0,0:0|0:0,0:0:0:0:
246,166,177204,1,0,0:0:0:0:
263,137,177289,5,2,1:2:0:0:
156,24,177458,1,0,0:0:0:0:
15,90,177628,2,0,P|4:126|21:157,1,60,10|0,0:0|0:0,0:0:0:0:
34,244,177797,1,2,0:0:0:0:
197,347,177967,5,2,1:2:0:0:
310,240,178136,1,2,0:2:0:0:
244,99,178306,2,0,P|208:88|177:105,1,60,10|0,0:2|0:0,0:0:0:0:
90,118,178475,1,2,0:2:0:0:
232,213,178645,5,2,1:2:0:0:
351,82,178814,1,0,3:0:0:0:
227,225,178984,2,0,P|263:236|294:219,1,60,10|0,3:2|0:0,0:0:0:0:
372,347,179153,1,0,3:0:0:0:
488,193,179323,6,0,L|400:212,1,60,2|0,3:2|0:3,0:0:0:0:
377,321,179492,2,0,L|435:308,1,60,8|0,0:0|0:0,0:0:0:0:
512,188,179662,2,0,P|516:147|503:126,1,59.9999981689454,8|0,0:0|0:0,0:0:0:0:
353,327,179831,2,0,P|349:368|362:389,1,59.9999981689454,8|0,0:0|0:0,0:0:0:0:
353,184,180001,6,0,P|305:134|201:159,1,180,4|0,1:2|0:0,0:0:0:0:
168,221,180340,2,0,L|184:288,1,59.9999981689454,10|0,0:0|0:0,0:0:0:0:
32,373,180509,2,0,P|88:335|103:288,1,120,2|0,0:0|1:0,0:0:0:0:
170,82,180848,5,2,0:2:0:0:
9,202,181018,1,8,0:0:0:0:
186,288,181187,1,2,0:2:0:0:
186,288,181272,1,0,0:0:0:0:
186,288,181357,6,0,B|215:199|159:212|196:98,1,180,2|0,1:2|0:0,0:0:0:0:
263,77,181696,2,0,L|278:6,1,60,10|0,0:0|0:0,0:0:0:0:
64,60,181865,1,2,0:0:0:0:
64,60,181950,1,0,0:0:0:0:
64,60,182035,2,0,P|63:123|103:161,1,120,0|0,1:0|0:0,0:0:0:0:
269,200,182374,2,0,L|339:188,1,60,10|0,0:0|0:0,0:0:0:0:
114,234,182543,1,2,0:2:0:0:
264,363,182712,5,2,1:2:0:0:
285,198,182882,1,2,0:2:0:0:
450,219,183051,2,0,P|480:194|504:197,1,60,10|0,0:2|0:0,0:0:0:0:
429,384,183221,1,2,0:2:0:0:
292,209,183390,5,2,1:2:0:0:
271,44,183560,1,2,0:2:0:0:
106,65,183729,2,0,P|76:40|52:43,1,60,10|0,0:2|0:0,0:0:0:0:
127,230,183899,1,2,0:2:0:0:
127,230,183984,1,0,0:0:0:0:
127,230,184068,6,0,P|180:269|237:252,1,120,0|0,1:0|1:0,0:0:0:0:
229,257,184323,1,0,1:0:0:0:
229,257,184407,1,2,1:2:0:0:
356,148,184577,1,0,1:0:0:0:
336,162,184662,1,0,1:0:0:0:
326,183,184746,1,2,1:2:0:0:
373,333,184916,1,0,1:0:0:0:
370,308,185001,1,0,1:0:0:0:
357,289,185085,1,2,1:2:0:0:
216,166,185255,1,0,1:0:0:0:
216,166,185340,1,0,1:0:0:0:
216,166,185424,5,12,0:0:0:0:
435,95,185594,1,0,0:0:0:0:
240,53,185763,5,8,0:0:0:0:
412,208,185933,1,0,0:0:0:0:
349,18,186102,5,8,0:0:0:0:
302,243,186272,1,0,1:0:0:0:
325,131,186441,5,8,0:0:0:0:
325,131,186611,1,0,1:0:0:0:
426,305,186780,5,8,0:0:0:0:
481,169,186950,1,0,0:0:0:0:
338,316,187119,5,8,0:0:0:0:
325,131,187289,1,0,0:0:0:0:
253,354,187458,5,8,0:0:0:0:
148,175,187628,1,0,1:0:0:0:
24,317,187797,5,8,0:0:0:0:
24,317,187967,1,0,1:0:0:0:
256,106,188136,6,0,B|311:64|318:-4|201:-39|203:27|228:74|272:38,1,195,4|0,0:0|0:0,0:0:0:0:
256,106,188475,1,8,0:0:0:0:
285,114,188560,1,8,0:0:0:0:
310,132,188645,1,8,0:0:0:0:
329,157,188729,1,8,0:0:0:0:
341,192,188814,6,0,B|383:247|452:254|487:137|420:139|373:164|409:208,1,195,4|0,0:0|0:0,0:0:0:0:
341,192,189153,1,8,0:0:0:0:
332,221,189238,1,8,0:0:0:0:
314,246,189323,1,8,0:0:0:0:
289,265,189407,1,8,0:0:0:0:
256,277,189492,6,0,B|200:319|193:388|310:423|308:356|283:309|239:345,1,195,4|0,0:0|0:0,0:0:0:0:
256,277,189831,1,8,0:0:0:0:
225,268,189916,1,8,0:0:0:0:
200,250,190001,1,8,0:0:0:0:
181,225,190085,1,8,0:0:0:0:
170,192,190170,6,0,B|88:181|116:231|16:219,1,130,4|0,0:0|1:0,0:0:0:0:
19,124,190424,1,8,0:0:0:0:
20,93,190509,1,8,0:0:0:0:
22,65,190594,1,8,0:0:0:0:
26,36,190679,6,0,B|148:23|76:104|218:88,1,180,4|0,0:0|0:0,0:0:0:0:
256,42,191018,1,2,1:2:0:0:
174,165,191187,2,0,P|181:134|181:92,1,60,10|0,0:0|0:0,0:0:0:0:
267,32,191357,2,0,P|260:63|260:105,1,60,10|0,0:0|0:0,0:0:0:0:
265,168,191526,1,0,1:0:0:0:
99,110,191696,5,2,3:2:0:0:
339,129,191865,1,10,0:2:0:0:
202,330,192035,6,0,B|163:296|156:248|208:178|262:226|230:269|196:270,1,180,4|0,0:0|0:0,0:0:0:0:
276,306,192374,1,2,1:2:0:0:
121,347,192543,2,0,P|94:338|52:333,1,60,10|0,0:0|0:0,0:0:0:0:
285,305,192712,2,0,P|312:314|354:319,1,60,10|0,0:0|0:0,0:0:0:0:
258,381,192882,1,0,1:0:0:0:
112,209,193051,5,2,3:2:0:0:
267,381,193221,1,10,0:2:0:0:
482,219,193390,6,0,B|402:190|372:251|372:251|405:264|417:304,1,180,4|0,0:0|0:0,0:0:0:0:
489,291,193729,1,2,1:2:0:0:
309,189,193899,2,0,L|244:195,1,60,10|0,0:2|0:0,0:0:0:0:
458,132,194068,1,2,3:2:0:0:
353,1,194238,1,8,0:0:0:0:
354,30,194323,1,8,0:0:0:0:
356,60,194407,1,0,1:0:0:0:
358,90,194492,1,0,1:0:0:0:
360,120,194577,1,8,0:0:0:0:
468,16,194746,1,0,0:0:0:0:
179,99,194916,5,8,1:0:0:0:
482,219,195085,1,8,1:0:0:0:
484,195,195594,5,8,1:0:0:0:
216,292,195763,1,8,1:0:0:0:
216,292,196272,6,0,L|134:288,1,60,4|0,1:0|0:0,0:0:0:0:
60,384,196441,2,0,P|9:327|20:276,1,120,0|10,0:0|0:0,0:0:0:0:
97,240,196780,1,0,0:0:0:0:
146,368,196950,2,0,P|143:319|154:293,1,60,2|0,1:2|0:0,0:0:0:0:
25,203,197119,2,0,P|28:154|17:128,1,60,2|0,2:0|0:0,0:0:0:0:
159,65,197289,2,0,P|108:122|119:173,1,120,8|0,0:0|0:0,0:0:0:0:
285,290,197628,6,0,L|193:288,1,60,0|0,1:0|0:0,0:0:0:0:
97,240,197797,2,0,B|160:249|149:194|227:209,1,120,0|10,0:0|0:0,0:0:0:0:
291,211,198136,1,0,0:0:0:0:
289,354,198306,2,0,P|275:312|282:283,1,60,2|0,1:2|0:0,0:0:0:0:
354,137,198475,2,0,P|368:179|361:208,1,60,2|0,2:0|0:0,0:0:0:0:
467,281,198645,2,0,L|342:270,1,120,8|0,0:0|0:0,0:0:0:0:
274,124,198984,6,0,L|279:55,1,60,0|0,1:0|0:0,0:0:0:0:
136,25,199153,2,0,P|140:83|189:115,1,120,0|10,0:0|0:0,0:0:0:0:
226,188,199492,1,0,0:0:0:0:
404,114,199662,2,0,P|374:97|328:110,1,60,2|0,1:2|0:0,0:0:0:0:
226,188,199831,2,0,P|256:205|302:192,1,60,2|0,2:0|0:0,0:0:0:0:
415,109,200001,2,0,L|397:233,1,120,8|0,0:0|0:0,0:0:0:0:
263,375,200340,6,0,P|303:307|397:313,1,180,0|0,1:0|0:0,0:0:0:0:
464,280,200679,2,0,P|469:332|462:349,1,60,10|0,0:0|0:0,0:0:0:0:
343,374,200848,1,0,0:0:0:0:
397,227,201018,1,0,1:2:0:0:
408,183,201102,1,0,1:0:0:0:
399,140,201187,1,0,1:0:0:0:
391,96,201272,1,0,1:0:0:0:
400,52,201357,2,0,L|479:36,1,60,8|0,1:2|1:2,0:0:0:0:
489,110,201526,2,0,L|430:121,1,60,8|8,1:2|1:2,0:0:0:0:
182,71,201696,6,0,P|212:71|239:85,1,60,4|0,1:2|0:0,0:0:0:0:
312,15,201865,2,0,L|323:142,1,120,0|10,0:0|0:0,0:0:0:0:
248,173,202204,1,0,0:0:0:0:
377,204,202374,2,0,P|347:203|320:217,1,60,2|0,1:2|0:0,0:0:0:0:
231,313,202543,2,0,P|246:287|247:257,1,60,2|0,2:0|0:0,0:0:0:0:
134,147,202712,2,0,B|64:147|89:191|-7:187,1,120,8|0,0:0|0:0,0:0:0:0:
103,8,203051,6,0,L|113:73,1,60,0|0,1:2|0:0,0:0:0:0:
131,223,203221,2,0,P|194:198|209:134,1,120,0|10,0:0|0:0,0:0:0:0:
190,78,203560,1,0,0:0:0:0:
287,199,203729,2,0,L|360:185,1,60,2|0,1:2|0:0,0:0:0:0:
134,147,203899,2,0,L|75:135,1,60,2|0,2:0|0:0,0:0:0:0:
179,300,204068,1,8,0:0:0:0:
179,300,204153,1,0,1:0:0:0:
179,300,204238,1,0,1:0:0:0:
190,78,204407,6,0,B|227:2|309:30|309:30|313:77|264:98,1,210,12|0,0:0|0:0,0:0:0:0:
271,98,204746,1,0,1:0:0:0:
134,147,204916,2,0,B|49:152|32:67|32:67|71:40|114:72,1,210,12|0,0:0|0:0,0:0:0:0:
110,66,205255,1,0,1:0:0:0:
222,161,205424,2,0,B|269:231|204:288|204:288|161:268|167:215,1,210,12|0,0:0|0:0,0:0:0:0:
164,221,205763,5,0,1:0:0:0:
190,78,205933,2,0,P|160:101|147:149,1,70,8|0,0:0|0:0,0:0:0:0:
204,287,206102,2,0,P|199:249|164:214,1,70,8|0,0:0|0:0,0:0:0:0:
21,190,206272,1,0,1:0:0:0:
222,161,206441,6,0,L|297:142,1,70,8|0,0:0|0:0,0:0:0:0:
72,264,206611,2,0,L|4:281,1,70,8|0,0:0|0:0,0:0:0:0:
195,372,206780,2,0,B|269:373|244:321|331:330,1,140,0|0,0:0|1:0,0:0:0:0:
395,362,207035,1,0,1:0:0:0:
395,362,207119,6,0,L|474:351,1,60,4|0,1:0|0:0,0:0:0:0:
483,215,207289,1,0,0:0:0:0:
483,215,207458,1,10,0:0:0:0:
344,288,207628,1,0,0:0:0:0:
483,360,207797,2,0,P|506:317|491:284,1,60,2|0,1:2|0:0,0:0:0:0:
340,210,207967,2,0,P|342:239|361:261,1,60,2|0,2:0|0:0,0:0:0:0:
490,116,208136,2,0,L|352:105,1,120,8|0,0:0|0:0,0:0:0:0:
182,215,208475,6,0,L|186:145,1,60,0|0,1:0|0:0,0:0:0:0:
141,30,208645,1,0,0:0:0:0:
141,30,208814,1,10,0:0:0:0:
271,135,208984,1,0,0:0:0:0:
78,71,209153,2,0,P|110:104|138:110,1,60,2|0,1:2|0:0,0:0:0:0:
271,58,209323,2,0,P|226:69|207:90,1,60,2|0,2:0|0:0,0:0:0:0:
185,155,209492,2,0,B|177:224|216:206|201:295,1,120,8|0,0:0|0:0,0:0:0:0:
48,354,209831,6,0,L|119:343,1,60,0|0,1:0|0:0,0:0:0:0:
283,284,210001,1,0,0:0:0:0:
283,284,210170,1,10,0:0:0:0:
130,368,210340,1,0,0:0:0:0:
108,208,210509,2,0,P|111:242|139:271,1,60,2|0,1:2|0:0,0:0:0:0:
265,368,210679,2,0,P|234:353|194:363,1,60,2|0,2:0|0:0,0:0:0:0:
108,208,210848,2,0,P|162:159|154:111,1,120,8|0,0:0|0:0,0:0:0:0:
19,39,211187,6,0,P|79:113|168:76,1,180,0|0,1:0|0:0,0:0:0:0:
210,47,211526,2,0,P|226:71|227:101,1,60,10|0,0:0|0:0,0:0:0:0:
336,149,211696,1,0,0:0:0:0:
484,10,211865,1,0,1:2:0:0:
439,9,211950,1,0,1:0:0:0:
403,35,212035,1,0,1:0:0:0:
389,76,212119,1,0,1:0:0:0:
402,119,212204,1,8,1:2:0:0:
414,160,212289,1,8,1:2:0:0:
400,202,212374,1,8,1:2:0:0:
364,228,212458,1,8,1:2:0:0:
325,227,212543,6,0,L|247:234,1,60,4|0,1:2|0:0,0:0:0:0:
431,297,212712,1,0,0:0:0:0:
431,297,212882,1,10,0:0:0:0:
336,149,213051,1,0,0:0:0:0:
385,357,213221,2,0,P|360:332|359:294,1,60,2|0,1:2|0:0,0:0:0:0:
435,173,213390,2,0,P|425:207|393:227,1,60,2|0,2:0|0:0,0:0:0:0:
281,226,213560,2,0,B|214:227|246:265|144:264,1,120,8|0,0:0|0:0,0:0:0:0:
89,131,213899,6,0,L|99:205,1,60,0|0,1:2|0:0,0:0:0:0:
112,339,214068,1,0,0:0:0:0:
112,339,214238,1,10,0:0:0:0:
178,181,214407,1,0,0:0:0:0:
37,237,214577,2,0,P|79:261|104:264,1,60,2|0,1:2|0:0,0:0:0:0:
188,363,214746,2,0,P|187:314|177:291,1,60,2|0,2:0|0:0,0:0:0:0:
280,227,214916,1,8,0:0:0:0:
280,227,215001,1,0,1:0:0:0:
280,227,215085,1,0,1:0:0:0:
71,123,215255,5,12,0:0:0:0:
59,37,215424,1,0,1:0:0:0:
139,69,215594,1,0,1:0:0:0:
200,272,215763,5,12,0:0:0:0:
132,325,215933,1,0,1:0:0:0:
120,240,216102,1,0,1:0:0:0:
265,84,216272,5,12,0:0:0:0:
345,117,216441,1,0,1:0:0:0:
120,240,216611,6,0,P|159:182|268:209,1,179.999994506836,4|0,1:2|0:0,0:0:0:0:
269,217,216950,5,0,1:0:0:0:
150,143,217119,1,0,1:0:0:0:
282,222,217289,5,8,0:0:0:0:
228,58,217458,1,8,0:0:0:0:
297,224,217628,5,8,0:0:0:0:
324,24,217797,1,8,0:0:0:0:
106,318,217967,6,0,B|108:339|96:360|96:360|144:343|137:266|242:207|261:333|309:302|345:197|388:168|333:44|333:44|392:154|344:239|302:218|280:305|360:411|466:354|430:239|372:260|359:280,1,909.999999999999,4|0,0:0|0:0,0:0:0:0:
428,206,220509,5,8,0:0:0:0:
428,206,220594,1,8,0:0:0:0:
428,206,220679,2,0,P|431:173|436:144,1,60.0000000000001,0|0,1:0|0:0,0:0:0:0:
