osu file format v14

[General]
AudioFilename: audio.mp3
AudioLeadIn: 0
PreviewTime: 53136
Countdown: 0
SampleSet: Soft
StackLeniency: 0.4
Mode: 0
LetterboxInBreaks: 0
WidescreenStoryboard: 1

[Editor]
Bookmarks: 8645,32882,111696,178984,197797,208136
DistanceSpacing: 0.5
BeatDivisor: 4
GridSize: 8
TimelineZoom: 1.7

[Metadata]
Title:NatsuYuki TokiMeki High Tension!
TitleUnicode:夏ゆきトキメキHigh Tension!
Artist:Palette Project
ArtistUnicode:Palette Project
Creator:-Atri-
Version:Hard
Source:
Tags:KuranteMelodii krt Firis Mistlud パレプロ パレットプロジェクト PalePro virtual youtuber vtuber idol jpop pop rock Japanese j-pop j-rock 暁月クララ Akatsuki clara Kurara 七海ロナ Nanami Rona 藤宮コトハ Fujimiya Kotoha 常磐カナメ Tikiwa Kaname 神菜コハネ Kamina Kohane 江波キョウカ Eba Kyouka kyoka 鬼多見アユム Kitami Ayumu 香鳴ハノン Kanaru Hanon
BeatmapID:4162037
BeatmapSetID:1977450

[Difficulty]
HPDrainRate:6
CircleSize:3.7
OverallDifficulty:6
ApproachRate:8
SliderMultiplier:1.6
SliderTickRate:1

[Events]
//Background and Video events
0,0,"summer.jpg",0,0
Video,-54,"natsuyuki.mp4"
//Break Periods
2,144946,149420
//Storyboard Layer 0 (Background)
//Storyboard Layer 1 (Fail)
//Storyboard Layer 2 (Pass)
//Storyboard Layer 3 (Foreground)
//Storyboard Layer 4 (Overlay)
//Storyboard Sound Samples

[TimingPoints]
2374,338.983050847458,4,2,1,50,1,0
2374,-125,4,2,1,50,0,0
6441,-100,4,2,1,60,0,0
7458,-100,4,2,2,60,0,0
7797,-100,4,2,1,70,0,0
18306,-100,4,2,1,70,0,0
18645,-125,4,2,1,70,0,0
18729,-125,4,2,1,50,0,0
29492,-100,4,2,1,60,0,0
40340,-133.333333333333,4,2,1,70,0,0
40424,-133.333333333333,4,2,1,50,0,0
45763,-117.647058823529,4,2,1,60,0,0
51526,-117.647058823529,4,2,1,45,0,0
51865,-117.647058823529,4,2,1,50,0,0
52204,-117.647058823529,4,2,1,55,0,0
52543,-117.647058823529,4,2,1,65,0,0
53560,-117.647058823529,4,2,1,50,0,0
53899,-90.9090909090909,4,2,1,80,0,1
64407,-90.9090909090909,4,2,1,80,0,0
64746,-90.9090909090909,4,2,1,80,0,1
69662,-90.9090909090909,4,2,1,80,0,0
70001,-90.9090909090909,4,2,1,80,0,1
71018,-90.9090909090909,4,2,1,80,0,0
71357,-90.9090909090909,4,2,1,80,0,1
72374,-90.9090909090909,4,2,1,80,0,0
72712,-90.9090909090909,4,2,1,80,0,1
75085,-100,4,2,1,80,0,0
86441,-125,4,2,1,50,0,0
86780,-111.111111111111,4,2,1,55,0,0
87119,-100,4,2,1,60,0,0
87458,-90.9090909090909,4,2,1,65,0,0
87797,-133.333333333333,4,2,1,70,0,0
87882,-133.333333333333,4,2,1,40,0,0
93221,-133.333333333333,4,2,1,50,0,0
98645,-100,4,2,1,60,0,0
109492,-133.333333333333,4,2,1,70,0,0
109577,-133.333333333333,4,2,1,50,0,0
114916,-117.647058823529,4,2,1,60,0,0
120679,-117.647058823529,4,2,1,45,0,0
121018,-117.647058823529,4,2,1,50,0,0
121357,-117.647058823529,4,2,1,55,0,0
121696,-117.647058823529,4,2,1,70,0,0
123051,-90.9090909090909,4,2,1,80,0,1
133899,-90.9090909090909,4,2,1,80,0,0
148814,-90.9090909090909,4,2,1,60,0,0
150170,-133.333333333333,4,2,1,60,0,0
163729,-111.111111111111,4,2,1,70,0,0
169153,-111.111111111111,4,2,1,80,0,1
169492,-90.9090909090909,4,2,1,80,0,1
174238,-90.9090909090909,4,2,1,80,0,0
174577,-90.9090909090909,4,2,1,80,0,1
185085,-90.9090909090909,4,2,1,80,0,0
185424,-90.9090909090909,4,2,1,80,0,1
190340,-90.9090909090909,4,2,1,80,0,0
190679,-90.9090909090909,4,2,1,80,0,1
191696,-90.9090909090909,4,2,1,80,0,0
192035,-90.9090909090909,4,2,1,80,0,1
193051,-90.9090909090909,4,2,1,80,0,0
193390,-90.9090909090909,4,2,1,80,0,1
195763,-100,4,2,1,80,0,0
216950,-100,4,2,1,50,0,0
217289,-100,4,2,1,60,0,0
217628,-100,4,2,1,70,0,0
217967,-100,4,2,1,80,0,0

[Colours]
Combo1 : 240,240,240
Combo2 : 0,223,223
Combo3 : 0,0,255
Combo4 : 255,255,0
Combo5 : 255,0,0
Combo6 : 255,128,0
Combo7 : 157,157,157

[HitObjects]
295,277,2374,6,0,P|323:250|324:221,1,64,4|0,3:2|3:0,0:0:0:0:
341,153,2712,2,0,P|314:125|285:124,1,64,2|0,3:0|3:0,0:0:0:0:
217,107,3051,2,0,P|189:134|188:163,1,64,2|0,3:0|3:0,0:0:0:0:
171,231,3389,2,0,P|198:259|227:260,1,64,2|0,3:0|3:0,0:0:0:0:
295,277,3729,5,2,3:0:0:0:
353,333,3899,2,0,L|355:371,2,32,0|0|2,3:0|3:0|3:0,0:0:0:0:
432,300,4238,2,0,L|434:338,2,32,0|0|2,3:0|3:0|3:0,0:0:0:0:
511,273,4577,2,0,L|513:311,2,32,0|0|2,3:0|3:0|3:0,0:0:0:0:
456,220,4916,1,0,3:0:0:0:
496,156,5085,6,0,P|508:123|499:89,1,64,2|0,3:0|3:0,0:0:0:0:
458,30,5424,2,0,L|388:34,1,64,2|0,3:0|3:0,0:0:0:0:
329,93,5763,1,2,3:0:0:0:
329,93,5933,1,0,1:0:0:0:
273,29,6102,2,0,L|203:25,1,64,8|0,0:0|0:0,0:0:0:0:
139,101,6441,6,0,P|115:55|43:56,2,120,8|8|8,1:0|1:0|1:0,0:0:0:0:
194,158,7119,1,8,1:0:0:0:
117,184,7289,1,0,0:0:0:0:
117,184,7374,1,0,1:0:0:0:
117,184,7458,1,8,0:1:0:0:
52,361,7797,6,0,P|39:323|45:279,1,80,4|0,1:0|0:0,0:0:0:0:
129,313,8136,2,0,L|222:321,1,80,10|0,0:0|0:0,0:0:0:0:
283,363,8475,1,2,1:2:0:0:
283,363,8645,2,0,L|362:356,1,80,2|8,0:0|0:0,0:0:0:0:
467,321,8984,6,0,B|481:254|433:278|447:184,1,120,2|0,0:0|0:0,0:0:0:0:
457,191,9323,1,0,0:0:0:0:
505,103,9492,2,0,P|499:53|401:43,1,160,10|2,0:0|1:2,0:0:0:0:
357,108,10001,1,2,0:0:0:0:
326,32,10170,2,0,L|229:36,1,80,8|2,0:0|0:0,0:0:0:0:
180,100,10509,6,0,P|157:57|159:21,2,80,2|2|10,1:2|0:2|0:2,0:0:0:0:
255,139,11018,1,2,0:2:0:0:
330,178,11187,2,0,P|353:221|351:257,2,80,2|2|10,1:2|0:2|0:2,0:0:0:0:
260,233,11696,1,2,0:2:0:0:
300,337,11865,6,0,L|206:334,1,80,4|8,0:0|1:2,0:0:0:0:
201,340,12119,1,8,1:2:0:0:
186,353,12204,2,0,L|92:350,1,80,12|0,0:0|1:0,0:0:0:0:
44,276,12543,1,8,0:0:0:0:
44,276,12628,1,8,0:0:0:0:
44,276,12712,1,0,1:0:0:0:
100,206,12882,2,0,P|100:184|95:166,3,40,8|8|8|8,0:0|0:0|0:0|0:0,0:0:0:0:
81,152,13221,6,0,P|55:90|63:67,1,80,4|0,1:2|0:0,0:0:0:0:
125,29,13560,2,0,L|215:35,1,80,10|0,0:0|0:0,0:0:0:0:
256,104,13899,1,2,1:2:0:0:
307,34,14068,2,0,L|387:29,1,80,2|8,0:0|0:0,0:0:0:0:
484,99,14407,6,0,B|498:166|450:142|464:236,1,120,2|0,0:0|0:0,0:0:0:0:
474,229,14746,1,0,0:0:0:0:
501,317,14916,2,0,P|491:270|382:261,1,160,10|2,0:0|1:2,0:0:0:0:
335,309,15424,1,2,0:0:0:0:
294,374,15594,2,0,L|194:366,1,80,8|2,0:0|0:0,0:0:0:0:
265,258,15933,6,0,P|328:221|389:239,1,120,2|0,1:2|0:0,0:0:0:0:
388,238,16272,2,0,L|489:232,1,80,10|0,0:0|0:0,0:0:0:0:
499,143,16611,2,0,L|419:147,1,80,2|0,1:2|0:0,0:0:0:0:
374,81,16950,1,10,0:0:0:0:
374,81,17035,1,0,3:3:0:0:
374,81,17119,1,0,3:3:0:0:
294,143,17289,5,8,0:0:0:0:
243,59,17458,1,8,0:0:0:0:
327,8,17628,1,0,1:0:0:0:
378,92,17797,1,8,0:0:0:0:
120,79,18645,6,0,B|49:85|81:36|-5:45,2,128,6|0|2,1:2|1:2|1:2,0:0:0:0:
239,175,19662,2,0,L|231:257,1,64,0|2,1:2|0:0,0:0:0:0:
158,265,20001,6,0,B|198:323|140:320|191:390,2,128,2|0|2,1:2|1:2|1:2,0:0:0:0:
181,99,21018,2,0,L|187:35,1,64,0|0,1:2|0:0,0:0:0:0:
263,70,21357,6,0,B|329:37|378:53|378:53|363:61,2,128,2|2|2,1:2|1:2|1:2,0:0:0:0:
111,157,22374,2,0,P|72:160|43:142,1,64,2|0,1:2|0:0,0:0:0:0:
13,218,22712,6,0,P|43:265|37:348,1,128,2|0,1:2|1:2,0:0:0:0:
110,381,23221,2,0,P|135:331|210:295,1,128,2|2,0:0|0:0,0:0:0:0:
256,352,23729,2,0,L|337:348,1,64,0|0,1:0|3:0,0:0:0:0:
446,376,24068,6,0,P|492:349|481:274,1,128,6|0,1:2|1:2,0:0:0:0:
424,233,24577,2,0,P|378:206|389:131,1,128,2|2,0:2|0:2,0:0:0:0:
474,86,25085,2,0,P|437:78|420:55,1,64,10|0,0:2|0:0,0:0:0:0:
344,68,25424,6,0,B|276:76|276:76|273:82|273:82|212:89,1,128,2|2,1:2|1:2,0:0:0:0:
159,147,25933,1,2,0:0:0:0:
144,72,26102,2,0,L|134:-3,1,64,0|0,1:2|0:0,0:0:0:0:
46,75,26441,2,0,P|71:103|74:140,1,64,10|2,0:2|0:0,0:0:0:0:
134,222,26780,6,0,B|131:292|109:262|115:330,1,96,6|0,1:2|0:0,0:0:0:0:
124,326,27119,2,0,P|174:334|192:368,1,64,2|0,1:2|0:0,0:0:0:0:
256,296,27458,2,0,L|256:376,1,64,2|0,1:2|3:0,0:0:0:0:
330,341,27797,2,0,P|356:324|388:326,1,64,10|0,3:2|0:0,0:0:0:0:
483,367,28136,5,8,0:1:0:0:
445,266,28306,1,8,0:1:0:0:
445,266,28814,5,8,0:1:0:0:
483,165,28984,1,8,0:1:0:0:
483,165,29492,6,0,P|498:116|418:25,1,160,4|8,1:0|0:0,0:0:0:0:
372,81,30001,1,2,0:2:0:0:
308,26,30170,2,0,L|216:28,1,80,2|0,1:2|1:0,0:0:0:0:
272,107,30509,2,0,L|274:199,1,80,8|2,0:0|0:2,0:0:0:0:
343,262,30848,6,0,B|306:272|260:260|279:215|223:198|181:221,1,160,2|8,1:2|0:0,0:0:0:0:
133,268,31357,1,2,1:2:0:0:
76,332,31526,2,0,P|53:295|55:247,1,80,2|0,0:2|1:0,0:0:0:0:
99,193,31865,2,0,L|85:103,1,80,8|0,0:0|0:0,0:0:0:0:
58,17,32204,6,0,P|73:50|160:52,1,120,2|0,1:2|0:0,0:0:0:0:
164,48,32543,2,0,P|212:29|238:47,1,80,10|0,0:2|0:0,0:0:0:0:
311,42,32882,2,0,P|303:93|274:106,1,80,2|0,1:2|1:0,0:0:0:0:
242,172,33221,2,0,P|201:139|204:108,1,80,10|0,0:2|0:0,0:0:0:0:
318,174,33560,6,0,L|311:260,1,80,4|0,1:2|0:0,0:0:0:0:
316,273,33814,1,0,1:0:0:0:
322,292,33899,1,8,0:0:0:0:
400,361,34068,2,0,B|405:288|405:288|400:267|400:267|405:192,1,160,4|0,1:2|1:0,0:0:0:0:
469,154,34577,1,8,0:0:0:0:
469,154,34662,1,8,0:0:0:0:
469,154,34746,1,0,1:0:0:0:
361,95,34916,6,0,P|317:81|269:98,1,80,6|0,1:2|0:0,0:0:0:0:
215,157,35255,1,10,0:2:0:0:
169,72,35424,2,0,B|100:71|77:34|77:34|108:26,1,120,2|0,1:2|0:0,0:0:0:0:
112,25,35763,2,0,L|104:104,1,80,2|8,1:2|0:0,0:0:0:0:
55,166,36102,1,2,0:2:0:0:
139,239,36272,6,0,L|146:328,1,80,6|0,1:2|0:0,0:0:0:0:
215,369,36611,1,10,0:2:0:0:
275,294,36780,2,0,B|344:293|367:256|367:256|336:248,1,120,2|0,1:2|0:0,0:0:0:0:
332,247,37119,2,0,L|340:326,1,80,2|8,1:2|0:0,0:0:0:0:
426,365,37458,1,0,3:0:0:0:
426,365,37543,1,0,3:0:0:0:
426,365,37628,5,6,1:2:0:0:
493,305,37797,2,0,P|508:259|490:212,1,80,0|10,0:0|0:0,0:0:0:0:
498,132,38136,2,0,P|457:118|432:32,1,120,6|0,1:2|0:0,0:0:0:0:
441,37,38475,2,0,P|435:89|385:101,1,80,2|10,1:2|0:2,0:0:0:0:
309,45,38814,6,0,B|227:36|255:104|150:99,1,160,6|0,0:2|1:0,0:0:0:0:
74,84,39323,2,0,L|61:167,1,80,8|8,0:3|0:0,0:0:0:0:
159,125,39662,2,0,L|146:208,1,80,8|0,0:0|1:0,0:0:0:0:
244,166,40001,2,0,L|231:249,1,80,0|0,1:0|0:0,0:0:0:0:
150,325,40340,6,0,B|109:313|77:336|104:369|47:378|13:356|1:302|45:288,1,180.000006866455,4|0,1:2|1:0,0:0:0:0:
88,253,41018,2,0,B|94:191|60:202|71:129,1,120.000004577637,8|0,0:0|3:0,0:0:0:0:
114,72,41526,1,0,0:0:0:0:
114,72,41696,2,0,B|177:61|209:20|209:20|187:23,2,120.000004577637,0|0|8,1:0|3:0|0:0,0:0:0:0:
362,59,43051,6,0,B|403:71|435:48|408:15|465:6|499:28|511:82|467:96,1,180.000006866455,0|0,1:0|1:0,0:0:0:0:
424,131,43729,2,0,B|418:193|452:182|440:254,1,120.000004577637,8|0,0:0|3:0,0:0:0:0:
398,312,44237,1,0,0:0:0:0:
337,369,44407,2,0,L|269:363,1,60.0000022888184,0|0,1:0|0:0,0:0:0:0:
217,313,44746,2,0,P|200:343|200:375,1,60.0000022888184,0|0,3:0|3:0,0:0:0:0:
123,324,45085,2,0,L|55:330,2,60.0000022888184,8|0|0,0:0|1:0|1:0,0:0:0:0:
266,152,45763,6,0,L|349:145,2,68.0000012969971,6|2|2,1:2|0:0|1:2,0:0:0:0:
212,92,46272,2,0,P|156:52|92:77,1,136.000002593994,2|2,0:0|0:0,0:0:0:0:
17,56,46780,2,0,L|26:124,1,68.0000012969971,2|0,1:2|0:0,0:0:0:0:
67,197,47119,6,0,L|-16:204,2,68.0000012969971,2|2|2,1:2|0:0|1:2,0:0:0:0:
121,257,47628,2,0,P|177:297|241:272,1,136.000002593994,2|2,0:0|0:0,0:0:0:0:
316,293,48136,2,0,L|307:225,1,68.0000012969971,2|0,1:2|3:0,0:0:0:0:
296,211,48390,1,0,3:0:0:0:
284,198,48475,6,0,L|275:130,1,68.0000012969971,6|2,1:2|0:0,0:0:0:0:
264,47,48814,1,2,1:2:0:0:
343,84,48984,2,0,B|419:87|395:24|490:35,1,136.000002593994,2|2,0:0|0:0,0:0:0:0:
463,112,49492,2,0,L|474:183,1,68.0000012969971,2|2,1:2|0:0,0:0:0:0:
400,250,49831,6,0,B|454:249|497:297|497:297|461:297,2,136.000002593994,0|0|0,1:0|1:0|1:0,0:0:0:0:
291,358,50848,2,0,L|216:353,1,68.0000012969971,0|0,1:0|0:0,0:0:0:0:
86,367,51187,6,0,P|130:335|126:267,1,102.000001945496,4|0,0:0|0:0,0:0:0:0:
124,278,51526,2,0,L|131:203,1,68.0000012969971,0|0,1:0|1:0,0:0:0:0:
96,134,51865,1,8,0:0:0:0:
96,134,52035,1,8,0:0:0:0:
135,57,52204,1,8,0:0:0:0:
135,57,52374,2,0,L|220:53,1,68.0000012969971,8|0,0:0|1:0,0:0:0:0:
286,131,52712,5,8,0:1:0:0:
370,64,52882,1,8,0:1:0:0:
370,64,53221,5,8,0:1:0:0:
454,131,53391,1,8,0:1:0:0:
454,131,53899,6,0,B|431:212|486:182|456:295,1,132.00000402832,4|0,1:0|0:0,0:0:0:0:
449,276,54238,1,10,0:0:0:0:
475,367,54407,2,0,P|439:308|364:318,1,132.00000402832,2|0,0:0|0:0,0:0:0:0:
362,317,54746,1,2,0:2:0:0:
269,285,54916,2,0,L|279:373,1,88.000002685547,8|2,0:0|0:2,0:0:0:0:
191,311,55255,6,0,P|188:260|212:226,1,88.000002685547,2|0,1:2|0:0,0:0:0:0:
285,207,55594,1,10,0:0:0:0:
264,128,55763,2,0,B|172:131|207:82|97:85,1,176.000005371094,2|0,0:0|0:0,0:0:0:0:
25,58,56272,2,0,P|22:109|46:143,1,88.000002685547,10|0,0:0|0:0,0:0:0:0:
18,251,56611,6,0,P|77:241|160:236,1,132.00000402832,2|0,1:2|0:0,0:0:0:0:
167,247,56950,2,0,L|259:240,1,88.000002685547,10|2,0:0|0:0,0:0:0:0:
329,281,57289,2,0,B|345:236|345:236|322:192,1,88.000002685547,2|2,1:2|0:2,0:0:0:0:
256,158,57628,1,10,0:2:0:0:
256,158,57797,1,2,0:2:0:0:
187,108,57967,6,0,B|171:63|171:63|194:19,1,88.000002685547,2|0,1:2|3:0,0:0:0:0:
256,69,58306,2,0,L|344:65,1,88.000002685547,10|0,3:2|3:0,0:0:0:0:
418,21,58645,1,2,3:2:0:0:
418,21,58729,1,0,0:3:0:0:
418,21,58814,1,8,0:0:0:0:
480,101,58984,2,0,L|484:189,1,88.000002685547,8|8,0:0|0:0,0:0:0:0:
492,209,59238,1,8,0:0:0:0:
496,230,59323,6,0,P|436:244|427:322,1,132.00000402832,4|0,1:2|0:0,0:0:0:0:
435,321,59662,1,10,0:0:0:0:
346,374,59831,2,0,B|351:290|316:332|322:242,1,132.00000402832,2|0,0:0|0:0,0:0:0:0:
336,230,60170,1,2,0:2:0:0:
395,176,60340,2,0,P|350:151|310:162,1,88.000002685547,8|2,0:0|0:2,0:0:0:0:
207,181,60679,6,0,B|202:97|237:139|231:49,1,132.00000402832,2|0,1:2|0:0,0:0:0:0:
217,37,61018,1,10,0:0:0:0:
119,44,61187,2,0,B|128:20|87:7|55:56|63:116|148:161,1,176.000005371094,2|0,0:0|0:0,0:0:0:0:
207,181,61696,1,10,0:0:0:0:
207,181,61865,1,2,0:2:0:0:
157,277,62035,6,0,L|62:282,2,88.000002685547,2|2|10,1:2|0:2|0:2,0:0:0:0:
207,344,62543,1,2,0:2:0:0:
244,266,62712,2,0,L|339:261,2,88.000002685547,2|2|10,1:2|0:2|0:2,0:0:0:0:
194,199,63220,1,2,0:2:0:0:
246,128,63390,5,0,1:0:0:0:
230,48,63560,1,8,0:0:0:0:
230,48,63729,2,0,B|273:39|331:47|292:110|338:118|401:110,1,176.000005371094,8|0,0:0|1:0,0:0:0:0:
441,64,64238,1,0,1:0:0:0:
441,64,64323,1,0,1:0:0:0:
441,64,64407,2,0,P|454:126|435:167,1,88.000002685547,8|0,0:0|0:0,0:0:0:0:
407,271,64746,6,0,P|463:294|480:328,1,88.000002685547,12|0,0:0|0:0,0:0:0:0:
405,347,65085,2,0,P|354:382|317:382,1,88.000002685547,8|0,0:0|0:0,0:0:0:0:
340,307,65424,2,0,P|332:245|352:213,1,88.000002685547,8|0,0:0|1:0,0:0:0:0:
402,171,65763,1,8,0:0:0:0:
325,149,65933,6,0,B|249:141|278:197|169:186,1,132.00000402832,0|0,1:0|0:0,0:0:0:0:
184,173,66272,2,0,L|80:179,1,88.000002685547,0|8,0:0|0:0,0:0:0:0:
23,160,66611,2,0,P|22:203|47:238,1,88.000002685547,0|8,0:0|0:0,0:0:0:0:
125,255,66950,1,0,1:0:0:0:
69,323,67119,1,8,0:0:0:0:
69,323,67289,1,0,1:0:0:0:
195,359,67458,6,0,B|246:326|313:342|313:342|290:348,1,132.00000402832,12|0,0:0|0:0,0:0:0:0:
283,352,67797,2,0,P|282:294|272:248,1,88.000002685547,8|0,0:0|0:0,0:0:0:0:
321,182,68136,2,0,B|354:131|338:64|338:64|332:87,1,132.00000402832,12|0,0:0|0:0,0:0:0:0:
321,89,68475,2,0,P|322:31|332:-15,1,88.000002685547,8|0,0:0|1:0,0:0:0:0:
425,72,68814,6,0,L|516:67,1,88.000002685547,12|0,0:0|0:0,0:0:0:0:
510,150,69153,2,0,L|423:155,1,88.000002685547,8|0,0:0|0:0,0:0:0:0:
385,236,69492,1,0,1:0:0:0:
449,293,69662,2,0,L|455:345,3,44.0000013427735,2|0|2|0,1:2|1:0|1:2|1:0,0:0:0:0:
466,354,70001,6,0,P|406:320|330:331,1,132.00000402832,4|0,0:0|0:0,0:0:0:0:
329,340,70340,1,2,1:2:0:0:
292,264,70509,1,10,0:0:0:0:
292,264,70679,2,0,L|192:264,1,88.000002685547,10|0,0:0|1:0,0:0:0:0:
143,328,71018,1,2,3:2:0:0:
143,328,71187,1,10,0:2:0:0:
45,252,71357,6,0,P|18:192|47:120,1,132.00000402832,4|0,0:0|0:0,0:0:0:0:
53,117,71696,1,2,1:2:0:0:
3,39,71865,1,10,0:0:0:0:
3,39,72035,2,0,L|100:33,1,88.000002685547,10|0,0:0|1:0,0:0:0:0:
175,81,72374,1,2,3:2:0:0:
175,81,72543,1,10,0:2:0:0:
280,13,72712,6,0,B|266:87|307:66|282:157,1,132.00000402832,4|0,0:0|0:0,0:0:0:0:
280,164,73051,1,2,1:2:0:0:
200,226,73221,2,0,P|181:280|198:308,1,88.000002685547,10|2,0:2|3:2,0:0:0:0:
209,319,73475,1,0,3:0:0:0:
227,330,73560,1,8,0:0:0:0:
310,269,73729,1,0,1:0:0:0:
366,344,73899,2,0,L|462:339,1,88.000002685547,8|0,0:0|1:0,0:0:0:0:
503,233,74238,5,8,1:0:0:0:
436,149,74408,1,8,1:0:0:0:
436,149,74916,5,8,1:0:0:0:
503,65,75086,1,8,1:0:0:0:
503,65,75594,5,4,1:0:0:0:
415,66,75763,2,0,L|324:59,1,80,0|10,0:0|0:0,0:0:0:0:
277,109,76102,1,0,0:0:0:0:
277,109,76272,2,0,P|254:69|263:32,1,80,2|2,1:2|2:0,0:0:0:0:
186,12,76611,2,0,P|169:53|172:89,1,80,8|0,0:0|0:0,0:0:0:0:
204,168,76950,5,0,1:0:0:0:
150,235,77119,2,0,L|34:229,1,80,0|10,0:0|0:0,0:0:0:0:
94,310,77458,1,0,0:0:0:0:
176,315,77628,2,0,B|236:312|220:366|295:366,1,120,2|0,1:2|0:0,0:0:0:0:
297,354,77967,2,0,L|400:348,1,80,8|0,0:0|0:0,0:0:0:0:
495,365,78306,5,0,1:0:0:0:
471,286,78475,2,0,P|488:235|470:195,1,80,0|10,0:0|0:0,0:0:0:0:
443,140,78814,1,0,0:0:0:0:
477,58,78984,2,0,L|387:66,1,80,2|2,1:2|2:0,0:0:0:0:
361,140,79323,2,0,L|271:132,1,80,8|0,0:0|0:0,0:0:0:0:
208,49,79662,6,0,B|155:22|101:35|101:35|116:44,1,120,0|0,1:0|0:0,0:0:0:0:
124,52,80001,2,0,P|72:64|34:86,1,80,10|0,0:0|0:0,0:0:0:0:
97,149,80340,2,0,L|92:197,3,40,0|0|0|0,1:2|1:0|1:0|1:0,0:0:0:0:
82,205,80679,1,8,0:0:0:0:
26,285,80848,1,8,0:0:0:0:
26,285,80933,1,8,0:0:0:0:
26,285,81018,5,4,1:2:0:0:
87,353,81187,2,0,L|170:345,1,80,0|10,0:0|0:0,0:0:0:0:
184,264,81526,1,0,0:0:0:0:
184,264,81696,2,0,P|169:222|181:185,1,80,2|2,1:2|2:0,0:0:0:0:
223,124,82035,2,0,P|181:109|144:121,1,80,8|0,0:0|0:0,0:0:0:0:
88,185,82374,5,0,1:2:0:0:
24,135,82543,2,0,L|28:43,1,80,0|10,0:0|0:0,0:0:0:0:
93,9,82882,1,0,0:0:0:0:
178,13,83051,2,0,L|257:16,1,80,2|2,1:2|2:0,0:0:0:0:
313,91,83390,1,8,0:0:0:0:
313,91,83475,1,0,1:0:0:0:
313,91,83560,1,0,1:0:0:0:
413,38,83729,6,0,P|444:91|409:182,1,160,12|0,0:0|1:0,0:0:0:0:
333,255,84238,2,0,P|363:201|459:186,1,160,12|0,0:0|1:0,0:0:0:0:
512,270,84746,2,0,L|502:354,1,80,12|0,0:0|0:0,0:0:0:0:
388,383,85085,5,4,1:2:0:0:
256,192,85170,12,8,86102,0:0:0:0:
75,364,86441,6,0,P|118:368|140:365,1,64,4|0,1:2|1:0,0:0:0:0:
116,287,86780,6,0,P|160:282|189:273,1,71.9999978027344,8|8,0:0|0:0,0:0:0:0:
141,202,87119,6,0,P|197:182|216:167,1,80,8|8,0:0|0:0,0:0:0:0:
155,116,87458,6,0,P|178:74|185:32,1,88.000002685547,8|8,0:0|0:0,0:0:0:0:
276,93,87797,6,0,B|296:66|359:41|428:69|451:131|420:167|396:165|361:146|381:114,1,240.000009155274,4|0,0:0|0:0,0:0:0:0:
238,193,89153,6,0,B|211:173|186:110|214:41|276:18|312:49|310:73|291:108|259:88,1,240.000009155274,2|0,0:0|0:0,0:0:0:0:
338,230,90509,6,0,B|318:257|255:282|186:254|163:192|194:156|218:158|253:177|233:209,1,240.000009155274,2|0,0:0|0:0,0:0:0:0:
376,130,91865,6,0,B|403:150|428:213|400:282|338:305|302:274|304:250|323:215|355:235,1,240.000009155274,2|0,0:0|0:0,0:0:0:0:
230,333,93221,6,0,B|157:323|182:359|96:346,1,120.000004577637,4|0,1:2|0:0,0:0:0:0:
20,222,93899,2,0,L|8:90,1,120.000004577637,8|0,0:0|1:0,0:0:0:0:
63,29,94407,1,0,0:0:0:0:
127,81,94577,5,2,0:0:0:0:
127,81,94746,2,0,P|161:91|233:52,1,120.000004577637,0|0,1:0|1:0,0:0:0:0:
319,63,95255,2,0,B|365:21|421:45|421:45|385:57,1,120.000004577637,8|0,0:0|1:0,0:0:0:0:
378,119,95763,1,0,3:0:0:0:
437,183,95933,6,0,B|422:254|458:226|438:316,1,120.000004577637
325,369,96611,2,0,L|329:301,1,60.0000022888184,8|0,0:0|1:0,0:0:0:0:
321,230,96950,2,0,L|357:232,2,30.0000011444092,8|8|0,0:0|0:0|1:0,0:0:0:0:
272,145,97289,5,8,0:1:0:0:
326,63,97458,1,8,0:1:0:0:
197,358,98645,6,0,B|111:357|150:294|34:295,1,160,4|8,1:0|0:0,0:0:0:0:
1,227,99153,1,2,0:2:0:0:
69,172,99323,2,0,L|77:86,1,80,2|0,1:2|1:0,0:0:0:0:
43,23,99662,2,0,B|86:12|86:12|141:39,1,80,8|2,0:0|0:2,0:0:0:0:
189,109,100001,6,0,B|198:197|127:157|135:269,1,160,2|8,1:2|0:0,0:0:0:0:
196,316,100509,1,2,1:2:0:0:
258,368,100679,2,0,L|347:359,1,80,2|0,0:2|1:0,0:0:0:0:
382,285,101018,2,0,L|471:276,1,80,8|0,0:0|0:0,0:0:0:0:
507,172,101357,6,0,P|492:139|405:137,1,120,2|0,1:2|0:0,0:0:0:0:
401,141,101696,2,0,P|353:160|327:142,1,80,10|0,0:2|0:0,0:0:0:0:
254,147,102035,2,0,P|262:96|291:83,1,80,2|0,1:2|1:0,0:0:0:0:
323,17,102374,2,0,P|364:50|361:81,1,80,10|0,0:2|0:0,0:0:0:0:
332,195,102712,5,4,1:2:0:0:
380,268,102882,2,0,L|427:263,3,40,0|0|0|0,1:0|1:0|1:0|1:0,0:0:0:0:
434,277,103221,2,0,P|407:345|317:337,1,160,4|0,1:2|1:0,0:0:0:0:
289,276,103729,2,0,L|205:282,1,80,8|0,0:0|1:0,0:0:0:0:
193,294,103984,1,0,0:0:0:0:
177,305,104068,6,0,P|108:318|81:297,1,80,6|0,1:2|0:0,0:0:0:0:
45,238,104407,1,10,0:2:0:0:
120,180,104577,2,0,B|165:147|210:175|210:175|189:206,1,120,2|0,1:2|0:0,0:0:0:0:
177,199,104916,2,0,L|192:98,1,80,2|8,1:2|0:0,0:0:0:0:
206,37,105255,1,2,0:2:0:0:
283,95,105424,6,0,P|352:82|379:103,1,80,6|0,1:2|0:0,0:0:0:0:
415,162,105763,1,10,0:2:0:0:
340,220,105933,2,0,B|295:253|250:225|250:225|271:194,1,120,2|0,1:2|0:0,0:0:0:0:
283,201,106272,2,0,L|267:301,1,80,2|8,1:2|0:0,0:0:0:0:
268,299,106526,1,0,0:0:0:0:
265,318,106611,1,0,3:0:0:0:
352,359,106780,5,6,1:2:0:0:
432,324,106950,2,0,P|450:281|431:234,1,80,0|10,0:0|0:0,0:0:0:0:
449,154,107289,2,0,B|415:105|430:48|430:48|443:34,1,120,6|0,1:2|0:0,0:0:0:0:
451,28,107628,2,0,P|413:61|360:48,1,80,2|10,1:2|0:2,0:0:0:0:
288,114,107967,2,0,P|255:69|179:68,1,120,6|0,0:2|0:0,0:0:0:0:
175,68,108306,1,0,1:0:0:0:
111,124,108475,2,0,L|23:117,1,80,0|8,3:0|0:3,0:0:0:0:
0,198,108814,2,0,L|79:204,1,80,8|0,0:0|1:0,0:0:0:0:
104,288,109153,2,0,L|24:281,1,80,0|0,1:0|1:0,0:0:0:0:
135,362,109492,6,0,B|203:366|181:322|275:335,1,120.000004577637,4|0,1:2|1:2,0:0:0:0:
323,362,110001,1,8,0:0:0:0:
363,287,110170,2,0,P|424:303|438:368,1,120.000004577637,0|8,1:0|0:0,0:0:0:0:
434,217,110848,6,0,L|510:210,2,60.0000022888184,0|8|0,1:0|0:0|1:0,0:0:0:0:
352,202,111357,1,0,0:0:0:0:
352,202,111441,1,0,3:0:0:0:
352,202,111526,2,0,L|276:195,2,60.0000022888184,8|0|0,0:0|1:0|1:0,0:0:0:0:
377,22,112204,6,0,B|309:18|331:62|237:49,1,120.000004577637,4|0,1:2|1:2,0:0:0:0:
189,22,112713,1,8,0:0:0:0:
149,97,112882,2,0,P|88:81|74:16,1,120.000004577637,0|8,1:0|0:0,0:0:0:0:
78,167,113560,6,0,L|2:174,2,60.0000022888184,0|8|0,1:0|0:0|1:0,0:0:0:0:
160,182,114069,1,0,0:0:0:0:
177,257,114238,2,0,L|221:261,3,30.0000011444092,8|8|0|0,0:0|0:0|1:0|1:0,0:0:0:0:
226,253,114577,2,0,L|270:249,3,30.0000011444092,0|0|0|0,1:0|1:0|3:0|3:0,0:0:0:0:
276,238,114916,6,0,P|323:228|359:240,1,68.0000012969971,6|2,1:2|0:0,0:0:0:0:
417,219,115255,1,2,1:2:0:0:
462,288,115424,2,0,P|495:252|483:167,1,136.000002593994,2|2,0:0|0:0,0:0:0:0:
512,87,115933,2,0,L|434:99,1,68.0000012969971,2|0,1:2|0:0,0:0:0:0:
382,143,116272,6,0,P|335:153|299:141,1,68.0000012969971,2|2,1:2|0:0,0:0:0:0:
241,162,116611,1,2,1:2:0:0:
196,93,116780,2,0,P|163:129|175:214,1,136.000002593994,2|2,0:0|0:0,0:0:0:0:
151,300,117289,2,0,L|229:288,1,68.0000012969971,2|0,1:2|3:0,0:0:0:0:
334,305,117628,6,0,P|343:348|338:381,2,68.0000012969971,6|2|2,1:2|0:0|1:2,0:0:0:0:
283,244,118136,2,0,B|313:176|265:189|302:94,1,136.000002593994,2|2,0:0|0:0,0:0:0:0:
362,73,118645,2,0,P|363:39|355:6,1,68.0000012969971,2|2,1:2|0:0,0:0:0:0:
282,35,118984,6,0,B|228:34|185:82|185:82|209:82,2,136.000002593994,0|0|0,1:0|1:0|1:0,0:0:0:0:
383,157,120001,2,0,L|378:224,1,68.0000012969971,0|0,1:0|0:0,0:0:0:0:
438,300,120340,6,0,P|410:341|361:350,1,102.000001945496,4|0,0:0|0:0,0:0:0:0:
348,339,120679,2,0,L|280:345,1,68.0000012969971,0|0,1:0|1:0,0:0:0:0:
204,311,121018,1,8,0:0:0:0:
204,311,121188,1,8,0:0:0:0:
124,347,121357,1,8,0:0:0:0:
124,347,121527,2,0,L|120:279,1,68.0000012969971,8|0,0:0|1:0,0:0:0:0:
182,198,121865,5,8,0:1:0:0:
115,114,122035,1,8,0:1:0:0:
115,114,122374,5,8,0:1:0:0:
182,30,122544,1,8,0:1:0:0:
252,82,122712,2,0,L|293:77,3,34.0000006484985,8|8|8|8,0:0|0:0|0:0|0:0,0:0:0:0:
308,56,123051,6,0,B|382:49|359:105|441:103,1,132.00000402832,4|0,1:0|0:0,0:0:0:0:
454,90,123390,1,10,0:0:0:0:
496,170,123560,2,0,L|488:262,1,88.000002685547,2|0,0:0|1:0,0:0:0:0:
425,305,123899,1,2,0:2:0:0:
366,363,124068,2,0,P|345:320|354:274,1,88.000002685547,8|2,0:0|0:2,0:0:0:0:
413,190,124407,6,0,L|325:182,1,88.000002685547,2|0,1:2|0:0,0:0:0:0:
250,232,124746,1,10,0:0:0:0:
174,203,124916,2,0,B|104:183|108:84|142:56|202:109|138:125,1,176.000005371094,2|0,0:0|0:0,0:0:0:0:
215,39,125424,2,0,P|244:106|234:154,1,88.000002685547,10|0,0:0|0:0,0:0:0:0:
250,232,125763,6,0,B|236:296|276:275|247:371,1,132.00000402832,2|0,1:2|0:0,0:0:0:0:
226,340,126102,2,0,L|116:356,1,88.000002685547,10|2,0:0|0:0,0:0:0:0:
47,374,126441,2,0,P|17:315|31:278,1,88.000002685547,2|2,1:2|0:2,0:0:0:0:
76,232,126780,1,10,0:2:0:0:
76,232,126950,1,2,0:2:0:0:
37,142,127119,6,0,L|124:154,1,88.000002685547,2|0,1:2|3:0,0:0:0:0:
215,175,127458,2,0,P|241:140|241:97,1,88.000002685547,10|0,3:2|3:0,0:0:0:0:
207,20,127797,1,2,3:2:0:0:
207,20,127882,1,8,0:0:0:0:
207,20,127967,1,8,0:0:0:0:
293,31,128136,2,0,L|344:32,3,44.0000013427735,8|8|8|8,0:0|0:0|0:0|0:0,0:0:0:0:
365,21,128475,6,0,B|443:20|414:71|489:73,1,132.00000402832,4|0,1:2|0:0,0:0:0:0:
498,46,128814,1,10,0:0:0:0:
448,143,128984,2,0,L|461:238,1,88.000002685547,2|0,0:0|1:0,0:0:0:0:
507,303,129323,1,2,0:2:0:0:
428,314,129492,2,0,B|380:315|396:352|319:351,1,88.000002685547,8|2,0:0|0:2,0:0:0:0:
247,299,129831,6,0,P|219:263|129:267,1,132.00000402832,2|0,1:2|0:0,0:0:0:0:
117,284,130170,1,10,0:0:0:0:
72,357,130340,2,0,B|-18:344|-24:242|28:229|50:251|29:309,1,176.000005371094,2|0,0:0|0:0,0:0:0:0:
86,204,130848,2,0,B|79:161|98:170|90:108,1,88.000002685547,10|2,0:0|0:2,0:0:0:0:
136,48,131187,6,0,P|72:35|47:46,2,88.000002685547,2|2|10,1:2|0:2|0:2,0:0:0:0:
197,105,131696,1,2,0:2:0:0:
260,166,131865,2,0,P|303:117|306:89,2,88.000002685547,2|2|10,1:2|0:2|0:2,0:0:0:0:
180,190,132374,1,2,0:2:0:0:
247,293,132543,6,0,B|323:286|305:338|388:333,1,132.00000402832,4|0,1:2|0:0,0:0:0:0:
397,320,132882,1,8,0:0:0:0:
471,283,133051,1,8,0:0:0:0:
402,240,133221,2,0,P|440:209|488:206,1,88.000002685547,8|8,0:0|0:0,0:0:0:0:
500,119,133560,2,0,L|404:104,1,88.000002685547,8|8,0:0|0:0,0:0:0:0:
325,19,133899,6,0,B|295:120|354:97|326:202,1,176.000005371094,4|10,1:0|2:2,0:0:0:0:
394,246,134407,2,0,P|436:262|456:299,1,88.000002685547,2|0,2:0|1:0,0:0:0:0:
385,329,134746,1,0,0:0:0:0:
385,329,134831,1,0,0:0:0:0:
385,329,134916,6,0,B|259:315|259:315|215:343,1,176.000005371094,10|2,0:0|1:2,0:0:0:0:
201,349,135340,1,0,0:0:0:0:
186,359,135424,2,0,L|88:352,1,88.000002685547,2|8,0:2|0:0,0:0:0:0:
56,272,135763,1,2,0:0:0:0:
140,274,135933,2,0,P|150:215|143:185,1,88.000002685547,2|2,1:2|0:2,0:0:0:0:
134,110,136272,1,10,0:0:0:0:
134,110,136357,1,0,0:0:0:0:
134,110,136441,1,2,0:0:0:0:
224,84,136611,6,0,P|214:143|221:173,1,88.000002685547,2|0,1:2|0:0,0:0:0:0:
296,129,136950,2,0,L|391:135,1,88.000002685547,10|2,0:2|0:2,0:0:0:0:
460,86,137289,1,2,1:2:0:0:
460,86,137458,1,0,0:0:0:0:
512,152,137628,2,0,P|518:195|507:237,1,88.000002685547,10|0,0:2|0:0,0:0:0:0:
462,331,137967,6,0,P|418:324|376:335,1,88.000002685547,4|8,0:0|1:2,0:0:0:0:
307,370,138306,2,0,L|199:366,1,88.000002685547,12|0,0:0|1:0,0:0:0:0:
202,289,138645,2,0,L|94:293,1,88.000002685547,8|0,0:0|1:0,0:0:0:0:
31,323,138984,2,0,L|27:269,3,44.0000013427735,8|8|8|8,0:0|0:0|0:0|0:0,0:0:0:0:
12,263,139323,5,6,1:2:0:0:
59,193,139492,1,2,0:2:0:0:
1,131,139662,1,10,0:2:0:0:
48,61,139831,1,2,0:2:0:0:
114,118,140001,6,0,L|202:108,1,88.000002685547,2|2,1:2|0:2,0:0:0:0:
272,167,140340,1,8,0:0:0:0:
272,167,140424,1,0,0:0:0:0:
272,167,140509,1,2,2:0:0:0:
343,126,140679,6,0,P|355:174|340:214,1,88.000002685547,2|0,1:2|0:0,0:0:0:0:
268,251,141018,2,0,P|256:299|271:339,1,88.000002685547,10|0,0:2|0:0,0:0:0:0:
181,361,141357,1,2,1:2:0:0:
181,361,141526,1,2,0:2:0:0:
102,318,141696,1,10,0:2:0:0:
102,318,141865,1,2,0:2:0:0:
155,239,142035,6,0,B|253:247|219:182|332:197,1,176.000005371094,2|8,1:2|0:0,0:0:0:0:
414,257,142543,1,2,2:0:0:0:
414,257,142628,1,2,2:0:0:0:
414,257,142712,2,0,B|400:155|465:189|457:91,1,176.000005371094,2|8,2:0|0:0,0:0:0:0:
230,40,143390,5,12,1:2:0:0:
230,40,143560,1,8,0:0:0:0:
287,110,143729,2,0,L|297:211,1,88.000002685547,8|0,0:0|0:0,0:0:0:0:
254,276,144068,2,0,B|176:276|206:317|119:313,2,132.00000402832,8|8|8,0:0|0:0|0:0,0:0:0:0:
315,344,144746,5,4,0:1:0:0:
299,276,150170,6,0,P|338:283|362:306,1,60.0000022888184,4|0,1:2|0:0,0:0:0:0:
393,226,150509,2,0,P|416:190|409:166,1,60.0000022888184,8|0,0:0|0:0,0:0:0:0:
340,149,150848,6,0,P|347:110|370:86,1,60.0000022888184,0|0,1:2|0:0,0:0:0:0:
290,55,151187,2,0,P|254:32|230:39,1,60.0000022888184,8|0,0:0|0:0,0:0:0:0:
213,108,151526,6,0,P|174:101|150:78,1,60.0000022888184,0|0,1:2|0:0,0:0:0:0:
119,158,151865,2,0,P|96:194|103:218,1,60.0000022888184,8|0,0:0|0:0,0:0:0:0:
172,235,152204,6,0,P|165:274|142:298,1,60.0000022888184,0|0,1:2|0:0,0:0:0:0:
222,329,152543,2,0,P|258:352|282:345,1,60.0000022888184,8|0,0:0|0:0,0:0:0:0:
352,264,152882,6,0,B|322:259|323:272|287:266,1,60.0000022888184,4|0,1:2|0:0,0:0:0:0:
256,192,153221,2,0,P|248:160|256:128,1,60.0000022888184,8|0,0:0|0:0,0:0:0:0:
328,96,153560,6,0,B|323:126|336:125|330:161,1,60.0000022888184,0|0,1:2|0:0,0:0:0:0:
256,192,153899,2,0,P|224:200|192:192,1,60.0000022888184,8|0,0:0|0:0,0:0:0:0:
160,120,154238,6,0,B|190:125|189:112|225:118,1,60.0000022888184,0|0,1:2|0:0,0:0:0:0:
256,192,154577,2,0,P|264:224|256:256,1,60.0000022888184,8|0,0:0|0:0,0:0:0:0:
184,288,154916,6,0,B|189:258|176:259|182:223,1,60.0000022888184,0|0,1:2|0:0,0:0:0:0:
256,192,155255,2,0,P|288:184|320:192,1,60.0000022888184,8|0,0:0|1:0,0:0:0:0:
470,138,155594,6,0,P|478:186|451:227,1,90.0000034332277,4|0,1:2|0:0,0:0:0:0:
446,229,155933,2,0,L|460:298,1,60.0000022888184,8|0,0:0|0:0,0:0:0:0:
472,363,156272,1,0,1:0:0:0:
395,381,156441,2,0,L|384:322,1,60.0000022888184,0|0,1:0|0:0,0:0:0:0:
325,264,156780,1,8,0:0:0:0:
209,318,156950,6,0,P|179:348|120:345,1,90.0000034332277,4|0,1:2|0:0,0:0:0:0:
118,353,157289,2,0,P|71:332|58:313,1,60.0000022888184,8|0,0:0|0:0,0:0:0:0:
84,246,157628,2,0,L|24:251,1,60.0000022888184,0|0,1:0|1:0,0:0:0:0:
47,173,157967,2,0,P|60:146|84:128,1,60.0000022888184,8|0,0:0|0:0,0:0:0:0:
186,83,158306,6,0,B|125:88|154:42|61:51,2,120.000004577637,4|8|0,1:2|0:0|1:0,0:0:0:0:
268,34,159153,1,0,1:0:0:0:
268,34,159323,2,0,L|338:37,1,60.0000022888184,8|0,0:0|1:0,0:0:0:0:
398,78,159662,5,0,1:0:0:0:
314,221,160001,2,0,P|291:180|299:106,2,120.000004577637,8|0|8,0:0|0:0|0:0,0:0:0:0:
402,274,160848,1,0,3:0:0:0:
402,274,160933,1,0,3:0:0:0:
402,274,161018,6,0,P|452:243|523:251,1,120.000004577637,12|8,0:0|0:0,0:0:0:0:
489,342,161526,1,0,3:0:0:0:
489,342,161611,1,0,3:0:0:0:
489,342,161696,2,0,L|414:354,1,60.0000022888184,8|0,0:0|1:0,0:0:0:0:
346,335,162035,2,0,L|271:347,1,60.0000022888184,8|0,0:0|1:0,0:0:0:0:
194,368,162374,6,0,B|188:312|211:328|200:260,2,90.0000034332277,8|8|8,0:0|0:0|0:0,0:0:0:0:
112,324,163051,1,8,0:0:0:0:
293,95,163729,5,4,0:0:0:0:
218,288,164407,1,4,0:0:0:0:
190,111,165085,5,4,0:0:0:0:
321,272,165763,1,4,0:0:0:0:
153,208,166441,5,4,0:0:0:0:
358,175,167119,1,4,0:0:0:0:
358,176,167628,6,0,L|437:185,1,71.9999978027344,12|0,0:0|0:0,0:0:0:0:
483,253,167967,2,0,P|495:292|469:365,2,107.999996704102,8|8|8,0:0|0:0|0:0,0:0:0:0:
478,68,169153,5,4,1:0:0:0:
478,68,169492,5,10,0:0:0:0:
408,120,169662,2,0,P|393:69|402:25,1,88.000002685547,2|0,0:0|1:0,0:0:0:0:
312,77,170001,1,2,0:2:0:0:
250,137,170170,2,0,L|156:148,1,88.000002685547,8|2,0:0|0:2,0:0:0:0:
92,94,170509,6,0,B|77:44|39:73|25:138|68:171,1,132.00000402832,2|0,1:2|0:0,0:0:0:0:
65,174,170848,1,10,0:0:0:0:
134,221,171018,2,0,B|142:300|64:285|86:385,1,176.000005371094,2|0,0:0|0:0,0:0:0:0:
164,348,171526,2,0,L|257:333,1,88.000002685547,10|2,0:0|0:2,0:0:0:0:
335,295,171865,6,0,B|350:339|350:339|339:389,2,88.000002685547,2|2|10,1:2|0:2|0:2,0:0:0:0:
265,250,172374,1,2,0:2:0:0:
198,200,172543,2,0,B|154:215|154:215|104:204,2,88.000002685547,2|2|10,1:2|0:2|0:2,0:0:0:0:
243,130,173052,1,2,0:2:0:0:
295,60,173221,5,0,1:0:0:0:
371,116,173390,2,0,L|362:168,2,44.0000013427735,0|0|8,1:0|1:0|0:0,0:0:0:0:
437,62,173729,2,0,L|444:18,2,44.0000013427735,0|0|8,1:0|1:0|0:0,0:0:0:0:
490,133,174068,1,0,1:0:0:0:
490,133,174153,1,0,1:0:0:0:
490,133,174238,2,0,L|481:185,3,44.0000013427735,8|8|8|8,0:0|0:0|0:0|0:0,0:0:0:0:
466,191,174577,6,0,B|463:252|471:348,1,132.00000402832,4|0,1:0|0:0,0:0:0:0:
473,344,174916,1,10,0:0:0:0:
389,297,175085,2,0,P|320:291|281:356,1,132.00000402832,2|0,0:0|0:0,0:0:0:0:
281,357,175424,1,2,0:2:0:0:
203,304,175594,2,0,P|163:312|102:315,1,88.000002685547,8|2,0:0|0:2,0:0:0:0:
47,249,175933,5,2,1:2:0:0:
99,180,176102,2,0,P|91:140|88:79,1,88.000002685547,0|10,0:0|0:0,0:0:0:0:
135,27,176441,2,0,P|60:16|11:103,1,176.000005371094,2|0,0:0|0:0,0:0:0:0:
7,173,176950,2,0,P|15:213|18:274,1,88.000002685547,10|0,0:0|0:0,0:0:0:0:
111,359,177289,6,0,B|179:356|158:303|240:314,1,132.00000402832,2|0,1:2|0:0,0:0:0:0:
250,319,177628,2,0,P|301:351|350:334,1,88.000002685547,10|2,0:0|0:0,0:0:0:0:
385,278,177967,1,2,1:2:0:0:
385,278,178136,1,2,0:2:0:0:
464,306,178306,2,0,P|466:245|426:211,1,88.000002685547,10|2,0:2|0:2,0:0:0:0:
391,151,178645,6,0,L|478:142,1,88.000002685547,2|0,1:2|3:0,0:0:0:0:
449,62,178984,2,0,L|361:70,1,88.000002685547,10|0,3:2|3:0,0:0:0:0:
295,130,179323,1,2,3:2:0:0:
224,76,179492,1,8,0:0:0:0:
159,136,179662,2,0,L|71:127,1,88.000002685547,8|8,0:0|0:0,0:0:0:0:
141,211,180001,6,0,B|151:281|103:277|119:360,1,132.00000402832,4|0,1:2|0:0,0:0:0:0:
120,359,180340,1,10,0:0:0:0:
38,325,180509,2,0,P|34:262|29:226,1,88.000002685547,2|0,0:0|1:0,0:0:0:0:
28,150,180848,1,2,0:2:0:0:
25,61,181018,2,0,P|70:71|108:109,1,88.000002685547,8|2,0:0|0:2,0:0:0:0:
194,49,181357,6,0,B|264:59|260:11|343:27,1,132.00000402832,2|0,1:2|0:0,0:0:0:0:
342,28,181696,1,10,0:0:0:0:
424,3,181865,2,0,B|473:40|477:78|461:124|392:129|397:77|424:72,1,176.000005371094,2|0,0:0|0:0,0:0:0:0:
331,107,182374,2,0,P|344:160|353:211,1,88.000002685547,10|2,0:0|0:2,0:0:0:0:
412,264,182712,6,0,P|453:249|501:263,2,88.000002685547,2|2|10,1:2|0:2|0:2,0:0:0:0:
335,270,183221,1,2,0:2:0:0:
254,267,183390,2,0,L|256:360,2,88.000002685547,2|2|10,1:2|0:2|0:2,0:0:0:0:
177,270,183899,1,2,0:2:0:0:
177,270,183984,1,0,0:0:0:0:
177,270,184068,6,0,P|136:284|94:274,1,88.000002685547,0|0,1:0|1:0,0:0:0:0:
14,295,184407,2,0,B|4:216|53:240|44:143,1,132.00000402832,2|0,1:2|1:0,0:0:0:0:
32,151,184746,2,0,L|38:58,1,88.000002685547,2|0,1:2|1:0,0:0:0:0:
119,43,185085,2,0,L|116:89,3,44.0000013427735,2|0|0|0,1:2|1:0|1:0|1:0,0:0:0:0:
134,98,185424,6,0,P|78:121|61:155,1,88.000002685547,12|0,0:0|0:0,0:0:0:0:
136,174,185763,2,0,P|187:209|224:209,1,88.000002685547,8|0,0:0|0:0,0:0:0:0:
201,134,186102,2,0,P|209:72|189:40,1,88.000002685547,8|0,0:0|1:0,0:0:0:0:
275,25,186441,1,8,0:0:0:0:
351,70,186611,6,0,B|343:146|399:117|388:226,1,132.00000402832,0|0,1:0|0:0,0:0:0:0:
375,211,186950,2,0,L|381:315,1,88.000002685547,0|8,0:0|0:0,0:0:0:0:
440,363,187289,2,0,P|465:328|465:285,1,88.000002685547,0|8,0:0|0:0,0:0:0:0:
467,208,187628,1,0,1:0:0:0:
512,136,187797,2,0,P|486:100|487:57,1,88.000002685547,8|0,0:0|1:0,0:0:0:0:
373,96,188136,6,0,L|265:86,1,88.000002685547,4|0,0:0|0:0,0:0:0:0:
198,120,188475,2,0,L|206:178,3,44.0000013427735,8|8|8|8,0:0|0:0|0:0|0:0,0:0:0:0:
208,185,188814,6,0,L|316:175,1,88.000002685547,4|0,0:0|0:0,0:0:0:0:
383,209,189153,2,0,L|375:267,3,44.0000013427735,8|8|8|8,0:0|0:0|0:0|0:0,0:0:0:0:
381,274,189492,6,0,L|273:264,1,88.000002685547,4|0,0:0|0:0,0:0:0:0:
206,298,189831,2,0,L|214:356,3,44.0000013427735,8|8|8|8,0:0|0:0|0:0|0:0,0:0:0:0:
198,358,190170,1,4,0:0:0:0:
112,308,190340,2,0,L|118:264,3,44.0000013427735,0|8|8|8,1:0|0:0|0:0|0:0,0:0:0:0:
107,244,190679,6,0,B|96:178|146:189|126:105,1,132.00000402832,4|0,0:0|0:0,0:0:0:0:
119,96,191018,1,2,1:2:0:0:
82,25,191187,1,10,0:0:0:0:
82,25,191357,2,0,P|129:13|171:29,1,88.000002685547,10|0,0:0|1:0,0:0:0:0:
212,98,191696,1,2,3:2:0:0:
212,98,191865,1,10,0:2:0:0:
321,52,192035,6,0,P|382:71|437:29,1,132.00000402832,4|0,0:0|0:0,0:0:0:0:
443,14,192374,1,2,1:2:0:0:
512,88,192543,1,10,0:0:0:0:
512,88,192712,2,0,L|508:179,1,88.000002685547,10|0,0:0|1:0,0:0:0:0:
452,242,193051,1,2,3:2:0:0:
452,242,193221,1,10,0:2:0:0:
512,339,193390,6,0,P|451:320|396:362,1,132.00000402832,4|0,0:0|0:0,0:0:0:0:
382,371,193729,1,2,1:2:0:0:
333,286,193899,2,0,L|236:293,1,88.000002685547,10|2,0:2|3:2,0:0:0:0:
178,259,194238,2,0,L|182:216,3,44.0000013427735,8|8|0|0,0:0|0:0|1:0|1:0,0:0:0:0:
202,205,194577,2,0,L|289:198,1,88.000002685547,8|0,0:0|0:0,0:0:0:0:
385,208,194916,5,8,1:0:0:0:
452,124,195086,1,8,1:0:0:0:
452,124,195594,5,8,1:0:0:0:
385,40,195764,1,8,1:0:0:0:
385,40,196272,5,4,1:0:0:0:
309,86,196441,2,0,L|208:95,1,80,0|10,0:0|0:0,0:0:0:0:
172,33,196780,1,0,0:0:0:0:
172,33,196950,2,0,P|146:82|158:129,1,80,2|2,1:2|2:0,0:0:0:0:
201,177,197289,2,0,P|202:220|179:253,1,80,8|0,0:0|0:0,0:0:0:0:
113,297,197628,5,0,1:0:0:0:
25,334,197797,2,0,L|30:240,1,80,0|10,0:0|0:0,0:0:0:0:
80,192,198136,1,0,0:0:0:0:
29,129,198306,2,0,L|25:50,1,80,2|2,1:2|2:0,0:0:0:0:
109,86,198645,2,0,P|160:96|200:80,1,80,8|0,0:0|0:0,0:0:0:0:
256,32,198984,5,0,1:0:0:0:
326,88,199153,2,0,P|364:96|403:86,1,80,0|10,0:0|0:0,0:0:0:0:
420,6,199492,1,0,0:0:0:0:
487,50,199662,2,0,L|482:129,1,80,2|2,1:2|2:0,0:0:0:0:
480,218,200001,2,0,P|441:207|403:215,1,80,8|0,0:0|0:0,0:0:0:0:
325,189,200340,6,0,P|321:264|317:333,1,120,0|0,1:0|0:0,0:0:0:0:
315,328,200679,2,0,P|276:338|238:330,1,80,10|0,0:0|0:0,0:0:0:0:
190,266,201018,2,0,L|187:222,3,40,0|0|0|0,1:2|1:0|1:0|1:0,0:0:0:0:
197,208,201357,2,0,L|194:164,3,40,8|0|8|8,1:2|1:2|1:2|1:2,1:2:0:0:
194,148,201696,5,4,1:2:0:0:
243,77,201865,2,0,P|201:63|163:69,1,80,0|10,0:0|0:0,0:0:0:0:
77,29,202204,1,0,0:0:0:0:
77,29,202374,2,0,L|87:117,1,80,2|2,1:2|2:0,0:0:0:0:
35,174,202712,2,0,L|45:262,1,80,8|0,0:0|0:0,0:0:0:0:
94,326,203051,5,0,1:2:0:0:
139,249,203221,2,0,P|180:235|219:241,1,80,0|10,0:0|0:0,0:0:0:0:
286,287,203560,1,0,0:0:0:0:
363,335,203730,2,0,P|406:336|441:319,1,80,2|2,1:2|2:0,0:0:0:0:
478,248,204068,1,8,0:0:0:0:
478,248,204153,1,0,1:0:0:0:
478,248,204238,1,0,1:0:0:0:
382,183,204407,6,0,P|446:198|506:120,1,160,12|0,0:0|1:0,0:0:0:0:
424,51,204916,2,0,P|379:98|416:189,1,160,12|0,0:0|1:0,0:0:0:0:
463,270,205424,2,0,B|472:317|472:317|458:358,1,80,12|0,0:0|0:0,0:0:0:0:
369,296,205763,5,0,1:0:0:0:
287,347,205933,1,8,0:0:0:0:
287,347,206102,2,0,L|207:342,1,80,8|0,0:0|1:0,0:0:0:0:
117,372,206441,1,8,0:0:0:0:
57,311,206611,1,8,0:0:0:0:
110,240,206780,2,0,B|101:193|101:193|115:152,1,80,0|0,0:0|1:0,0:0:0:0:
49,75,207119,5,4,1:0:0:0:
116,22,207289,2,0,L|201:27,1,80,0|10,0:0|0:0,0:0:0:0:
263,89,207628,1,0,0:0:0:0:
263,89,207797,2,0,P|316:100|351:92,1,80,2|2,1:2|2:0,0:0:0:0:
389,30,208136,2,0,P|442:19|477:27,1,80,8|0,0:0|0:0,0:0:0:0:
512,93,208475,5,0,1:0:0:0:
434,100,208645,2,0,L|439:192,1,80,0|10,0:0|0:0,0:0:0:0:
505,239,208984,1,0,0:0:0:0:
445,294,209153,2,0,L|450:386,1,80,2|2,1:2|2:0,0:0:0:0:
364,342,209492,2,0,P|326:327|287:340,1,80,8|0,0:0|0:0,0:0:0:0:
256,264,209831,5,0,1:0:0:0:
216,184,210001,2,0,L|220:104,1,80,0|10,0:0|0:0,0:0:0:0:
178,32,210340,1,0,0:0:0:0:
139,105,210509,2,0,P|101:120|62:107,1,80,2|2,1:2|2:0,0:0:0:0:
6,164,210848,2,0,L|11:246,1,80,8|0,0:0|0:0,0:0:0:0:
61,326,211187,6,0,B|114:353|168:340|168:340|153:331,1,120,0|0,1:0|0:0,0:0:0:0:
145,323,211526,2,0,P|197:311|235:289,1,80,10|0,0:0|0:0,0:0:0:0:
307,343,211865,2,0,L|369:340,3,40,0|0|0|0,1:2|1:0|1:0|1:0,0:0:0:0:
362,327,212204,2,0,L|424:324,3,40,8|8|8|8,1:2|1:2|1:2|1:2,1:2:0:0:
420,333,212543,5,4,1:2:0:0:
479,270,212712,2,0,P|491:220|472:182,1,80,0|10,0:0|0:0,0:0:0:0:
491,110,213051,1,0,0:0:0:0:
491,110,213221,2,0,L|404:122,1,80,2|2,1:2|2:0,0:0:0:0:
403,199,213560,2,0,L|316:187,1,80,8|0,0:0|0:0,0:0:0:0:
256,128,213899,5,0,1:2:0:0:
188,188,214068,2,0,L|109:199,1,80,0|10,0:0|0:0,0:0:0:0:
24,200,214407,1,0,0:0:0:0:
21,110,214577,2,0,L|108:122,1,80,2|2,1:2|2:0,0:0:0:0:
182,81,214916,1,8,0:0:0:0:
182,81,215001,1,0,1:0:0:0:
182,81,215085,1,0,1:0:0:0:
193,192,215255,6,0,P|168:231|167:269,2,80,12|0|0,0:0|1:0|1:0,0:0:0:0:
283,126,215763,2,0,P|329:128|362:110,2,80,12|0|0,0:0|1:0|1:0,0:0:0:0:
182,81,216272,2,0,L|77:94,1,80,12|0,0:0|1:0,0:0:0:0:
26,158,216611,6,0,B|20:222|51:210|42:289,1,120,4|0,1:2|0:0,0:0:0:0:
27,287,216950,5,0,1:0:0:0:
116,253,217119,1,0,1:0:0:0:
184,316,217289,6,0,P|241:298|260:281,1,80,8|8,0:0|0:0,0:0:0:0:
325,336,217628,5,8,0:0:0:0:
414,302,217797,1,8,0:0:0:0:
487,350,217967,5,4,0:0:0:0:
256,192,218051,12,0,220679,1:0:0:0:
