osu file format v14

[General]
AudioFilename: audio.mp3
AudioLeadIn: 0
PreviewTime: 64913
Countdown: 0
SampleSet: Drum
StackLeniency: 0.7
Mode: 0
LetterboxInBreaks: 0
WidescreenStoryboard: 1

[Editor]
Bookmarks: 315,6029,17458,28886,40315,51743,61743,64600,76029,81743,93172,102993,104422,116029,127458,138886,150315,153172,158886,170315,176029,181743
DistanceSpacing: 0.8
BeatDivisor: 4
GridSize: 16
TimelineZoom: 2.55

[Metadata]
Title:Massacre, The New American Dream
TitleUnicode:Massacre, The New American Dream
Artist:Palaye Royale
ArtistUnicode:Palaye Royale
Creator:C00L
Version:Xenon's Insane
Source:
Tags:the bastards sumerian records heavy rock english cool plaudible nao tomori pw384 Xen Xenon- Xehn dtm9 Nowa Nowaie
BeatmapID:2991146
BeatmapSetID:1253433

[Difficulty]
HPDrainRate:5
CircleSize:4
OverallDifficulty:8
ApproachRate:9
SliderMultiplier:0.999999999999999
SliderTickRate:1

[Events]
//Background and Video events
0,0,"American_Dream.jpg",0,0
//Break Periods
2,62478,63286
2,116050,121143
2,153371,157929
2,180335,181143
//Storyboard Layer 0 (Background)
//Storyboard Layer 1 (Fail)
//Storyboard Layer 2 (Pass)
//Storyboard Layer 3 (Foreground)
//Storyboard Layer 4 (Overlay)
//Storyboard Sound Samples

[TimingPoints]
315,357.142857142857,4,3,1,30,1,0
315,-83.3333333333333,4,3,1,30,0,0
2814,-69.4444444444444,4,3,1,30,0,0
3172,-83.3333333333333,4,3,1,30,0,0
5672,-62.5,4,3,1,30,0,0
6029,-68.9655172413793,4,3,1,30,0,0
6386,-68.9655172413793,4,3,1,40,0,0
6564,-83.3333333333333,4,3,1,40,0,0
8707,-68.9655172413793,4,3,1,40,0,0
9243,-83.3333333333333,4,3,1,40,0,0
11386,-68.9655172413793,4,3,1,40,0,0
11922,-83.3333333333333,4,3,1,40,0,0
14600,-62.5,4,3,1,40,0,0
15850,-62.5,4,3,1,30,0,0
16029,-83.3333333333333,4,3,1,30,0,0
16922,-83.3333333333333,4,3,1,15,0,0
17100,-55.5555555555556,4,3,1,50,0,0
17279,-55.5555555555556,4,3,1,70,0,0
17814,-62.5,4,3,1,70,0,0
26029,-55.5555555555556,4,3,1,70,0,0
27993,-62.5,4,3,1,70,0,0
28886,-74.0740740740741,4,3,1,50,0,0
40314,-74.0740740740741,4,3,1,60,0,0
51743,-55.5555555555556,4,3,1,60,0,0
52279,-62.5,4,3,1,60,0,0
52814,-74.0740740740741,4,3,1,60,0,0
61609,-74.0740740740741,4,3,1,10,0,0
63707,-74.0740740740741,4,3,1,20,0,0
63886,-125,4,3,1,40,0,0
64243,-57.1428571428571,4,3,1,50,0,0
64422,-55.5555555555556,4,3,1,75,0,1
67100,-37.037037037037,4,3,1,75,0,1
67279,-46.5116279069767,4,3,1,75,0,1
67814,-55.5555555555556,4,3,1,75,0,1
69957,-37.037037037037,4,3,1,75,0,1
70136,-47.1698113207547,4,3,1,75,0,1
70671,-55.5555555555556,4,3,1,75,0,1
75850,-55.5555555555556,4,3,1,60,0,0
76386,-62.5,4,3,1,60,0,0
81743,-62.5,4,3,1,50,0,0
81922,-74.0740740740741,4,3,1,50,0,0
86564,-41.6666666666667,4,3,1,50,0,0
87457,-74.0740740740741,4,3,1,50,0,0
93172,-55.5555555555556,4,3,1,60,0,0
93707,-62.5,4,3,1,60,0,0
94243,-74.0740740740741,4,3,1,60,0,0
102993,-84.7457627118644,4,3,1,60,0,0
103082,-84.7457627118644,4,3,1,10,0,0
104243,-57.1428571428571,4,3,1,60,0,0
104422,-55.5555555555556,4,3,1,75,0,1
107100,-37.037037037037,4,3,1,75,0,1
107279,-46.5116279069767,4,3,1,75,0,1
107814,-55.5555555555556,4,3,1,75,0,1
109957,-37.037037037037,4,3,1,75,0,1
110136,-46.5116279069767,4,3,1,75,0,1
110671,-55.5555555555556,4,3,1,75,0,1
116029,-74.0740740740741,4,2,1,25,0,0
119243,-74.0740740740741,4,2,1,35,0,0
122100,-74.0740740740741,4,2,1,45,0,0
124957,-74.0740740740741,4,3,1,55,0,0
126743,-117.647058823529,4,3,1,65,0,0
127457,-46.5116279069767,4,3,1,85,0,0
128172,-55.5555555555556,4,3,1,85,0,0
129957,-66.6666666666667,4,3,1,85,0,0
130314,-55.5555555555556,4,3,1,85,0,0
135672,-66.6666666666667,4,3,1,85,0,0
136028,-55.5555555555556,4,3,1,85,0,0
138172,-51.2820512820513,4,3,1,85,0,0
138350,-43.4782608695652,4,3,1,85,0,0
138886,-48.780487804878,4,3,1,85,0,0
139600,-55.5555555555556,4,3,1,85,0,0
141743,-48.780487804878,4,3,1,85,0,0
142457,-55.5555555555556,4,3,1,85,0,0
144600,-48.780487804878,4,3,1,85,0,0
145314,-55.5555555555556,4,3,1,85,0,0
147457,-46.5116279069767,4,3,1,85,0,0
148171,-55.5555555555556,4,3,1,85,0,0
150314,-83.3333333333333,4,3,1,70,0,0
153172,-83.3333333333333,4,3,1,30,0,0
158528,-57.1428571428571,4,3,1,30,0,0
158529,-57.1428571428571,4,3,1,60,0,0
158707,-55.5555555555556,4,3,1,75,0,1
161386,-37.037037037037,4,3,1,75,0,1
161564,-42.5531914893617,4,3,1,75,0,1
162100,-55.5555555555556,4,3,1,75,0,1
164243,-37.037037037037,4,3,1,75,0,1
164422,-46.5116279069767,4,3,1,75,0,1
164957,-55.5555555555556,4,3,1,75,0,1
168886,-55.5555555555556,4,3,1,60,0,1
170314,-55.5555555555556,4,3,1,80,0,1
171386,-43.4782608695652,4,3,1,80,0,1
171743,-55.5555555555556,4,3,1,80,0,1
172814,-43.4782608695652,4,3,1,80,0,1
173172,-55.5555555555556,4,3,1,80,0,1
174600,-55.5555555555556,4,3,1,70,0,1
174957,-43.4782608695652,4,3,1,70,0,1
175672,-55.5555555555556,4,3,1,70,0,1
176029,-55.5555555555556,4,1,1,90,0,1
180314,-100,4,3,1,30,0,0
181743,-83.3333333333333,4,3,1,70,0,0
184600,-83.3333333333333,4,3,1,60,0,0

[Colours]
Combo1 : 123,123,123
Combo2 : 255,87,87
Combo3 : 119,119,255
Combo4 : 178,178,178

[HitObjects]
35,122,315,6,0,L|98:114,1,59.9999981689453,2|0,1:0|0:0,0:0:0:0:
125,41,672,2,0,L|188:48,1,59.9999981689453,8|2,0:0|1:0,0:0:0:0:
283,78,1029,2,0,P|265:54|261:24,1,59.9999981689453,0|0,0:0|0:0,0:0:0:0:
338,0,1386,2,0,P|355:23|359:53,1,59.9999981689453,8|2,0:0|1:0,0:0:0:0:
484,41,1743,6,0,P|437:77|415:132,1,119.999996337891,2|8,1:0|0:0,0:0:0:0:
347,172,2279,1,0,0:0:0:0:
347,172,2457,2,0,P|350:201|367:225,1,59.9999981689453,2|0,1:0|0:0,0:0:0:0:
432,316,2814,6,0,P|428:279|440:314,1,108.000002636719,8|0,1:0|1:0,0:0:0:0:
432,297,3172,6,0,L|368:304,1,59.9999981689453,2|0,1:0|0:0,0:0:0:0:
325,368,3529,2,0,L|265:360,1,59.9999981689453,8|2,0:0|1:0,0:0:0:0:
215,267,3886,2,0,P|210:296|192:320,1,59.9999981689453,0|0,0:0|0:0,0:0:0:0:
119,289,4243,2,0,P|123:260|141:236,1,59.9999981689453,8|2,0:0|1:0,0:0:0:0:
300,241,4600,6,0,P|263:194|255:136,1,119.999996337891,2|8,1:0|0:0,0:0:0:0:
199,83,5136,1,0,0:0:0:0:
199,83,5314,2,0,P|208:55|231:36,1,59.9999981689453,2|0,1:0|1:0,0:0:0:0:
121,45,5672,6,0,B|131:33|131:33|111:-6|111:-6|82:27|82:27|90:41,1,120,8|0,1:0|0:0,0:0:0:0:
104,56,6029,6,0,B|95:124|157:118|145:187,1,145.000004425049,0|10,0:0|0:0,0:0:0:0:
87,242,6564,1,0,0:0:0:0:
87,242,6743,2,0,L|77:321,1,59.9999981689453,0|2,0:0|0:0,0:0:0:0:
7,231,7100,2,0,L|-2:310,1,59.9999981689453,8|0,0:0|0:0,0:0:0:0:
197,345,7457,5,2,0:0:0:0:
164,274,7636,2,0,B|183:252|183:252|208:268,1,59.9999981689453,2|8,0:0|0:0,0:0:0:0:
271,375,7993,2,0,P|317:338|376:330,1,119.999996337891,2|0,0:0|1:0,0:0:0:0:
512,223,8529,5,8,1:0:0:0:
440,188,8707,2,0,B|448:119|386:125|398:56,1,145.000004425049,2|0,1:0|0:0,0:0:0:0:
329,135,9243,6,0,P|305:116|276:111,1,59.9999981689453,10|0,0:0|0:0,0:0:0:0:
220,168,9600,2,0,L|227:231,1,59.9999981689453,0|2,0:0|0:0,0:0:0:0:
297,265,9957,2,0,L|289:328,1,59.9999981689453,8|2,0:0|0:0,0:0:0:0:
164,277,10314,6,0,P|140:258|111:253,1,59.9999981689453,0|0,0:0|0:0,0:0:0:0:
88,331,10672,1,10,0:0:0:0:
88,331,10850,2,0,L|72:203,1,119.999996337891,2|0,0:0|1:0,0:0:0:0:
29,64,11386,5,8,1:0:0:0:
64,136,11564,2,0,B|132:127|126:189|195:177,1,145.000004425049,2|0,1:0|0:0,0:0:0:0:
279,197,12100,6,0,L|269:117,1,59.9999981689453,10|0,0:0|0:0,0:0:0:0:
348,111,12457,2,0,P|352:81|370:57,1,59.9999981689453,2|0,0:0|0:0,0:0:0:0:
445,87,12814,2,0,P|441:116|424:140,1,59.9999981689453,8|2,0:0|0:0,0:0:0:0:
272,137,13172,5,0,0:0:0:0:
272,137,13351,2,0,L|281:216,1,59.9999981689453,2|8,0:0|0:0,0:0:0:0:
326,262,13707,2,0,P|279:225|220:217,1,119.999996337891,2|0,0:0|0:0,0:0:0:0:
146,243,14243,1,8,0:0:0:0:
337,167,14600,6,0,L|348:71,1,79.9999999999999,2|0,1:0|0:0,0:0:0:0:
161,167,14957,2,0,L|149:71,1,79.9999999999999,10|0,1:0|0:0,0:0:0:0:
344,168,15314,6,0,L|355:72,1,79.9999999999999,0|2,1:0|1:0,0:0:0:0:
155,168,15671,2,0,L|143:72,1,79.9999999999999,8|2,1:0|1:0,0:0:0:0:
208,268,16029,6,0,P|248:203|288:268,1,179.999994506836,0|0,0:0|0:0,0:0:0:0:
130,54,17100,6,0,L|136:10,1,44.999998626709,0|0,0:0|0:0,0:0:0:0:
128,0,17279,2,0,B|138:86|138:86|135:90|135:90|146:177,1,179.999994506836,6|2,0:0|0:0,0:0:0:0:
58,350,17814,5,8,0:0:0:0:
45,240,17993,2,0,B|78:218|78:218|103:247,1,79.9999999999999,0|2,0:0|1:0,0:0:0:0:
217,105,18350,2,0,B|256:140|300:117|300:117|319:75|367:68,1,160,0|2,0:0|0:0,0:0:0:0:
391,198,18886,6,0,B|392:177|420:152|420:152|397:141|372:146|372:146|392:177|391:198,1,160,0|8,1:0|0:0,0:0:0:0:
289,381,19422,1,0,0:0:0:0:
356,340,19600,2,0,L|345:250,1,79.9999999999999,2|2,1:0|0:0,0:0:0:0:
498,353,19957,2,0,P|458:357|427:380,1,79.9999999999999,8|2,0:0|0:0,0:0:0:0:
273,304,20314,6,0,P|225:268|166:262,1,120,0|0,1:0|0:0,0:0:0:0:
154,265,20672,2,0,B|167:188|98:194|108:118,1,160,8|2,0:0|1:0,0:0:0:0:
260,29,21207,1,0,0:0:0:0:
185,0,21386,2,0,L|176:79,1,79.9999999999999,8|2,0:0|0:0,0:0:0:0:
310,173,21743,6,0,P|286:108|232:151,1,160,0|8,1:0|0:0,0:0:0:0:
87,211,22279,1,0,0:0:0:0:
123,141,22457,2,0,P|152:167|166:210,1,79.9999999999999,2|2,1:0|0:0,0:0:0:0:
38,41,22814,5,8,0:0:0:0:
174,81,22993,1,2,0:0:0:0:
239,35,23172,6,0,L|318:25,1,79.9999999999999,0|2,1:0|0:0,0:0:0:0:
395,183,23529,1,8,0:0:0:0:
441,81,23708,2,0,B|414:50|414:50|381:72,1,79.9999999999999,0|2,0:0|1:0,0:0:0:0:
267,216,24064,2,0,B|343:207|336:276|413:263,1,160,0|2,0:0|0:0,0:0:0:0:
317,140,24600,6,0,P|292:64|236:8,1,160,0|8,1:0|0:0,0:0:0:0:
122,113,25136,1,0,0:0:0:0:
194,79,25314,2,0,P|206:117|235:145,1,79.9999999999999,2|2,1:0|0:0,0:0:0:0:
415,124,25672,2,0,P|393:157|390:197,1,79.9999999999999,8|2,0:0|0:0,0:0:0:0:
225,225,26029,6,0,L|322:213,1,89.999997253418,0|2,1:0|0:0,0:0:0:0:
109,239,26386,2,0,L|12:250,1,89.999997253418,8|0,0:0|0:0,0:0:0:0:
160,174,26743,6,0,L|148:80,1,89.999997253418,2|0,1:0|1:0,0:0:0:0:
174,289,27100,2,0,L|184:378,1,89.999997253418,8|2,1:0|0:0,0:0:0:0:
225,225,27457,5,0,1:0:0:0:
291,180,27636,1,2,0:0:0:0:
432,210,27814,1,8,0:0:0:0:
492,161,27993,6,0,B|506:83|431:95|443:15,1,160,0|2,1:0|0:0,0:0:0:0:
348,59,28529,2,0,P|345:29|363:52,1,79.9999999999999,8|4,1:0|1:0,0:0:0:0:
204,182,28886,6,0,P|177:162|143:158,1,67.500000257492,0|0,0:0|0:0,0:0:0:0:
269,134,29243,2,0,L|250:-25,2,135.000000514984,8|0|8,0:0|0:0|0:0,0:0:0:0:
341,170,30136,1,0,0:0:0:0:
469,148,30314,6,0,P|435:144|408:124,1,67.500000257492,0|0,0:0|0:0,0:0:0:0:
274,212,30672,1,8,0:0:0:0:
208,171,30850,2,0,L|74:187,1,135.000000514984,0|0,1:0|1:0,0:0:0:0:
0,101,31386,2,0,B|33:78|60:108|60:108|26:130|0:101,1,135.000000514984,8|0,1:0|1:0,0:0:0:0:
74,264,31922,5,0,0:0:0:0:
137,217,32100,2,0,L|129:149,1,67.500000257492,8|0,0:0|0:0,0:0:0:0:
180,314,32457,2,0,P|209:255|266:219,1,135.000000514984,0|8,0:0|0:0,0:0:0:0:
303,150,32993,1,0,0:0:0:0:
251,54,33172,5,0,0:0:0:0:
251,54,33350,1,0,0:0:0:0:
156,27,33529,1,8,0:0:0:0:
61,0,33707,1,0,0:0:0:0:
0,49,33886,2,0,L|12:144,1,67.500000257492,0|0,1:0|1:0,0:0:0:0:
156,27,34243,2,0,L|138:169,1,135.000000514984,8|0,1:0|1:0,0:0:0:0:
63,175,34779,5,0,0:0:0:0:
98,291,34957,1,8,0:0:0:0:
45,350,35136,1,0,0:0:0:0:
177,305,35314,6,0,B|205:286|205:286|226:311,1,67.500000257492,0|0,0:0|0:0,0:0:0:0:
192,384,35672,1,8,0:0:0:0:
192,384,35850,1,0,0:0:0:0:
218,210,36029,5,0,0:0:0:0:
285,165,36207,2,0,L|273:70,1,67.500000257492,0|8,0:0|0:0,0:0:0:0:
387,0,36564,2,0,P|453:-4|508:44,1,135.000000514984,0|0,1:0|1:0,0:0:0:0:
416,91,37100,2,0,P|427:68|428:93,1,67.500000257492,8|0,1:0|1:0,0:0:0:0:
357,218,37457,6,0,L|365:151,1,67.500000257492,0|0,1:0|0:0,0:0:0:0:
471,256,37814,2,0,B|406:244|416:306|349:296,1,135.000000514984,8|0,0:0|0:0,0:0:0:0:
297,357,38350,1,0,0:0:0:0:
357,218,38529,2,0,P|337:191|333:157,1,67.500000257492,8|0,0:0|0:0,0:0:0:0:
472,111,38886,5,0,0:0:0:0:
411,161,39064,1,0,0:0:0:0:
280,99,39243,1,8,0:0:0:0:
256,174,39422,2,0,L|121:190,1,135.000000514984,0|0,0:0|1:0,0:0:0:0:
46,260,39957,2,0,P|62:240|58:265,1,67.500000257492,8|0,1:0|1:0,0:0:0:0:
172,327,40314,6,0,P|152:300|148:266,1,67.500000257492,0|0,0:0|0:0,0:0:0:0:
309,249,40672,2,0,P|263:298|248:363,2,135.000000514984,8|0|8,0:0|0:0|0:0,0:0:0:0:
268,180,41564,1,0,0:0:0:0:
337,66,41743,6,0,L|328:0,1,67.500000257492,0|0,0:0|0:0,0:0:0:0:
436,110,42100,1,8,0:0:0:0:
487,48,42279,2,0,P|458:-3|412:33,1,135.000000514984,0|0,0:0|1:0,0:0:0:0:
487,173,42814,2,0,P|434:214|409:276,1,135.000000514984,8|0,1:0|1:0,0:0:0:0:
275,384,43350,5,0,0:0:0:0:
337,333,43528,2,0,L|329:265,1,67.500000257492,8|0,0:0|0:0,0:0:0:0:
188,193,43885,2,0,L|207:34,1,135.000000514984,0|8,0:0|0:0,0:0:0:0:
146,6,44421,1,0,0:0:0:0:
279,28,44600,5,0,0:0:0:0:
279,28,44778,1,0,0:0:0:0:
306,123,44957,1,8,0:0:0:0:
333,218,45135,1,0,0:0:0:0:
401,261,45314,2,0,L|389:356,1,67.500000257492,0|0,1:0|1:0,0:0:0:0:
249,384,45672,2,0,P|199:338|134:323,1,135.000000514984,8|0,1:0|1:0,0:0:0:0:
68,362,46207,5,0,0:0:0:0:
119,247,46385,1,8,0:0:0:0:
72,182,46564,1,0,0:0:0:0:
161,101,46743,6,0,L|168:33,1,67.500000257492,0|0,0:0|0:0,0:0:0:0:
241,0,47100,1,8,0:0:0:0:
241,0,47278,1,0,0:0:0:0:
351,103,47457,5,0,0:0:0:0:
366,24,47637,2,0,B|337:5|337:5|316:30,1,67.500000257492,0|0,0:0|0:0,0:0:0:0:
221,154,47993,5,0,0:0:0:0:
161,101,48171,1,0,0:0:0:0:
89,138,48350,1,0,0:0:0:0:
228,145,48529,5,8,0:0:0:0:
294,105,48707,2,0,L|360:113,1,67.500000257492,0|0,0:0|0:0,0:0:0:0:
449,251,49064,5,0,0:0:0:0:
461,172,49244,2,0,B|433:153|433:153|411:178,1,67.500000257492,8|0,0:0|0:0,0:0:0:0:
439,343,49600,2,0,P|414:320|381:312,1,67.500000257492,0|0,0:0|0:0,0:0:0:0:
449,251,49957,1,8,0:0:0:0:
449,251,50136,1,0,0:0:0:0:
315,354,50314,5,0,0:0:0:0:
243,317,50493,1,0,0:0:0:0:
183,370,50671,1,8,0:0:0:0:
20,316,50850,6,0,L|8:221,1,67.500000257492,0|0,0:0|0:0,0:0:0:0:
0,172,51207,1,0,0:0:0:0:
93,271,51386,5,8,0:0:0:0:
168,292,51564,1,0,0:0:0:0:
256,362,51743,6,0,B|256:344|280:323|280:323|260:314|240:318|240:318|256:344|256:362,1,134.999995880127,0|0,1:0|0:0,0:0:0:0:
254,376,52100,1,8,0:0:0:0:
352,291,52279,2,0,B|429:304|422:235|498:244,1,160,0|0,0:0|0:0,0:0:0:0:
510,382,52814,2,0,P|505:349|486:323,1,67.500000257492,8|0,0:0|0:0,0:0:0:0:
367,213,53172,6,0,P|396:153|393:86,1,135.000000514984,0|8,1:0|0:0,0:0:0:0:
299,167,53707,2,0,P|297:133|312:103,1,67.500000257492,0|0,0:0|1:0,0:0:0:0:
464,206,54064,2,0,L|472:272,1,67.500000257492,0|8,0:0|0:0,0:0:0:0:
294,247,54422,6,0,B|227:237|237:299|172:287,1,135.000000514984,0|0,0:0|0:0,0:0:0:0:
20,308,54957,2,0,P|65:270|91:323,2,135.000000514984,8|0|8,0:0|1:0|0:0,0:0:0:0:
41,384,55850,1,0,0:0:0:0:
134,218,56029,6,0,P|130:151|160:91,1,135.000000514984,0|8,1:0|0:0,0:0:0:0:
65,13,56564,2,0,L|76:108,1,67.500000257492,0|0,0:0|1:0,0:0:0:0:
214,204,56922,2,0,P|228:174|227:140,1,67.500000257492,0|8,0:0|0:0,0:0:0:0:
199,315,57279,6,0,P|251:274|318:265,1,135.000000514984,0|0,0:0|0:0,0:0:0:0:
376,210,57814,1,8,0:0:0:0:
512,261,57993,1,0,0:0:0:0:
453,208,58172,2,0,L|436:74,1,135.000000514984,0|8,1:0|0:0,0:0:0:0:
365,38,58707,1,0,0:0:0:0:
255,81,58886,6,0,P|318:100|364:149,1,135.000000514984,0|8,1:0|0:0,0:0:0:0:
444,46,59422,2,0,L|432:141,1,67.500000257492,0|0,0:0|1:0,0:0:0:0:
498,168,59779,1,0,0:0:0:0:
498,168,59957,1,8,0:0:0:0:
347,227,60136,6,0,L|355:293,1,67.500000257492,0|0,0:0|1:0,0:0:0:0:
266,374,60493,2,0,P|280:344|279:310,1,67.500000257492,0|8,0:0|0:0,0:0:0:0:
189,359,60850,2,0,P|187:325|202:295,1,67.500000257492,0|0,0:0|1:0,0:0:0:0:
146,242,61207,1,0,0:0:0:0:
146,242,61386,1,8,0:0:0:0:
330,135,61564,6,0,B|325:185|297:206|297:206|272:173|230:162|183:170|183:170|225:197|219:244,1,270.000001029968,4|0,0:0|0:0,0:0:0:0:
447,328,63886,6,0,L|450:359,2,20,0|0|0,1:0|0:0|1:0,0:0:0:0:
437,250,64243,6,0,L|429:186,1,43.7500004172325,0|0,0:0|0:0,0:0:0:0:
424,197,64422,2,0,B|435:110|435:110|432:106|432:106|442:20,1,179.999994506836,6|2,0:0|0:0,0:0:0:0:
283,80,64957,5,8,0:0:0:0:
352,118,65136,1,0,0:0:0:0:
223,206,65314,5,2,1:0:0:0:
156,250,65493,1,0,0:0:0:0:
11,187,65672,2,0,L|-1:282,1,89.999997253418,8|2,0:0|0:0,0:0:0:0:
227,288,66029,5,0,1:0:0:0:
93,200,66207,2,0,L|81:110,1,89.999997253418,2|8,0:0|0:0,0:0:0:0:
227,20,66564,2,0,B|169:10|169:10|145:40|142:88|182:121,1,179.999994506836,0|2,0:0|0:0,0:0:0:0:
348,87,67100,6,0,P|341:110|356:91,1,67.500000257492,8|0,0:0|0:0,0:0:0:0:
261,277,67279,2,0,B|316:239|302:180|302:180|250:147|258:84,1,215.000003280639,2|2,0:0|0:0,0:0:0:0:
453,223,67814,5,8,0:0:0:0:
383,184,67993,1,0,0:0:0:0:
258,95,68172,5,2,1:0:0:0:
181,114,68351,1,0,0:0:0:0:
89,0,68529,2,0,L|0:11,1,89.999997253418,8|2,0:0|0:0,0:0:0:0:
133,236,68886,5,0,1:0:0:0:
171,121,69064,1,2,0:0:0:0:
56,83,69243,1,8,0:0:0:0:
0,137,69422,2,0,B|10:223|10:223|7:227|7:227|18:314,1,179.999994506836,0|2,0:0|0:0,0:0:0:0:
298,225,69957,6,0,B|280:234|268:218|268:218|286:209|298:225,1,67.500000257492,8|0,0:0|0:0,0:0:0:0:
87,237,70136,2,0,B|141:198|192:234|192:234|211:296|274:304,1,212.000000323486,2|2,0:0|0:0,0:0:0:0:
255,89,70672,5,8,0:0:0:0:
216,157,70850,1,0,0:0:0:0:
336,295,71029,2,0,L|451:280,1,89.999997253418,2|0,1:0|0:0,0:0:0:0:
505,134,71386,5,8,0:0:0:0:
442,84,71564,1,2,0:0:0:0:
367,211,71743,5,0,1:0:0:0:
287,359,71922,2,0,P|250:333|206:326,1,89.999997253418,2|8,0:0|0:0,0:0:0:0:
256,172,72279,6,0,B|270:201|291:209|272:222|266:254|266:254|252:224|230:216|249:204|256:172,1,179.999994506836,0|2,0:0|0:0,0:0:0:0:
359,323,72814,2,0,P|356:287|333:314,1,89.999997253418,8|2,0:0|0:0,0:0:0:0:
352,190,73172,5,0,1:0:0:0:
431,180,73350,1,2,0:0:0:0:
166,214,73529,5,8,0:0:0:0:
87,224,73707,1,0,0:0:0:0:
254,96,73886,5,2,1:0:0:0:
244,17,74064,1,0,0:0:0:0:
278,282,74243,5,8,0:0:0:0:
288,361,74421,1,2,0:0:0:0:
132,268,74600,6,0,P|169:242|213:235,1,89.999997253418,0|2,1:0|0:0,0:0:0:0:
360,161,74957,1,8,0:0:0:0:
378,239,75136,2,0,P|320:288|300:215,1,179.999994506836,0|2,0:0|0:0,0:0:0:0:
294,372,75672,6,0,L|250:366,1,44.999998626709,8|0,0:0|0:0,0:0:0:0:
240,374,75851,2,0,B|326:364|326:364|330:367|330:367|417:356,1,179.999994506836,4|0,0:0|0:0,0:0:0:0:
499,175,76385,5,8,0:0:0:0:
512,285,76564,2,0,B|479:307|479:307|454:278,1,79.9999999999999,0|0,0:0|1:0,0:0:0:0:
512,66,76922,2,0,P|449:114|371:124,1,160,0|0,0:0|0:0,0:0:0:0:
374,255,77457,6,0,B|376:236|355:205|355:205|381:200|404:211|404:211|376:236|374:255,1,160,0|8,1:0|0:0,0:0:0:0:
191,305,77994,1,0,0:0:0:0:
267,329,78172,2,0,P|271:289|294:258,1,79.9999999999999,0|0,1:0|0:0,0:0:0:0:
203,147,78529,2,0,L|212:226,1,79.9999999999999,8|0,0:0|0:0,0:0:0:0:
253,4,78886,6,0,P|205:40|146:46,1,120,0|0,1:0|0:0,0:0:0:0:
138,38,79244,2,0,B|215:25|209:94|285:84,1,160,8|0,0:0|0:0,0:0:0:0:
445,142,79779,1,0,0:0:0:0:
369,114,79958,2,0,L|360:35,1,79.9999999999999,8|0,0:0|0:0,0:0:0:0:
327,234,80315,6,0,P|303:169|249:212,1,160,0|8,1:0|0:0,0:0:0:0:
104,274,80851,1,0,0:0:0:0:
140,204,81029,2,0,P|169:230|183:273,1,79.9999999999999,0|0,1:0|0:0,0:0:0:0:
190,142,81386,5,8,0:0:0:0:
259,291,81564,2,0,L|247:386,1,79.9999999999999,0|0,1:0|1:0,0:0:0:0:
404,227,81922,5,0,0:0:0:0:
350,285,82100,2,0,P|330:258|325:220,1,67.500000257492,8|0,0:0|0:0,0:0:0:0:
485,273,82457,2,0,P|429:310|400:369,1,135.000000514984,0|8,1:0|0:0,0:0:0:0:
322,359,82993,1,0,0:0:0:0:
204,307,83172,5,0,1:0:0:0:
163,375,83350,2,0,L|67:386,1,67.500000257492,0|8,0:0|0:0,0:0:0:0:
277,274,83707,5,0,1:0:0:0:
213,226,83886,1,0,1:0:0:0:
140,258,84064,1,0,1:0:0:0:
214,214,84243,5,8,1:0:0:0:
224,135,84422,2,0,L|235:39,1,67.500000257492,0|0,1:0|0:0,0:0:0:0:
54,29,84779,5,0,0:0:0:0:
131,11,84958,1,8,0:0:0:0:
150,89,85137,1,0,0:0:0:0:
301,31,85314,5,0,1:0:0:0:
369,74,85493,2,0,B|433:82|427:24|492:35,1,135.000000514984,0|0,0:0|0:0,0:0:0:0:
439,142,86029,5,0,1:0:0:0:
424,219,86207,1,0,0:0:0:0:
409,296,86386,1,8,0:0:0:0:
352,377,86564,6,0,B|344:366|344:366|354:353|354:353|367:363|367:363|363:375,1,59.9999981689453,0|0,1:0|0:0,0:0:0:0:
23,220,87457,6,0,L|34:124,1,67.500000257492,0|0,1:0|0:0,0:0:0:0:
154,25,87814,2,0,P|159:57|179:84,1,67.500000257492,8|0,0:0|0:0,0:0:0:0:
104,200,88172,5,0,1:0:0:0:
173,163,88350,1,0,0:0:0:0:
275,258,88529,2,0,L|341:266,1,67.500000257492,8|0,0:0|0:0,0:0:0:0:
455,170,88886,5,0,1:0:0:0:
382,138,89064,1,0,0:0:0:0:
318,186,89243,1,8,0:0:0:0:
180,131,89422,2,0,L|189:51,2,67.500000257492,0|0|0,1:0|1:0|1:0,0:0:0:0:
63,144,89957,2,0,P|118:180|151:238,1,135.000000514984,8|0,1:0|1:0,0:0:0:0:
261,115,90493,5,0,0:0:0:0:
344,177,90672,1,8,0:0:0:0:
438,135,90850,1,0,0:0:0:0:
502,180,91029,2,0,L|493:246,1,67.500000257492,0|0,1:0|0:0,0:0:0:0:
294,319,91386,5,8,0:0:0:0:
294,317,91564,1,0,0:0:0:0:
433,296,91743,5,0,1:0:0:0:
420,218,91922,1,0,0:0:0:0:
280,241,92100,1,0,0:0:0:0:
222,294,92279,2,0,B|157:285|163:343|98:332,1,135.000000514984,0|0,0:0|0:0,0:0:0:0:
12,383,92814,2,0,P|21:359|23:384,1,67.500000257492,8|0,0:0|0:0,0:0:0:0:
109,254,93172,6,0,B|109:236|125:210|125:210|105:206|85:215|85:215|109:236|109:254,1,134.999995880127,0|0,1:0|0:0,0:0:0:0:
111,268,93529,1,8,0:0:0:0:
207,198,93707,2,0,B|172:159|195:115|195:115|237:96|244:48,1,160,0|0,0:0|0:0,0:0:0:0:
104,16,94243,2,0,P|130:36|164:42,1,67.500000257492,8|0,0:0|0:0,0:0:0:0:
15,203,94600,6,0,P|52:147|111:116,1,135.000000514984,0|8,1:0|0:0,0:0:0:0:
231,0,95136,2,0,P|263:9|286:33,1,67.500000257492,0|0,0:0|1:0,0:0:0:0:
395,148,95493,2,0,L|386:214,1,67.500000257492,0|8,0:0|0:0,0:0:0:0:
282,110,95850,6,0,B|349:120|339:58|404:70,1,135.000000514984,0|0,0:0|0:0,0:0:0:0:
310,226,96385,2,0,P|265:188|239:241,2,135.000000514984,8|0|8,0:0|1:0|0:0,0:0:0:0:
290,302,97278,1,0,0:0:0:0:
373,359,97457,6,0,P|369:292|399:232,1,135.000000514984,0|8,1:0|0:0,0:0:0:0:
512,119,97993,2,0,L|501:24,1,67.500000257492,0|0,0:0|1:0,0:0:0:0:
376,141,98350,2,0,P|406:155|440:154,1,67.500000257492,0|8,0:0|0:0,0:0:0:0:
354,27,98707,6,0,P|319:84|261:116,1,135.000000514984,0|0,0:0|0:0,0:0:0:0:
202,170,99242,1,8,0:0:0:0:
66,119,99421,1,0,0:0:0:0:
125,172,99600,2,0,L|142:306,1,135.000000514984,0|8,1:0|0:0,0:0:0:0:
100,373,100135,1,0,0:0:0:0:
215,259,100314,6,0,P|260:307|324:327,1,135.000000514984,0|8,1:0|0:0,0:0:0:0:
506,330,100850,2,0,P|481:352|471:384,1,67.500000257492,0|0,0:0|1:0,0:0:0:0:
405,337,101207,1,0,0:0:0:0:
405,337,101385,1,8,0:0:0:0:
442,202,101564,6,0,L|450:269,1,67.500000257492,0|0,0:0|1:0,0:0:0:0:
246,122,101922,2,0,L|237:189,1,67.500000257492,0|8,0:0|0:0,0:0:0:0:
384,150,102278,2,0,P|350:148|320:163,1,67.500000257492,0|0,0:0|1:0,0:0:0:0:
195,256,102635,1,0,0:0:0:0:
195,256,102814,1,8,0:0:0:0:
11,183,102993,6,0,B|51:129|115:127|161:179|161:179|122:198|117:234,1,235.999991717529,4|0,0:0|0:0,0:0:0:0:
262,269,104243,6,0,L|305:274,1,43.7500004172325,0|0,1:0|0:0,0:0:0:0:
372,237,104422,2,0,B|285:248|285:248|281:245|281:245|195:255,1,179.999994506836,2|2,1:0|0:0,0:0:0:0:
198,95,104957,5,8,0:0:0:0:
287,168,105136,1,0,0:0:0:0:
190,85,105314,5,2,1:0:0:0:
125,131,105493,1,0,0:0:0:0:
0,89,105672,2,0,L|12:-6,1,89.999997253418,8|2,0:0|0:0,0:0:0:0:
93,204,106029,5,0,1:0:0:0:
165,26,106207,2,0,P|129:52|84:57,1,89.999997253418,2|8,0:0|0:0,0:0:0:0:
178,194,106564,2,0,B|148:160|168:120|168:120|267:107,1,179.999994506836,0|2,0:0|0:0,0:0:0:0:
302,13,107100,6,0,P|309:36|294:17,1,67.500000257492,8|0,0:0|0:0,0:0:0:0:
389,202,107279,2,0,B|334:164|348:105|348:105|400:72|392:9,1,215.000003280639,2|2,0:0|0:0,0:0:0:0:
267,106,107814,5,8,0:0:0:0:
155,68,107993,1,0,0:0:0:0:
75,152,108172,5,2,1:0:0:0:
0,178,108351,1,0,0:0:0:0:
137,206,108529,2,0,P|111:242|110:292,1,89.999997253418,8|2,0:0|0:0,0:0:0:0:
340,345,108886,5,0,1:0:0:0:
302,230,109065,1,2,0:0:0:0:
187,268,109243,1,8,0:0:0:0:
134,207,109422,2,0,P|119:119|66:48,1,179.999994506836,0|2,0:0|0:0,0:0:0:0:
333,0,109957,6,0,B|336:18|350:29|350:29|330:30|323:15|330:4,1,67.500000257492,8|0,0:0|0:0,0:0:0:0:
214,162,110136,2,0,B|230:97|287:89|287:89|340:121|393:98,1,215.000003280639,2|2,0:0|0:0,0:0:0:0:
512,0,110672,5,8,0:0:0:0:
466,123,110850,1,0,0:0:0:0:
512,188,111029,2,0,P|486:224|485:274,1,89.999997253418,2|0,1:0|0:0,0:0:0:0:
371,364,111386,5,8,0:0:0:0:
447,339,111564,1,2,0:0:0:0:
418,187,111743,5,0,1:0:0:0:
256,132,111922,2,0,P|251:87|228:50,1,89.999997253418,2|8,0:0|0:0,0:0:0:0:
343,0,112279,6,0,B|329:29|308:37|327:50|333:82|333:82|347:52|369:44|350:32|343:0,1,179.999994506836,0|2,0:0|0:0,0:0:0:0:
151,76,112814,2,0,P|156:121|180:159,1,89.999997253418,8|2,0:0|0:0,0:0:0:0:
360,190,113172,5,0,1:0:0:0:
476,176,113350,1,2,0:0:0:0:
244,204,113529,5,8,0:0:0:0:
128,218,113707,1,0,0:0:0:0:
295,139,113886,5,2,1:0:0:0:
281,23,114064,1,0,0:0:0:0:
309,254,114243,5,8,0:0:0:0:
323,370,114422,1,2,0:0:0:0:
244,204,114600,6,0,P|207:230|163:237,1,89.999997253418,0|2,1:0|0:0,0:0:0:0:
29,384,114957,1,8,0:0:0:0:
11,306,115136,2,0,P|69:257|89:330,1,179.999994506836,0|2,0:0|0:0,0:0:0:0:
92,146,115672,2,0,B|112:161|101:185|101:185|80:169|92:146,1,89.999997253418,8|0,0:0|1:0,0:0:0:0:
34,170,121743,6,0,P|98:185|147:231,1,135.000000514984,0|0,0:0|1:0,0:0:0:0:
222,209,122279,1,0,0:0:0:0:
317,318,122457,2,0,P|287:334|268:361,1,67.500000257492,0|0,1:0|0:0,0:0:0:0:
300,241,122814,1,0,1:0:0:0:
300,241,122993,1,0,1:0:0:0:
192,347,123172,6,0,L|183:280,1,67.500000257492,0|0,1:0|0:0,0:0:0:0:
373,265,123529,2,0,L|381:198,1,67.500000257492,0|0,1:0|0:0,0:0:0:0:
290,98,123886,5,0,1:0:0:0:
365,121,124064,1,0,1:0:0:0:
349,45,124243,1,0,1:0:0:0:
306,174,124422,1,0,1:0:0:0:
234,211,124600,6,0,P|206:191|173:186,1,67.500000257492,0|0,0:0|0:0,0:0:0:0:
259,284,124957,2,0,L|254:317,2,33.750000128746,0|0|0,0:0|0:0|0:0,0:0:0:0:
108,141,125314,2,0,L|100:77,2,33.750000128746,0|0|0,0:0|0:0|0:0,0:0:0:0:
310,223,125672,2,0,L|315:175,1,33.750000128746,0|0,0:0|0:0,0:0:0:0:
380,147,125850,1,0,0:0:0:0:
377,130,125939,1,0,0:0:0:0:
375,113,126029,6,0,L|369:65,3,33.750000128746,0|0|0|0,1:0|0:0|1:0|0:0,0:0:0:0:
433,25,126386,5,0,1:0:0:0:
404,6,126475,1,0,0:0:0:0:
371,1,126564,1,0,1:0:0:0:
339,6,126653,1,0,0:0:0:0:
311,25,126743,6,0,B|290:22|290:22|289:23|289:23|270:21,1,42.5000008106231,12|0,1:0|0:0,0:0:0:0:
192,12,127100,2,0,B|171:9|171:9|170:10|170:10|151:8,1,42.5000008106231,0|0,0:0|0:0,0:0:0:0:
197,188,127457,6,0,B|180:153|215:136|221:87|221:87|239:133|276:141|269:179,1,215.000003280639,0|0,1:0|0:0,0:0:0:0:
407,300,127993,1,0,0:0:0:0:
334,268,128172,2,0,P|353:181|414:116,1,179.999994506836,8|0,0:0|0:0,0:0:0:0:
484,81,128707,1,0,0:0:0:0:
313,98,128886,6,0,B|267:92|262:33|262:33|244:89|198:83,1,179.999994506836,0|0,1:0|0:0,0:0:0:0:
75,185,129422,1,0,0:0:0:0:
153,170,129600,2,0,P|132:130|94:106,1,89.999997253418,8|0,0:0|0:0,0:0:0:0:
126,294,129957,2,0,B|115:268|129:244|129:244|94:256|100:284|112:290,1,112.500004291534,0|0,1:0|1:0,0:0:0:0:
116,304,130314,6,0,P|95:257|58:337,1,179.999994506836,0|0,1:0|0:0,0:0:0:0:
180,354,130850,1,0,0:0:0:0:
245,306,131029,2,0,P|279:333|324:339,1,89.999997253418,8|0,0:0|0:0,0:0:0:0:
460,301,131386,1,0,0:0:0:0:
460,301,131564,1,0,0:0:0:0:
401,355,131743,5,0,1:0:0:0:
310,259,131922,1,0,0:0:0:0:
441,221,132100,5,0,0:0:0:0:
512,109,132279,1,0,0:0:0:0:
456,51,132457,6,0,P|421:78|376:84,1,89.999997253418,8|0,1:0|1:0,0:0:0:0:
227,145,132814,1,0,1:0:0:0:
227,145,132993,1,0,1:0:0:0:
290,0,133172,6,0,B|301:87|301:87|298:91|298:91|308:177,1,179.999994506836,0|0,1:0|0:0,0:0:0:0:
479,294,133707,1,0,0:0:0:0:
431,230,133886,2,0,P|344:248|279:309,1,179.999994506836,8|0,0:0|0:0,0:0:0:0:
242,380,134422,1,0,0:0:0:0:
121,217,134600,6,0,B|167:223|185:167|185:167|190:226|236:232,1,179.999994506836,0|0,1:0|0:0,0:0:0:0:
393,305,135136,1,0,0:0:0:0:
320,272,135314,2,0,L|308:176,1,89.999997253418,8|0,0:0|0:0,0:0:0:0:
458,142,135672,2,0,B|447:116|461:92|461:92|426:104|432:132|444:138,1,112.500004291534,0|0,1:0|1:0,0:0:0:0:
447,152,136028,6,0,P|425:79|370:131,1,179.999994506836,0|0,1:0|0:0,0:0:0:0:
329,32,136564,1,0,0:0:0:0:
256,64,136743,2,0,P|222:37|177:31,1,89.999997253418,8|0,0:0|0:0,0:0:0:0:
284,183,137100,2,0,B|283:166|299:140|299:140|278:136|259:145|259:145|283:166|284:183,1,134.999995880127,0|0,0:0|0:0,0:0:0:0:
285,196,137457,5,0,1:0:0:0:
190,110,137636,1,0,1:0:0:0:
100,24,137814,5,0,1:0:0:0:
25,52,137993,1,0,1:0:0:0:
130,159,138172,6,0,L|124:207,1,48.7500001859664,8|0,1:0|0:0,0:0:0:0:
150,315,138350,2,0,B|167:278|131:259|123:207|123:207|105:256|63:265|73:306,1,230.000004386902,4|0,0:0|0:0,0:0:0:0:
241,363,138886,6,0,B|233:300|233:300|300:291|294:353|363:341,1,205.000003128052,0|0,1:0|0:0,0:0:0:0:
435,375,139422,1,0,0:0:0:0:
351,262,139600,2,0,P|383:231|398:189,1,89.999997253418,8|0,0:0|0:0,0:0:0:0:
280,224,139958,1,0,0:0:0:0:
280,224,140136,1,0,0:0:0:0:
207,261,140314,5,0,1:0:0:0:
54,221,140493,1,0,1:0:0:0:
153,376,140672,5,0,1:0:0:0:
134,298,140851,1,0,1:0:0:0:
212,182,141029,6,0,L|223:86,1,89.999997253418,8|0,1:0|1:0,0:0:0:0:
421,49,141386,1,0,1:0:0:0:
421,49,141564,1,0,1:0:0:0:
325,114,141743,6,0,B|336:81|357:64|332:51|313:23|313:23|302:55|281:73|306:85|325:114,1,205.000003128052,0|0,0:0|0:0,0:0:0:0:
336,192,142279,1,0,0:0:0:0:
213,293,142457,2,0,P|181:260|139:245,1,89.999997253418,8|0,0:0|0:0,0:0:0:0:
263,224,142814,1,0,0:0:0:0:
263,224,142993,1,0,0:0:0:0:
330,269,143172,5,0,1:0:0:0:
483,229,143351,1,0,1:0:0:0:
384,384,143530,5,0,1:0:0:0:
403,306,143707,1,0,1:0:0:0:
325,190,143886,2,0,P|279:188|242:162,1,89.999997253418,8|0,1:0|1:0,0:0:0:0:
415,61,144243,1,0,1:0:0:0:
415,61,144422,1,0,1:0:0:0:
305,113,144600,6,0,B|325:62|287:62|308:34|336:26|336:26|315:73|357:88|305:112,1,205.000003128052,0|0,0:0|0:0,0:0:0:0:
244,163,145136,1,0,0:0:0:0:
81,103,145314,2,0,P|43:127|0:129,1,89.999997253418,8|0,0:0|0:0,0:0:0:0:
91,25,145672,1,0,0:0:0:0:
91,25,145850,1,0,0:0:0:0:
153,73,146029,5,0,1:0:0:0:
77,199,146207,1,0,1:0:0:0:
176,286,146386,5,0,1:0:0:0:
209,359,146564,1,0,1:0:0:0:
222,218,146743,6,0,L|318:229,1,89.999997253418,8|0,1:0|1:0,0:0:0:0:
421,75,147100,1,0,1:0:0:0:
421,75,147279,1,0,1:0:0:0:
342,156,147457,6,0,B|374:170|383:199|383:199|392:126|325:133|338:54,1,215.000003280639,0|0,0:0|0:0,0:0:0:0:
276,6,147993,1,0,0:0:0:0:
262,168,148172,2,0,L|166:179,1,89.999997253418,8|0,0:0|0:0,0:0:0:0:
41,57,148529,1,0,0:0:0:0:
41,57,148707,1,0,0:0:0:0:
54,185,148886,5,0,0:0:0:0:
45,158,148975,1,0,0:0:0:0:
59,133,149064,2,0,L|103:138,1,44.999998626709,0|0,0:0|0:0,0:0:0:0:
127,13,149243,5,0,0:0:0:0:
118,40,149332,1,0,0:0:0:0:
132,65,149421,2,0,L|176:59,1,44.999998626709,0|0,0:0|0:0,0:0:0:0:
256,49,149600,6,0,L|300:43,3,44.999998626709,0|0|0|0,1:0|1:0|1:0|1:0,0:0:0:0:
353,104,149957,2,0,P|375:104|394:116,1,44.999998626709,0|0,1:0|1:0,0:0:0:0:
372,193,150136,2,0,P|349:192|330:180,1,44.999998626709,0|0,1:0|1:0,0:0:0:0:
195,285,150314,6,0,B|182:240|226:231|247:182|247:182|255:234|296:254|273:294,4,239.999992675781,0|0|0|0|0,1:0|1:0|1:0|1:0|0:0,0:0:0:0:
308,104,158529,6,0,L|351:109,1,43.7500004172325,0|0,0:0|0:0,0:0:0:0:
418,72,158707,2,0,B|331:83|331:83|327:80|327:80|241:90,1,179.999994506836,2|2,0:0|0:0,0:0:0:0:
81,126,159243,5,8,0:0:0:0:
170,53,159422,1,0,0:0:0:0:
318,158,159600,5,2,1:0:0:0:
383,204,159779,1,0,0:0:0:0:
508,162,159958,2,0,L|496:67,1,89.999997253418,8|2,0:0|0:0,0:0:0:0:
460,224,160314,5,0,1:0:0:0:
349,61,160493,2,0,P|393:55|429:29,1,89.999997253418,2|8,0:0|0:0,0:0:0:0:
377,215,160850,2,0,B|397:174|368:140|368:140|269:152,1,179.999994506836,0|2,0:0|0:0,0:0:0:0:
99,31,161386,6,0,P|116:14|94:24,1,67.500000257492,8|0,0:0|0:0,0:0:0:0:
279,7,161564,2,0,B|275:71|222:97|160:93|160:93|195:67|196:28,1,234.999996414184,2|2,0:0|0:0,0:0:0:0:
270,152,162100,5,8,0:0:0:0:
221,270,162279,1,0,0:0:0:0:
365,312,162457,5,2,1:0:0:0:
401,384,162636,1,0,0:0:0:0:
497,281,162814,2,0,P|460:254|416:249,1,89.999997253418,8|2,0:0|0:0,0:0:0:0:
233,350,163172,5,0,1:0:0:0:
365,312,163351,1,2,0:0:0:0:
220,353,163529,1,8,0:0:0:0:
163,299,163708,2,0,P|75:284|3:230,1,179.999994506836,0|2,0:0|0:0,0:0:0:0:
280,28,164243,6,0,B|283:46|297:57|297:57|277:58|270:43|277:32,1,67.500000257492,8|0,0:0|0:0,0:0:0:0:
203,227,164422,2,0,B|157:181|175:129|210:91|210:91|233:126|280:131,1,215.000003280639,2|2,0:0|0:0,0:0:0:0:
4,231,164957,5,8,0:0:0:0:
98,156,165135,1,0,0:0:0:0:
120,80,165314,2,0,P|94:44|93:-6,1,89.999997253418,2|0,1:0|0:0,0:0:0:0:
240,194,165671,5,8,0:0:0:0:
215,270,165849,1,2,0:0:0:0:
370,289,166028,5,0,1:0:0:0:
279,111,166207,2,0,L|189:121,1,89.999997253418,2|8,0:0|0:0,0:0:0:0:
358,85,166564,6,0,B|394:62|369:45|367:4|367:4|356:43|327:54|358:85,1,179.999994506836,0|2,0:0|0:0,0:0:0:0:
352,195,167100,2,0,P|348:161|336:193,1,89.999997253418,8|2,0:0|0:0,0:0:0:0:
261,215,167457,5,0,1:0:0:0:
423,234,167636,1,2,0:0:0:0:
245,213,167814,5,8,0:0:0:0:
82,193,167993,1,0,0:0:0:0:
254,206,168172,5,2,1:0:0:0:
274,43,168351,1,0,0:0:0:0:
252,221,168528,5,8,0:0:0:0:
232,384,168707,1,2,0:0:0:0:
192,272,168886,6,0,L|199:335,2,44.999998626709,0|0|0,1:0|1:0|1:0,0:0:0:0:
172,121,169243,1,0,1:0:0:0:
75,186,169422,5,0,1:0:0:0:
102,177,169511,1,0,1:0:0:0:
127,191,169600,2,0,L|122:235,3,44.999998626709,0|0|0|0,1:0|1:0|1:0|1:0,0:0:0:0:
61,289,169957,5,0,0:0:0:0:
89,308,170047,1,0,0:0:0:0:
121,313,170136,1,0,0:0:0:0:
154,308,170225,1,0,0:0:0:0:
183,289,170314,6,0,L|272:300,1,89.999997253418,8|0,0:0|1:0,0:0:0:0:
373,180,170672,1,0,1:0:0:0:
457,344,170850,5,8,0:0:0:0:
329,360,171029,1,0,1:0:0:0:
314,233,171207,1,0,1:0:0:0:
373,180,171386,6,0,B|373:164|393:146|393:146|377:139|359:142|359:142|373:164|373:180,1,115.000002193451,8|0,0:0|1:0,0:0:0:0:
444,8,171743,6,0,L|455:97,1,89.999997253418,8|0,0:0|1:0,0:0:0:0:
314,233,172101,1,0,1:0:0:0:
291,45,172279,5,8,0:0:0:0:
262,171,172458,1,0,1:0:0:0:
386,198,172636,1,0,1:0:0:0:
446,252,172815,6,0,B|446:267|466:285|466:285|450:292|432:289|432:289|446:267|446:252,1,115.000002193451,8|0,1:0|1:0,0:0:0:0:
262,171,173172,5,8,0:0:0:0:
423,150,173351,1,0,1:0:0:0:
245,172,173529,5,0,1:0:0:0:
82,192,173708,1,8,0:0:0:0:
253,163,173887,5,0,1:0:0:0:
233,0,174064,1,0,1:0:0:0:
254,178,174243,5,8,0:0:0:0:
274,341,174422,1,0,1:0:0:0:
219,255,174600,6,0,L|282:263,3,44.999998626709,8|0|0|0,1:0|1:0|1:0|1:0,0:0:0:0:
338,291,174957,2,0,P|366:287|389:270,1,57.5000010967254,0|0,1:0|1:0,0:0:0:0:
467,283,175136,2,0,P|479:257|479:229,1,57.5000010967254,8|0,1:0|1:0,0:0:0:0:
330,214,175314,5,0,1:0:0:0:
327,185,175403,1,0,1:0:0:0:
323,156,175492,1,0,1:0:0:0:
320,128,175581,1,0,1:0:0:0:
316,99,175672,2,0,L|379:106,3,44.999998626709,8|0|0|0,1:0|1:0|1:0|1:0,0:0:0:0:
428,59,176029,5,8,1:0:0:0:
499,97,176207,1,0,0:0:0:0:
499,225,176386,5,8,0:0:0:0:
428,263,176564,1,0,0:0:0:0:
352,379,176743,5,8,0:0:0:0:
241,357,176921,1,0,0:0:0:0:
213,283,177100,6,0,B|227:261|227:241|227:241|232:260|252:278,1,89.999997253418,8|0,0:0|0:0,0:0:0:0:
436,359,177457,5,8,0:0:0:0:
512,384,177635,1,0,0:0:0:0:
317,330,177814,5,8,0:0:0:0:
241,357,177992,1,0,0:0:0:0:
389,290,178171,5,8,0:0:0:0:
419,170,178349,1,0,0:0:0:0:
450,95,178528,6,0,B|435:74|435:54|435:54|430:73|410:90,1,89.999997253418,8|0,0:0|0:0,0:0:0:0:
154,204,178886,5,8,0:0:0:0:
419,170,179064,1,0,0:0:0:0:
340,180,179243,5,8,0:0:0:0:
75,214,179421,1,0,0:0:0:0:
266,272,179600,5,8,0:0:0:0:
232,7,179778,1,0,0:0:0:0:
242,86,179957,5,8,0:0:0:0:
276,351,180135,1,0,0:0:0:0:
295,184,181743,6,0,B|307:139|263:130|242:81|242:81|234:133|193:153|216:193,4,239.999992675781,0|0|0|0|0,1:0|1:0|1:0|1:0|0:0,0:0:0:0:
