osu file format v14

[General]
AudioFilename: audio.mp3
AudioLeadIn: 0
PreviewTime: 26934
Countdown: 1
SampleSet: None
StackLeniency: 0.7
Mode: 1
LetterboxInBreaks: 0
WidescreenStoryboard: 1

[Editor]
DistanceSpacing: 1.5
BeatDivisor: 4
GridSize: 4
TimelineZoom: 1

[Metadata]
Title:SpongeBob SquarePants Theme
TitleUnicode:SpongeBob SquarePants Theme
Artist:Painty the Pirate & Kids
ArtistUnicode:Painty the Pirate & Kids
Creator:mintong89
Version:Muzukashii
Source:SpongeBob SquarePants
Tags:nickelodeon
BeatmapID:1730514
BeatmapSetID:825659

[Difficulty]
HPDrainRate:5
CircleSize:5
OverallDifficulty:5
ApproachRate:5
SliderMultiplier:1.4
SliderTickRate:1

[Events]
//Background and Video events
0,0,"Spongebob-squarepants-patrick-wallpaper-2.jpg",0,-25
//Break Periods
//Storyboard Layer 0 (Background)
//Storyboard Layer 1 (Fail)
//Storyboard Layer 2 (Pass)
//Storyboard Layer 3 (Foreground)
//Storyboard Sound Samples

[TimingPoints]
8285,500,4,1,0,40,1,0
11180,489.795918367347,4,1,0,40,1,0
11180,-102.040816326531,4,1,0,40,0,0
12159,500,4,1,0,40,1,0
13159,495.867768595041,4,1,0,40,1,0
13159,-101.010101010101,4,1,0,40,0,0
15142,510.63829787234,4,1,0,40,1,0
15142,-98.0392156862745,4,1,0,40,0,0
16163,500,4,1,0,40,1,0
17163,489.795918367347,4,1,0,40,1,0
17163,-102.040816326531,4,1,0,40,0,0
19162,495.867768595041,4,1,0,40,1,0
21145,510.63829787234,4,1,0,40,1,0
21145,-98.0392156862745,4,1,0,40,0,0
23187,489.795918367347,4,1,0,40,1,0
23187,-102.040816326531,4,1,0,40,0,0
25174,500,4,1,0,40,1,0
27174,-100,4,1,0,40,0,1
29196,495.867768595041,4,1,0,40,1,1
31197,489.795918367347,4,1,0,40,1,1
33156,510.63829787234,4,1,0,40,1,1
33156,-95.2380952380952,4,1,0,40,0,1
34687,495.700000000004,4,1,0,40,1,1
35182,489.795918367347,4,1,0,40,1,0
39080,468.75,4,1,0,40,1,0

[HitObjects]
256,192,8285,12,0,11035,0:0:0:0:
222,142,11180,5,0,0:0:0:0:
166,174,11343,1,0,0:0:0:0:
166,174,11506,1,0,0:0:0:0:
166,174,11669,1,8,0:0:0:0:
166,174,12159,1,0,0:0:0:0:
166,174,12325,1,0,0:0:0:0:
166,174,12492,1,8,0:0:0:0:
166,174,12659,1,8,0:0:0:0:
213,92,13159,1,4,0:0:0:0:
213,92,13654,1,6,0:0:0:0:
213,92,14150,1,4,0:0:0:0:
213,92,14646,1,6,0:0:0:0:
235,194,15142,1,8,0:0:0:0:
235,194,15312,1,8,0:0:0:0:
235,194,15482,1,0,0:0:0:0:
235,194,15652,1,0,0:0:0:0:
235,194,16163,1,8,0:0:0:0:
235,194,16329,1,0,0:0:0:0:
235,194,16496,1,0,0:0:0:0:
235,194,16663,1,8,0:0:0:0:
235,194,17163,1,4,0:0:0:0:
235,194,17652,1,6,0:0:0:0:
235,194,18142,1,4,0:0:0:0:
235,194,18632,1,6,0:0:0:0:
243,169,19162,1,0,0:0:0:0:
243,169,19327,1,8,0:0:0:0:
243,169,19492,1,8,0:0:0:0:
242,198,19657,1,0,0:0:0:0:
242,198,20153,1,0,0:0:0:0:
242,198,20319,1,0,0:0:0:0:
242,198,20484,1,8,0:0:0:0:
242,198,20649,1,0,0:0:0:0:
242,198,21145,1,4,0:0:0:0:
242,198,21655,1,6,0:0:0:0:
242,198,22166,1,4,0:0:0:0:
242,198,22676,1,6,0:0:0:0:
249,188,23187,1,8,0:0:0:0:
251,188,23350,1,0,0:0:0:0:
251,188,23513,1,8,0:0:0:0:
251,188,23676,1,0,0:0:0:0:
188,127,24166,1,0,0:0:0:0:
188,127,24329,1,0,0:0:0:0:
188,127,24493,1,8,0:0:0:0:
190,131,24656,1,0,0:0:0:0:
190,131,25174,1,4,0:0:0:0:
190,131,25674,1,6,0:0:0:0:
190,131,26174,1,4,0:0:0:0:
190,131,26674,1,6,0:0:0:0:
209,228,27174,1,4,0:0:0:0:
209,228,27674,1,6,0:0:0:0:
209,228,28174,1,4,0:0:0:0:
209,228,28674,1,6,0:0:0:0:
209,228,29196,1,4,0:0:0:0:
209,228,29691,1,6,0:0:0:0:
209,228,30187,1,4,0:0:0:0:
209,228,30683,1,6,0:0:0:0:
209,228,31197,1,4,0:0:0:0:
209,228,31686,1,6,0:0:0:0:
209,228,32176,1,4,0:0:0:0:
209,228,32666,1,6,0:0:0:0:
209,228,33156,1,4,0:0:0:0:
209,228,33666,1,6,0:0:0:0:
152,196,34687,1,6,0:0:0:0:
56,139,35182,2,4,B|331:225|331:225|366:233,1,280
246,222,36406,1,8,0:0:0:0:
246,222,36896,1,8,0:0:0:0:
211,162,37141,1,0,0:0:0:0:
211,162,37386,1,8,0:0:0:0:
211,162,37630,1,0,0:0:0:0:
211,162,37875,1,8,0:0:0:0:
211,162,38120,1,0,0:0:0:0:
234,117,38610,1,8,0:0:0:0:
272,166,39080,1,8,0:0:0:0:
191,188,39548,1,8,0:0:0:0:
191,188,40017,1,8,0:0:0:0:
191,188,40330,1,8,0:0:0:0:
191,188,40486,1,8,0:0:0:0:
