osu file format v14

[General]
AudioFilename: audio.mp3
AudioLeadIn: 0
PreviewTime: 0
Countdown: 1
SampleSet: None
StackLeniency: 0.7
Mode: 0
LetterboxInBreaks: 0
WidescreenStoryboard: 0

[Editor]
DistanceSpacing: 0.8
BeatDivisor: 4
GridSize: 16
TimelineZoom: 1.7

[Metadata]
Title:Prosto i so vkusom
TitleUnicode:Prosto i so vkusom
Artist:Pagie
ArtistUnicode:Pagie
Creator:kkk
Version:a bit easier
Source:#mashup
Tags:mashup russian minecraft pole chudes
BeatmapID:1808623
BeatmapSetID:864884

[Difficulty]
HPDrainRate:3
CircleSize:3
OverallDifficulty:8
ApproachRate:9.6
SliderMultiplier:3.59999990463257
SliderTickRate:1

[Events]
//Background and Video events
0,0,"a-lE44xgEW0.jpg",0,0
//Break Periods
//Storyboard Layer 0 (Background)
//Storyboard Layer 1 (Fail)
//Storyboard Layer 2 (Pass)
//Storyboard Layer 3 (Foreground)
//Storyboard Sound Samples

[TimingPoints]
2588,521.739130434783,4,3,0,55,1,0
2588,-50,4,3,0,55,0,0
6761,-200,4,3,0,55,0,0
7283,-125,4,3,0,55,0,0
7805,-90.9090909090909,4,3,0,55,0,0
8327,-71.4285714285714,4,3,0,55,0,0
8848,-58.8235294117647,4,3,0,55,0,0
9370,-50,4,3,0,55,0,0
9892,-43.4782608695652,4,3,0,55,0,0
10414,-38.4615384615385,4,3,0,55,0,0
10935,-50,4,3,0,55,0,0

[HitObjects]
96,229,2588,6,0,P|256:102|52:109,1,539.999985694885,4|0,0:0|0:0,0:0:0:0:
22,344,3109,1,8,1:0:0:0:
157,93,3240,1,0,0:0:0:0:
256,293,3370,1,0,0:0:0:0:
394,37,3501,1,0,0:0:0:0:
512,225,3631,6,0,B|515:308|437:376|437:376|350:184|546:43,1,539.999985694885
511,159,4153,5,8,1:0:0:0:
170,63,4283,1,0,0:0:0:0:
512,54,4414,5,8,1:0:0:0:
110,176,4544,1,0,0:0:0:0:
337,326,4674,5,4,0:0:0:0:
437,292,4805,1,0,3:0:0:0:
404,188,4935,1,4,0:0:0:0:
301,223,5066,1,0,3:0:0:0:
387,341,5196,5,8,1:0:0:0:
382,13,5327,1,0,0:0:0:0:
81,236,5457,5,0,0:0:0:0:
510,295,5588,1,0,0:0:0:0:
284,20,5718,6,0,B|240:221|368:312|368:312|436:206|312:48,1,539.999985694885
120,44,6240,2,0,P|160:136|142:222,1,179.999995231629,8|0,1:0|0:0,0:0:0:0:
84,356,6501,2,0,P|44:264|62:178,1,179.999995231629,8|0,1:0|0:0,0:0:0:0:
31,40,6761,6,0,L|4:104,3,44.9999988079071
89,98,7283,6,0,L|76:182,3,71.9999980926514,8|0|0|0,1:0|0:0|0:0|0:0,0:0:0:0:
166,131,7805,6,0,L|171:257,3,99.0000003986359
245,147,8327,6,0,L|266:294,3,125.999992816925,8|0|0|0,1:0|0:0|0:0|0:0,0:0:0:0:
463,153,8848,6,0,L|310:13,3,152.999998865128
394,198,9370,6,0,L|143:62,3,179.999995231629,8|0|0|0,1:0|0:0|0:0|0:0,0:0:0:0:
324,253,9892,6,0,L|22:154,3,206.999998464584
268,319,10414,6,0,L|-25:323,3,233.999983089448,8|8|8|8,1:0|1:0|1:0|1:0,1:0:0:0:
294,228,10935,6,0,P|482:167|279:131,1,539.999985694885,4|0,3:0|0:0,0:0:0:0:
189,302,11457,1,8,1:0:0:0:
378,37,11588,1,0,0:0:0:0:
300,373,11718,1,0,0:0:0:0:
90,81,11848,1,0,0:0:0:0:
14,296,11979,6,0,P|296:277|309:15,1,539.999985694885
88,132,12501,2,0,P|204:137|295:4,1,179.999995231629,8|0,1:0|0:0,0:0:0:0:
482,189,12761,2,0,P|366:184|275:317,1,179.999995231629,8|0,1:0|0:0,0:0:0:0:
269,355,13022,5,4,0:0:0:0:
304,43,13153,1,0,0:0:0:0:
345,348,13283,5,4,0:0:0:0:
224,78,13414,1,0,0:0:0:0:
195,351,13544,5,8,1:0:0:0:
437,285,13674,1,0,0:0:0:0:
372,41,13805,1,0,0:0:0:0:
129,107,13935,1,0,0:0:0:0:
208,318,14066,6,0,B|351:392|539:346|539:346|438:246|248:275,1,539.999985694885
26,218,14588,5,8,1:0:0:0:
491,164,14718,1,0,0:0:0:0:
66,145,14848,5,8,1:0:0:0:
459,237,14979,1,0,0:0:0:0:
256,192,15109,12,0,18240,0:0:0:0:
342,221,18761,5,0,0:0:0:0:
