osu file format v14

[General]
AudioFilename: audio.mp3
AudioLeadIn: 0
PreviewTime: 0
Countdown: 1
SampleSet: None
StackLeniency: 0.7
Mode: 0
LetterboxInBreaks: 0
WidescreenStoryboard: 1

[Editor]
DistanceSpacing: 0.8
BeatDivisor: 4
GridSize: 8
TimelineZoom: 1.7

[Metadata]
Title:Prosto i so vkusom
TitleUnicode:Prosto i so vkusom
Artist:Pagie
ArtistUnicode:Pagie
Creator:kkk
Version:BLYAAAAAAAAAAAAAAAAAAAAAAAAAAAAAAAAAAAAAAAAAAAAAAAA
Source:#mashup
Tags:mashup russian minecraft pole chudes
BeatmapID:1808624
BeatmapSetID:864884

[Difficulty]
HPDrainRate:4
CircleSize:3
OverallDifficulty:9
ApproachRate:10
SliderMultiplier:3.59999990463257
SliderTickRate:1

[Events]
//Background and Video events
0,0,"a-lE44xgEW0.jpg",0,0
//Break Periods
//Storyboard Layer 0 (Background)
//Storyboard Layer 1 (Fail)
//Storyboard Layer 2 (Pass)
//Storyboard Layer 3 (Foreground)
//Storyboard Sound Samples

[TimingPoints]
2588,521.739130434783,4,3,0,55,1,0
2588,-50,4,3,0,55,0,0
10935,-50,4,3,0,55,0,0

[HitObjects]
96,229,2588,6,0,P|256:102|52:109,1,539.999985694885,4|0,0:0|0:0,0:0:0:0:
22,344,3109,1,8,1:0:0:0:
157,93,3240,1,0,0:0:0:0:
256,293,3370,1,0,0:0:0:0:
394,37,3501,1,0,0:0:0:0:
512,225,3631,6,0,B|515:308|437:376|437:376|350:184|546:43,1,539.999985694885
511,159,4153,5,8,1:0:0:0:
110,176,4283,1,0,0:0:0:0:
512,54,4414,5,8,1:0:0:0:
170,63,4544,1,0,0:0:0:0:
337,326,4674,5,4,0:0:0:0:
437,292,4805,1,0,3:0:0:0:
404,188,4935,1,4,0:0:0:0:
301,223,5066,1,0,3:0:0:0:
387,341,5196,5,8,1:0:0:0:
382,13,5327,1,0,0:0:0:0:
81,236,5457,5,0,0:0:0:0:
510,295,5588,1,0,0:0:0:0:
257,36,5718,6,0,B|213:237|341:328|341:328|409:222|285:64,1,539.999985694885
0,107,6240,2,0,P|110:120|215:28,1,179.999995231629,8|0,1:0|0:0,0:0:0:0:
493,38,6501,2,0,P|383:25|278:117,1,179.999995231629,8|0,1:0|0:0,0:0:0:0:
161,158,6761,5,0,0:0:0:0:
200,334,6892,1,0,0:0:0:0:
351,158,7022,5,0,0:0:0:0:
312,334,7153,1,0,0:0:0:0:
197,81,7283,5,8,1:0:0:0:
115,328,7414,1,0,0:0:0:0:
315,81,7544,5,0,0:0:0:0:
397,328,7675,1,0,0:0:0:0:
111,122,7805,5,0,0:0:0:0:
442,220,7935,1,0,0:0:0:0:
70,220,8066,5,0,0:0:0:0:
401,122,8196,1,0,0:0:0:0:
156,29,8327,5,8,1:0:0:0:
153,354,8457,1,0,0:0:0:0:
356,29,8588,5,0,0:0:0:0:
359,354,8718,1,0,0:0:0:0:
62,87,8848,5,0,0:0:0:0:
426,282,8979,1,0,0:0:0:0:
86,282,9109,5,0,0:0:0:0:
450,87,9240,1,0,0:0:0:0:
211,34,9370,5,8,1:0:0:0:
61,373,9501,1,0,0:0:0:0:
301,34,9631,5,0,0:0:0:0:
451,373,9762,1,0,0:0:0:0:
123,36,9892,5,0,0:0:0:0:
123,352,10022,1,0,0:0:0:0:
389,36,10153,5,0,0:0:0:0:
389,352,10283,1,0,0:0:0:0:
68,61,10414,5,8,1:0:0:0:
68,322,10544,1,8,1:0:0:0:
441,59,10674,1,8,1:0:0:0:
441,324,10804,1,8,1:0:0:0:
294,228,10935,6,0,P|482:167|279:131,1,539.999985694885,4|0,3:0|0:0,0:0:0:0:
189,302,11457,1,8,1:0:0:0:
378,37,11588,1,0,0:0:0:0:
300,373,11718,1,0,0:0:0:0:
90,81,11848,1,0,0:0:0:0:
14,296,11979,6,0,P|296:277|309:15,1,539.999985694885
88,132,12501,2,0,P|204:137|295:4,1,179.999995231629,8|0,1:0|0:0,0:0:0:0:
482,189,12761,2,0,P|366:184|275:317,1,179.999995231629,8|0,1:0|0:0,0:0:0:0:
269,355,13022,5,4,0:0:0:0:
304,43,13153,1,0,0:0:0:0:
345,348,13283,5,4,0:0:0:0:
224,78,13414,1,0,0:0:0:0:
195,351,13544,5,8,1:0:0:0:
437,285,13674,1,0,0:0:0:0:
372,41,13805,1,0,0:0:0:0:
129,107,13935,1,0,0:0:0:0:
208,318,14066,6,0,B|351:392|539:346|539:346|438:246|248:275,1,539.999985694885
26,218,14588,5,8,1:0:0:0:
491,164,14718,1,0,0:0:0:0:
66,145,14848,5,8,1:0:0:0:
459,237,14979,1,0,0:0:0:0:
256,192,15109,12,0,18240,0:0:0:0:
342,221,18761,5,0,0:0:0:0:
