osu file format v14

[General]
AudioFilename: Hunter Vega - The Home That We Once Knew (Title Theme).mp3
AudioLeadIn: 0
PreviewTime: 62305
Countdown: 0
SampleSet: Soft
StackLeniency: 0.7
Mode: 0
LetterboxInBreaks: 0
WidescreenStoryboard: 1

[Editor]
Bookmarks: 28080,41583,62442,76355,83312,97645,111138,132007,145920,152877
DistanceSpacing: 1.2
BeatDivisor: 4
GridSize: 4
TimelineZoom: 1

[Metadata]
Title:The Home That We Once Knew
TitleUnicode:The Home That We Once Knew
Artist:Pablo Vega
ArtistUnicode:Pablo Vega
Creator:ego_17
Version:Hard
Source:Bionic Dues
Tags:soundtrack video game ost Hunter Vega
BeatmapID:1616495
BeatmapSetID:768634

[Difficulty]
HPDrainRate:7
CircleSize:4.5
OverallDifficulty:8
ApproachRate:8
SliderMultiplier:1.8
SliderTickRate:1

[Events]
//Background and Video events
0,0,"MainMenu.png",0,0
//Break Periods
2,44367,47765
2,113932,117330
//Storyboard Layer 0 (Background)
//Storyboard Layer 1 (Fail)
//Storyboard Layer 2 (Pass)
//Storyboard Layer 3 (Foreground)
Sprite,Foreground,Centre,"TankEpic.png",320,240 M,1,13017,13943,813,340,480,348 S,0,13017,13943,0.29,0.38 M,0,13943,169277,480,348
Sprite,Foreground,Centre,"TankEpic.png",480,348 T,HitSoundFinish,13943,154595 F,0,0,450,0.7,0 S,0,0,450,0.38,0.5
Sprite,Foreground,Centre,"TankEpic.png",480,348 T,HitSoundClap,74269,76440 F,0,0,450,0.7,0 S,0,0,450,0.38,0.5
Sprite,Foreground,Centre,"TankEpic.png",480,348 T,HitSoundClap,143725,146117 F,0,0,450,0.7,0 S,0,0,450,0.38,0.5
//Storyboard Sound Samples

[TimingPoints]
13733,434.782608695652,4,2,1,85,1,0
48298,-100,4,2,1,65,0,0
60472,-100,4,2,1,85,0,0
61341,428.571428571429,4,2,1,85,1,0
62428,434.782608695652,4,2,1,85,1,1
75254,428.571428571429,4,2,1,85,1,1
76341,434.782608695652,4,2,1,85,1,0
81559,-100,4,2,0,85,0,0
81993,-100,4,2,1,85,0,0
117863,-100,4,2,1,65,0,0
130037,-100,4,2,1,85,0,0
130906,428.571428571429,4,2,1,85,1,0
131993,434.782608695652,4,2,1,85,1,1
144819,428.571428571429,4,2,1,85,1,1
145906,434.782608695652,4,2,1,50,1,0

[Colours]
Combo1 : 192,192,192
Combo2 : 128,255,255
Combo3 : 18,124,255
Combo4 : 244,66,92

[HitObjects]
256,316,13733,5,4,0:1:0:0:
256,316,14167,1,2,0:0:0:0:
184,192,14602,2,0,P|152:184|96:236,2,90,2|0|2,0:0|0:0|0:0,0:0:0:0:
256,316,15254,1,0,0:0:0:0:
332,192,15472,2,0,P|380:188|420:236,1,90,8|0,0:0|0:0,0:0:0:0:
288,88,15906,2,0,P|384:72|452:112,1,180,2|0,0:0|0:0,0:0:0:0:
493,212,16559,1,8,0:0:0:0:
432,300,16776,1,2,0:0:0:0:
325,284,16993,1,0,0:0:0:0:
232,140,17211,6,0,P|152:92|64:120,1,180,4|2,0:1|0:0,0:0:0:0:
132,324,18080,2,0,P|180:340|236:328,2,90,0|0|2,0:0|0:0|0:0,0:0:0:0:
80,224,18733,1,0,0:0:0:0:
72,112,18950,2,0,L|80:0,1,90,8|0,0:0|0:0,0:0:0:0:
180,76,19385,2,0,B|176:152|176:152|200:196|256:216,1,180,2|0,0:0|0:0,0:0:0:0:
360,244,20037,1,8,0:0:0:0:
255,215,20254,2,0,P|239:259|244:303,1,90,2|0,0:0|0:0,0:0:0:0:
448,337,20689,6,0,P|467:296|467:251,1,90,4|0,0:1|0:0,0:0:0:0:
462,142,21124,2,0,P|382:98|290:118,1,180,2|0,0:0|0:0,0:0:0:0:
228,196,21776,1,8,0:0:0:0:
179,292,21993,2,0,P|147:331|91:352,1,90,2|0,0:0|0:0,0:0:0:0:
57,254,22428,2,0,P|89:170|183:125,1,180,8|8,0:0|0:3,0:0:0:0:
256,188,23080,2,0,L|256:288,2,90,8|0|8,0:0|0:0|0:0,0:0:0:0:
257,79,23732,1,2,0:0:0:0:
256,188,23950,1,0,0:0:0:0:
316,24,24167,6,0,P|368:4|432:20,1,90,4|0,0:1|0:0,0:0:0:0:
456,100,24602,2,0,B|448:112|448:112|488:260|488:260|460:296,1,180,2|0,0:0|0:0,0:0:0:0:
400,344,25254,1,0,3:0:0:0:
292,352,25472,1,0,3:0:0:0:
197,328,25689,5,8,0:3:0:0:
197,328,26124,1,8,0:3:0:0:
197,328,26559,1,8,0:3:0:0:
197,328,26993,5,0,3:0:0:0:
116,256,27211,1,0,3:0:0:0:
64,160,27428,1,0,3:0:0:0:
60,52,27646,2,0,P|96:28|172:44,1,90,4|0,0:1|0:0,0:0:0:0:
228,92,28080,6,0,P|243:182|300:268,1,180,2|0,0:0|0:0,0:0:0:0:
375,321,28732,1,8,0:0:0:0:
471,192,28950,2,0,P|482:146|468:100,1,90,2|0,0:0|0:0,0:0:0:0:
364,104,29385,2,0,P|344:132|284:144,1,90,8|0,0:0|0:0,0:0:0:0:
184,120,29819,1,2,0:0:0:0:
140,20,30037,1,0,0:0:0:0:
184,120,30254,1,0,0:0:0:0:
144,220,30472,2,0,P|124:248|64:260,2,90,8|2|0,0:0|0:0|0:0,0:0:0:0:
256,218,31124,6,0,L|256:308,1,90,8|0,0:0|0:0,0:0:0:0:
364,248,31559,2,0,P|364:148|305:77,1,180,2|0,0:0|0:0,0:0:0:0:
256,176,32211,1,8,0:0:0:0:
136,80,32428,1,2,0:0:0:0:
136,80,32863,2,0,P|84:148|84:188,1,90,8|0,0:0|0:0,0:0:0:0:
168,160,33298,2,0,P|156:243|236:316,1,180,2|0,0:0|0:0,0:0:0:0:
256,208,33950,1,8,0:0:0:0:
256,96,34167,2,0,L|256:0,1,90,2|0,0:0|0:0,0:0:0:0:
375,79,34602,6,0,P|410:108|428:149,1,90,8|0,0:0|0:0,0:0:0:0:
343,159,35037,2,0,P|354:246|295:310,1,180,2|0,0:0|0:0,0:0:0:0:
224,200,35689,1,8,0:0:0:0:
136,296,35906,1,2,0:0:0:0:
136,296,36341,2,0,P|88:268|80:220,1,90,8|0,0:0|0:0,0:0:0:0:
60,132,36776,1,8,0:3:0:0:
112,40,36993,1,8,0:0:0:0:
112,40,37428,2,8,P|152:12|228:16,2,90,8|2|8,0:0|0:0|0:0,0:0:0:0:
92,148,38080,5,4,0:1:0:0:
180,285,38515,1,2,0:0:0:0:
180,285,38732,2,0,B|223:332|295:332|339:280,1,180
338,280,39385,1,2,0:0:0:0:
256,48,39819,5,4,0:1:0:0:
120,272,40689,5,8,0:0:0:0:
392,272,41559,5,8,0:0:0:0:
256,192,41667,12,2,44167,0:0:0:0:
72,84,48515,6,0,P|68:124|84:188,1,90,4|0,0:1|0:0,0:0:0:0:
172,128,48950,2,0,L|240:196,1,90
316,264,49385,1,2,0:0:0:0:
332,156,49602,2,0,P|356:108|396:84,2,90
316,264,50254,6,0,P|240:248|192:268,1,90,8|0,0:0|0:0,0:0:0:0:
148,312,50689,2,0,P|96:320|44:284,1,90
116,208,51124,1,2,0:0:0:0:
212,160,51341,1,0,0:0:0:0:
268,68,51559,1,0,0:0:0:0:
328,156,51776,1,0,0:0:0:0:
392,68,51993,6,0,P|428:112|432:168,1,90,8|0,0:0|0:0,0:0:0:0:
434,240,52428,2,0,P|422:283|392:316,1,90
328,228,52863,1,2,0:0:0:0:
220,240,53080,2,0,P|231:282|262:315,2,90
208,132,53732,6,0,P|184:88|140:60,1,90,8|0,0:0|0:0,0:0:0:0:
248,16,54167,2,0,P|260:68|304:104,1,90
387,127,54602,1,2,0:0:0:0:
460,204,54819,1,0,0:0:0:0:
356,228,55037,1,0,0:0:0:0:
396,328,55254,1,0,0:0:0:0:
268,276,55472,6,0,L|272:372,1,90,8|0,0:0|0:0,0:0:0:0:
180,252,55906,1,0,0:0:0:0:
152,356,56124,1,8,0:0:0:0:
72,284,56341,1,2,0:0:0:0:
44,180,56559,2,8,P|104:76|188:56,1,180
262,239,57428,2,0,P|326:319|418:327,2,180,0|8|0,0:0|0:0|0:0,0:0:0:0:
332,40,58732,1,8,0:0:0:0:
72,188,59602,5,0,0:0:0:0:
112,288,59819,1,2,0:0:0:0:
208,344,60037,1,0,0:0:0:0:
316,352,60254,1,0,0:0:0:0:
424,320,60472,5,8,0:3:0:0:
424,320,60906,1,8,0:3:0:0:
424,320,61341,1,8,0:3:0:0:
424,320,61769,5,0,3:0:0:0:
480,228,61983,1,0,3:0:0:0:
462,117,62198,1,0,3:0:0:0:
380,40,62428,6,0,P|340:16|288:12,1,90,4|0,0:1|0:0,0:0:0:0:
288,148,62863,2,0,P|268:180|216:216,1,90,2|0,0:0|0:0,0:0:0:0:
136,152,63298,1,0,0:0:0:0:
104,256,63515,1,0,0:0:0:0:
216,284,63732,2,0,P|268:292|308:324,1,90,2|0,0:0|0:0,0:0:0:0:
389,370,64167,1,8,0:0:0:0:
458,287,64385,1,0,0:0:0:0:
448,180,64602,2,0,P|428:120|372:92,1,90,2|0,0:0|0:0,0:0:0:0:
312,160,65037,2,0,P|328:205|322:265,2,90,0|0|2,0:0|0:0|0:0,0:0:0:0:
220,103,65689,1,0,0:0:0:0:
159,238,65906,6,0,P|134:280|91:309,1,90,4|0,0:1|0:0,0:0:0:0:
29,178,66341,2,0,P|51:136|109:102,1,90,2|0,0:0|0:0,0:0:0:0:
185,73,66776,1,0,0:0:0:0:
292,84,66993,1,0,0:0:0:0:
381,22,67211,2,0,P|432:24|487:70,1,90,2|0,0:0|0:0,0:0:0:0:
505,143,67646,1,8,0:0:0:0:
444,231,67863,1,0,0:0:0:0:
334,216,68080,2,0,L|325:321,1,90,2|0,0:0|0:0,0:0:0:0:
182,216,68515,2,0,L|191:317,2,90,0|0|2,0:0|0:0|0:0,0:0:0:0:
207,108,69167,1,0,0:0:0:0:
288,36,69385,6,0,P|348:24|408:44,1,90,8|0,0:0|0:0,0:0:0:0:
380,160,69819,1,2,0:0:0:0:
484,60,70037,1,0,0:0:0:0:
504,176,70254,2,0,P|488:240|444:276,1,90
383,317,70689,1,2,0:0:0:0:
314,234,70906,2,0,B|282:204|314:153|337:112|297:63,1,180,0|8,0:0|0:0,0:0:0:0:
212,126,71558,1,8,0:3:0:0:
106,139,71776,2,0,B|114:204|157:222|213:240|213:275,1,180,8|8,0:0|0:0,0:0:0:0:
152,363,72428,1,2,0:0:0:0:
53,317,72646,1,0,0:0:0:0:
57,209,72863,6,0,P|20:158|-25:148,1,90,8|0,0:0|0:0,0:0:0:0:
86,90,73298,2,0,P|107:53|161:37,1,90,2|0,0:0|0:0,0:0:0:0:
256,32,73732,1,0,0:0:0:0:
344,96,73950,1,0,0:0:0:0:
380,200,74167,1,2,0:0:0:0:
344,308,74385,5,8,0:3:0:0:
344,308,74819,1,8,0:3:0:0:
344,308,75254,1,8,0:3:0:0:
344,308,75682,5,0,3:0:0:0:
282,215,75896,1,0,3:0:0:0:
196,280,76111,1,0,3:0:0:0:
142,176,76341,1,8,0:0:0:0:
256,192,76450,12,2,78950,0:0:0:0:
144,88,81559,5,0,0:0:0:0:
324,80,81776,1,2,0:2:0:0:
360,244,82428,5,0,0:0:0:0:
184,300,82646,1,4,0:1:0:0:
256,168,83298,5,4,0:1:0:0:
156,48,83732,2,0,P|236:12|340:40,1,180,2|0,0:0|0:0,0:0:0:0:
422,85,84385,1,8,0:0:0:0:
484,180,84602,2,0,P|500:228|488:276,1,90,2|0,0:0|0:0,0:0:0:0:
348,280,85037,2,0,P|336:232|348:184,1,90,8|0,0:0|0:0,0:0:0:0:
360,84,85472,2,0,B|280:76|272:140|184:120,1,180,2|0,0:0|0:0,0:0:0:0:
92,68,86124,1,8,0:0:0:0:
68,176,86341,2,0,P|92:232|136:260,1,90,2|0,0:0|0:0,0:0:0:0:
236,328,86776,5,4,0:1:0:0:
240,332,87211,2,0,P|324:292|424:300,1,180,2|0,0:0|0:0,0:0:0:0:
512,336,87863,1,8,0:0:0:0:
488,232,88080,2,0,P|464:188|408:164,1,90,2|0,0:0|0:0,0:0:0:0:
308,232,88515,2,0,P|272:256|212:256,1,90,8|0,0:0|0:0,0:0:0:0:
120,240,88950,1,2,0:0:0:0:
52,156,89167,1,0,0:0:0:0:
80,48,89385,1,0,0:0:0:0:
180,96,89602,2,0,L|180:208,2,90,8|2|0,0:0|0:0|0:0,0:0:0:0:
320,52,90254,5,4,0:1:0:0:
320,52,90689,2,0,B|308:64|308:64|304:240,1,180,2|0,0:0|0:0,0:0:0:0:
404,188,91341,1,8,0:0:0:0:
304,226,91559,1,2,0:0:0:0:
207,177,91776,1,0,0:0:0:0:
60,195,91993,2,0,P|64:247|101:293,1,90,8|0,0:0|0:0,0:0:0:0:
180,328,92428,1,8,0:3:0:0:
284,292,92646,2,0,P|368:268|472:280,1,180,8|8,0:0|0:0,0:0:0:0:
488,172,93298,2,0,P|452:120|408:96,1,90,2|0,0:0|0:0,0:0:0:0:
288,56,93732,5,4,0:1:0:0:
288,56,94167,2,0,P|304:136|288:248,1,180,2|0,0:0|0:0,0:0:0:0:
240,328,94819,1,0,3:0:0:0:
136,356,95037,1,0,3:0:0:0:
44,331,95254,5,2,0:3:0:0:
44,331,95689,1,2,0:3:0:0:
44,331,96124,1,2,0:3:0:0:
44,331,96559,5,0,3:0:0:0:
152,324,96776,1,0,3:0:0:0:
232,252,96993,1,0,3:0:0:0:
284,156,97211,2,0,P|320:128|388:132,1,90,4|0,0:1|0:0,0:0:0:0:
212,100,97646,6,0,B|256:52|304:32|384:32,1,180,2|0,0:0|0:0,0:0:0:0:
476,60,98298,1,8,0:0:0:0:
376,104,98515,2,0,P|333:129|333:201,1,90,2|0,0:0|0:0,0:0:0:0:
408,236,98950,2,0,P|444:212|456:156,1,90,8|0,0:0|0:0,0:0:0:0:
376,104,99385,2,0,P|277:93|214:150,1,180,2|0,0:0|0:0,0:0:0:0:
168,237,100037,1,8,0:0:0:0:
93,315,100254,1,2,0:0:0:0:
55,213,100472,1,0,0:0:0:0:
204,148,100689,6,0,P|252:148|308:180,1,90,8|0,0:0|0:0,0:0:0:0:
380,224,101124,2,0,P|452:140|436:48,1,180,2|0,0:0|0:0,0:0:0:0:
343,115,101776,1,8,0:0:0:0:
228,23,101993,1,2,0:0:0:0:
228,23,102428,2,0,P|176:91|176:131,1,90,8|0,0:0|0:0,0:0:0:0:
99,15,102863,2,0,P|43:83|47:199,1,180,2|0,0:0|0:0,0:0:0:0:
72,274,103515,1,8,0:0:0:0:
37,171,103732,1,2,0:0:0:0:
72,274,103950,1,0,0:0:0:0:
221,228,104167,6,0,P|282:244|309:277,1,90,8|0,0:0|0:0,0:0:0:0:
340,363,104602,2,0,P|421:294|438:212,1,180,2|0,0:0|0:0,0:0:0:0:
462,121,105254,1,8,0:0:0:0:
438,225,105472,1,2,0:0:0:0:
438,225,105906,2,0,P|414:179|376:142,1,90,8|0,0:0|0:0,0:0:0:0:
300,83,106341,1,8,0:3:0:0:
192,52,106559,2,0,P|141:48|80:74,1,90,8|0,0:0|0:0,0:0:0:0:
20,124,106993,1,8,0:0:0:0:
116,172,107211,2,0,P|160:160|224:172,1,90,2|0,0:0|0:0,0:0:0:0:
308,188,107646,6,0,P|356:196|408:188,2,90,4|0|2,0:1|0:0|0:0,0:0:0:0:
260,92,108298,1,0,0:0:0:0:
232,304,108732,1,0,0:0:0:0:
232,304,108950,1,2,0:0:0:0:
256,48,109385,5,4,0:1:0:0:
120,272,110254,5,8,0:0:0:0:
392,272,111124,5,8,0:0:0:0:
256,192,111232,12,2,113732,0:0:0:0:
24,44,118080,6,0,P|20:84|52:124,1,90,4|0,0:1|0:0,0:0:0:0:
148,76,118515,2,0,P|192:56|252:76,1,90
316,132,118950,1,2,0:0:0:0:
404,72,119167,2,0,P|452:64|504:88,2,90
316,132,119819,6,0,L|344:228,1,90,8|0,0:0|0:0,0:0:0:0:
252,280,120254,2,0,L|223:186,1,90
128,152,120688,1,2,0:0:0:0:
64,236,120906,1,0,0:0:0:0:
120,328,121124,1,0,0:0:0:0:
220,292,121341,1,0,0:0:0:0:
284,204,121559,6,0,P|320:248|324:304,1,90,8|0,0:0|0:0,0:0:0:0:
433,240,121993,2,0,P|422:282|392:315,1,90
296,364,122428,1,2,0:0:0:0:
200,316,122646,2,0,P|169:283|157:240,2,90
228,192,123298,6,0,P|204:148|160:120,1,90,8|0,0:0|0:0,0:0:0:0:
268,72,123732,2,0,P|280:124|324:160,1,90
411,133,124167,1,2,0:0:0:0:
360,228,124385,1,0,0:0:0:0:
462,260,124602,1,0,0:0:0:0:
383,334,124819,1,0,0:0:0:0:
277,360,125037,6,0,L|265:267,1,90,8|0,0:0|0:0,0:0:0:0:
163,255,125472,1,0,0:0:0:0:
145,361,125689,1,8,0:0:0:0:
60,293,125906,1,2,0:0:0:0:
36,187,126124,2,8,P|96:83|180:63,1,180
362,45,126993,2,0,P|450:97|478:169,2,180,0|8|0,0:0|0:0|0:0,0:0:0:0:
252,231,128298,1,8,0:0:0:0:
460,208,129167,5,0,0:0:0:0:
404,300,129385,1,2,0:0:0:0:
304,344,129602,1,0,0:0:0:0:
196,352,129819,1,0,0:0:0:0:
88,320,130037,5,8,0:3:0:0:
88,320,130472,1,8,0:3:0:0:
88,320,130906,1,8,0:3:0:0:
88,320,131334,5,0,3:0:0:0:
32,228,131548,1,0,3:0:0:0:
52,116,131763,1,0,3:0:0:0:
132,40,131993,6,0,P|172:16|224:12,1,90,4|0,0:1|0:0,0:0:0:0:
256,112,132428,2,0,P|248:156|200:192,1,90,2|0,0:0|0:0,0:0:0:0:
132,252,132863,1,0,0:0:0:0:
200,336,133080,1,0,0:0:0:0:
308,336,133298,2,0,P|356:328|396:268,1,90,2|0,0:0|0:0,0:0:0:0:
256,240,133732,1,8,0:0:0:0:
312,144,133950,1,0,0:0:0:0:
256,52,134167,1,2,0:0:0:0:
200,144,134385,1,0,0:0:0:0:
355,91,134602,2,0,P|400:94|440:114,1,90
155,91,135037,2,0,P|110:94|70:114,1,90,2|0,0:0|0:0,0:0:0:0:
256,160,135472,6,0,L|260:268,1,90,4|0,0:1|0:0,0:0:0:0:
204,344,135906,1,2,0:0:0:0:
312,344,136124,1,0,0:0:0:0:
152,248,136341,2,0,L|144:144,1,90
360,248,136776,2,0,L|368:144,1,90,2|0,0:0|0:0,0:0:0:0:
256,72,137211,1,8,0:0:0:0:
256,72,137428,1,0,0:0:0:0:
256,180,137646,1,2,0:0:0:0:
204,272,137863,1,0,0:0:0:0:
308,272,138080,2,0,P|360:272|388:240,1,90
204,272,138515,2,0,P|152:272|124:240,1,90,2|0,0:0|0:0,0:0:0:0:
20,268,138950,5,8,0:0:0:0:
48,164,139167,1,0,0:0:0:0:
28,56,139385,2,0,P|88:16|128:20,1,90,2|0,0:0|0:0,0:0:0:0:
196,72,139819,1,0,0:0:0:0:
256,164,140037,1,0,0:0:0:0:
257,274,140254,1,2,0:0:0:0:
365,265,140472,2,0,B|380:207|350:182|307:141|308:94,1,180,0|8,0:0|0:0,0:0:0:0:
257,197,141123,1,8,0:3:0:0:
203,101,141341,2,0,B|207:137|169:173|131:201|147:265,1,180,8|8,0:0|0:0,0:0:0:0:
312,316,141993,1,2,0:0:0:0:
204,316,142211,1,0,0:0:0:0:
256,220,142428,6,0,L|256:116,1,90,8|0,0:0|0:0,0:0:0:0:
152,160,142863,2,0,P|120:128|112:64,1,90,2|0,0:0|0:0,0:0:0:0:
204,36,143298,1,0,0:0:0:0:
312,44,143515,1,0,0:0:0:0:
400,108,143732,1,2,0:0:0:0:
452,204,143950,5,8,0:3:0:0:
452,204,144385,1,8,0:3:0:0:
452,204,144819,1,8,0:3:0:0:
452,204,145247,5,0,3:0:0:0:
420,308,145461,1,0,3:0:0:0:
333,239,145676,1,0,3:0:0:0:
285,347,145906,1,8,0:0:0:0:
256,192,146015,12,2,148515,0:0:0:0:
256,64,149385,5,0,0:0:0:0:
256,332,150037,1,0,0:0:0:0:
256,332,150254,1,2,0:0:0:0:
183,83,151124,5,0,0:0:0:0:
320,64,151341,1,8,0:2:0:0:
328,292,151993,5,0,0:0:0:0:
191,311,152211,1,4,0:1:0:0:
256,168,152863,5,4,0:1:0:0:
