osu file format v14

[General]
AudioFilename: Hunter Vega - The Home That We Once Knew (Title Theme).mp3
AudioLeadIn: 0
PreviewTime: 62305
Countdown: 0
SampleSet: Soft
StackLeniency: 0.5
Mode: 0
LetterboxInBreaks: 0
WidescreenStoryboard: 1

[Editor]
Bookmarks: 27639,41552,62421,76334,83291,97204,111117,131986,145899,152856
DistanceSpacing: 0.8
BeatDivisor: 4
GridSize: 4
TimelineZoom: 1

[Metadata]
Title:The Home That We Once Knew
TitleUnicode:The Home That We Once Knew
Artist:Pablo Vega
ArtistUnicode:Pablo Vega
Creator:ego_17
Version:Easy
Source:Bionic Dues
Tags:soundtrack video game ost Hunter Vega
BeatmapID:1616494
BeatmapSetID:768634

[Difficulty]
HPDrainRate:2
CircleSize:2.5
OverallDifficulty:2
ApproachRate:2
SliderMultiplier:1.2
SliderTickRate:1

[Events]
//Background and Video events
0,0,"MainMenu.png",0,0
//Break Periods
2,44367,46955
2,79150,79999
2,113932,116520
2,148715,149564
//Storyboard Layer 0 (Background)
//Storyboard Layer 1 (Fail)
//Storyboard Layer 2 (Pass)
//Storyboard Layer 3 (Foreground)
Sprite,Foreground,Centre,"ScienceEpic.png",320,240 M,1,13017,13943,813,340,480,348 S,0,13017,13943,0.29,0.38 M,0,13943,169277,480,348
Sprite,Foreground,Centre,"ScienceEpic.png",480,348 T,HitSoundFinish,13943,154595 F,0,0,450,0.7,0 S,0,0,450,0.38,0.5
Sprite,Foreground,Centre,"ScienceEpic.png",480,348 T,HitSoundClap,74269,76440 F,0,0,450,0.7,0 S,0,0,450,0.38,0.5
Sprite,Foreground,Centre,"ScienceEpic.png",480,348 T,HitSoundClap,143725,146117 F,0,0,450,0.7,0 S,0,0,450,0.38,0.5
//Storyboard Sound Samples

[TimingPoints]
13733,434.782608695652,4,2,1,85,1,0
48298,-100,4,2,1,65,0,0
60472,-100,4,2,1,85,0,0
61341,428.571428571429,4,2,1,85,1,0
62428,434.782608695652,4,2,1,85,1,1
75254,428.571428571429,4,2,1,85,1,1
76341,434.782608695652,4,2,1,85,1,0
81559,-100,4,2,0,85,0,0
81993,-100,4,2,1,85,0,0
117863,-100,4,2,1,65,0,0
130037,-100,4,2,1,85,0,0
130906,428.571428571429,4,2,1,85,1,0
131993,434.782608695652,4,2,1,85,1,1
144819,428.571428571429,4,2,1,85,1,1
145906,434.782608695652,4,2,1,50,1,0

[Colours]
Combo1 : 192,192,192
Combo2 : 128,255,255
Combo3 : 18,124,255
Combo4 : 244,66,92

[HitObjects]
76,179,13733,6,0,P|93:123|144:96,1,120,4|2,0:1|0:0,0:0:0:0:
174,188,14602,2,0,B|178:244|178:244|209:300,1,120,2|2,0:0|0:0,0:0:0:0:
303,300,15472,2,0,B|334:244|334:244|338:188,1,120,8|2,0:0|0:0,0:0:0:0:
367,96,16341,2,0,P|418:123|435:180,1,120,0|2,0:0|0:0,0:0:0:0:
408,272,17211,5,4,0:1:0:0:
316,304,17646,2,0,P|256:316|192:303,1,120,2|0,0:0|0:0,0:0:0:0:
116,260,18515,1,2,0:0:0:0:
48,190,18950,2,0,B|44:114|44:114|60:70,1,120,8|2,0:0|0:0,0:0:0:0:
152,50,19819,2,0,B|159:125|159:125|140:167,1,120,0|2,0:0|0:0,0:0:0:0:
194,246,20689,6,0,B|208:290|208:290|208:374,1,120,4|2,0:1|0:0,0:0:0:0:
304,363,21559,2,0,B|304:290|304:290|318:246,1,120,0|2,0:0|0:0,0:0:0:0:
257,170,22428,1,8,0:0:0:0:
257,73,22863,2,0,B|289:41|289:41|377:33,1,120,8|0,0:3|0:0,0:0:0:0:
460,44,23732,1,2,0:0:0:0:
491,134,24167,6,0,B|403:166|464:243|374:288,1,180,4|0,0:1|0:0,0:0:0:0:
300,297,25254,1,0,3:0:0:0:
324,204,25689,2,8,P|279:168|211:188,1,120,8|8,0:3|0:3,0:3:0:0:
162,255,26559,2,0,B|96:210|151:145|80:101,1,180,8|0,0:3|3:0,0:0:0:0:
25,179,27646,1,4,0:1:0:0:
52,270,28080,6,0,P|91:321|149:349,1,120,2|0,0:0|0:0,0:0:0:0:
229,311,28950,2,0,B|256:262|235:174,1,120,2|8,0:0|0:0,0:0:0:0:
227,98,29819,1,2,0:0:0:0:
322,89,30254,2,0,P|388:113|429:161,1,120,0|2,0:0|0:0,0:0:0:0:
427,244,31124,6,0,B|339:232|297:344|180:294,1,240,8|0,0:0|0:0,0:0:0:0:
119,250,32428,1,2,0:0:0:0:
148,158,32863,2,0,B|205:68|298:124|320:60,2,180,8|0|2,0:0|0:0|0:0,0:0:0:0:
179,249,34602,6,0,P|243:262|310:244,1,120,8|2,0:0|0:0,0:0:0:0:
384,208,35472,1,0,0:0:0:0:
472,164,35906,1,2,0:0:0:0:
432,76,36341,2,0,B|328:116|292:-4|192:28,1,240,8|0,0:0|0:0,0:0:0:0:
136,88,37646,1,2,0:0:0:0:
220,132,38080,6,0,L|300:364,1,240,4|0,0:1|0:0,0:0:0:0:
204,356,39385,1,2,0:0:0:0:
168,268,39819,2,0,L|48:312,1,120,4|2,0:1|0:0,0:0:0:0:
24,220,40689,2,0,L|141:179,1,120,8|2,0:0|0:0,0:0:0:0:
256,192,41559,12,2,44167,0:0:0:0:
37,123,48515,6,0,P|118:133|152:174,1,120,4|0,0:1|0:1,0:1:0:0:
198,240,49385,2,0,P|274:215|308:169,1,120,2|0,0:0|0:0,0:0:0:0:
338,99,50254,2,0,P|395:142|391:312,1,240,8|2,0:0|0:0,0:0:0:0:
316,341,51559,1,0,0:0:0:0:
223,346,51993,6,0,P|151:254|177:141,1,240,8|2,0:0|0:0,0:0:0:0:
240,68,53298,1,0,0:0:0:0:
156,24,53732,2,0,P|92:32|44:80,1,120,8|0,0:0|0:0,0:0:0:0:
104,148,54602,2,0,P|128:204|94:261,1,120,2|0,0:0|0:0,0:0:0:0:
48,333,55472,6,0,B|104:381|224:382|280:321,1,240,8|2,0:0|0:0,0:0:0:0:
210,255,56776,2,0,P|155:196|179:93,2,180,0|0|2,0:0|0:0|0:0,0:0:0:0:
302,228,58515,1,0,0:0:0:0:
391,263,58950,6,0,P|465:124|381:26,1,300,8|0,0:0|0:0,0:0:0:0:
311,89,60472,2,8,L|312:217,1,120,8|8,0:3|0:3,0:3:0:0:
311,304,61341,2,0,P|252:304|176:212,1,180,8|0,0:3|3:0,0:0:0:0:
170,121,62428,6,0,P|155:67|82:33,1,120,4|2,0:1|0:0,0:0:0:0:
25,91,63298,2,0,P|47:153|116:177,1,120,0|2,0:0|0:0,0:0:0:0:
184,202,64167,1,8,0:0:0:0:
256,265,64602,1,2,0:0:0:0:
345,229,65037,2,0,L|317:89,1,120,0|2,0:0|0:0,0:0:0:0:
412,81,65906,5,4,0:1:0:0:
466,160,66341,1,2,0:0:0:0:
472,256,66775,2,0,P|444:316|376:348,1,120,0|2,0:0|0:0,0:0:0:0:
308,312,67646,2,0,P|316:252|288:192,1,120,8|2,0:0|0:0,0:0:0:0:
212,248,68515,2,0,L|116:328,1,120,0|2,0:0|0:0,0:0:0:0:
48,260,69385,6,0,P|56:152|108:91,1,180,8|0,0:0|0:0,0:0:0:0:
184,140,70472,1,0,0:0:0:0:
208,232,70906,2,0,P|192:296|216:356,1,120,0|0,0:0|0:0,0:0:0:0:
304,345,71776,2,0,P|320:288|304:231,1,120,8|8,0:0|0:0,0:0:0:0:
280,88,72863,6,0,B|336:76|336:76|424:88,1,120,8|2,0:0|0:0,0:0:0:0:
413,181,73732,2,0,L|289:237,1,120,0|2,0:0|0:0,0:0:0:0:
208,230,74602,2,0,L|99:181,1,120,0|0,0:0|0:0,0:0:0:0:
113,84,75468,2,0,B|176:76|176:76|235:89,1,120,0|0,0:0|3:0,0:0:0:0:
256,192,76341,12,2,78950,0:0:0:0:
252,40,81559,6,0,L|238:110,1,60,0|2,0:0|0:2,0:0:0:0:
381,104,82428,2,0,L|369:170,1,60,0|4,0:0|0:1,0:0:0:0:
464,274,83298,6,0,P|442:325|378:359,1,120,4|2,0:1|0:0,0:0:0:0:
291,341,84167,2,0,B|234:302|249:227,1,120,0|2,0:0|0:0,0:0:0:0:
268,144,85037,2,0,B|284:78|220:42,1,120,8|2,0:0|0:0,0:0:0:0:
128,28,85906,2,0,P|76:55|54:110,1,120,0|2,0:0|0:0,0:0:0:0:
104,192,86776,5,4,0:1:0:0:
200,212,87211,2,0,L|336:212,1,120,2|0,0:0|0:0,0:0:0:0:
412,180,88080,1,2,0:0:0:0:
336,124,88515,2,0,L|216:124,1,120,8|2,0:0|0:0,0:0:0:0:
134,76,89385,2,0,P|173:31|230:16,1,120,0|2,0:0|0:0,0:0:0:0:
327,17,90254,6,0,P|391:37|431:97,1,120,4|2,0:1|0:0,0:0:0:0:
423,172,91124,2,0,B|367:208|367:208|339:260,1,120,0|2,0:0|0:0,0:0:0:0:
276,328,91993,1,8,0:0:0:0:
212,256,92428,2,0,B|186:208|186:208|130:172,1,120,8|0,0:3|0:0,0:0:0:0:
48,124,93297,1,2,0:0:0:0:
31,218,93732,6,0,B|59:274|123:282|123:282|159:350,1,180,4|0,0:1|0:0,0:0:0:0:
246,319,94819,1,0,3:0:0:0:
244,224,95254,2,8,L|244:92,1,120,8|8,0:3|0:3,0:3:0:0:
325,50,96124,2,0,B|355:105|355:105|439:121|451:182,1,180,8|0,0:3|3:0,0:0:0:0:
456,264,97211,1,4,0:1:0:0:
419,352,97645,6,0,P|367:368|299:352,1,120,2|0,0:0|0:0,0:0:0:0:
206,353,98515,2,0,B|146:378|90:350,1,120,2|8,0:0|0:0,0:0:0:0:
40,268,99384,1,2,0:0:0:0:
56,172,99819,2,0,P|88:112|152:84,1,120,0|2,0:0|0:0,0:0:0:0:
224,64,100689,6,0,B|264:152|188:208|229:298,1,240,8|0,0:0|0:0,0:0:0:0:
316,344,101993,1,2,0:0:0:0:
400,300,102428,2,0,B|441:226|372:152|401:98,2,180,8|0|2,0:0|0:0|0:0,0:0:0:0:
316,344,104167,6,0,P|252:344|204:304,1,120,8|2,0:0|0:0,0:0:0:0:
200,216,105037,1,0,0:0:0:0:
196,120,105471,1,2,0:0:0:0:
101,107,105906,2,0,B|20:185|114:268|43:345,1,240,8|0,0:0|0:0,0:0:0:0:
148,356,107211,1,2,0:0:0:0:
236,316,107645,6,0,L|236:64,1,240,4|0,0:1|0:0,0:0:0:0:
324,40,108950,1,2,0:0:0:0:
348,132,109384,2,0,L|468:88,1,120,4|2,0:1|0:0,0:0:0:0:
492,180,110254,2,0,L|375:221,1,120,8|2,0:0|0:0,0:0:0:0:
256,192,111124,12,2,113732,0:0:0:0:
80,116,118080,6,0,P|141:118|201:82,1,120,4|0,0:1|0:0,0:0:0:0:
257,162,118950,2,0,L|257:294,1,120,2|0,0:0|0:0,0:0:0:0:
313,358,119819,2,0,P|370:315|366:145,1,240,8|2,0:0|0:0,0:0:0:0:
301,94,121124,1,0,0:0:0:0:
205,106,121558,6,0,P|133:198|159:311,1,240,8|2,0:0|0:0,0:0:0:0:
237,366,122863,1,0,0:0:0:0:
332,345,123297,2,0,L|465:305,1,120,8|0,0:0|0:0,0:0:0:0:
462,212,124167,2,0,L|334:248,1,120,2|0,0:0|0:0,0:0:0:0:
256,276,125037,6,0,B|220:200|316:136|260:28,1,240,8|2,0:0|0:0,0:0:0:0:
172,24,126341,2,0,P|74:95|64:160,2,180,0|0|2,0:0|0:0|0:0,0:0:0:0:
256,68,128080,1,0,0:0:0:0:
340,24,128515,6,0,P|448:128|424:264,1,300,8|0,0:0|0:0,0:0:0:0:
328,256,130037,2,8,L|276:144,1,120,8|8,0:3|0:3,0:3:0:0:
188,108,130906,2,0,P|140:192|167:272,1,180,8|0,0:3|3:0,0:0:0:0:
224,340,131993,6,0,P|288:348|352:312,1,120,4|2,0:1|0:0,0:0:0:0:
352,229,132863,2,0,P|328:173|344:108,1,120,0|2,0:0|0:0,0:0:0:0:
419,64,133732,1,8,0:0:0:0:
500,116,134167,1,2,0:0:0:0:
476,208,134602,2,0,L|436:332,1,120,0|2,0:0|0:0,0:0:0:0:
344,340,135471,5,4,0:1:0:0:
256,300,135906,1,2,0:0:0:0:
160,316,136340,2,0,B|108:328|108:328|36:296,1,120,0|2,0:0|0:0,0:0:0:0:
32,204,137211,2,0,B|76:160|76:160|144:148,1,120,8|2,0:0|0:0,0:0:0:0:
200,220,138080,2,0,P|272:236|316:216,1,120,0|2,0:0|0:0,0:0:0:0:
256,138,138950,6,0,B|252:76|320:28|384:56,1,180,8|0,0:0|0:0,0:0:0:0:
472,88,140037,1,0,0:0:0:0:
432,176,140471,2,0,L|376:288,1,120,0|0,0:0|0:0,0:0:0:0:
316,356,141341,2,0,B|272:368|272:368|240:368|240:368|195:353,1,120,8|8,0:0|0:0,0:0:0:0:
140,224,142428,6,0,L|12:168,1,120,8|2,0:0|0:0,0:0:0:0:
92,104,143297,2,0,B|144:104|144:104|168:92|168:92|228:92,1,120,0|2,0:0|0:0,0:0:0:0:
304,92,144167,2,0,B|345:92|345:92|369:104|369:104|421:104,1,120,0|0,0:0|0:0,0:0:0:0:
483,175,145033,2,0,L|369:225,1,120,0|0,0:0|3:0,0:0:0:0:
256,192,145906,12,2,148515,0:0:0:0:
184,144,151124,6,0,L|184:212,1,60,0|8,0:0|0:2,0:0:0:0:
320,160,151993,2,0,L|320:228,1,60,0|4,0:0|0:1,0:0:0:0:
252,348,152863,5,4,0:1:0:0:
