osu file format v14

[General]
AudioFilename: audio.mp3
AudioLeadIn: 0
PreviewTime: -1
Countdown: 0
SampleSet: Normal
StackLeniency: 0.7
Mode: 3
LetterboxInBreaks: 0
SpecialStyle: 0
WidescreenStoryboard: 0

[Editor]
Bookmarks: 29770,65857,94727,109162,138032,145250,159685,174120
DistanceSpacing: 1.1
BeatDivisor: 8
GridSize: 4
TimelineZoom: 1.4

[Metadata]
Title:Feel The Sun
TitleUnicode:Feel The Sun
Artist:Pablo J & The Lobsterettes
ArtistUnicode:Pablo J & The Lobsterettes
Creator:Azubeur
Version:S U N S H I N E
Source:
Tags:
BeatmapID:1697445
BeatmapSetID:808919

[Difficulty]
HPDrainRate:7
CircleSize:4
OverallDifficulty:6
ApproachRate:5
SliderMultiplier:1.4
SliderTickRate:1

[Events]
//Background and Video events
0,0,"wallhaven-492451.jpg",0,0
//Break Periods
//Storyboard Layer 0 (Background)
//Storyboard Layer 1 (Fail)
//Storyboard Layer 2 (Pass)
//Storyboard Layer 3 (Foreground)
//Storyboard Sound Samples

[TimingPoints]
900,451.093902714082,4,1,0,0,1,0
49505,-1000,4,1,0,0,0,0
51196,-71.4285714285714,4,1,0,0,0,0
51309,-80,4,1,0,0,0,0
51422,-100,4,1,0,0,0,0
65406,-66.6666666666667,4,1,0,0,0,0
65519,-1000,4,1,0,0,0,0
65744,-117.647058823529,4,1,0,0,0,0
65857,-100,4,1,0,0,0,0
92923,-83.3333333333333,4,1,0,0,0,0
93035,-133.333333333333,4,1,0,0,0,0
93148,-83.3333333333333,4,1,0,0,0,0
93261,-133.333333333333,4,1,0,0,0,0
93374,-83.3333333333333,4,1,0,0,0,0
93487,-133.333333333333,4,1,0,0,0,0
93599,-83.3333333333333,4,1,0,0,0,0
93712,-100,4,1,0,0,0,0
93825,-83.3333333333333,4,1,0,0,0,0
94050,-133.333333333333,4,1,0,0,0,0
94276,-83.3333333333333,4,1,0,0,0,0
94389,-133.333333333333,4,1,0,0,0,0
94501,-66.6666666666667,4,1,0,0,0,0
94614,-1000,4,1,0,0,0,0
94727,-100,4,1,0,0,0,0
108711,-83.3333333333333,4,1,0,0,0,0
109049,-1000,4,1,0,0,0,0
109087,-66.6666666666667,4,1,0,0,0,0
109124,-1000,4,1,0,0,0,0
109162,-100,4,1,0,0,0,0
138032,-105.263157894737,4,1,0,0,0,0
138258,-111.111111111111,4,1,0,0,0,0
138483,-117.647058823529,4,1,0,0,0,0
144347,-111.111111111111,4,1,0,0,0,0
144573,-105.263157894737,4,1,0,0,0,0
144798,-86.9565217391304,4,1,0,0,0,0
145137,-83.3333333333333,4,1,0,0,0,0
145193,-333.333333333333,4,1,0,0,0,0
145250,-100,4,1,0,0,0,0
173668,-125,4,1,0,0,0,0
175473,-1000,4,1,0,0,0,0
175529,-66.6666666666667,4,1,0,0,0,0
175586,-100,4,1,0,0,0,0
175698,-1000,4,1,0,0,0,0
175755,-66.6666666666667,4,1,0,0,0,0
175811,-1000,4,1,0,0,0,0
175868,-66.6666666666667,4,1,0,0,0,0
175924,-100,4,1,0,0,0,0

[HitObjects]
320,192,900,128,0,1351:0:0:0:0:
192,192,900,1,0,0:0:0:0:
64,192,1125,1,0,0:0:0:0:
64,192,1351,1,0,0:0:0:0:
192,192,1351,1,0,0:0:0:0:
448,192,1576,128,0,1689:0:0:0:0:
192,192,1576,1,0,0:0:0:0:
64,192,1689,1,0,0:0:0:0:
448,192,1802,1,0,0:0:0:0:
320,192,1802,128,0,2027:0:0:0:0:
192,192,1802,1,0,0:0:0:0:
448,192,2027,128,0,2253:0:0:0:0:
192,192,2027,1,0,0:0:0:0:
64,192,2253,1,0,0:0:0:0:
320,192,2253,1,0,0:0:0:0:
192,192,2478,1,0,0:0:0:0:
320,192,2591,1,0,0:0:0:0:
64,192,2704,1,0,0:0:0:0:
448,192,2704,1,0,0:0:0:0:
448,192,2817,1,0,0:0:0:0:
192,192,2929,1,0,0:0:0:0:
192,192,3155,1,0,0:0:0:0:
448,192,3155,1,0,0:0:0:0:
320,192,3268,1,0,0:0:0:0:
64,192,3268,1,0,0:0:0:0:
448,192,3381,1,0,0:0:0:0:
64,192,3493,1,0,0:0:0:0:
192,192,3606,1,0,0:0:0:0:
320,192,3606,1,0,0:0:0:0:
320,192,3832,1,0,0:0:0:0:
64,192,3832,1,0,0:0:0:0:
320,192,3944,1,0,0:0:0:0:
192,192,4057,1,0,0:0:0:0:
448,192,4170,1,0,0:0:0:0:
64,192,4283,1,0,0:0:0:0:
320,192,4283,1,0,0:0:0:0:
192,192,4395,1,0,0:0:0:0:
320,192,4508,128,0,4959:0:0:0:0:
64,192,4508,1,0,0:0:0:0:
448,192,4734,1,0,0:0:0:0:
64,192,4959,1,0,0:0:0:0:
448,192,4959,1,0,0:0:0:0:
320,192,5185,1,0,0:0:0:0:
192,192,5185,128,0,5298:0:0:0:0:
448,192,5298,1,0,0:0:0:0:
192,192,5410,1,0,0:0:0:0:
64,192,5410,128,0,5636:0:0:0:0:
320,192,5410,1,0,0:0:0:0:
192,192,5636,128,0,5862:0:0:0:0:
320,192,5636,1,0,0:0:0:0:
64,192,5862,1,0,0:0:0:0:
448,192,5862,1,0,0:0:0:0:
192,192,6087,1,0,0:0:0:0:
320,192,6200,1,0,0:0:0:0:
64,192,6313,1,0,0:0:0:0:
192,192,6313,1,0,0:0:0:0:
64,192,6425,1,0,0:0:0:0:
448,192,6538,1,0,0:0:0:0:
192,192,6764,1,0,0:0:0:0:
448,192,6764,1,0,0:0:0:0:
320,192,6876,1,0,0:0:0:0:
64,192,6876,1,0,0:0:0:0:
448,192,7102,1,0,0:0:0:0:
192,192,7215,1,0,0:0:0:0:
64,192,7252,1,0,0:0:0:0:
192,192,7440,1,0,0:0:0:0:
320,192,7478,1,0,0:0:0:0:
64,192,7666,1,0,0:0:0:0:
320,192,7703,1,0,0:0:0:0:
64,192,7891,1,0,0:0:0:0:
448,192,7891,1,0,0:0:0:0:
192,192,8004,1,0,0:0:0:0:
320,192,8117,128,0,8568:0:0:0:0:
448,192,8117,1,0,0:0:0:0:
192,192,8343,1,0,0:0:0:0:
192,192,8568,1,0,0:0:0:0:
448,192,8568,1,0,0:0:0:0:
320,192,8794,1,0,0:0:0:0:
64,192,8794,128,0,8906:0:0:0:0:
448,192,8906,1,0,0:0:0:0:
64,192,9019,1,0,0:0:0:0:
192,192,9019,128,0,9245:0:0:0:0:
320,192,9019,1,0,0:0:0:0:
64,192,9245,128,0,9470:0:0:0:0:
320,192,9245,1,0,0:0:0:0:
448,192,9470,1,0,0:0:0:0:
192,192,9470,1,0,0:0:0:0:
320,192,9696,1,0,0:0:0:0:
192,192,9809,1,0,0:0:0:0:
448,192,9921,1,0,0:0:0:0:
64,192,9921,1,0,0:0:0:0:
64,192,10034,1,0,0:0:0:0:
448,192,10147,1,0,0:0:0:0:
64,192,10372,1,0,0:0:0:0:
448,192,10372,1,0,0:0:0:0:
320,192,10485,1,0,0:0:0:0:
192,192,10485,1,0,0:0:0:0:
64,192,10598,1,0,0:0:0:0:
448,192,10711,1,0,0:0:0:0:
192,192,10824,1,0,0:0:0:0:
64,192,10824,1,0,0:0:0:0:
320,192,10936,1,0,0:0:0:0:
192,192,11049,1,0,0:0:0:0:
448,192,11049,1,0,0:0:0:0:
192,192,11275,1,0,0:0:0:0:
320,192,11275,1,0,0:0:0:0:
320,192,11387,1,0,0:0:0:0:
64,192,11500,1,0,0:0:0:0:
448,192,11613,1,0,0:0:0:0:
192,192,11726,128,0,12177:0:0:0:0:
320,192,11726,1,0,0:0:0:0:
64,192,11951,1,0,0:0:0:0:
64,192,12177,1,0,0:0:0:0:
320,192,12177,1,0,0:0:0:0:
448,192,12290,1,0,0:0:0:0:
320,192,12402,128,0,12515:0:0:0:0:
192,192,12402,1,0,0:0:0:0:
64,192,12515,1,0,0:0:0:0:
320,192,12628,1,0,0:0:0:0:
448,192,12628,128,0,12853:0:0:0:0:
192,192,12628,1,0,0:0:0:0:
320,192,12853,128,0,13079:0:0:0:0:
192,192,12853,1,0,0:0:0:0:
448,192,13079,1,0,0:0:0:0:
64,192,13079,1,0,0:0:0:0:
320,192,13305,1,0,0:0:0:0:
448,192,13417,1,0,0:0:0:0:
64,192,13530,1,0,0:0:0:0:
320,192,13530,1,0,0:0:0:0:
64,192,13643,1,0,0:0:0:0:
192,192,13756,1,0,0:0:0:0:
192,192,13981,1,0,0:0:0:0:
448,192,13981,1,0,0:0:0:0:
320,192,14094,1,0,0:0:0:0:
64,192,14094,1,0,0:0:0:0:
192,192,14207,1,0,0:0:0:0:
64,192,14320,1,0,0:0:0:0:
320,192,14432,1,0,0:0:0:0:
448,192,14470,1,0,0:0:0:0:
64,192,14658,1,0,0:0:0:0:
320,192,14695,1,0,0:0:0:0:
192,192,14883,1,0,0:0:0:0:
64,192,14921,1,0,0:0:0:0:
192,192,15109,1,0,0:0:0:0:
320,192,15109,1,0,0:0:0:0:
320,192,15222,1,0,0:0:0:0:
64,192,15335,128,0,15786:0:0:0:0:
192,192,15335,1,0,0:0:0:0:
320,192,15560,1,0,0:0:0:0:
320,192,15786,1,0,0:0:0:0:
448,192,15786,1,0,0:0:0:0:
64,192,16011,1,0,0:0:0:0:
192,192,16011,128,0,16124:0:0:0:0:
448,192,16124,1,0,0:0:0:0:
192,192,16237,1,0,0:0:0:0:
320,192,16237,128,0,16462:0:0:0:0:
64,192,16237,1,0,0:0:0:0:
192,192,16462,128,0,16688:0:0:0:0:
64,192,16462,1,0,0:0:0:0:
320,192,16688,1,0,0:0:0:0:
448,192,16688,1,0,0:0:0:0:
192,192,16913,1,0,0:0:0:0:
320,192,17026,1,0,0:0:0:0:
448,192,17139,1,0,0:0:0:0:
192,192,17139,1,0,0:0:0:0:
448,192,17252,1,0,0:0:0:0:
64,192,17364,1,0,0:0:0:0:
64,192,17590,1,0,0:0:0:0:
320,192,17590,1,0,0:0:0:0:
192,192,17703,1,0,0:0:0:0:
448,192,17703,1,0,0:0:0:0:
320,192,17816,1,0,0:0:0:0:
64,192,17928,1,0,0:0:0:0:
192,192,18041,1,0,0:0:0:0:
320,192,18041,1,0,0:0:0:0:
64,192,18154,1,0,0:0:0:0:
320,192,18267,1,0,0:0:0:0:
448,192,18267,1,0,0:0:0:0:
192,192,18492,1,0,0:0:0:0:
448,192,18492,1,0,0:0:0:0:
448,192,18605,1,0,0:0:0:0:
320,192,18718,1,0,0:0:0:0:
192,192,18830,1,0,0:0:0:0:
448,192,18943,128,0,19394:0:0:0:0:
64,192,18943,1,0,0:0:0:0:
192,192,19169,1,0,0:0:0:0:
192,192,19394,1,0,0:0:0:0:
320,192,19394,1,0,0:0:0:0:
448,192,19620,1,0,0:0:0:0:
64,192,19620,128,0,19733:0:0:0:0:
192,192,19733,1,0,0:0:0:0:
64,192,19845,1,0,0:0:0:0:
320,192,19845,128,0,20071:0:0:0:0:
448,192,19845,1,0,0:0:0:0:
64,192,20071,128,0,20297:0:0:0:0:
448,192,20071,1,0,0:0:0:0:
192,192,20297,1,0,0:0:0:0:
320,192,20297,1,0,0:0:0:0:
448,192,20522,1,0,0:0:0:0:
64,192,20635,1,0,0:0:0:0:
320,192,20748,1,0,0:0:0:0:
192,192,20748,1,0,0:0:0:0:
192,192,20860,1,0,0:0:0:0:
448,192,20973,1,0,0:0:0:0:
192,192,21199,1,0,0:0:0:0:
448,192,21199,1,0,0:0:0:0:
320,192,21311,1,0,0:0:0:0:
64,192,21311,1,0,0:0:0:0:
192,192,21537,1,0,0:0:0:0:
448,192,21650,1,0,0:0:0:0:
64,192,21687,1,0,0:0:0:0:
320,192,21875,1,0,0:0:0:0:
448,192,21913,1,0,0:0:0:0:
192,192,22101,1,0,0:0:0:0:
320,192,22139,1,0,0:0:0:0:
192,192,22326,1,0,0:0:0:0:
448,192,22326,1,0,0:0:0:0:
320,192,22439,1,0,0:0:0:0:
64,192,22552,128,0,23003:0:0:0:0:
448,192,22552,1,0,0:0:0:0:
320,192,22778,1,0,0:0:0:0:
192,192,23003,1,0,0:0:0:0:
320,192,23003,1,0,0:0:0:0:
64,192,23229,1,0,0:0:0:0:
448,192,23229,128,0,23341:0:0:0:0:
320,192,23341,1,0,0:0:0:0:
448,192,23454,1,0,0:0:0:0:
192,192,23454,128,0,23680:0:0:0:0:
64,192,23454,1,0,0:0:0:0:
448,192,23680,128,0,23905:0:0:0:0:
64,192,23680,1,0,0:0:0:0:
192,192,23905,1,0,0:0:0:0:
320,192,23905,1,0,0:0:0:0:
320,192,24131,1,0,0:0:0:0:
192,192,24244,1,0,0:0:0:0:
320,192,24356,1,0,0:0:0:0:
64,192,24356,1,0,0:0:0:0:
64,192,24469,1,0,0:0:0:0:
192,192,24582,1,0,0:0:0:0:
192,192,24807,1,0,0:0:0:0:
320,192,24807,1,0,0:0:0:0:
64,192,24920,1,0,0:0:0:0:
448,192,24920,1,0,0:0:0:0:
320,192,25033,1,0,0:0:0:0:
64,192,25146,1,0,0:0:0:0:
192,192,25259,1,0,0:0:0:0:
448,192,25259,1,0,0:0:0:0:
320,192,25484,1,0,0:0:0:0:
64,192,25484,1,0,0:0:0:0:
320,192,25597,1,0,0:0:0:0:
192,192,25710,1,0,0:0:0:0:
320,192,25822,1,0,0:0:0:0:
64,192,25935,1,0,0:0:0:0:
192,192,26048,1,0,0:0:0:0:
448,192,26161,128,0,26612:0:0:0:0:
320,192,26161,1,0,0:0:0:0:
192,192,26386,1,0,0:0:0:0:
64,192,26612,1,0,0:0:0:0:
192,192,26612,1,0,0:0:0:0:
448,192,26725,1,0,0:0:0:0:
320,192,26837,128,0,26950:0:0:0:0:
64,192,26837,1,0,0:0:0:0:
320,192,27063,1,0,0:0:0:0:
192,192,27063,128,0,27288:0:0:0:0:
64,192,27063,1,0,0:0:0:0:
320,192,27288,128,0,27514:0:0:0:0:
448,192,27288,1,0,0:0:0:0:
64,192,27288,1,0,0:0:0:0:
192,192,27514,1,0,0:0:0:0:
448,192,27514,1,0,0:0:0:0:
320,192,27740,1,0,0:0:0:0:
192,192,27852,1,0,0:0:0:0:
448,192,27965,1,0,0:0:0:0:
64,192,27965,1,0,0:0:0:0:
448,192,28078,1,0,0:0:0:0:
192,192,28191,1,0,0:0:0:0:
192,192,28416,1,0,0:0:0:0:
448,192,28416,1,0,0:0:0:0:
320,192,28529,1,0,0:0:0:0:
64,192,28529,1,0,0:0:0:0:
192,192,28755,1,0,0:0:0:0:
448,192,28867,1,0,0:0:0:0:
320,192,28905,1,0,0:0:0:0:
64,192,29093,1,0,0:0:0:0:
448,192,29130,1,0,0:0:0:0:
192,192,29318,1,0,0:0:0:0:
64,192,29356,1,0,0:0:0:0:
192,192,29544,1,0,0:0:0:0:
448,192,29544,1,0,0:0:0:0:
448,192,29657,1,0,0:0:0:0:
64,192,29770,1,0,0:0:0:0:
192,192,29770,1,0,0:0:0:0:
320,192,29882,1,0,0:0:0:0:
192,192,29995,1,0,0:0:0:0:
448,192,29995,1,0,0:0:0:0:
64,192,30108,1,0,0:0:0:0:
320,192,30108,1,0,0:0:0:0:
192,192,30221,1,0,0:0:0:0:
448,192,30333,128,0,30446:0:0:0:0:
64,192,30446,1,0,0:0:0:0:
448,192,30559,1,0,0:0:0:0:
192,192,30672,1,0,0:0:0:0:
320,192,30672,1,0,0:0:0:0:
64,192,30784,1,0,0:0:0:0:
448,192,30897,1,0,0:0:0:0:
320,192,30897,1,0,0:0:0:0:
64,192,31010,1,0,0:0:0:0:
192,192,31010,1,0,0:0:0:0:
448,192,31123,1,0,0:0:0:0:
320,192,31236,128,0,31348:0:0:0:0:
192,192,31348,1,0,0:0:0:0:
320,192,31461,1,0,0:0:0:0:
64,192,31574,1,0,0:0:0:0:
448,192,31574,1,0,0:0:0:0:
192,192,31687,1,0,0:0:0:0:
448,192,31799,1,0,0:0:0:0:
320,192,31799,1,0,0:0:0:0:
64,192,31912,1,0,0:0:0:0:
192,192,31912,1,0,0:0:0:0:
448,192,32025,1,0,0:0:0:0:
64,192,32138,128,0,32251:0:0:0:0:
320,192,32251,1,0,0:0:0:0:
64,192,32363,1,0,0:0:0:0:
320,192,32476,1,0,0:0:0:0:
448,192,32476,1,0,0:0:0:0:
192,192,32589,1,0,0:0:0:0:
448,192,32702,1,0,0:0:0:0:
64,192,32702,1,0,0:0:0:0:
320,192,32814,1,0,0:0:0:0:
192,192,32814,1,0,0:0:0:0:
64,192,32927,1,0,0:0:0:0:
320,192,33040,128,0,33153:0:0:0:0:
192,192,33153,1,0,0:0:0:0:
320,192,33265,1,0,0:0:0:0:
64,192,33378,1,0,0:0:0:0:
192,192,33378,1,0,0:0:0:0:
448,192,33491,1,0,0:0:0:0:
320,192,33604,1,0,0:0:0:0:
64,192,33604,1,0,0:0:0:0:
192,192,33717,1,0,0:0:0:0:
64,192,33829,1,0,0:0:0:0:
192,192,33829,1,0,0:0:0:0:
320,192,33942,1,0,0:0:0:0:
64,192,34055,1,0,0:0:0:0:
448,192,34055,1,0,0:0:0:0:
192,192,34168,1,0,0:0:0:0:
192,192,34280,1,0,0:0:0:0:
448,192,34280,1,0,0:0:0:0:
320,192,34393,1,0,0:0:0:0:
64,192,34506,1,0,0:0:0:0:
192,192,34506,1,0,0:0:0:0:
448,192,34619,1,0,0:0:0:0:
448,192,34732,1,0,0:0:0:0:
64,192,34732,1,0,0:0:0:0:
192,192,34844,1,0,0:0:0:0:
320,192,34957,1,0,0:0:0:0:
64,192,34957,1,0,0:0:0:0:
448,192,35070,1,0,0:0:0:0:
320,192,35183,1,0,0:0:0:0:
448,192,35183,1,0,0:0:0:0:
192,192,35408,1,0,0:0:0:0:
320,192,35408,1,0,0:0:0:0:
320,192,35634,1,0,0:0:0:0:
448,192,35634,1,0,0:0:0:0:
320,192,35747,1,0,0:0:0:0:
192,192,35747,1,0,0:0:0:0:
192,192,35859,1,0,0:0:0:0:
64,192,35859,1,0,0:0:0:0:
64,192,35972,1,0,0:0:0:0:
448,192,35972,1,0,0:0:0:0:
448,192,36085,1,0,0:0:0:0:
320,192,36085,1,0,0:0:0:0:
64,192,36198,1,0,0:0:0:0:
192,192,36198,1,0,0:0:0:0:
320,192,36310,1,0,0:0:0:0:
192,192,36367,1,0,0:0:0:0:
320,192,36423,1,0,0:0:0:0:
192,192,36480,1,0,0:0:0:0:
320,192,36536,1,0,0:0:0:0:
192,192,36987,1,0,0:0:0:0:
448,192,36987,1,0,0:0:0:0:
64,192,36987,128,0,38791:0:0:0:0:
320,192,37213,128,0,37438:0:0:0:0:
192,192,37438,128,0,37889:0:0:0:0:
448,192,37889,128,0,38791:0:0:0:0:
320,192,38791,128,0,39694:0:0:0:0:
64,192,39130,128,0,39694:0:0:0:0:
192,192,39694,128,0,40145:0:0:0:0:
448,192,40145,128,0,40596:0:0:0:0:
192,192,40596,128,0,41498:0:0:0:0:
64,192,41498,128,0,42400:0:0:0:0:
192,192,42400,128,0,43302:0:0:0:0:
320,192,42738,128,0,43302:0:0:0:0:
64,192,43302,128,0,43753:0:0:0:0:
448,192,43302,128,0,44205:0:0:0:0:
192,192,43753,128,0,44205:0:0:0:0:
320,192,44205,128,0,46009:0:0:0:0:
448,192,45107,128,0,46009:0:0:0:0:
64,192,46009,128,0,46347:0:0:0:0:
320,192,46347,128,0,49505:0:0:0:0:
448,192,46911,128,0,49505:0:0:0:0:
192,192,47362,128,0,49505:0:0:0:0:
64,192,47813,128,0,49505:0:0:0:0:
320,192,51422,5,0,0:0:0:0:
192,192,51422,1,0,0:0:0:0:
448,192,51535,1,0,0:0:0:0:
192,192,51648,1,0,0:0:0:0:
64,192,51648,1,0,0:0:0:0:
320,192,51760,1,0,0:0:0:0:
448,192,51760,1,0,0:0:0:0:
192,192,51873,1,0,0:0:0:0:
64,192,51873,1,0,0:0:0:0:
320,192,51986,128,0,52099:0:0:0:0:
320,192,52211,1,0,0:0:0:0:
448,192,52324,1,0,0:0:0:0:
192,192,52324,1,0,0:0:0:0:
64,192,52437,1,0,0:0:0:0:
448,192,52550,1,0,0:0:0:0:
64,192,52663,1,0,0:0:0:0:
192,192,52775,1,0,0:0:0:0:
320,192,52775,1,0,0:0:0:0:
448,192,52888,1,0,0:0:0:0:
320,192,53001,128,0,53677:0:0:0:0:
64,192,53226,1,0,0:0:0:0:
448,192,53339,1,0,0:0:0:0:
192,192,53452,1,0,0:0:0:0:
64,192,53565,1,0,0:0:0:0:
192,192,53677,1,0,0:0:0:0:
448,192,53677,1,0,0:0:0:0:
448,192,53790,128,0,53903:0:0:0:0:
320,192,53903,1,0,0:0:0:0:
192,192,54016,128,0,54241:0:0:0:0:
64,192,54129,128,0,54241:0:0:0:0:
320,192,54241,1,0,0:0:0:0:
448,192,54354,1,0,0:0:0:0:
64,192,54354,1,0,0:0:0:0:
192,192,54467,128,0,54692:0:0:0:0:
320,192,54580,128,0,54692:0:0:0:0:
448,192,54805,1,0,0:0:0:0:
64,192,55031,1,0,0:0:0:0:
448,192,55031,1,0,0:0:0:0:
192,192,55144,1,0,0:0:0:0:
320,192,55256,1,0,0:0:0:0:
448,192,55256,1,0,0:0:0:0:
192,192,55369,1,0,0:0:0:0:
64,192,55369,1,0,0:0:0:0:
320,192,55482,1,0,0:0:0:0:
448,192,55482,1,0,0:0:0:0:
192,192,55595,128,0,55707:0:0:0:0:
192,192,55820,1,0,0:0:0:0:
320,192,55933,1,0,0:0:0:0:
448,192,55933,1,0,0:0:0:0:
64,192,56046,1,0,0:0:0:0:
320,192,56159,1,0,0:0:0:0:
448,192,56271,1,0,0:0:0:0:
320,192,56384,1,0,0:0:0:0:
192,192,56384,1,0,0:0:0:0:
64,192,56497,1,0,0:0:0:0:
192,192,56610,128,0,57286:0:0:0:0:
64,192,56835,1,0,0:0:0:0:
448,192,56948,1,0,0:0:0:0:
320,192,57061,1,0,0:0:0:0:
448,192,57173,1,0,0:0:0:0:
64,192,57286,1,0,0:0:0:0:
320,192,57286,1,0,0:0:0:0:
448,192,57512,1,0,0:0:0:0:
192,192,57625,1,0,0:0:0:0:
64,192,57737,1,0,0:0:0:0:
448,192,57737,1,0,0:0:0:0:
320,192,57850,1,0,0:0:0:0:
192,192,57906,128,0,58019:0:0:0:0:
448,192,58076,1,0,0:0:0:0:
320,192,58132,128,0,58245:0:0:0:0:
64,192,58301,1,0,0:0:0:0:
192,192,58358,128,0,58470:0:0:0:0:
448,192,58527,1,0,0:0:0:0:
64,192,58583,128,0,58696:0:0:0:0:
320,192,58752,1,0,0:0:0:0:
192,192,58865,1,0,0:0:0:0:
320,192,58978,1,0,0:0:0:0:
448,192,58978,1,0,0:0:0:0:
192,192,59091,1,0,0:0:0:0:
64,192,59091,1,0,0:0:0:0:
320,192,59203,128,0,59316:0:0:0:0:
320,192,59429,1,0,0:0:0:0:
64,192,59542,1,0,0:0:0:0:
448,192,59542,1,0,0:0:0:0:
192,192,59654,1,0,0:0:0:0:
448,192,59767,1,0,0:0:0:0:
320,192,59880,1,0,0:0:0:0:
64,192,59993,1,0,0:0:0:0:
192,192,59993,1,0,0:0:0:0:
320,192,60106,1,0,0:0:0:0:
448,192,60218,128,0,60895:0:0:0:0:
320,192,60444,1,0,0:0:0:0:
64,192,60557,1,0,0:0:0:0:
192,192,60669,1,0,0:0:0:0:
64,192,60895,1,0,0:0:0:0:
192,192,60895,1,0,0:0:0:0:
320,192,61008,1,0,0:0:0:0:
192,192,61121,1,0,0:0:0:0:
448,192,61121,1,0,0:0:0:0:
448,192,61346,1,0,0:0:0:0:
64,192,61459,128,0,61572:0:0:0:0:
448,192,61684,128,0,61910:0:0:0:0:
320,192,61797,128,0,61910:0:0:0:0:
192,192,61910,1,0,0:0:0:0:
192,192,62135,128,0,62248:0:0:0:0:
320,192,62248,1,0,0:0:0:0:
448,192,62248,1,0,0:0:0:0:
64,192,62474,1,0,0:0:0:0:
448,192,62474,1,0,0:0:0:0:
320,192,62699,1,0,0:0:0:0:
64,192,62699,1,0,0:0:0:0:
448,192,62925,1,0,0:0:0:0:
320,192,63038,1,0,0:0:0:0:
192,192,63150,1,0,0:0:0:0:
64,192,63150,1,0,0:0:0:0:
320,192,63263,1,0,0:0:0:0:
64,192,63376,1,0,0:0:0:0:
192,192,63489,1,0,0:0:0:0:
320,192,63602,1,0,0:0:0:0:
448,192,63602,1,0,0:0:0:0:
192,192,63827,1,0,0:0:0:0:
448,192,63940,1,0,0:0:0:0:
64,192,64053,1,0,0:0:0:0:
192,192,64053,128,0,64391:0:0:0:0:
320,192,64053,1,0,0:0:0:0:
192,192,64504,128,0,64842:0:0:0:0:
448,192,64504,1,0,0:0:0:0:
64,192,64504,1,0,0:0:0:0:
192,192,64955,1,0,0:0:0:0:
448,192,64955,128,0,65293:0:0:0:0:
320,192,64955,1,0,0:0:0:0:
192,192,65406,1,0,0:0:0:0:
64,192,65406,1,0,0:0:0:0:
448,192,65406,1,0,0:0:0:0:
320,192,65857,1,0,0:0:0:0:
64,192,65857,1,0,0:0:0:0:
192,192,65970,1,0,0:0:0:0:
448,192,66083,1,0,0:0:0:0:
64,192,66083,1,0,0:0:0:0:
320,192,66195,1,0,0:0:0:0:
192,192,66195,1,0,0:0:0:0:
192,192,66308,1,0,0:0:0:0:
448,192,66308,1,0,0:0:0:0:
64,192,66421,1,0,0:0:0:0:
320,192,66421,1,0,0:0:0:0:
448,192,66534,1,0,0:0:0:0:
192,192,66646,1,0,0:0:0:0:
64,192,66646,1,0,0:0:0:0:
192,192,66759,1,0,0:0:0:0:
320,192,66759,1,0,0:0:0:0:
448,192,66872,1,0,0:0:0:0:
64,192,66985,1,0,0:0:0:0:
320,192,67098,1,0,0:0:0:0:
192,192,67098,1,0,0:0:0:0:
192,192,67210,1,0,0:0:0:0:
64,192,67210,1,0,0:0:0:0:
320,192,67323,1,0,0:0:0:0:
448,192,67323,1,0,0:0:0:0:
64,192,67436,1,0,0:0:0:0:
192,192,67436,1,0,0:0:0:0:
320,192,67549,1,0,0:0:0:0:
448,192,67661,1,0,0:0:0:0:
192,192,67661,1,0,0:0:0:0:
64,192,67774,1,0,0:0:0:0:
320,192,67887,1,0,0:0:0:0:
64,192,68000,1,0,0:0:0:0:
320,192,68112,1,0,0:0:0:0:
448,192,68112,1,0,0:0:0:0:
192,192,68225,128,0,68338:0:0:0:0:
320,192,68338,1,0,0:0:0:0:
448,192,68451,128,0,68789:0:0:0:0:
192,192,68564,128,0,68676:0:0:0:0:
64,192,68564,1,0,0:0:0:0:
320,192,68676,128,0,68789:0:0:0:0:
192,192,68789,1,0,0:0:0:0:
64,192,68902,128,0,69127:0:0:0:0:
192,192,69015,128,0,69127:0:0:0:0:
448,192,69015,1,0,0:0:0:0:
320,192,69127,1,0,0:0:0:0:
448,192,69240,1,0,0:0:0:0:
192,192,69353,1,0,0:0:0:0:
64,192,69466,1,0,0:0:0:0:
320,192,69466,1,0,0:0:0:0:
448,192,69579,1,0,0:0:0:0:
192,192,69691,1,0,0:0:0:0:
320,192,69691,1,0,0:0:0:0:
448,192,69804,1,0,0:0:0:0:
64,192,69804,1,0,0:0:0:0:
320,192,69917,1,0,0:0:0:0:
192,192,69917,1,0,0:0:0:0:
64,192,70030,1,0,0:0:0:0:
320,192,70030,1,0,0:0:0:0:
448,192,70142,1,0,0:0:0:0:
192,192,70255,1,0,0:0:0:0:
64,192,70255,1,0,0:0:0:0:
192,192,70368,1,0,0:0:0:0:
448,192,70368,1,0,0:0:0:0:
320,192,70481,1,0,0:0:0:0:
64,192,70594,1,0,0:0:0:0:
192,192,70706,1,0,0:0:0:0:
448,192,70819,1,0,0:0:0:0:
320,192,70819,1,0,0:0:0:0:
192,192,70932,1,0,0:0:0:0:
64,192,71045,1,0,0:0:0:0:
448,192,71045,128,0,72172:0:0:0:0:
320,192,71157,1,0,0:0:0:0:
192,192,71270,1,0,0:0:0:0:
64,192,71270,1,0,0:0:0:0:
320,192,71383,1,0,0:0:0:0:
192,192,71496,1,0,0:0:0:0:
64,192,71608,1,0,0:0:0:0:
320,192,71721,1,0,0:0:0:0:
192,192,71721,1,0,0:0:0:0:
64,192,71834,1,0,0:0:0:0:
192,192,71947,1,0,0:0:0:0:
320,192,72060,1,0,0:0:0:0:
192,192,72172,1,0,0:0:0:0:
64,192,72172,1,0,0:0:0:0:
320,192,72285,1,0,0:0:0:0:
192,192,72341,128,0,72454:0:0:0:0:
448,192,72511,1,0,0:0:0:0:
320,192,72567,128,0,72680:0:0:0:0:
64,192,72736,1,0,0:0:0:0:
192,192,72793,128,0,72905:0:0:0:0:
320,192,72962,1,0,0:0:0:0:
448,192,73018,128,0,73131:0:0:0:0:
64,192,73187,1,0,0:0:0:0:
192,192,73300,1,0,0:0:0:0:
320,192,73300,1,0,0:0:0:0:
64,192,73413,1,0,0:0:0:0:
320,192,73413,1,0,0:0:0:0:
192,192,73526,1,0,0:0:0:0:
448,192,73526,1,0,0:0:0:0:
320,192,73638,1,0,0:0:0:0:
448,192,73638,1,0,0:0:0:0:
64,192,73751,1,0,0:0:0:0:
192,192,73864,1,0,0:0:0:0:
320,192,73864,1,0,0:0:0:0:
448,192,73977,1,0,0:0:0:0:
320,192,73977,1,0,0:0:0:0:
192,192,74089,1,0,0:0:0:0:
320,192,74202,1,0,0:0:0:0:
64,192,74315,1,0,0:0:0:0:
448,192,74315,1,0,0:0:0:0:
320,192,74428,1,0,0:0:0:0:
64,192,74428,1,0,0:0:0:0:
192,192,74541,1,0,0:0:0:0:
448,192,74541,1,0,0:0:0:0:
320,192,74653,1,0,0:0:0:0:
192,192,74653,1,0,0:0:0:0:
64,192,74766,1,0,0:0:0:0:
320,192,74879,1,0,0:0:0:0:
448,192,74879,1,0,0:0:0:0:
192,192,74992,1,0,0:0:0:0:
64,192,75104,1,0,0:0:0:0:
320,192,75217,1,0,0:0:0:0:
192,192,75330,1,0,0:0:0:0:
448,192,75330,1,0,0:0:0:0:
64,192,75443,1,0,0:0:0:0:
320,192,75556,1,0,0:0:0:0:
192,192,75556,1,0,0:0:0:0:
448,192,75668,1,0,0:0:0:0:
64,192,75781,1,0,0:0:0:0:
192,192,75781,1,0,0:0:0:0:
448,192,75894,128,0,76007:0:0:0:0:
320,192,76007,1,0,0:0:0:0:
192,192,76119,128,0,76458:0:0:0:0:
448,192,76119,1,0,0:0:0:0:
64,192,76232,128,0,76458:0:0:0:0:
320,192,76232,1,0,0:0:0:0:
448,192,76345,128,0,76458:0:0:0:0:
320,192,76458,1,0,0:0:0:0:
448,192,76571,128,0,76796:0:0:0:0:
192,192,76571,1,0,0:0:0:0:
320,192,76683,128,0,76796:0:0:0:0:
64,192,76683,1,0,0:0:0:0:
192,192,76796,1,0,0:0:0:0:
448,192,76909,1,0,0:0:0:0:
192,192,77022,1,0,0:0:0:0:
320,192,77134,1,0,0:0:0:0:
64,192,77134,128,0,78037:0:0:0:0:
448,192,77247,1,0,0:0:0:0:
192,192,77360,1,0,0:0:0:0:
320,192,77473,1,0,0:0:0:0:
192,192,77585,1,0,0:0:0:0:
448,192,77585,1,0,0:0:0:0:
320,192,77698,1,0,0:0:0:0:
448,192,77811,1,0,0:0:0:0:
192,192,77924,1,0,0:0:0:0:
320,192,78037,1,0,0:0:0:0:
448,192,78037,1,0,0:0:0:0:
64,192,78149,1,0,0:0:0:0:
320,192,78262,1,0,0:0:0:0:
192,192,78375,1,0,0:0:0:0:
448,192,78375,1,0,0:0:0:0:
64,192,78488,1,0,0:0:0:0:
192,192,78488,1,0,0:0:0:0:
448,192,78600,1,0,0:0:0:0:
320,192,78713,1,0,0:0:0:0:
192,192,78826,1,0,0:0:0:0:
320,192,78939,1,0,0:0:0:0:
448,192,78939,128,0,79841:0:0:0:0:
64,192,79052,1,0,0:0:0:0:
192,192,79164,1,0,0:0:0:0:
320,192,79277,1,0,0:0:0:0:
64,192,79390,1,0,0:0:0:0:
192,192,79390,1,0,0:0:0:0:
320,192,79503,1,0,0:0:0:0:
64,192,79615,1,0,0:0:0:0:
192,192,79728,1,0,0:0:0:0:
320,192,79841,1,0,0:0:0:0:
64,192,79841,1,0,0:0:0:0:
448,192,79954,1,0,0:0:0:0:
192,192,80066,1,0,0:0:0:0:
320,192,80179,128,0,80292:0:0:0:0:
64,192,80292,1,0,0:0:0:0:
448,192,80292,1,0,0:0:0:0:
320,192,80405,1,0,0:0:0:0:
64,192,80518,1,0,0:0:0:0:
448,192,80518,1,0,0:0:0:0:
192,192,80630,1,0,0:0:0:0:
320,192,80630,1,0,0:0:0:0:
320,192,80743,1,0,0:0:0:0:
64,192,80743,1,0,0:0:0:0:
448,192,80856,1,0,0:0:0:0:
192,192,80856,1,0,0:0:0:0:
64,192,80969,1,0,0:0:0:0:
320,192,81081,1,0,0:0:0:0:
448,192,81081,1,0,0:0:0:0:
320,192,81194,1,0,0:0:0:0:
192,192,81194,1,0,0:0:0:0:
64,192,81307,1,0,0:0:0:0:
448,192,81420,1,0,0:0:0:0:
192,192,81533,1,0,0:0:0:0:
320,192,81533,1,0,0:0:0:0:
320,192,81645,1,0,0:0:0:0:
448,192,81645,1,0,0:0:0:0:
192,192,81758,1,0,0:0:0:0:
64,192,81758,1,0,0:0:0:0:
448,192,81871,1,0,0:0:0:0:
320,192,81871,1,0,0:0:0:0:
192,192,81984,1,0,0:0:0:0:
64,192,82096,1,0,0:0:0:0:
320,192,82096,1,0,0:0:0:0:
448,192,82209,1,0,0:0:0:0:
192,192,82322,1,0,0:0:0:0:
448,192,82435,1,0,0:0:0:0:
192,192,82547,1,0,0:0:0:0:
64,192,82547,1,0,0:0:0:0:
320,192,82660,128,0,82773:0:0:0:0:
192,192,82773,1,0,0:0:0:0:
64,192,82886,128,0,83224:0:0:0:0:
320,192,82999,128,0,83111:0:0:0:0:
448,192,82999,1,0,0:0:0:0:
192,192,83111,128,0,83224:0:0:0:0:
320,192,83224,1,0,0:0:0:0:
448,192,83337,128,0,83562:0:0:0:0:
320,192,83450,128,0,83562:0:0:0:0:
64,192,83450,1,0,0:0:0:0:
192,192,83562,1,0,0:0:0:0:
64,192,83675,1,0,0:0:0:0:
320,192,83788,1,0,0:0:0:0:
448,192,83901,1,0,0:0:0:0:
192,192,83901,1,0,0:0:0:0:
64,192,84014,1,0,0:0:0:0:
320,192,84126,1,0,0:0:0:0:
192,192,84126,1,0,0:0:0:0:
64,192,84239,1,0,0:0:0:0:
448,192,84239,1,0,0:0:0:0:
192,192,84352,1,0,0:0:0:0:
320,192,84352,1,0,0:0:0:0:
448,192,84465,1,0,0:0:0:0:
192,192,84465,1,0,0:0:0:0:
64,192,84577,1,0,0:0:0:0:
320,192,84690,1,0,0:0:0:0:
448,192,84690,1,0,0:0:0:0:
320,192,84803,1,0,0:0:0:0:
64,192,84803,1,0,0:0:0:0:
192,192,84916,1,0,0:0:0:0:
448,192,85029,1,0,0:0:0:0:
320,192,85141,1,0,0:0:0:0:
64,192,85254,1,0,0:0:0:0:
192,192,85254,1,0,0:0:0:0:
320,192,85367,1,0,0:0:0:0:
448,192,85480,1,0,0:0:0:0:
64,192,85480,128,0,86607:0:0:0:0:
192,192,85592,1,0,0:0:0:0:
320,192,85705,1,0,0:0:0:0:
448,192,85705,1,0,0:0:0:0:
192,192,85818,1,0,0:0:0:0:
320,192,85931,1,0,0:0:0:0:
448,192,86043,1,0,0:0:0:0:
192,192,86156,1,0,0:0:0:0:
320,192,86156,1,0,0:0:0:0:
448,192,86269,1,0,0:0:0:0:
320,192,86382,1,0,0:0:0:0:
192,192,86495,1,0,0:0:0:0:
320,192,86607,1,0,0:0:0:0:
448,192,86607,1,0,0:0:0:0:
192,192,86720,1,0,0:0:0:0:
320,192,86777,128,0,86889:0:0:0:0:
64,192,86946,1,0,0:0:0:0:
192,192,87002,128,0,87115:0:0:0:0:
448,192,87171,1,0,0:0:0:0:
320,192,87228,128,0,87340:0:0:0:0:
192,192,87397,1,0,0:0:0:0:
64,192,87453,128,0,87566:0:0:0:0:
448,192,87622,1,0,0:0:0:0:
320,192,87735,1,0,0:0:0:0:
192,192,87735,1,0,0:0:0:0:
448,192,87848,1,0,0:0:0:0:
192,192,87848,1,0,0:0:0:0:
320,192,87961,1,0,0:0:0:0:
64,192,87961,1,0,0:0:0:0:
192,192,88073,1,0,0:0:0:0:
64,192,88073,1,0,0:0:0:0:
448,192,88186,1,0,0:0:0:0:
320,192,88299,1,0,0:0:0:0:
192,192,88299,1,0,0:0:0:0:
64,192,88412,1,0,0:0:0:0:
192,192,88412,1,0,0:0:0:0:
320,192,88524,1,0,0:0:0:0:
192,192,88637,1,0,0:0:0:0:
448,192,88750,1,0,0:0:0:0:
64,192,88750,1,0,0:0:0:0:
192,192,88863,1,0,0:0:0:0:
448,192,88863,1,0,0:0:0:0:
320,192,88976,1,0,0:0:0:0:
64,192,88976,1,0,0:0:0:0:
192,192,89088,1,0,0:0:0:0:
320,192,89088,1,0,0:0:0:0:
448,192,89201,1,0,0:0:0:0:
192,192,89314,1,0,0:0:0:0:
64,192,89314,1,0,0:0:0:0:
320,192,89427,1,0,0:0:0:0:
448,192,89539,1,0,0:0:0:0:
192,192,89652,1,0,0:0:0:0:
320,192,89765,1,0,0:0:0:0:
64,192,89765,1,0,0:0:0:0:
448,192,89878,1,0,0:0:0:0:
192,192,89991,1,0,0:0:0:0:
320,192,89991,1,0,0:0:0:0:
64,192,90103,1,0,0:0:0:0:
448,192,90216,1,0,0:0:0:0:
320,192,90216,1,0,0:0:0:0:
64,192,90329,128,0,90442:0:0:0:0:
192,192,90442,1,0,0:0:0:0:
320,192,90554,128,0,90893:0:0:0:0:
64,192,90554,1,0,0:0:0:0:
448,192,90667,128,0,90893:0:0:0:0:
192,192,90667,1,0,0:0:0:0:
64,192,90780,128,0,90893:0:0:0:0:
192,192,90893,1,0,0:0:0:0:
64,192,91006,128,0,91231:0:0:0:0:
320,192,91006,1,0,0:0:0:0:
192,192,91118,128,0,91231:0:0:0:0:
448,192,91118,1,0,0:0:0:0:
320,192,91231,1,0,0:0:0:0:
64,192,91344,1,0,0:0:0:0:
320,192,91457,1,0,0:0:0:0:
192,192,91569,1,0,0:0:0:0:
448,192,91569,128,0,92472:0:0:0:0:
64,192,91682,1,0,0:0:0:0:
320,192,91795,1,0,0:0:0:0:
192,192,91908,1,0,0:0:0:0:
320,192,92020,1,0,0:0:0:0:
64,192,92020,1,0,0:0:0:0:
192,192,92133,1,0,0:0:0:0:
64,192,92246,1,0,0:0:0:0:
320,192,92359,1,0,0:0:0:0:
192,192,92472,1,0,0:0:0:0:
64,192,92472,1,0,0:0:0:0:
448,192,92584,1,0,0:0:0:0:
192,192,92697,1,0,0:0:0:0:
320,192,92810,1,0,0:0:0:0:
64,192,92810,1,0,0:0:0:0:
448,192,92923,1,0,0:0:0:0:
448,192,93148,128,0,93374:0:0:0:0:
64,192,93148,1,0,0:0:0:0:
320,192,93374,1,0,0:0:0:0:
64,192,93374,1,0,0:0:0:0:
64,192,93599,1,0,0:0:0:0:
192,192,93599,1,0,0:0:0:0:
320,192,93712,1,0,0:0:0:0:
320,192,93768,1,0,0:0:0:0:
192,192,93825,128,0,94050:0:0:0:0:
64,192,94050,1,0,0:0:0:0:
448,192,94163,1,0,0:0:0:0:
192,192,94163,1,0,0:0:0:0:
320,192,94276,128,0,94501:0:0:0:0:
64,192,94501,1,0,0:0:0:0:
192,192,94501,1,0,0:0:0:0:
64,192,94727,1,0,0:0:0:0:
448,192,94727,1,0,0:0:0:0:
192,192,94727,1,0,0:0:0:0:
320,192,94727,1,0,0:0:0:0:
448,192,94953,128,0,95404:0:0:0:0:
320,192,95178,128,0,95404:0:0:0:0:
64,192,95178,1,0,0:0:0:0:
192,192,95404,128,0,95855:0:0:0:0:
64,192,95629,128,0,95855:0:0:0:0:
448,192,95629,1,0,0:0:0:0:
448,192,95855,1,0,0:0:0:0:
320,192,95855,1,0,0:0:0:0:
320,192,95968,1,0,0:0:0:0:
192,192,96080,128,0,96306:0:0:0:0:
320,192,96306,1,0,0:0:0:0:
64,192,96419,1,0,0:0:0:0:
448,192,96531,128,0,97208:0:0:0:0:
64,192,96870,1,0,0:0:0:0:
192,192,96983,128,0,97434:0:0:0:0:
64,192,97434,128,0,98561:0:0:0:0:
448,192,97434,1,0,0:0:0:0:
320,192,97434,128,0,97772:0:0:0:0:
448,192,97885,128,0,98223:0:0:0:0:
320,192,97885,1,0,0:0:0:0:
192,192,98223,128,0,98561:0:0:0:0:
320,192,98336,1,0,0:0:0:0:
448,192,98561,1,0,0:0:0:0:
320,192,98674,1,0,0:0:0:0:
192,192,98787,128,0,98900:0:0:0:0:
192,192,99012,1,0,0:0:0:0:
320,192,99238,128,0,99689:0:0:0:0:
192,192,99576,1,0,0:0:0:0:
64,192,99689,128,0,100930:0:0:0:0:
448,192,99689,1,0,0:0:0:0:
320,192,99915,1,0,0:0:0:0:
448,192,100140,1,0,0:0:0:0:
192,192,100366,128,0,100930:0:0:0:0:
448,192,100591,1,0,0:0:0:0:
320,192,100930,1,0,0:0:0:0:
448,192,101042,128,0,102170:0:0:0:0:
192,192,101155,1,0,0:0:0:0:
64,192,101155,1,0,0:0:0:0:
192,192,101268,1,0,0:0:0:0:
64,192,101268,1,0,0:0:0:0:
320,192,101493,128,0,101832:0:0:0:0:
192,192,101493,1,0,0:0:0:0:
64,192,101832,128,0,102170:0:0:0:0:
192,192,101945,1,0,0:0:0:0:
320,192,102170,1,0,0:0:0:0:
192,192,102283,128,0,102621:0:0:0:0:
448,192,102396,128,0,102621:0:0:0:0:
64,192,102396,1,0,0:0:0:0:
320,192,102621,128,0,103072:0:0:0:0:
192,192,102847,128,0,103072:0:0:0:0:
320,192,103185,1,0,0:0:0:0:
448,192,103298,1,0,0:0:0:0:
64,192,103298,1,0,0:0:0:0:
192,192,103411,128,0,103749:0:0:0:0:
64,192,103636,128,0,103974:0:0:0:0:
448,192,103862,128,0,104426:0:0:0:0:
320,192,104087,128,0,104426:0:0:0:0:
64,192,104200,1,0,0:0:0:0:
192,192,104200,1,0,0:0:0:0:
192,192,104651,1,0,0:0:0:0:
320,192,104651,1,0,0:0:0:0:
192,192,105102,1,0,0:0:0:0:
64,192,105328,128,0,106907:0:0:0:0:
320,192,105553,1,0,0:0:0:0:
448,192,106004,1,0,0:0:0:0:
320,192,106230,1,0,0:0:0:0:
192,192,106343,1,0,0:0:0:0:
448,192,106455,1,0,0:0:0:0:
320,192,106568,1,0,0:0:0:0:
448,192,106681,1,0,0:0:0:0:
192,192,106794,1,0,0:0:0:0:
448,192,106907,128,0,107019:0:0:0:0:
320,192,106907,1,0,0:0:0:0:
448,192,107132,1,0,0:0:0:0:
192,192,107245,1,0,0:0:0:0:
64,192,107358,1,0,0:0:0:0:
448,192,107470,1,0,0:0:0:0:
320,192,107583,128,0,107696:0:0:0:0:
64,192,107696,1,0,0:0:0:0:
320,192,107809,1,0,0:0:0:0:
320,192,108034,1,0,0:0:0:0:
448,192,108147,1,0,0:0:0:0:
320,192,108260,128,0,108711:0:0:0:0:
192,192,108260,1,0,0:0:0:0:
64,192,108373,1,0,0:0:0:0:
448,192,108485,1,0,0:0:0:0:
192,192,108598,1,0,0:0:0:0:
64,192,108711,1,0,0:0:0:0:
448,192,108711,1,0,0:0:0:0:
192,192,109162,1,0,0:0:0:0:
448,192,109162,1,0,0:0:0:0:
320,192,109275,1,0,0:0:0:0:
64,192,109388,1,0,0:0:0:0:
192,192,109388,1,0,0:0:0:0:
64,192,109500,1,0,0:0:0:0:
192,192,109613,1,0,0:0:0:0:
320,192,109613,1,0,0:0:0:0:
448,192,109726,1,0,0:0:0:0:
320,192,109839,1,0,0:0:0:0:
64,192,109839,1,0,0:0:0:0:
320,192,109951,1,0,0:0:0:0:
192,192,110064,1,0,0:0:0:0:
64,192,110064,1,0,0:0:0:0:
448,192,110177,1,0,0:0:0:0:
192,192,110290,1,0,0:0:0:0:
320,192,110403,1,0,0:0:0:0:
192,192,110515,1,0,0:0:0:0:
448,192,110515,1,0,0:0:0:0:
64,192,110628,1,0,0:0:0:0:
320,192,110741,1,0,0:0:0:0:
448,192,110741,1,0,0:0:0:0:
448,192,110854,1,0,0:0:0:0:
64,192,110966,1,0,0:0:0:0:
320,192,110966,1,0,0:0:0:0:
192,192,111079,1,0,0:0:0:0:
64,192,111192,1,0,0:0:0:0:
448,192,111305,1,0,0:0:0:0:
320,192,111418,1,0,0:0:0:0:
192,192,111418,1,0,0:0:0:0:
64,192,111530,1,0,0:0:0:0:
448,192,111643,1,0,0:0:0:0:
320,192,111756,1,0,0:0:0:0:
448,192,111869,128,0,112207:0:0:0:0:
64,192,111869,128,0,112884:0:0:0:0:
192,192,111869,1,0,0:0:0:0:
320,192,111981,1,0,0:0:0:0:
192,192,112094,1,0,0:0:0:0:
320,192,112320,128,0,112658:0:0:0:0:
192,192,112320,1,0,0:0:0:0:
448,192,112545,1,0,0:0:0:0:
192,192,112658,128,0,112884:0:0:0:0:
448,192,112771,1,0,0:0:0:0:
320,192,112884,1,0,0:0:0:0:
64,192,112996,1,0,0:0:0:0:
192,192,113109,1,0,0:0:0:0:
448,192,113222,1,0,0:0:0:0:
320,192,113222,1,0,0:0:0:0:
64,192,113335,1,0,0:0:0:0:
192,192,113447,1,0,0:0:0:0:
448,192,113447,1,0,0:0:0:0:
192,192,113560,1,0,0:0:0:0:
320,192,113673,1,0,0:0:0:0:
448,192,113673,1,0,0:0:0:0:
64,192,113786,1,0,0:0:0:0:
320,192,113899,1,0,0:0:0:0:
192,192,114011,1,0,0:0:0:0:
64,192,114124,1,0,0:0:0:0:
448,192,114124,1,0,0:0:0:0:
320,192,114237,1,0,0:0:0:0:
448,192,114350,1,0,0:0:0:0:
64,192,114462,1,0,0:0:0:0:
192,192,114575,1,0,0:0:0:0:
320,192,114575,1,0,0:0:0:0:
448,192,114688,1,0,0:0:0:0:
192,192,114801,1,0,0:0:0:0:
64,192,114801,1,0,0:0:0:0:
64,192,114913,1,0,0:0:0:0:
320,192,115026,1,0,0:0:0:0:
448,192,115026,1,0,0:0:0:0:
192,192,115139,1,0,0:0:0:0:
64,192,115252,1,0,0:0:0:0:
448,192,115365,1,0,0:0:0:0:
320,192,115477,128,0,116605:0:0:0:0:
64,192,115590,1,0,0:0:0:0:
448,192,115590,1,0,0:0:0:0:
64,192,115703,1,0,0:0:0:0:
448,192,115703,1,0,0:0:0:0:
192,192,115928,128,0,116267:0:0:0:0:
448,192,115928,1,0,0:0:0:0:
64,192,116154,1,0,0:0:0:0:
448,192,116267,128,0,116605:0:0:0:0:
192,192,116380,1,0,0:0:0:0:
64,192,116492,1,0,0:0:0:0:
192,192,116605,1,0,0:0:0:0:
320,192,116718,1,0,0:0:0:0:
192,192,116831,1,0,0:0:0:0:
448,192,116831,1,0,0:0:0:0:
448,192,116943,1,0,0:0:0:0:
320,192,117056,1,0,0:0:0:0:
192,192,117056,1,0,0:0:0:0:
448,192,117169,1,0,0:0:0:0:
64,192,117282,1,0,0:0:0:0:
192,192,117282,1,0,0:0:0:0:
320,192,117395,1,0,0:0:0:0:
64,192,117507,1,0,0:0:0:0:
192,192,117620,1,0,0:0:0:0:
448,192,117733,1,0,0:0:0:0:
320,192,117733,1,0,0:0:0:0:
64,192,117846,1,0,0:0:0:0:
320,192,117958,1,0,0:0:0:0:
448,192,118071,1,0,0:0:0:0:
192,192,118184,1,0,0:0:0:0:
320,192,118184,1,0,0:0:0:0:
64,192,118297,1,0,0:0:0:0:
448,192,118409,1,0,0:0:0:0:
192,192,118522,1,0,0:0:0:0:
320,192,118635,1,0,0:0:0:0:
64,192,118635,1,0,0:0:0:0:
448,192,118748,1,0,0:0:0:0:
192,192,118861,1,0,0:0:0:0:
320,192,118973,1,0,0:0:0:0:
448,192,119086,128,0,119876:0:0:0:0:
64,192,119086,1,0,0:0:0:0:
320,192,119199,1,0,0:0:0:0:
192,192,119312,1,0,0:0:0:0:
320,192,119537,128,0,119876:0:0:0:0:
64,192,119537,1,0,0:0:0:0:
192,192,119763,1,0,0:0:0:0:
64,192,119876,128,0,120101:0:0:0:0:
448,192,119988,1,0,0:0:0:0:
320,192,119988,1,0,0:0:0:0:
192,192,120101,1,0,0:0:0:0:
64,192,120214,1,0,0:0:0:0:
448,192,120214,1,0,0:0:0:0:
320,192,120327,1,0,0:0:0:0:
192,192,120439,1,0,0:0:0:0:
64,192,120439,1,0,0:0:0:0:
320,192,120552,1,0,0:0:0:0:
448,192,120665,1,0,0:0:0:0:
192,192,120665,1,0,0:0:0:0:
448,192,120778,1,0,0:0:0:0:
64,192,120890,1,0,0:0:0:0:
320,192,120890,1,0,0:0:0:0:
448,192,121003,1,0,0:0:0:0:
192,192,121116,1,0,0:0:0:0:
64,192,121229,1,0,0:0:0:0:
320,192,121342,1,0,0:0:0:0:
448,192,121342,1,0,0:0:0:0:
192,192,121454,1,0,0:0:0:0:
320,192,121567,1,0,0:0:0:0:
64,192,121680,1,0,0:0:0:0:
192,192,121793,1,0,0:0:0:0:
448,192,121793,1,0,0:0:0:0:
320,192,121905,1,0,0:0:0:0:
64,192,122018,1,0,0:0:0:0:
192,192,122018,1,0,0:0:0:0:
192,192,122131,1,0,0:0:0:0:
448,192,122244,1,0,0:0:0:0:
320,192,122244,1,0,0:0:0:0:
64,192,122357,1,0,0:0:0:0:
192,192,122469,1,0,0:0:0:0:
320,192,122582,1,0,0:0:0:0:
64,192,122695,128,0,123710:0:0:0:0:
192,192,122695,1,0,0:0:0:0:
448,192,122808,1,0,0:0:0:0:
320,192,122808,1,0,0:0:0:0:
448,192,122920,1,0,0:0:0:0:
320,192,122920,1,0,0:0:0:0:
448,192,123146,128,0,123484:0:0:0:0:
192,192,123146,1,0,0:0:0:0:
320,192,123371,1,0,0:0:0:0:
192,192,123484,128,0,123710:0:0:0:0:
448,192,123597,1,0,0:0:0:0:
320,192,123710,1,0,0:0:0:0:
64,192,123823,1,0,0:0:0:0:
192,192,123823,1,0,0:0:0:0:
448,192,123935,1,0,0:0:0:0:
64,192,124048,1,0,0:0:0:0:
320,192,124048,1,0,0:0:0:0:
192,192,124161,1,0,0:0:0:0:
320,192,124274,1,0,0:0:0:0:
448,192,124274,1,0,0:0:0:0:
448,192,124386,1,0,0:0:0:0:
192,192,124499,1,0,0:0:0:0:
64,192,124499,1,0,0:0:0:0:
320,192,124612,1,0,0:0:0:0:
192,192,124725,1,0,0:0:0:0:
64,192,124838,1,0,0:0:0:0:
448,192,124950,1,0,0:0:0:0:
192,192,124950,1,0,0:0:0:0:
320,192,125063,1,0,0:0:0:0:
64,192,125176,1,0,0:0:0:0:
448,192,125289,1,0,0:0:0:0:
192,192,125401,1,0,0:0:0:0:
320,192,125401,1,0,0:0:0:0:
64,192,125514,1,0,0:0:0:0:
448,192,125627,1,0,0:0:0:0:
192,192,125740,1,0,0:0:0:0:
320,192,125853,1,0,0:0:0:0:
448,192,125853,1,0,0:0:0:0:
64,192,125965,1,0,0:0:0:0:
320,192,126078,1,0,0:0:0:0:
192,192,126191,1,0,0:0:0:0:
448,192,126304,128,0,127319:0:0:0:0:
320,192,126304,128,0,126642:0:0:0:0:
64,192,126304,1,0,0:0:0:0:
192,192,126416,1,0,0:0:0:0:
64,192,126529,1,0,0:0:0:0:
320,192,126755,1,0,0:0:0:0:
192,192,126755,128,0,127093:0:0:0:0:
64,192,126867,1,0,0:0:0:0:
64,192,127093,128,0,127319:0:0:0:0:
320,192,127206,1,0,0:0:0:0:
192,192,127319,1,0,0:0:0:0:
320,192,127431,1,0,0:0:0:0:
64,192,127431,1,0,0:0:0:0:
448,192,127544,1,0,0:0:0:0:
192,192,127657,1,0,0:0:0:0:
320,192,127657,1,0,0:0:0:0:
64,192,127770,1,0,0:0:0:0:
320,192,127882,1,0,0:0:0:0:
448,192,127882,1,0,0:0:0:0:
320,192,127995,1,0,0:0:0:0:
192,192,128108,1,0,0:0:0:0:
64,192,128108,1,0,0:0:0:0:
448,192,128221,1,0,0:0:0:0:
320,192,128334,1,0,0:0:0:0:
64,192,128446,1,0,0:0:0:0:
192,192,128559,1,0,0:0:0:0:
448,192,128559,1,0,0:0:0:0:
320,192,128672,1,0,0:0:0:0:
64,192,128785,1,0,0:0:0:0:
320,192,128897,1,0,0:0:0:0:
192,192,129010,1,0,0:0:0:0:
64,192,129010,1,0,0:0:0:0:
448,192,129123,1,0,0:0:0:0:
192,192,129236,1,0,0:0:0:0:
320,192,129236,1,0,0:0:0:0:
192,192,129348,1,0,0:0:0:0:
448,192,129461,1,0,0:0:0:0:
64,192,129574,1,0,0:0:0:0:
320,192,129687,1,0,0:0:0:0:
448,192,129800,1,0,0:0:0:0:
64,192,129912,128,0,130927:0:0:0:0:
192,192,129912,1,0,0:0:0:0:
448,192,130025,1,0,0:0:0:0:
320,192,130025,1,0,0:0:0:0:
448,192,130138,1,0,0:0:0:0:
320,192,130138,1,0,0:0:0:0:
448,192,130363,128,0,130702:0:0:0:0:
192,192,130363,1,0,0:0:0:0:
320,192,130589,1,0,0:0:0:0:
192,192,130702,128,0,130927:0:0:0:0:
320,192,130815,1,0,0:0:0:0:
448,192,130927,1,0,0:0:0:0:
320,192,131040,1,0,0:0:0:0:
192,192,131040,1,0,0:0:0:0:
448,192,131153,1,0,0:0:0:0:
64,192,131266,1,0,0:0:0:0:
192,192,131266,1,0,0:0:0:0:
320,192,131378,1,0,0:0:0:0:
64,192,131491,1,0,0:0:0:0:
448,192,131491,1,0,0:0:0:0:
448,192,131604,1,0,0:0:0:0:
192,192,131717,1,0,0:0:0:0:
320,192,131717,1,0,0:0:0:0:
64,192,131830,1,0,0:0:0:0:
320,192,131942,1,0,0:0:0:0:
192,192,132055,1,0,0:0:0:0:
448,192,132168,1,0,0:0:0:0:
320,192,132168,1,0,0:0:0:0:
64,192,132281,1,0,0:0:0:0:
448,192,132393,1,0,0:0:0:0:
192,192,132506,1,0,0:0:0:0:
64,192,132619,1,0,0:0:0:0:
320,192,132619,1,0,0:0:0:0:
448,192,132732,1,0,0:0:0:0:
192,192,132844,1,0,0:0:0:0:
64,192,132957,1,0,0:0:0:0:
320,192,133070,1,0,0:0:0:0:
192,192,133070,1,0,0:0:0:0:
448,192,133183,1,0,0:0:0:0:
64,192,133296,1,0,0:0:0:0:
320,192,133408,1,0,0:0:0:0:
192,192,133521,1,0,0:0:0:0:
448,192,133521,128,0,134536:0:0:0:0:
64,192,133634,1,0,0:0:0:0:
192,192,133747,1,0,0:0:0:0:
64,192,133972,128,0,134311:0:0:0:0:
192,192,133972,1,0,0:0:0:0:
192,192,134311,128,0,134536:0:0:0:0:
320,192,134311,1,0,0:0:0:0:
64,192,134536,1,0,0:0:0:0:
320,192,134649,1,0,0:0:0:0:
448,192,134649,1,0,0:0:0:0:
192,192,134762,1,0,0:0:0:0:
64,192,134874,1,0,0:0:0:0:
448,192,134874,1,0,0:0:0:0:
320,192,134987,1,0,0:0:0:0:
192,192,135100,1,0,0:0:0:0:
64,192,135100,1,0,0:0:0:0:
64,192,135213,1,0,0:0:0:0:
192,192,135325,1,0,0:0:0:0:
320,192,135325,1,0,0:0:0:0:
448,192,135438,1,0,0:0:0:0:
64,192,135551,1,0,0:0:0:0:
320,192,135664,1,0,0:0:0:0:
448,192,135777,1,0,0:0:0:0:
192,192,135777,1,0,0:0:0:0:
64,192,135889,1,0,0:0:0:0:
320,192,136002,1,0,0:0:0:0:
192,192,136115,1,0,0:0:0:0:
448,192,136228,1,0,0:0:0:0:
320,192,136228,1,0,0:0:0:0:
64,192,136340,1,0,0:0:0:0:
192,192,136453,1,0,0:0:0:0:
320,192,136453,1,0,0:0:0:0:
192,192,136566,1,0,0:0:0:0:
448,192,136679,1,0,0:0:0:0:
64,192,136679,1,0,0:0:0:0:
320,192,136792,1,0,0:0:0:0:
64,192,136904,1,0,0:0:0:0:
192,192,137017,1,0,0:0:0:0:
448,192,137130,128,0,138145:0:0:0:0:
320,192,137130,1,0,0:0:0:0:
64,192,137243,1,0,0:0:0:0:
192,192,137243,1,0,0:0:0:0:
192,192,137355,1,0,0:0:0:0:
64,192,137355,1,0,0:0:0:0:
192,192,137581,128,0,137919:0:0:0:0:
320,192,137581,1,0,0:0:0:0:
64,192,137806,1,0,0:0:0:0:
320,192,137919,128,0,138145:0:0:0:0:
192,192,138032,1,0,0:0:0:0:
64,192,138145,1,0,0:0:0:0:
192,192,138258,128,0,138709:0:0:0:0:
320,192,138483,128,0,138709:0:0:0:0:
64,192,138709,1,0,0:0:0:0:
192,192,138934,128,0,139273:0:0:0:0:
448,192,138934,1,0,0:0:0:0:
320,192,139273,1,0,0:0:0:0:
64,192,139385,1,0,0:0:0:0:
448,192,139385,1,0,0:0:0:0:
192,192,139498,1,0,0:0:0:0:
64,192,139724,128,0,140175:0:0:0:0:
320,192,139836,1,0,0:0:0:0:
448,192,139949,128,0,140175:0:0:0:0:
192,192,139949,1,0,0:0:0:0:
192,192,140175,1,0,0:0:0:0:
64,192,140288,1,0,0:0:0:0:
320,192,140288,1,0,0:0:0:0:
320,192,140513,1,0,0:0:0:0:
64,192,140626,1,0,0:0:0:0:
192,192,140739,1,0,0:0:0:0:
448,192,140776,1,0,0:0:0:0:
320,192,140964,1,0,0:0:0:0:
64,192,141002,1,0,0:0:0:0:
448,192,141190,1,0,0:0:0:0:
320,192,141227,1,0,0:0:0:0:
192,192,141415,128,0,142994:0:0:0:0:
64,192,141415,1,0,0:0:0:0:
320,192,141641,1,0,0:0:0:0:
448,192,141678,1,0,0:0:0:0:
448,192,142092,1,0,0:0:0:0:
64,192,142092,1,0,0:0:0:0:
320,192,142543,1,0,0:0:0:0:
448,192,142543,1,0,0:0:0:0:
320,192,142881,1,0,0:0:0:0:
64,192,142994,1,0,0:0:0:0:
448,192,142994,1,0,0:0:0:0:
192,192,143220,128,0,143671:0:0:0:0:
64,192,143332,1,0,0:0:0:0:
448,192,143445,1,0,0:0:0:0:
320,192,143558,1,0,0:0:0:0:
64,192,143671,128,0,144122:0:0:0:0:
448,192,143783,1,0,0:0:0:0:
320,192,143896,1,0,0:0:0:0:
320,192,144009,1,0,0:0:0:0:
448,192,144235,1,0,0:0:0:0:
320,192,144347,128,0,144573:0:0:0:0:
64,192,144347,1,0,0:0:0:0:
192,192,144460,1,0,0:0:0:0:
448,192,144573,1,0,0:0:0:0:
64,192,144573,1,0,0:0:0:0:
192,192,144686,1,0,0:0:0:0:
320,192,144798,128,0,145024:0:0:0:0:
448,192,144798,1,0,0:0:0:0:
320,192,145137,1,0,0:0:0:0:
192,192,145250,1,0,0:0:0:0:
64,192,145250,1,0,0:0:0:0:
448,192,145250,1,0,0:0:0:0:
320,192,145362,128,0,145475:0:0:0:0:
192,192,145475,128,0,145588:0:0:0:0:
320,192,145588,128,0,145701:0:0:0:0:
64,192,145701,1,0,0:0:0:0:
448,192,145776,1,0,0:0:0:0:
192,192,145813,128,0,145926:0:0:0:0:
320,192,146001,1,0,0:0:0:0:
64,192,146039,128,0,146152:0:0:0:0:
192,192,146152,1,0,0:0:0:0:
448,192,146227,1,0,0:0:0:0:
320,192,146265,128,0,146377:0:0:0:0:
192,192,146452,1,0,0:0:0:0:
448,192,146490,128,0,146603:0:0:0:0:
64,192,146603,1,0,0:0:0:0:
192,192,146678,1,0,0:0:0:0:
320,192,146716,128,0,146828:0:0:0:0:
64,192,146828,1,0,0:0:0:0:
192,192,146941,128,0,147054:0:0:0:0:
448,192,147054,128,0,147505:0:0:0:0:
320,192,147054,1,0,0:0:0:0:
192,192,147167,1,0,0:0:0:0:
64,192,147279,1,0,0:0:0:0:
192,192,147355,1,0,0:0:0:0:
64,192,147430,1,0,0:0:0:0:
192,192,147505,1,0,0:0:0:0:
320,192,147505,128,0,148858:0:0:0:0:
64,192,147618,1,0,0:0:0:0:
448,192,147731,1,0,0:0:0:0:
192,192,147843,1,0,0:0:0:0:
64,192,147956,1,0,0:0:0:0:
448,192,147956,1,0,0:0:0:0:
192,192,148182,1,0,0:0:0:0:
448,192,148407,1,0,0:0:0:0:
192,192,148407,1,0,0:0:0:0:
64,192,148633,1,0,0:0:0:0:
64,192,148858,1,0,0:0:0:0:
448,192,148858,1,0,0:0:0:0:
192,192,148933,1,0,0:0:0:0:
320,192,148971,128,0,149084:0:0:0:0:
448,192,149159,1,0,0:0:0:0:
192,192,149197,128,0,149309:0:0:0:0:
320,192,149385,1,0,0:0:0:0:
64,192,149422,128,0,149535:0:0:0:0:
192,192,149610,1,0,0:0:0:0:
320,192,149648,128,0,149760:0:0:0:0:
64,192,149836,1,0,0:0:0:0:
448,192,149873,128,0,149986:0:0:0:0:
320,192,150061,1,0,0:0:0:0:
192,192,150099,128,0,150212:0:0:0:0:
64,192,150287,1,0,0:0:0:0:
448,192,150324,128,0,150437:0:0:0:0:
320,192,150512,1,0,0:0:0:0:
64,192,150550,128,0,152242:0:0:0:0:
320,192,150663,1,0,0:0:0:0:
448,192,150663,1,0,0:0:0:0:
192,192,150775,1,0,0:0:0:0:
448,192,150888,1,0,0:0:0:0:
448,192,151114,1,0,0:0:0:0:
192,192,151114,1,0,0:0:0:0:
320,192,151339,1,0,0:0:0:0:
448,192,151490,1,0,0:0:0:0:
320,192,151565,1,0,0:0:0:0:
192,192,151565,1,0,0:0:0:0:
192,192,151790,1,0,0:0:0:0:
320,192,152016,1,0,0:0:0:0:
448,192,152016,1,0,0:0:0:0:
192,192,152129,1,0,0:0:0:0:
448,192,152242,1,0,0:0:0:0:
64,192,152467,1,0,0:0:0:0:
320,192,152467,1,0,0:0:0:0:
448,192,152467,1,0,0:0:0:0:
192,192,152580,128,0,152693:0:0:0:0:
320,192,152693,128,0,152805:0:0:0:0:
192,192,152805,128,0,152918:0:0:0:0:
448,192,152918,1,0,0:0:0:0:
64,192,152993,1,0,0:0:0:0:
320,192,153031,128,0,153144:0:0:0:0:
192,192,153219,1,0,0:0:0:0:
448,192,153256,128,0,153369:0:0:0:0:
320,192,153369,1,0,0:0:0:0:
64,192,153444,1,0,0:0:0:0:
192,192,153482,128,0,153595:0:0:0:0:
320,192,153670,1,0,0:0:0:0:
64,192,153708,128,0,153820:0:0:0:0:
448,192,153820,1,0,0:0:0:0:
320,192,153896,1,0,0:0:0:0:
192,192,153933,128,0,154046:0:0:0:0:
448,192,154046,1,0,0:0:0:0:
320,192,154159,128,0,154271:0:0:0:0:
64,192,154271,128,0,154723:0:0:0:0:
192,192,154271,1,0,0:0:0:0:
448,192,154384,1,0,0:0:0:0:
192,192,154497,1,0,0:0:0:0:
448,192,154572,1,0,0:0:0:0:
192,192,154647,1,0,0:0:0:0:
448,192,154723,1,0,0:0:0:0:
320,192,154723,128,0,156076:0:0:0:0:
192,192,154835,1,0,0:0:0:0:
64,192,154948,1,0,0:0:0:0:
192,192,155061,1,0,0:0:0:0:
448,192,155174,1,0,0:0:0:0:
64,192,155174,1,0,0:0:0:0:
192,192,155399,1,0,0:0:0:0:
64,192,155625,1,0,0:0:0:0:
192,192,155625,1,0,0:0:0:0:
448,192,155850,1,0,0:0:0:0:
448,192,156076,1,0,0:0:0:0:
64,192,156076,1,0,0:0:0:0:
192,192,156151,1,0,0:0:0:0:
320,192,156189,128,0,156301:0:0:0:0:
64,192,156377,1,0,0:0:0:0:
192,192,156414,128,0,156527:0:0:0:0:
320,192,156602,1,0,0:0:0:0:
448,192,156640,128,0,156752:0:0:0:0:
320,192,156828,1,0,0:0:0:0:
192,192,156865,128,0,156978:0:0:0:0:
448,192,157053,1,0,0:0:0:0:
64,192,157091,128,0,157204:0:0:0:0:
192,192,157279,1,0,0:0:0:0:
320,192,157316,128,0,157429:0:0:0:0:
448,192,157504,1,0,0:0:0:0:
64,192,157542,128,0,157655:0:0:0:0:
192,192,157730,1,0,0:0:0:0:
448,192,157767,128,0,159459:0:0:0:0:
192,192,157880,1,0,0:0:0:0:
64,192,157880,1,0,0:0:0:0:
320,192,157993,1,0,0:0:0:0:
64,192,158106,1,0,0:0:0:0:
64,192,158331,1,0,0:0:0:0:
320,192,158331,1,0,0:0:0:0:
192,192,158557,1,0,0:0:0:0:
64,192,158707,1,0,0:0:0:0:
192,192,158782,1,0,0:0:0:0:
320,192,158782,1,0,0:0:0:0:
320,192,159008,1,0,0:0:0:0:
192,192,159233,1,0,0:0:0:0:
64,192,159233,1,0,0:0:0:0:
320,192,159346,1,0,0:0:0:0:
64,192,159459,1,0,0:0:0:0:
192,192,159685,5,0,0:0:0:0:
320,192,159685,1,0,0:0:0:0:
64,192,159797,1,0,0:0:0:0:
320,192,159910,1,0,0:0:0:0:
448,192,159910,1,0,0:0:0:0:
192,192,160023,1,0,0:0:0:0:
64,192,160023,1,0,0:0:0:0:
320,192,160136,1,0,0:0:0:0:
448,192,160136,1,0,0:0:0:0:
192,192,160248,128,0,160361:0:0:0:0:
192,192,160474,1,0,0:0:0:0:
64,192,160587,1,0,0:0:0:0:
320,192,160587,1,0,0:0:0:0:
448,192,160700,1,0,0:0:0:0:
64,192,160812,1,0,0:0:0:0:
448,192,160925,1,0,0:0:0:0:
320,192,161038,1,0,0:0:0:0:
192,192,161038,1,0,0:0:0:0:
64,192,161151,1,0,0:0:0:0:
192,192,161263,128,0,161940:0:0:0:0:
448,192,161489,1,0,0:0:0:0:
64,192,161602,1,0,0:0:0:0:
320,192,161714,1,0,0:0:0:0:
448,192,161827,1,0,0:0:0:0:
320,192,161940,1,0,0:0:0:0:
64,192,161940,1,0,0:0:0:0:
64,192,162053,128,0,162166:0:0:0:0:
192,192,162166,1,0,0:0:0:0:
320,192,162278,128,0,162504:0:0:0:0:
448,192,162391,128,0,162504:0:0:0:0:
192,192,162504,1,0,0:0:0:0:
64,192,162617,1,0,0:0:0:0:
448,192,162617,1,0,0:0:0:0:
320,192,162729,128,0,162955:0:0:0:0:
192,192,162842,128,0,162955:0:0:0:0:
64,192,163068,1,0,0:0:0:0:
448,192,163293,1,0,0:0:0:0:
64,192,163293,1,0,0:0:0:0:
320,192,163406,1,0,0:0:0:0:
192,192,163519,1,0,0:0:0:0:
64,192,163519,1,0,0:0:0:0:
320,192,163632,1,0,0:0:0:0:
448,192,163632,1,0,0:0:0:0:
192,192,163744,1,0,0:0:0:0:
64,192,163744,1,0,0:0:0:0:
320,192,163857,128,0,163970:0:0:0:0:
320,192,164083,1,0,0:0:0:0:
192,192,164195,1,0,0:0:0:0:
64,192,164195,1,0,0:0:0:0:
448,192,164308,1,0,0:0:0:0:
192,192,164421,1,0,0:0:0:0:
64,192,164534,1,0,0:0:0:0:
192,192,164647,1,0,0:0:0:0:
320,192,164647,1,0,0:0:0:0:
448,192,164759,1,0,0:0:0:0:
320,192,164872,128,0,165549:0:0:0:0:
448,192,165098,1,0,0:0:0:0:
64,192,165210,1,0,0:0:0:0:
192,192,165323,1,0,0:0:0:0:
64,192,165436,1,0,0:0:0:0:
448,192,165549,1,0,0:0:0:0:
192,192,165549,1,0,0:0:0:0:
64,192,165774,1,0,0:0:0:0:
320,192,165887,1,0,0:0:0:0:
448,192,166000,1,0,0:0:0:0:
64,192,166000,1,0,0:0:0:0:
192,192,166113,1,0,0:0:0:0:
320,192,166169,128,0,166282:0:0:0:0:
64,192,166338,1,0,0:0:0:0:
192,192,166395,128,0,166507:0:0:0:0:
448,192,166564,1,0,0:0:0:0:
320,192,166620,128,0,166733:0:0:0:0:
64,192,166789,1,0,0:0:0:0:
448,192,166846,128,0,166958:0:0:0:0:
192,192,167015,1,0,0:0:0:0:
320,192,167128,1,0,0:0:0:0:
192,192,167240,1,0,0:0:0:0:
64,192,167240,1,0,0:0:0:0:
320,192,167353,1,0,0:0:0:0:
448,192,167353,1,0,0:0:0:0:
192,192,167466,128,0,167579:0:0:0:0:
192,192,167691,1,0,0:0:0:0:
448,192,167804,1,0,0:0:0:0:
64,192,167804,1,0,0:0:0:0:
320,192,167917,1,0,0:0:0:0:
64,192,168030,1,0,0:0:0:0:
192,192,168143,1,0,0:0:0:0:
448,192,168255,1,0,0:0:0:0:
320,192,168255,1,0,0:0:0:0:
192,192,168368,1,0,0:0:0:0:
64,192,168481,128,0,169158:0:0:0:0:
192,192,168706,1,0,0:0:0:0:
448,192,168819,1,0,0:0:0:0:
320,192,168932,1,0,0:0:0:0:
448,192,169158,1,0,0:0:0:0:
320,192,169158,1,0,0:0:0:0:
192,192,169270,1,0,0:0:0:0:
320,192,169383,1,0,0:0:0:0:
64,192,169383,1,0,0:0:0:0:
64,192,169609,1,0,0:0:0:0:
448,192,169721,128,0,169834:0:0:0:0:
64,192,169947,128,0,170172:0:0:0:0:
192,192,170060,128,0,170172:0:0:0:0:
320,192,170172,1,0,0:0:0:0:
320,192,170398,128,0,170511:0:0:0:0:
192,192,170511,1,0,0:0:0:0:
64,192,170511,1,0,0:0:0:0:
448,192,170736,1,0,0:0:0:0:
64,192,170736,1,0,0:0:0:0:
192,192,170962,1,0,0:0:0:0:
448,192,170962,1,0,0:0:0:0:
64,192,171187,1,0,0:0:0:0:
192,192,171300,1,0,0:0:0:0:
320,192,171413,1,0,0:0:0:0:
448,192,171413,1,0,0:0:0:0:
192,192,171526,1,0,0:0:0:0:
448,192,171639,1,0,0:0:0:0:
320,192,171751,1,0,0:0:0:0:
192,192,171864,1,0,0:0:0:0:
64,192,171864,1,0,0:0:0:0:
320,192,172090,1,0,0:0:0:0:
64,192,172202,1,0,0:0:0:0:
448,192,172315,1,0,0:0:0:0:
320,192,172315,128,0,173556:0:0:0:0:
192,192,172315,1,0,0:0:0:0:
192,192,172766,128,0,173668:0:0:0:0:
64,192,172766,1,0,0:0:0:0:
448,192,172766,1,0,0:0:0:0:
64,192,173556,1,0,0:0:0:0:
448,192,173668,1,0,0:0:0:0:
320,192,173668,1,0,0:0:0:0:
64,192,174120,128,0,174909:0:0:0:0:
320,192,174345,128,0,174796:0:0:0:0:
192,192,174458,128,0,175135:0:0:0:0:
448,192,174683,128,0,175022:0:0:0:0:
320,192,174909,128,0,175247:0:0:0:0:
64,192,175022,1,0,0:0:0:0:
64,192,175247,1,0,0:0:0:0:
320,192,175360,1,0,0:0:0:0:
448,192,175473,1,0,0:0:0:0:
192,192,175473,1,0,0:0:0:0:
64,192,175586,1,0,0:0:0:0:
192,192,175698,1,0,0:0:0:0:
64,192,175924,1,0,0:0:0:0:
320,192,175924,1,0,0:0:0:0:
192,192,175924,1,0,0:0:0:0:
448,192,176037,1,0,0:0:0:0:
192,192,176149,1,0,0:0:0:0:
448,192,176262,1,0,0:0:0:0:
192,192,176375,1,0,0:0:0:0:
64,192,176375,1,0,0:0:0:0:
320,192,176488,128,0,176601:0:0:0:0:
192,192,176601,1,0,0:0:0:0:
64,192,176713,128,0,177052:0:0:0:0:
320,192,176826,128,0,176939:0:0:0:0:
448,192,176826,1,0,0:0:0:0:
192,192,176939,128,0,177052:0:0:0:0:
320,192,177052,1,0,0:0:0:0:
448,192,177164,128,0,177390:0:0:0:0:
320,192,177277,128,0,177390:0:0:0:0:
64,192,177277,1,0,0:0:0:0:
192,192,177390,1,0,0:0:0:0:
64,192,177503,1,0,0:0:0:0:
320,192,177616,1,0,0:0:0:0:
448,192,177728,1,0,0:0:0:0:
192,192,177728,1,0,0:0:0:0:
64,192,177841,1,0,0:0:0:0:
320,192,177954,1,0,0:0:0:0:
192,192,177954,1,0,0:0:0:0:
64,192,178067,1,0,0:0:0:0:
448,192,178067,1,0,0:0:0:0:
192,192,178179,1,0,0:0:0:0:
320,192,178179,1,0,0:0:0:0:
448,192,178292,1,0,0:0:0:0:
192,192,178292,1,0,0:0:0:0:
64,192,178405,1,0,0:0:0:0:
320,192,178518,1,0,0:0:0:0:
448,192,178518,1,0,0:0:0:0:
320,192,178630,1,0,0:0:0:0:
64,192,178630,1,0,0:0:0:0:
192,192,178743,1,0,0:0:0:0:
448,192,178856,1,0,0:0:0:0:
320,192,178969,1,0,0:0:0:0:
64,192,179082,1,0,0:0:0:0:
192,192,179082,1,0,0:0:0:0:
320,192,179194,1,0,0:0:0:0:
448,192,179307,1,0,0:0:0:0:
64,192,179307,128,0,180435:0:0:0:0:
192,192,179420,1,0,0:0:0:0:
320,192,179533,1,0,0:0:0:0:
448,192,179533,1,0,0:0:0:0:
192,192,179645,1,0,0:0:0:0:
320,192,179758,1,0,0:0:0:0:
448,192,179871,1,0,0:0:0:0:
192,192,179984,1,0,0:0:0:0:
320,192,179984,1,0,0:0:0:0:
448,192,180097,1,0,0:0:0:0:
320,192,180209,1,0,0:0:0:0:
192,192,180322,1,0,0:0:0:0:
320,192,180435,1,0,0:0:0:0:
448,192,180435,1,0,0:0:0:0:
192,192,180548,1,0,0:0:0:0:
320,192,180604,128,0,180717:0:0:0:0:
64,192,180773,1,0,0:0:0:0:
192,192,180830,128,0,180942:0:0:0:0:
448,192,180999,1,0,0:0:0:0:
320,192,181055,128,0,181168:0:0:0:0:
192,192,181224,1,0,0:0:0:0:
64,192,181281,128,0,181393:0:0:0:0:
448,192,181450,1,0,0:0:0:0:
320,192,181563,1,0,0:0:0:0:
192,192,181563,1,0,0:0:0:0:
448,192,181675,1,0,0:0:0:0:
192,192,181675,1,0,0:0:0:0:
320,192,181788,1,0,0:0:0:0:
64,192,181788,1,0,0:0:0:0:
192,192,181901,1,0,0:0:0:0:
64,192,181901,1,0,0:0:0:0:
448,192,182014,1,0,0:0:0:0:
320,192,182126,1,0,0:0:0:0:
192,192,182126,1,0,0:0:0:0:
64,192,182239,1,0,0:0:0:0:
192,192,182239,1,0,0:0:0:0:
320,192,182352,1,0,0:0:0:0:
192,192,182465,1,0,0:0:0:0:
448,192,182578,1,0,0:0:0:0:
64,192,182578,1,0,0:0:0:0:
192,192,182690,1,0,0:0:0:0:
448,192,182690,1,0,0:0:0:0:
320,192,182803,1,0,0:0:0:0:
64,192,182803,1,0,0:0:0:0:
192,192,182916,1,0,0:0:0:0:
320,192,182916,1,0,0:0:0:0:
448,192,183029,1,0,0:0:0:0:
192,192,183141,1,0,0:0:0:0:
64,192,183141,1,0,0:0:0:0:
320,192,183254,1,0,0:0:0:0:
448,192,183367,1,0,0:0:0:0:
192,192,183480,1,0,0:0:0:0:
320,192,183593,1,0,0:0:0:0:
64,192,183593,1,0,0:0:0:0:
448,192,183705,1,0,0:0:0:0:
192,192,183818,1,0,0:0:0:0:
320,192,183818,1,0,0:0:0:0:
64,192,183931,1,0,0:0:0:0:
448,192,184044,1,0,0:0:0:0:
320,192,184044,1,0,0:0:0:0:
64,192,184156,128,0,184269:0:0:0:0:
192,192,184269,1,0,0:0:0:0:
320,192,184382,128,0,184720:0:0:0:0:
64,192,184382,1,0,0:0:0:0:
448,192,184495,128,0,184720:0:0:0:0:
192,192,184495,1,0,0:0:0:0:
64,192,184607,128,0,184720:0:0:0:0:
192,192,184720,1,0,0:0:0:0:
64,192,184833,128,0,185059:0:0:0:0:
320,192,184833,1,0,0:0:0:0:
192,192,184946,128,0,185059:0:0:0:0:
448,192,184946,1,0,0:0:0:0:
320,192,185059,1,0,0:0:0:0:
64,192,185171,1,0,0:0:0:0:
320,192,185284,1,0,0:0:0:0:
192,192,185397,1,0,0:0:0:0:
448,192,185397,128,0,186299:0:0:0:0:
64,192,185510,1,0,0:0:0:0:
320,192,185622,1,0,0:0:0:0:
192,192,185735,1,0,0:0:0:0:
320,192,185848,1,0,0:0:0:0:
64,192,185848,1,0,0:0:0:0:
192,192,185961,1,0,0:0:0:0:
64,192,186074,1,0,0:0:0:0:
320,192,186186,1,0,0:0:0:0:
192,192,186299,1,0,0:0:0:0:
64,192,186299,1,0,0:0:0:0:
448,192,186412,1,0,0:0:0:0:
192,192,186525,1,0,0:0:0:0:
320,192,186637,1,0,0:0:0:0:
64,192,186637,1,0,0:0:0:0:
448,192,186750,1,0,0:0:0:0:
320,192,186750,1,0,0:0:0:0:
64,192,186863,1,0,0:0:0:0:
192,192,186976,1,0,0:0:0:0:
320,192,187089,1,0,0:0:0:0:
192,192,187201,1,0,0:0:0:0:
64,192,187201,128,0,188103:0:0:0:0:
448,192,187314,1,0,0:0:0:0:
320,192,187427,1,0,0:0:0:0:
192,192,187540,1,0,0:0:0:0:
448,192,187652,1,0,0:0:0:0:
320,192,187652,1,0,0:0:0:0:
192,192,187765,1,0,0:0:0:0:
448,192,187878,1,0,0:0:0:0:
320,192,187991,1,0,0:0:0:0:
192,192,188103,1,0,0:0:0:0:
448,192,188103,1,0,0:0:0:0:
64,192,188216,1,0,0:0:0:0:
320,192,188329,1,0,0:0:0:0:
192,192,188442,128,0,188555:0:0:0:0:
448,192,188555,1,0,0:0:0:0:
64,192,188555,1,0,0:0:0:0:
192,192,188667,1,0,0:0:0:0:
448,192,188780,1,0,0:0:0:0:
64,192,188780,1,0,0:0:0:0:
320,192,188893,1,0,0:0:0:0:
192,192,188893,1,0,0:0:0:0:
192,192,189006,1,0,0:0:0:0:
448,192,189006,1,0,0:0:0:0:
64,192,189118,1,0,0:0:0:0:
320,192,189118,1,0,0:0:0:0:
448,192,189231,1,0,0:0:0:0:
192,192,189344,1,0,0:0:0:0:
64,192,189344,1,0,0:0:0:0:
192,192,189457,1,0,0:0:0:0:
320,192,189457,1,0,0:0:0:0:
448,192,189570,1,0,0:0:0:0:
64,192,189682,1,0,0:0:0:0:
320,192,189795,1,0,0:0:0:0:
192,192,189795,1,0,0:0:0:0:
192,192,189908,1,0,0:0:0:0:
64,192,189908,1,0,0:0:0:0:
320,192,190021,1,0,0:0:0:0:
448,192,190021,1,0,0:0:0:0:
64,192,190133,1,0,0:0:0:0:
192,192,190133,1,0,0:0:0:0:
320,192,190246,1,0,0:0:0:0:
448,192,190359,1,0,0:0:0:0:
192,192,190359,1,0,0:0:0:0:
64,192,190472,1,0,0:0:0:0:
320,192,190584,1,0,0:0:0:0:
64,192,190697,1,0,0:0:0:0:
320,192,190810,1,0,0:0:0:0:
448,192,190810,1,0,0:0:0:0:
192,192,190923,128,0,191036:0:0:0:0:
320,192,191036,1,0,0:0:0:0:
448,192,191148,128,0,191487:0:0:0:0:
192,192,191261,128,0,191374:0:0:0:0:
64,192,191261,1,0,0:0:0:0:
320,192,191374,128,0,191487:0:0:0:0:
192,192,191487,1,0,0:0:0:0:
64,192,191599,128,0,191825:0:0:0:0:
192,192,191712,128,0,191825:0:0:0:0:
448,192,191712,1,0,0:0:0:0:
320,192,191825,1,0,0:0:0:0:
448,192,191938,1,0,0:0:0:0:
192,192,192051,1,0,0:0:0:0:
64,192,192163,1,0,0:0:0:0:
320,192,192163,1,0,0:0:0:0:
448,192,192276,1,0,0:0:0:0:
192,192,192389,1,0,0:0:0:0:
320,192,192389,1,0,0:0:0:0:
448,192,192502,1,0,0:0:0:0:
64,192,192502,1,0,0:0:0:0:
320,192,192614,1,0,0:0:0:0:
192,192,192614,1,0,0:0:0:0:
64,192,192727,1,0,0:0:0:0:
320,192,192727,1,0,0:0:0:0:
448,192,192840,1,0,0:0:0:0:
192,192,192953,1,0,0:0:0:0:
64,192,192953,1,0,0:0:0:0:
192,192,193066,1,0,0:0:0:0:
448,192,193066,1,0,0:0:0:0:
320,192,193178,1,0,0:0:0:0:
64,192,193291,1,0,0:0:0:0:
192,192,193404,1,0,0:0:0:0:
448,192,193517,1,0,0:0:0:0:
320,192,193517,1,0,0:0:0:0:
192,192,193629,1,0,0:0:0:0:
64,192,193742,1,0,0:0:0:0:
448,192,193742,128,0,194870:0:0:0:0:
320,192,193855,1,0,0:0:0:0:
192,192,193968,1,0,0:0:0:0:
64,192,193968,1,0,0:0:0:0:
320,192,194080,1,0,0:0:0:0:
192,192,194193,1,0,0:0:0:0:
64,192,194306,1,0,0:0:0:0:
320,192,194419,1,0,0:0:0:0:
192,192,194419,1,0,0:0:0:0:
64,192,194532,1,0,0:0:0:0:
192,192,194644,1,0,0:0:0:0:
320,192,194757,1,0,0:0:0:0:
192,192,194870,1,0,0:0:0:0:
64,192,194870,1,0,0:0:0:0:
320,192,194983,1,0,0:0:0:0:
192,192,195039,128,0,195152:0:0:0:0:
448,192,195208,1,0,0:0:0:0:
320,192,195265,128,0,195377:0:0:0:0:
64,192,195434,1,0,0:0:0:0:
192,192,195490,128,0,195603:0:0:0:0:
320,192,195659,1,0,0:0:0:0:
448,192,195716,128,0,195828:0:0:0:0:
64,192,195885,1,0,0:0:0:0:
192,192,195998,1,0,0:0:0:0:
320,192,195998,1,0,0:0:0:0:
64,192,196110,1,0,0:0:0:0:
320,192,196110,1,0,0:0:0:0:
192,192,196223,1,0,0:0:0:0:
448,192,196223,1,0,0:0:0:0:
320,192,196336,1,0,0:0:0:0:
448,192,196336,1,0,0:0:0:0:
64,192,196449,1,0,0:0:0:0:
192,192,196561,1,0,0:0:0:0:
320,192,196561,1,0,0:0:0:0:
448,192,196674,1,0,0:0:0:0:
320,192,196674,1,0,0:0:0:0:
192,192,196787,1,0,0:0:0:0:
320,192,196900,1,0,0:0:0:0:
64,192,197013,1,0,0:0:0:0:
448,192,197013,1,0,0:0:0:0:
320,192,197125,1,0,0:0:0:0:
64,192,197125,1,0,0:0:0:0:
192,192,197238,1,0,0:0:0:0:
448,192,197238,1,0,0:0:0:0:
320,192,197351,1,0,0:0:0:0:
192,192,197351,1,0,0:0:0:0:
64,192,197464,1,0,0:0:0:0:
320,192,197576,1,0,0:0:0:0:
448,192,197576,1,0,0:0:0:0:
192,192,197689,1,0,0:0:0:0:
64,192,197802,1,0,0:0:0:0:
320,192,197915,1,0,0:0:0:0:
192,192,198028,1,0,0:0:0:0:
448,192,198028,1,0,0:0:0:0:
64,192,198140,1,0,0:0:0:0:
320,192,198253,1,0,0:0:0:0:
192,192,198253,1,0,0:0:0:0:
448,192,198366,1,0,0:0:0:0:
64,192,198479,1,0,0:0:0:0:
192,192,198479,1,0,0:0:0:0:
448,192,198591,128,0,198704:0:0:0:0:
320,192,198704,1,0,0:0:0:0:
192,192,198817,128,0,199155:0:0:0:0:
448,192,198817,1,0,0:0:0:0:
64,192,198930,128,0,199155:0:0:0:0:
320,192,198930,1,0,0:0:0:0:
448,192,199042,128,0,199155:0:0:0:0:
320,192,199155,1,0,0:0:0:0:
448,192,199268,128,0,199494:0:0:0:0:
192,192,199268,1,0,0:0:0:0:
320,192,199381,128,0,199494:0:0:0:0:
64,192,199381,1,0,0:0:0:0:
192,192,199494,1,0,0:0:0:0:
448,192,199606,1,0,0:0:0:0:
192,192,199719,1,0,0:0:0:0:
320,192,199832,1,0,0:0:0:0:
64,192,199832,128,0,200734:0:0:0:0:
448,192,199945,1,0,0:0:0:0:
192,192,200057,1,0,0:0:0:0:
320,192,200170,1,0,0:0:0:0:
192,192,200283,1,0,0:0:0:0:
448,192,200283,1,0,0:0:0:0:
320,192,200396,1,0,0:0:0:0:
448,192,200509,1,0,0:0:0:0:
192,192,200621,1,0,0:0:0:0:
320,192,200734,1,0,0:0:0:0:
448,192,200734,1,0,0:0:0:0:
64,192,200847,1,0,0:0:0:0:
320,192,200960,1,0,0:0:0:0:
192,192,201072,1,0,0:0:0:0:
448,192,201072,1,0,0:0:0:0:
64,192,201185,1,0,0:0:0:0:
192,192,201185,1,0,0:0:0:0:
448,192,201298,1,0,0:0:0:0:
320,192,201411,1,0,0:0:0:0:
192,192,201524,1,0,0:0:0:0:
320,192,201636,1,0,0:0:0:0:
448,192,201636,128,0,202538:0:0:0:0:
64,192,201749,1,0,0:0:0:0:
192,192,201862,1,0,0:0:0:0:
320,192,201975,1,0,0:0:0:0:
64,192,202087,1,0,0:0:0:0:
192,192,202087,1,0,0:0:0:0:
320,192,202200,1,0,0:0:0:0:
64,192,202313,1,0,0:0:0:0:
192,192,202426,1,0,0:0:0:0:
320,192,202538,1,0,0:0:0:0:
64,192,202538,1,0,0:0:0:0:
448,192,202651,1,0,0:0:0:0:
192,192,202764,1,0,0:0:0:0:
320,192,202877,128,0,202990:0:0:0:0:
448,192,202990,1,0,0:0:0:0:
64,192,202990,1,0,0:0:0:0:
192,192,203102,1,0,0:0:0:0:
320,192,203215,1,0,0:0:0:0:
64,192,203215,1,0,0:0:0:0:
448,192,203328,1,0,0:0:0:0:
192,192,203328,1,0,0:0:0:0:
320,192,203441,1,0,0:0:0:0:
64,192,203553,128,0,203666:0:0:0:0:
448,192,203666,1,0,0:0:0:0:
64,192,203779,1,0,0:0:0:0:
320,192,203892,1,0,0:0:0:0:
192,192,203892,1,0,0:0:0:0:
448,192,204005,1,0,0:0:0:0:
64,192,204117,1,0,0:0:0:0:
192,192,204117,1,0,0:0:0:0:
448,192,204230,1,0,0:0:0:0:
320,192,204230,1,0,0:0:0:0:
64,192,204343,1,0,0:0:0:0:
192,192,204456,128,0,204568:0:0:0:0:
320,192,204568,1,0,0:0:0:0:
192,192,204681,1,0,0:0:0:0:
448,192,204794,1,0,0:0:0:0:
64,192,204794,1,0,0:0:0:0:
320,192,204907,1,0,0:0:0:0:
64,192,205019,1,0,0:0:0:0:
192,192,205019,1,0,0:0:0:0:
448,192,205132,1,0,0:0:0:0:
320,192,205132,1,0,0:0:0:0:
64,192,205245,1,0,0:0:0:0:
448,192,205358,128,0,205471:0:0:0:0:
192,192,205471,1,0,0:0:0:0:
448,192,205583,1,0,0:0:0:0:
192,192,205696,1,0,0:0:0:0:
64,192,205696,1,0,0:0:0:0:
320,192,205809,1,0,0:0:0:0:
64,192,205922,1,0,0:0:0:0:
448,192,205922,1,0,0:0:0:0:
192,192,206034,1,0,0:0:0:0:
320,192,206034,1,0,0:0:0:0:
448,192,206147,1,0,0:0:0:0:
192,192,206260,128,0,206373:0:0:0:0:
320,192,206373,1,0,0:0:0:0:
192,192,206486,1,0,0:0:0:0:
448,192,206598,1,0,0:0:0:0:
320,192,206598,1,0,0:0:0:0:
64,192,206711,1,0,0:0:0:0:
192,192,206824,1,0,0:0:0:0:
448,192,206824,1,0,0:0:0:0:
320,192,206937,1,0,0:0:0:0:
448,192,207049,1,0,0:0:0:0:
320,192,207049,1,0,0:0:0:0:
192,192,207162,1,0,0:0:0:0:
448,192,207275,1,0,0:0:0:0:
64,192,207275,1,0,0:0:0:0:
320,192,207388,1,0,0:0:0:0:
320,192,207501,1,0,0:0:0:0:
64,192,207501,1,0,0:0:0:0:
192,192,207613,1,0,0:0:0:0:
448,192,207726,1,0,0:0:0:0:
320,192,207726,1,0,0:0:0:0:
64,192,207839,1,0,0:0:0:0:
64,192,207952,1,0,0:0:0:0:
448,192,207952,1,0,0:0:0:0:
320,192,208064,1,0,0:0:0:0:
192,192,208177,1,0,0:0:0:0:
448,192,208177,1,0,0:0:0:0:
64,192,208290,1,0,0:0:0:0:
192,192,208403,1,0,0:0:0:0:
64,192,208403,1,0,0:0:0:0:
320,192,208628,1,0,0:0:0:0:
192,192,208628,1,0,0:0:0:0:
448,192,208854,1,0,0:0:0:0:
64,192,208854,1,0,0:0:0:0:
448,192,208967,1,0,0:0:0:0:
192,192,208967,1,0,0:0:0:0:
320,192,209079,1,0,0:0:0:0:
192,192,209079,1,0,0:0:0:0:
320,192,209192,1,0,0:0:0:0:
64,192,209192,1,0,0:0:0:0:
64,192,209305,1,0,0:0:0:0:
448,192,209305,1,0,0:0:0:0:
192,192,209418,1,0,0:0:0:0:
320,192,209418,1,0,0:0:0:0:
64,192,209530,1,0,0:0:0:0:
448,192,209587,1,0,0:0:0:0:
64,192,209643,1,0,0:0:0:0:
448,192,209700,1,0,0:0:0:0:
64,192,209756,1,0,0:0:0:0:
