osu file format v14

[General]
AudioFilename: audio.mp3
AudioLeadIn: 0
PreviewTime: 5448
Countdown: 0
SampleSet: Soft
StackLeniency: 0.7
Mode: 0
LetterboxInBreaks: 0
WidescreenStoryboard: 0

[Editor]
DistanceSpacing: 1.1
BeatDivisor: 4
GridSize: 32
TimelineZoom: 1.9

[Metadata]
Title:31 Minutos (TV Size)
TitleUnicode:31 Minutos (TV Size)
Artist:Pablo Ilabaca, Felipe Ilabaca
ArtistUnicode:Pablo Ilabaca, Felipe Ilabaca
Creator:Hazu-
Version:Insane
Source:31 Minutos
Tags:Cayssa electronic instrumental spanish espaƱol televisiĆ³n nacional de chile television espanol aplaplac records intro tvn
BeatmapID:2439210
BeatmapSetID:1169107

[Difficulty]
HPDrainRate:5
CircleSize:4.2
OverallDifficulty:7.5
ApproachRate:9
SliderMultiplier:1.8
SliderTickRate:1

[Events]
//Background and Video events
0,0,"31 minutos.jpg",0,0
Video,350,"31.mp4"
//Break Periods
//Storyboard Layer 0 (Background)
//Storyboard Layer 1 (Fail)
//Storyboard Layer 2 (Pass)
//Storyboard Layer 3 (Foreground)
//Storyboard Layer 4 (Overlay)
//Storyboard Sound Samples

[TimingPoints]
448,363.636363636364,4,2,1,70,1,0
5526,363.636363636364,4,2,1,70,1,0
5526,-125,4,2,1,70,0,0
5798,-125,4,2,1,5,0,0
5889,-125,4,2,1,70,0,0
6628,363.636363636364,4,2,1,70,1,0
6628,-100,4,2,1,70,0,0
6900,-100,4,2,1,5,0,0
6991,-100,4,2,1,70,0,0
8093,363.636363636364,4,2,1,70,1,0
8093,-100,4,2,1,70,0,0
8365,-100,4,2,1,5,0,0
8456,-100,4,2,1,70,0,0
11274,-100,4,2,1,5,0,0
11365,-100,4,2,1,70,0,0
12729,-100,4,2,1,5,0,0
12820,-100,4,2,1,70,0,0
14183,-100,4,2,1,5,0,0
14274,-100,4,2,1,70,0,0
17093,-100,4,2,1,5,0,0
17183,-100,4,2,1,70,0,0
18547,-100,4,2,1,5,0,0
18638,-100,4,2,1,70,0,0
20002,-100,4,2,1,5,0,0
20093,-100,4,2,1,70,0,0
24365,-100,4,2,1,5,0,0
24456,-100,4,2,1,70,0,0
25820,-100,4,2,1,5,0,0
25911,-100,4,2,1,70,0,0
29911,-90.9090909090909,4,2,1,80,0,1
30183,-90.9090909090909,4,2,1,5,0,1
30274,-90.9090909090909,4,2,1,80,0,1
31638,-90.9090909090909,4,2,1,5,0,1
31729,-90.9090909090909,4,2,1,80,0,1
36002,-90.9090909090909,4,2,1,5,0,1
36093,-90.9090909090909,4,2,1,80,0,1
37456,-90.9090909090909,4,2,1,5,0,1
37547,-90.9090909090909,4,2,1,80,0,1
41820,-90.9090909090909,4,2,1,5,0,1
41911,-90.9090909090909,4,2,1,80,0,1
43274,-90.9090909090909,4,2,1,5,0,1
43365,-90.9090909090909,4,2,1,80,0,1
44729,-90.9090909090909,4,2,1,5,0,1
44820,-90.9090909090909,4,2,1,80,0,1
45456,-90.9090909090909,4,2,1,5,0,1
45547,-90.9090909090909,4,2,1,80,0,1
46183,-90.9090909090909,4,2,1,5,0,1
46274,-90.9090909090909,4,2,1,80,0,1
47638,-90.9090909090909,4,2,1,5,0,1
47729,-90.9090909090909,4,2,1,80,0,1
49093,-90.9090909090909,4,2,1,5,0,1
49183,-90.9090909090909,4,2,1,80,0,1
50547,-90.9090909090909,4,2,1,5,0,1
50638,-90.9090909090909,4,2,1,80,0,1
52365,-90.9090909090909,4,2,1,5,0,1
52456,-90.9090909090909,4,2,1,80,0,1
53183,-90.9090909090909,4,2,1,60,0,0
54638,-90.9090909090909,4,2,1,30,0,0
55365,-90.9090909090909,4,2,1,20,0,0
55729,-90.9090909090909,4,2,1,10,0,0
56093,-90.9090909090909,4,2,1,5,0,0

[Colours]
Combo1 : 134,225,89
Combo2 : 255,74,74
Combo3 : 86,133,243
Combo4 : 255,255,26

[HitObjects]
256,192,448,12,0,4993,0:0:0:0:
269,79,5526,5,2,0:0:0:0:
109,223,5889,1,2,0:0:0:0:
109,223,6071,2,0,P|176:211|281:192,1,144,2|2,0:0|0:0,0:0:0:0:
409,58,6628,6,0,P|390:145|368:244,1,180,10|10,0:3|0:0,0:0:0:0:
426,344,7173,1,0,0:0:0:0:
232,331,7355,1,14,0:3:0:0:
232,331,7537,2,0,P|288:318|345:305,1,90,10|8,0:3|0:0,0:0:0:0:
152,255,7900,6,0,P|145:282|132:319,1,45,2|0,0:0|0:0,0:0:0:0:
84,364,8093,2,0,P|120:273|83:202,1,180,10|10,0:3|0:0,0:0:0:0:
0,135,8638,1,0,0:0:0:0:
189,56,8820,1,10,0:3:0:0:
189,56,9002,2,0,P|177:109|161:176,1,90,10|8,0:3|0:0,0:0:0:0:
120,307,9365,1,2,0:0:0:0:
72,179,9547,5,8,0:3:0:0:
244,267,9729,1,2,0:0:0:0:
244,267,9911,2,0,B|329:253|326:345|407:328,1,180,10|10,0:0|0:3,0:0:0:0:
512,235,10456,1,8,0:3:0:0:
378,148,10638,2,0,P|385:177|394:215,1,45,10|0,0:0|0:0,0:0:0:0:
463,88,10820,5,0,0:0:0:0:
463,88,10911,1,0,0:0:0:0:
463,88,11002,2,0,P|404:41|301:74,1,180,10|10,0:3|0:0,0:0:0:0:
227,142,11547,1,0,0:0:0:0:
364,244,11729,1,10,0:3:0:0:
364,244,11911,2,0,P|351:184|339:131,1,90,10|8,0:3|0:0,0:0:0:0:
253,297,12274,2,0,P|289:304|322:310,1,45,2|0,0:0|0:0,0:0:0:0:
432,319,12456,6,0,P|483:272|474:163,1,180,10|10,0:3|0:0,0:0:0:0:
388,60,13002,1,0,0:0:0:0:
287,172,13183,1,14,0:3:0:0:
287,172,13365,2,0,P|340:163|412:147,1,90,10|8,0:3|0:0,0:0:0:0:
510,298,13729,5,2,0:0:0:0:
510,298,13820,1,0,0:0:0:0:
510,298,13911,2,0,P|450:286|326:260,1,180,10|10,0:3|0:0,0:0:0:0:
180,164,14456,1,0,0:0:0:0:
194,345,14638,1,10,0:3:0:0:
194,345,14820,2,0,P|207:300|224:241,1,90,10|8,0:3|0:0,0:0:0:0:
314,336,15183,1,2,0:0:0:0:
100,323,15365,6,0,P|113:278|130:219,1,90,10|0,0:3|0:0,0:0:0:0:
267,178,15729,2,0,P|254:221|242:264,1,90,10|0,0:0|0:0,0:0:0:0:
163,98,16093,1,10,0:3:0:0:
296,71,16274,1,8,0:3:0:0:
135,103,16456,1,10,0:0:0:0:
247,171,16638,2,0,P|240:141|231:105,1,45,2|0,0:0|0:0,0:0:0:0:
183,22,16820,6,0,P|110:11|37:98,1,180,10|10,0:3|0:0,0:0:0:0:
50,194,17365,1,0,0:0:0:0:
211,151,17547,1,10,0:3:0:0:
211,151,17729,2,0,P|161:140|96:127,1,90,10|8,0:3|0:0,0:0:0:0:
253,44,18093,5,2,0:0:0:0:
253,44,18183,1,0,0:0:0:0:
253,44,18274,2,0,P|333:30|446:9,1,180,10|10,0:3|0:0,0:0:0:0:
507,97,18820,1,0,0:0:0:0:
393,201,19002,1,14,0:3:0:0:
393,201,19183,2,0,P|401:153|411:97,1,90,10|8,0:3|0:0,0:0:0:0:
300,282,19547,2,0,P|293:249|287:222,1,45,2|0,0:0|0:0,0:0:0:0:
265,153,19729,6,0,P|181:123|105:181,1,180,10|10,0:3|0:0,0:0:0:0:
70,262,20274,1,0,0:0:0:0:
214,315,20456,1,10,0:3:0:0:
214,315,20638,2,0,P|223:265|197:215,1,90,10|8,0:3|0:0,0:0:0:0:
81,98,21002,6,0,P|93:148|109:220,1,90,2|8,0:0|0:3,0:0:0:0:
237,59,21365,2,0,P|187:44|117:22,1,90,2|8,0:0|0:0,0:0:0:0:
196,216,21729,2,0,P|233:180|287:130,1,90,2|8,0:0|0:3,0:0:0:0:
356,74,22093,1,10,0:3:0:0:
164,24,22274,5,10,0:0:0:0:
164,24,22365,1,0,0:0:0:0:
164,24,22456,2,0,P|151:77|134:140,1,90,2|10,0:0|0:3,0:0:0:0:
44,183,22820,1,2,0:0:0:0:
212,290,23002,2,0,P|280:225|266:139,1,180,10|8,0:0|0:3,0:0:0:0:
195,16,23547,1,10,0:3:0:0:
86,125,23729,1,10,0:0:0:0:
86,125,23820,1,0,0:0:0:0:
86,125,23911,2,0,P|110:132|146:143,1,45,2|0,0:0|0:0,0:0:0:0:
248,185,24093,6,0,P|174:201|60:224,1,180,10|10,0:3|0:0,0:0:0:0:
0,310,24638,1,0,0:0:0:0:
53,109,24820,1,14,0:3:0:0:
53,109,25002,2,0,P|105:119|168:131,1,90,10|8,0:3|0:0,0:0:0:0:
260,281,25365,2,0,P|254:252|247:221,1,45,2|0,0:0|0:0,0:0:0:0:
303,125,25547,6,0,P|291:192|269:310,1,180,10|10,0:3|0:0,0:0:0:0:
352,374,26093,1,0,0:0:0:0:
157,292,26274,1,10,0:3:0:0:
157,292,26456,2,0,P|141:231|168:186,1,90,10|8,0:3|0:0,0:0:0:0:
244,123,26820,1,2,0:0:0:0:
349,284,27002,6,0,P|294:270|240:258,1,90,10|0,0:3|0:0,0:0:0:0:
458,145,27365,2,0,P|448:188|432:244,1,90,10|0,0:0|0:0,0:0:0:0:
387,384,27729,1,12,0:3:0:0:
339,171,27911,1,10,0:3:0:0:
512,286,28093,1,10,0:0:0:0:
270,327,28274,1,2,0:0:0:0:
427,169,28456,5,10,0:3:0:0:
427,169,28638,2,0,P|416:223|405:277,1,90,2|8,0:0|0:0,0:0:0:0:
247,203,29002,1,2,0:0:0:0:
321,58,29183,1,10,0:3:0:0:
321,58,29365,2,0,P|332:112|343:166,1,90,10|8,0:3|0:0,0:0:0:0:
220,72,29729,1,2,0:0:0:0:
454,50,29911,6,0,P|439:111|403:250,1,198.000006042481,10|10,0:3|0:0,0:0:0:0:
215,343,30456,1,2,0:0:0:0:
395,269,30638,1,10,0:3:0:0:
207,147,30820,2,0,P|219:198|232:256,1,99.0000030212403,10|8,0:3|0:0,0:0:0:0:
105,36,31183,5,2,0:0:0:0:
105,36,31274,1,0,0:0:0:0:
105,36,31365,2,0,P|89:113|61:239,1,198.000006042481,10|10,0:3|0:0,0:0:0:0:
29,347,31911,1,0,0:0:0:0:
233,282,32093,1,10,0:3:0:0:
233,282,32274,2,0,P|193:253|132:261,1,99.0000030212403,10|8,0:3|0:0,0:0:0:0:
392,287,32638,2,0,P|399:258|408:224,1,49.5000015106202,2|0,0:0|0:0,0:0:0:0:
353,161,32820,6,0,P|296:171|219:182,1,99.0000030212403,10|0,0:3|0:0,0:0:0:0:
88,253,33183,2,0,P|136:260|185:269,1,99.0000030212403,10|0,0:0|0:0,0:0:0:0:
0,188,33547,1,10,0:3:0:0:
13,359,33729,2,0,P|61:349|112:338,1,99.0000030212403,8|8,0:3|0:0,0:0:0:0:
215,167,34093,6,0,P|200:232|185:294,1,99.0000030212403,2|8,0:0|0:3,0:0:0:0:
331,357,34456,2,0,P|316:292|301:230,1,99.0000030212403,2|8,0:0|0:0,0:0:0:0:
270,77,34820,1,2,0:0:0:0:
133,231,35002,1,8,0:3:0:0:
351,150,35183,1,10,0:3:0:0:
140,28,35365,2,0,P|128:76|150:131,1,99.0000030212403,10|0,0:0|0:0,0:0:0:0:
227,208,35638,1,0,0:0:0:0:
227,208,35729,6,0,B|258:170|258:170|228:14,1,198.000006042481,10|10,0:3|0:0,0:0:0:0:
358,190,36274,1,2,0:0:0:0:
150,119,36456,1,10,0:3:0:0:
348,18,36638,2,0,P|334:83|321:143,1,99.0000030212403,10|8,0:3|0:0,0:0:0:0:
238,308,37002,5,2,0:0:0:0:
238,308,37093,1,0,0:0:0:0:
238,308,37183,2,0,P|220:218|198:95,1,198.000006042481,10|10,0:3|0:0,0:0:0:0:
111,233,37729,1,0,0:0:0:0:
334,290,37911,1,10,0:3:0:0:
334,290,38093,2,0,P|343:241|353:192,1,99.0000030212403,10|8,0:3|0:0,0:0:0:0:
295,103,38365,1,0,0:0:0:0:
295,103,38456,6,0,P|304:152|314:201,1,99.0000030212403,2|10,0:0|0:3,0:0:0:0:
400,49,38820,1,2,0:0:0:0:
201,20,39002,2,0,P|187:103|163:234,1,198.000006042481,10|10,0:0|0:3,0:0:0:0:
84,319,39547,1,8,0:3:0:0:
265,257,39729,2,0,P|313:249|358:267,1,99.0000030212403,10|0,0:0|0:0,0:0:0:0:
414,335,40002,1,0,0:0:0:0:
414,335,40093,5,10,0:3:0:0:
362,160,40274,2,0,P|316:148|238:125,1,99.0000030212403,2|8,0:0|0:0,0:0:0:0:
127,284,40638,2,0,P|174:270|222:257,1,99.0000030212403,2|8,0:0|0:3,0:0:0:0:
48,171,41002,1,10,0:3:0:0:
35,357,41183,1,8,0:0:0:0:
189,159,41365,5,2,0:0:0:0:
189,159,41456,1,0,0:0:0:0:
189,159,41547,2,0,B|293:135|276:242|382:212,1,198.000006042481,10|10,0:3|0:0,0:0:0:0:
501,47,42093,1,2,0:0:0:0:
351,119,42274,1,10,0:3:0:0:
505,258,42456,2,0,P|525:204|505:159,1,99.0000030212403,10|8,0:3|0:0,0:0:0:0:
390,33,42820,5,2,0:0:0:0:
390,33,42911,1,0,0:0:0:0:
390,33,43002,2,0,P|296:52|225:66,1,148.50000453186,10|0,0:3|0:0,0:0:0:0:
224,90,43365,2,0,P|237:146|251:197,1,99.0000030212403,10|0,0:0|0:0,0:0:0:0:
308,353,43729,1,10,0:3:0:0:
146,169,43911,1,10,0:3:0:0:
368,159,44093,2,0,P|355:226|343:281,1,99.0000030212403,8|0,0:0|0:0,0:0:0:0:
252,293,44365,1,0,0:0:0:0:
252,293,44456,6,0,P|156:276|28:254,1,198.000006042481,10|10,0:3|0:0,0:0:0:0:
338,216,45183,2,0,P|242:199|114:177,1,198.000006042481,10|10,0:3|0:0,0:0:0:0:
418,137,45911,6,0,P|322:120|194:98,1,198.000006042481,10|10,0:3|0:0,0:0:0:0:
72,179,46456,1,2,0:0:0:0:
198,126,46638,1,8,0:3:0:0:
30,100,46820,1,10,0:3:0:0:
163,237,47002,1,10,0:0:0:0:
138,44,47183,1,2,0:0:0:0:
2,267,47365,6,0,B|100:240|93:358|194:322,1,198.000006042481,10|10,0:3|0:0,0:0:0:0:
297,259,47911,1,0,0:0:0:0:
141,131,48093,1,10,0:3:0:0:
141,131,48274,2,0,P|154:196|164:248,1,99.0000030212403,10|8,0:3|0:0,0:0:0:0:
12,97,48638,2,0,P|39:90|80:79,1,49.5000015106202
145,26,48820,6,0,P|220:5|318:105,1,198.000006042481,10|10,0:3|0:0,0:0:0:0:
374,209,49365,1,0,0:0:0:0:
183,176,49547,1,10,0:3:0:0:
183,176,49729,2,0,P|237:164|311:147,1,99.0000030212403,10|8,0:3|0:0,0:0:0:0:
132,12,50093,5,2,0:0:0:0:
132,12,50183,1,0,0:0:0:0:
132,12,50274,2,0,P|121:63|108:114,1,99.0000030212403,10|0,0:3|0:0,0:0:0:0:
10,278,50638,2,0,P|83:215|188:258,1,198.000006042481,10|8,0:0|0:3,0:0:0:0:
278,378,51183,1,10,0:3:0:0:
105,311,51365,1,10,0:0:0:0:
296,170,51547,5,2,0:0:0:0:
296,170,51638,1,0,0:0:0:0:
296,170,51729,2,0,P|284:212|261:290,1,99.0000030212403,10|0,0:3|0:0,0:0:0:0:
160,100,52093,2,0,B|301:60|301:60|358:87,1,198.000006042481,10|10,0:0|0:3,0:0:0:0:
488,204,52638,2,0,P|436:192|371:177,1,99.0000030212403,2|8,0:3|0:0,0:0:0:0:
225,257,53002,1,2,0:0:0:0:
289,153,53183,5,10,0:3:0:0:
256,192,53274,12,0,56093,0:0:0:0:
