osu file format v14

[General]
AudioFilename: audio.mp3
AudioLeadIn: 0
PreviewTime: 5448
Countdown: 0
SampleSet: Soft
StackLeniency: 0.7
Mode: 0
LetterboxInBreaks: 0
WidescreenStoryboard: 0

[Editor]
DistanceSpacing: 0.5
BeatDivisor: 4
GridSize: 32
TimelineZoom: 1.9

[Metadata]
Title:31 Minutos (TV Size)
TitleUnicode:31 Minutos (TV Size)
Artist:Pablo Ilabaca, Felipe Ilabaca
ArtistUnicode:Pablo Ilabaca, Felipe Ilabaca
Creator:Hazu-
Version:Easy
Source:31 Minutos
Tags:Cayssa electronic instrumental spanish espaƱol televisiĆ³n nacional de chile television espanol aplaplac records intro tvn
BeatmapID:2439121
BeatmapSetID:1169107

[Difficulty]
HPDrainRate:3
CircleSize:3
OverallDifficulty:3
ApproachRate:4
SliderMultiplier:0.899999999999999
SliderTickRate:1

[Events]
//Background and Video events
0,0,"31 minutos.jpg",0,0
Video,350,"31.mp4"
//Break Periods
//Storyboard Layer 0 (Background)
//Storyboard Layer 1 (Fail)
//Storyboard Layer 2 (Pass)
//Storyboard Layer 3 (Foreground)
//Storyboard Layer 4 (Overlay)
//Storyboard Sound Samples

[TimingPoints]
448,363.636363636364,4,2,1,70,1,0
5526,363.636363636364,4,2,1,70,1,0
5526,-100,4,2,1,70,0,0
5798,-100,4,2,1,5,0,0
5889,-100,4,2,1,70,0,0
6628,363.636363636364,4,2,1,70,1,0
6628,-100,4,2,1,70,0,0
6900,-100,4,2,1,5,0,0
6991,-100,4,2,1,70,0,0
8093,363.636363636364,4,2,1,70,1,0
8093,-100,4,2,1,70,0,0
8365,-100,4,2,1,5,0,0
8456,-100,4,2,1,70,0,0
11274,-100,4,2,1,5,0,0
11365,-100,4,2,1,70,0,0
12729,-100,4,2,1,5,0,0
12820,-100,4,2,1,70,0,0
14183,-100,4,2,1,5,0,0
14274,-100,4,2,1,70,0,0
17093,-100,4,2,1,5,0,0
17183,-100,4,2,1,70,0,0
18547,-100,4,2,1,5,0,0
18638,-100,4,2,1,70,0,0
20002,-100,4,2,1,5,0,0
20093,-100,4,2,1,70,0,0
24365,-100,4,2,1,5,0,0
24456,-100,4,2,1,70,0,0
25820,-100,4,2,1,5,0,0
25911,-100,4,2,1,70,0,0
29911,-100,4,2,1,80,0,1
30183,-100,4,2,1,5,0,1
30274,-100,4,2,1,80,0,1
31638,-100,4,2,1,5,0,1
31729,-100,4,2,1,80,0,1
36002,-100,4,2,1,5,0,1
36093,-100,4,2,1,80,0,1
37456,-100,4,2,1,5,0,1
37547,-100,4,2,1,80,0,1
41820,-100,4,2,1,5,0,1
41911,-100,4,2,1,80,0,1
43274,-100,4,2,1,5,0,1
43365,-100,4,2,1,80,0,1
44729,-100,4,2,1,5,0,1
44820,-100,4,2,1,80,0,1
45456,-100,4,2,1,5,0,1
45547,-100,4,2,1,80,0,1
46183,-100,4,2,1,5,0,1
46274,-100,4,2,1,80,0,1
47638,-100,4,2,1,5,0,1
47729,-100,4,2,1,80,0,1
49093,-100,4,2,1,5,0,1
49183,-100,4,2,1,80,0,1
50547,-100,4,2,1,5,0,1
50638,-100,4,2,1,80,0,1
52365,-100,4,2,1,5,0,1
52456,-100,4,2,1,80,0,1
53183,-100,4,2,1,60,0,0
54638,-100,4,2,1,30,0,0
55365,-100,4,2,1,20,0,0
55729,-100,4,2,1,10,0,0
56093,-100,4,2,1,5,0,0

[Colours]
Combo1 : 134,225,89
Combo2 : 255,74,74
Combo3 : 86,133,243
Combo4 : 255,255,26

[HitObjects]
256,192,448,12,0,4993,0:0:0:0:
186,343,6628,6,0,P|219:321|283:329,1,89.9999999999999,10|10,0:3|0:0,0:0:0:0:
355,369,7355,2,0,P|366:297|378:227,1,135,14|2,0:3|0:0,0:0:0:0:
239,173,8456,1,10,0:0:0:0:
155,225,8820,2,0,P|144:297|132:367,1,135,10|2,0:3|0:0,0:0:0:0:
43,316,9729,6,0,P|54:249|79:81,1,225,2|10,0:0|0:0,0:0:0:0:
164,45,11002,1,10,0:3:0:0:
247,98,11365,2,0,P|306:90|392:79,1,135,10|10,0:0|0:3,0:0:0:0:
507,157,12456,6,0,P|523:199|510:244,1,89.9999999999999,10|10,0:3|0:0,0:0:0:0:
413,252,13183,2,0,P|400:309|382:387,2,135,14|2|10,0:3|0:0|0:0,0:0:0:0:
341,183,14638,2,0,P|286:155|182:211,1,180,10|10,0:3|0:3,0:0:0:0:
144,292,15729,5,10,0:0:0:0:
223,350,16093,2,0,P|270:341|332:330,1,89.9999999999999,10|10,0:3|0:0,0:0:0:0:
403,369,16820,1,10,0:3:0:0:
479,305,17183,2,0,P|498:255|466:182,1,135,10|10,0:0|0:3,0:0:0:0:
344,100,18274,6,0,P|336:145|326:192,1,89.9999999999999,10|10,0:3|0:0,0:0:0:0:
236,228,19002,2,0,P|248:282|266:369,2,135,14|2|10,0:3|0:0|0:0,0:0:0:0:
159,165,20456,2,0,P|96:152|10:136,1,135,10|2,0:3|0:0,0:0:0:0:
7,41,21365,5,2,0:0:0:0:
104,25,21729,2,0,P|170:37|201:43,1,89.9999999999999,2|10,0:0|0:3,0:0:0:0:
256,117,22456,2,0,P|268:176|283:251,1,135,2|10,0:0|0:0,0:0:0:0:
462,333,23729,1,10,0:0:0:0:
505,244,24093,6,0,P|491:177|485:146,1,89.9999999999999,10|10,0:3|0:0,0:0:0:0:
390,132,24820,2,0,P|403:65|416:0,2,135,14|2|10,0:3|0:0|0:0,0:0:0:0:
309,189,26274,2,0,B|219:207|232:123|137:141,1,180,10|10,0:3|0:3,0:0:0:0:
52,179,27365,5,10,0:0:0:0:
1,263,27729,2,0,P|-7:311|9:354,1,89.9999999999999,12|10,0:3|0:0,0:0:0:0:
101,376,28456,1,10,0:3:0:0:
176,311,28820,1,8,0:0:0:0:
261,361,29183,2,0,P|302:369|363:379,1,89.9999999999999,10|8,0:3|0:0,0:0:0:0:
436,329,29911,6,0,P|429:284|421:231,1,89.9999999999999,10|10,0:3|0:0,0:0:0:0:
337,188,30638,2,0,P|348:131|366:36,2,135,10|2|10,0:3|0:0|0:0,0:0:0:0:
258,248,32093,1,10,0:3:0:0:
209,107,32638,6,0,B|165:83|165:83|62:102,1,135,2|10,0:0|0:0,0:0:0:0:
9,166,33547,2,0,P|-7:230|37:301,1,135,10|2,0:3|0:0,0:0:0:0:
113,328,34456,1,2,0:0:0:0:
191,267,34820,1,2,0:0:0:0:
135,184,35183,2,0,P|146:129|164:43,1,135,10|10,0:3|0:3,0:0:0:0:
255,18,36093,5,10,0:0:0:0:
346,55,36456,2,0,P|357:110|375:196,2,135,10|2|10,0:3|0:0|0:0,0:0:0:0:
437,16,37911,2,0,P|448:71|466:157,1,135,10|2,0:3|0:0,0:0:0:0:
460,247,38820,6,0,P|416:292|339:282,1,135,2|10,0:0|0:3,0:0:0:0:
269,227,39729,1,10,0:0:0:0:
187,170,40093,2,0,P|121:164|75:210,1,135,10|2,0:3|0:0,0:0:0:0:
49,306,41002,1,10,0:3:0:0:
132,359,41365,6,0,P|197:348|285:332,1,135,2|10,0:0|0:0,0:0:0:0:
356,372,42274,1,10,0:3:0:0:
454,260,42820,2,0,P|469:195|432:136,1,135,2|10,0:0|0:0,0:0:0:0:
354,82,43729,2,0,L|340:146,1,45,10|10,0:3|0:3,0:0:0:0:
267,252,44456,6,0,P|255:177|230:34,2,180,10|10|10,0:3|0:3|0:3,0:0:0:0:
133,316,46456,2,0,P|123:251|109:168,1,135,2|10,0:0|0:0,0:0:0:0:
42,112,47365,5,10,0:3:0:0:
113,44,47729,1,10,0:0:0:0:
195,98,48093,2,0,P|270:113|350:129,1,135,10|2,0:3|0:0,0:0:0:0:
441,28,49183,1,10,0:0:0:0:
508,100,49547,2,0,P|533:164|497:234,2,135,10|2|10,0:3|0:0|0:0,0:0:0:0:
441,28,51002,5,8,0:3:0:0:
353,75,51365,1,10,0:0:0:0:
261,39,51729,2,0,P|206:48|150:55,1,89.9999999999999,10|10,0:3|0:0,0:0:0:0:
132,143,52456,2,0,P|176:149|220:156,1,89.9999999999999,10|8,0:3|0:0,0:0:0:0:
288,229,53183,5,10,0:3:0:0:
256,192,53365,12,0,56093,0:0:0:0:
