osu file format v14

[General]
AudioFilename: audio.mp3
AudioLeadIn: 0
PreviewTime: 62767
Countdown: 0
SampleSet: Normal
StackLeniency: 0.4
Mode: 0
LetterboxInBreaks: 0
WidescreenStoryboard: 1

[Editor]
DistanceSpacing: 1
BeatDivisor: 2
GridSize: 8
TimelineZoom: 1

[Metadata]
Title:K.O.
TitleUnicode:K.O.
Artist:Pabllo Vittar
ArtistUnicode:Pabllo Vittar
Creator:Nukrid
Version:Hard
Source:
Tags:corrente whatsapp lula globo longe demais
BeatmapID:1606949
BeatmapSetID:762085

[Difficulty]
HPDrainRate:5
CircleSize:4
OverallDifficulty:6
ApproachRate:7.5
SliderMultiplier:1.4
SliderTickRate:1

[Events]
//Background and Video events
0,0,"maxresdefault.jpg",0,0
//Break Periods
2,89670,110709
//Storyboard Layer 0 (Background)
//Storyboard Layer 1 (Fail)
//Storyboard Layer 2 (Pass)
//Storyboard Layer 3 (Foreground)
//Storyboard Sound Samples

[TimingPoints]
24825,387.096774193548,4,1,0,40,1,0
25792,-133.333333333333,4,1,0,40,0,0
44954,-80,4,1,0,40,0,0
48631,-133.333333333333,4,1,0,40,0,0
61986,-100,4,1,0,60,0,1
86760,-100,4,1,0,40,0,0
111534,-100,4,1,0,60,0,1
124308,-66.6666666666667,4,1,0,60,0,1
136502,-100,4,1,0,40,0,0

[HitObjects]
48,304,24825,6,0,L|48:160,1,140
120,48,25599,1,0,0:0:0:0:
256,48,25986,2,0,L|256:152,1,52.5000020027161
256,240,26373,1,0,0:0:0:0:
392,192,26760,2,0,L|392:56,1,105.000004005432
472,72,27534,6,0,L|472:136,1,52.5000020027161
472,264,27921,1,0,0:0:0:0:
352,336,28308,1,0,0:0:0:0:
176,232,28695,2,0,L|176:160,1,52.5000020027161
328,136,29083,2,0,L|328:208,1,52.5000020027161
256,304,29470,1,0,0:0:0:0:
136,336,29857,1,0,0:0:0:0:
136,232,30244,2,0,L|208:160,1,52.5000020027161
264,264,30631,2,0,L|216:312,1,52.5000020027161
56,304,31018,1,0,0:0:0:0:
80,240,31405,6,0,L|80:128,1,105.000004005432
80,48,32179,2,0,L|144:48,1,52.5000020027161
256,48,32566,1,0,0:0:0:0:
384,80,32954,1,0,0:0:0:0:
448,192,33341,1,0,0:0:0:0:
360,328,33728,2,0,L|296:328,1,52.5000020027161
256,192,34115,1,0,0:0:0:0:
256,88,34502,5,0,0:0:0:0:
152,192,34889,2,0,L|152:248,1,52.5000020027161
352,248,35276,2,0,L|352:184,1,52.5000020027161
256,268,35663,1,0,0:0:0:0:
178,192,35857,1,0,0:0:0:0:
256,114,36050,1,0,0:0:0:0:
332,192,36244,1,0,0:0:0:0:
256,192,36437,2,0,L|256:224,8,26.2500010013581
360,56,37599,6,0,L|240:56,1,105.000004005432
96,56,38373,1,0,0:0:0:0:
96,192,38760,1,0,0:0:0:0:
256,192,39147,1,0,0:0:0:0:
392,128,39534,6,0,L|392:240,1,105.000004005432
304,336,40308,2,0,L|192:336,1,105.000004005432
88,336,41083,1,0,0:0:0:0:
88,224,41470,2,0,P|101:177|143:161,1,52.5000020027161,0|0,0:3|0:3,0:3:0:0:
160,96,41857,2,0,P|206:109|222:151,1,52.5000020027161,0|0,0:3|0:3,0:3:0:0:
232,192,42244,2,0,P|218:238|176:254,1,52.5000020027161,0|0,0:3|0:3,0:3:0:0:
432,88,42631,6,0,L|432:152,1,52.5000020027161
432,232,43018,2,0,L|432:304,1,52.5000020027161
320,288,43405,2,0,L|256:288,1,52.5000020027161
96,288,43792,6,0,L|96:224,1,52.5000020027161
96,128,44179,2,0,L|96:56,1,52.5000020027161
192,72,44566,2,0,L|256:72,1,52.5000020027161
352,80,44954,2,0,L|352:208,1,87.5
352,240,45341,1,0,0:0:0:0:
352,240,45534,1,0,0:0:0:0:
352,240,45728,1,0,0:0:0:0:
384,312,46115,6,0,L|288:312,1,87.5
216,312,46502,2,0,L|128:312,1,87.5
64,312,46889,1,0,0:0:0:0:
64,312,47083,1,0,0:0:0:0:
64,312,47276,1,0,0:0:0:0:
64,192,47663,2,0,L|152:192,1,87.5
152,120,48050,2,0,L|64:120,1,87.5
64,120,48437,1,0,0:0:0:0:
144,48,49018,6,0,L|272:48,1,105.000004005432
328,48,49792,2,0,L|328:112,1,52.5000020027161
328,176,50179,2,0,L|328:240,1,52.5000020027161
256,320,50760,1,0,0:0:0:0:
144,320,51147,2,0,L|144:240,1,52.5000020027161
144,184,51534,1,0,0:0:0:0:
256,184,51921,2,0,L|320:184,1,52.5000020027161
256,256,52308,2,0,L|192:256,1,52.5000020027161
256,192,52695,1,0,0:0:0:0:
184,120,53083,6,0,L|248:120,1,52.5000020027161
320,120,53470,2,0,L|320:192,1,52.5000020027161
320,256,53857,2,0,L|256:256,1,52.5000020027161
184,256,54244,2,0,L|184:184,2,52.5000020027161
256,192,55792,5,0,0:0:0:0:
256,192,57341,5,0,0:0:0:0:
256,56,58889,6,0,L|256:120,1,52.5000020027161
96,192,59276,2,0,L|152:192,1,52.5000020027161
256,336,59663,2,0,L|256:280,1,52.5000020027161
408,192,60050,2,0,L|344:192,1,52.5000020027161
256,192,60437,2,0,L|256:224,14,26.2500010013581
256,88,61986,5,0,0:0:0:0:
96,88,62373,2,0,L|96:256,1,140
256,312,63147,1,0,0:0:0:0:
368,192,63341,1,0,0:0:0:0:
256,72,63534,1,0,0:0:0:0:
256,192,63921,1,0,0:0:0:0:
256,192,64308,1,0,0:0:0:0:
128,192,64695,6,0,L|128:104,1,70
256,64,65083,1,0,0:0:0:0:
256,296,65470,1,0,0:0:0:0:
128,296,65857,2,0,L|128:208,1,70
384,224,66244,2,0,L|384:296,1,70
256,344,66631,1,0,0:0:0:0:
256,192,67018,5,0,0:0:0:0:
255,323,67405,1,0,0:0:0:0:
131,232,67599,1,0,0:0:0:0:
179,86,67792,1,0,0:0:0:0:
333,86,67986,1,0,0:0:0:0:
380,232,68179,1,0,0:0:0:0:
256,192,68566,6,0,L|88:192,1,140
312,40,69341,2,0,L|392:40,1,70
464,192,69728,1,0,0:0:0:0:
256,192,70115,6,0,L|424:192,1,140
200,344,70889,2,0,L|120:344,1,70
56,232,71276,1,0,0:0:0:0:
256,192,71663,1,0,0:0:0:0:
224,48,72050,6,0,L|328:48,1,70
400,160,72437,2,0,L|400:264,1,70
288,336,72824,2,0,L|184:336,1,70
112,224,73212,2,0,L|112:120,1,70
256,102,73599,1,0,0:0:0:0:
340,164,73792,1,0,0:0:0:0:
308,264,73986,1,0,0:0:0:0:
203,264,74179,1,0,0:0:0:0:
171,164,74373,1,0,0:0:0:0:
432,112,74760,6,0,L|432:256,1,140
312,320,75534,1,0,0:0:0:0:
192,320,75728,1,0,0:0:0:0:
112,224,75921,1,0,0:0:0:0:
191,48,76308,6,0,L|344:48,1,140
378,156,77082,1,0,0:0:0:0:
378,263,77276,1,0,0:0:0:0:
291,335,77470,1,0,0:0:0:0:
256,192,77857,1,0,0:0:0:0:
256,72,78244,6,0,L|176:112,1,70
296,128,78631,2,0,L|216:168,1,70
128,208,79018,1,0,0:0:0:0:
128,208,79405,5,0,0:0:0:0:
256,312,79792,6,0,L|336:272,1,70
216,256,80179,2,0,L|296:216,1,70
384,176,80566,1,0,0:0:0:0:
256,56,80954,5,0,0:0:0:0:
120,192,81341,1,0,0:0:0:0:
256,336,81728,1,0,0:0:0:0:
256,240,81921,1,0,0:0:0:0:
256,152,82115,1,0,0:0:0:0:
256,328,82502,5,0,0:0:0:0:
392,192,82889,1,0,0:0:0:0:
256,48,83276,1,0,0:0:0:0:
256,144,83469,1,0,0:0:0:0:
256,232,83663,1,0,0:0:0:0:
48,192,84050,1,0,0:0:0:0:
112,72,84437,6,0,L|208:72,1,70
320,72,84824,2,0,L|416:72,1,70
392,192,85212,2,0,L|296:192,1,70
184,192,85599,2,0,L|88:192,1,70
224,312,85986,2,0,L|320:312,1,70
384,312,86373,1,0,0:0:0:0:
384,312,86566,1,0,0:0:0:0:
256,192,86760,12,0,89470,0:0:0:0:
256,208,111534,5,0,0:0:0:0:
256,64,111921,1,0,0:0:0:0:
400,64,112308,1,0,0:0:0:0:
400,192,112695,2,0,L|400:272,1,70
256,344,113083,1,0,0:0:0:0:
256,192,113470,5,0,0:0:0:0:
256,56,113857,1,0,0:0:0:0:
96,112,114244,2,0,L|96:200,1,70
192,304,114631,1,0,0:0:0:0:
336,192,115018,1,0,0:0:0:0:
256,128,115405,5,0,0:0:0:0:
176,240,115599,1,0,0:0:0:0:
336,240,115792,1,0,0:0:0:0:
256,200,115986,1,0,0:0:0:0:
256,200,116180,1,0,0:0:0:0:
256,200,116566,5,0,0:0:0:0:
256,296,116954,1,0,0:0:0:0:
156,224,117147,1,0,0:0:0:0:
194,107,117341,1,0,0:0:0:0:
317,107,117534,1,0,0:0:0:0:
355,224,117728,1,0,0:0:0:0:
416,264,118115,6,0,L|328:264,1,70
96,120,118695,2,0,L|184:120,1,70
324,40,119663,6,0,L|324:123,1,70
187,343,120243,2,0,L|187:260,1,70
104,320,121599,6,0,L|104:224,1,70
256,192,121986,2,0,L|256:112,1,70
408,64,122373,2,0,L|408:160,1,70
256,192,122760,2,0,L|256:272,1,70
256,336,123147,1,0,0:0:0:0:
176,336,123341,1,0,0:0:0:0:
176,248,123534,1,0,0:0:0:0:
176,168,123728,1,0,0:0:0:0:
176,88,123921,1,0,0:0:0:0:
256,192,124308,5,0,0:0:0:0:
408,192,124695,1,0,0:0:0:0:
408,56,125083,2,0,L|280:56,1,105.000004005432
192,56,125470,1,0,0:0:0:0:
256,192,125857,5,0,0:0:0:0:
256,328,126244,1,0,0:0:0:0:
96,328,126631,2,0,L|96:216,1,105.000004005432
176,80,127018,1,0,0:0:0:0:
384,80,127405,1,0,0:0:0:0:
384,192,127792,5,0,0:0:0:0:
384,224,127986,1,0,0:0:0:0:
384,256,128179,1,0,0:0:0:0:
384,288,128373,1,0,0:0:0:0:
384,320,128566,1,0,0:0:0:0:
256,320,128954,1,0,0:0:0:0:
128,192,129341,5,0,0:0:0:0:
128,160,129535,1,0,0:0:0:0:
128,128,129728,1,0,0:0:0:0:
128,96,129922,1,0,0:0:0:0:
128,64,130115,1,0,0:0:0:0:
256,192,130502,5,0,0:0:0:0:
384,192,130695,1,0,0:0:0:0:
376,312,131083,2,0,L|256:312,1,105.000004005432
256,192,132051,5,0,0:0:0:0:
128,192,132244,1,0,0:0:0:0:
136,72,132632,2,0,L|256:72,1,105.000004005432
256,192,133212,1,0,0:0:0:0:
256,192,133599,1,0,0:0:0:0:
456,192,133986,5,0,0:0:0:0:
456,272,134179,1,0,0:0:0:0:
376,272,134373,1,0,0:0:0:0:
376,192,134566,1,0,0:0:0:0:
376,112,134760,1,0,0:0:0:0:
256,40,135147,1,0,0:0:0:0:
64,192,135534,5,0,0:0:0:0:
64,89,135727,1,0,0:0:0:0:
166,89,135921,1,0,0:0:0:0:
166,192,136114,1,0,0:0:0:0:
166,294,136308,1,0,0:0:0:0:
256,192,136695,5,0,0:0:0:0:
360,192,137083,1,0,0:0:0:0:
472,192,137470,2,0,L|472:104,1,70
472,40,137857,1,0,0:0:0:0:
256,192,138244,5,0,0:0:0:0:
152,192,138632,1,0,0:0:0:0:
40,192,139019,2,0,L|40:280,1,70
40,344,139406,1,0,0:0:0:0:
256,344,139792,1,0,0:0:0:0:
296,152,140179,6,0,L|392:152,1,70
216,232,140566,2,0,L|120:232,1,70
296,232,140954,1,0,0:0:0:0:
216,152,141341,1,0,0:0:0:0:
296,152,141728,2,0,L|376:152,1,70
216,232,142115,2,0,L|144:232,1,70
256,192,142502,1,0,0:0:0:0:
256,72,142889,6,0,L|104:72,1,140
48,152,143663,2,0,L|48:232,1,70
48,312,144050,1,0,0:0:0:0:
256,312,144437,6,0,L|408:312,1,140
464,232,145211,2,0,L|464:152,1,70
464,72,145598,1,0,0:0:0:0:
256,72,145986,1,0,0:0:0:0:
256,248,146373,6,0,L|184:248,1,70
112,248,146760,2,0,L|112:168,1,70
112,104,147147,2,0,L|200:104,1,70
256,104,147534,2,0,L|336:104,1,70
392,104,147921,2,0,L|392:184,4,70
256,192,148889,12,0,151018,0:0:0:0:
