osu file format v14

[General]
AudioFilename: audio.mp3
AudioLeadIn: 0
PreviewTime: 192603
Countdown: 0
SampleSet: None
StackLeniency: 0.1
Mode: 0
LetterboxInBreaks: 0
WidescreenStoryboard: 1
SamplesMatchPlaybackRate: 1

[Editor]
Bookmarks: 13403,26203,39003,64603,90203,115803,141403,167003,192603,218203
DistanceSpacing: 1
BeatDivisor: 8
GridSize: 8
TimelineZoom: 2.1

[Metadata]
Title:Like A Lady
TitleUnicode:Like A Lady
Artist:Pa's Lam System
ArtistUnicode:Pa's Lam System
Creator:ScubDomino
Version:scub x scub
Source:
Tags:Hypa'Slam EP Electronic
BeatmapID:3358670
BeatmapSetID:675600

[Difficulty]
HPDrainRate:3
CircleSize:3.5
OverallDifficulty:8.5
ApproachRate:9.4
SliderMultiplier:2.5
SliderTickRate:1

[Events]
//Background and Video events
0,0,"__original_drawn_by_akitsu_taira__324889dd63a8e4461a649cb9dfff9ea4.jpg",0,0
//Break Periods
2,90403,96003
//Storyboard Layer 0 (Background)
//Storyboard Layer 1 (Fail)
//Storyboard Layer 2 (Pass)
//Storyboard Layer 3 (Foreground)
//Storyboard Layer 4 (Overlay)
//Storyboard Sound Samples

[TimingPoints]
603,400,4,2,2,38,1,0
603,-200,4,2,2,38,0,0
9403,-100,4,2,2,38,0,0
9553,-100,4,2,2,5,0,0
9603,-400,4,2,2,38,0,0
10203,-200,4,2,2,38,0,0
14203,-100,4,2,2,45,0,0
14803,-200,4,2,2,45,0,0
15203,-100,4,2,2,45,0,0
15403,-200,4,2,2,45,0,0
15803,-100,4,2,2,45,0,0
16603,-200,4,2,2,45,0,0
17403,-100,4,2,2,45,0,0
17903,-200,4,2,2,45,0,0
18403,-100,4,2,2,45,0,0
18603,-200,4,2,2,45,0,0
18903,-100,4,2,2,45,0,0
19803,-200,4,2,2,45,0,0
20603,-100,4,2,2,45,0,0
21103,-200,4,2,2,45,0,0
21603,-100,4,2,2,45,0,0
21803,-200,4,2,2,45,0,0
23803,-100,4,2,2,45,0,0
24503,-400,4,2,2,45,0,0
26203,-200,4,2,2,45,0,0
27603,-100,4,2,2,45,0,0
28203,-200,4,2,2,45,0,0
29203,-100,4,2,2,45,0,0
29403,-200,4,2,2,45,0,0
30803,-100,4,2,2,45,0,0
31403,-200,4,2,2,45,0,0
32403,-100,4,2,2,45,0,0
36603,-200,4,2,2,45,0,0
37603,-100,4,2,2,45,0,0
38603,-200,4,2,2,45,0,0
39003,-50,4,2,2,70,0,0
39803,-500,4,2,2,70,0,0
40103,-50,4,2,2,70,0,0
40303,-150,4,2,2,70,0,0
40703,-50,4,2,2,70,0,0
41403,-25,4,2,2,70,0,0
41503,-100,4,2,2,70,0,0
42203,-66.6666666666667,4,2,2,70,0,0
42603,-50,4,2,2,70,0,0
43003,-500,4,2,2,70,0,0
43303,-50,4,2,2,70,0,0
43603,-150,4,2,2,70,0,0
44003,-50,4,2,2,70,0,0
44603,-25,4,2,2,70,0,0
44703,-100,4,2,2,70,0,0
45203,-50,4,2,2,70,0,0
45403,-150,4,2,2,70,0,0
45803,-50,4,2,2,70,0,0
46203,-500,4,2,2,70,0,0
46503,-50,4,2,2,70,0,0
46803,-150,4,2,2,70,0,0
47203,-50,4,2,2,70,0,0
47803,-25,4,2,2,70,0,0
48103,-100,4,2,2,70,0,0
48403,-50,4,2,2,70,0,0
48603,-100,4,2,2,70,0,0
49003,-50,4,2,2,70,0,0
49403,-500,4,2,2,70,0,0
49703,-50,4,2,2,70,0,0
49903,-150,4,2,2,70,0,0
50903,-66.6666666666667,4,2,2,70,0,0
51003,-100,4,2,2,70,0,0
51603,-50,4,2,2,70,0,0
52603,-500,4,2,2,70,0,0
52903,-50,4,2,2,70,0,0
53203,-150,4,2,2,70,0,0
53603,-50,4,2,2,70,0,0
54203,-25,4,2,2,70,0,0
54303,-100,4,2,2,70,0,0
54803,-50,4,2,2,70,0,0
55003,-100,4,2,2,70,0,0
55403,-50,4,2,2,70,0,0
55803,-500,4,2,2,70,0,0
56103,-50,4,2,2,70,0,0
56403,-150,4,2,2,70,0,0
56803,-50,4,2,2,70,0,0
57403,-25,4,2,2,70,0,0
57503,-100,4,2,2,70,0,0
58003,-40,4,2,2,70,0,0
58203,-50,4,2,2,70,0,0
58803,-500,4,2,2,70,0,0
59203,-50,4,2,2,70,0,0
59603,-150,4,2,2,70,0,0
60003,-50,4,2,2,70,0,0
60603,-25,4,2,2,70,0,0
60703,-100,4,2,2,70,0,0
61203,-50,4,2,2,70,0,0
61403,-100,4,2,2,70,0,0
61803,-50,4,2,2,70,0,0
62203,-500,4,2,2,70,0,0
62403,-50,4,2,2,70,0,0
62784,-150,4,2,2,70,0,0
64003,-33.3333333333333,4,2,2,70,0,0
64203,-200,4,2,2,70,0,0
64603,-25,4,2,2,70,0,1
65003,-50,4,2,2,70,0,1
66003,-100,4,2,2,70,0,1
67003,-50,4,2,2,70,0,1
67403,-100,4,2,2,70,0,1
68903,-50,4,2,2,70,0,1
69203,-75,4,2,2,70,0,1
69603,-50,4,2,2,70,0,1
70203,-100,4,2,2,70,0,1
70803,-50,4,2,2,70,0,1
71803,-133.333333333333,4,2,2,70,0,1
72403,-50,4,2,2,70,0,1
73703,-133.333333333333,4,2,2,70,0,1
74003,-66.6666666666667,4,2,2,70,0,1
74203,-133.333333333333,4,2,2,70,0,1
75003,-100,4,2,2,70,0,1
76603,-50,4,2,2,70,0,1
76903,-100,4,2,2,70,0,1
77103,-50,4,2,2,70,0,1
78203,-100,4,2,2,70,0,1
78803,-150,4,2,2,70,0,1
80003,-50,4,2,2,70,0,1
80203,-66.6666666666667,4,2,2,70,0,1
80603,-50,4,2,2,70,0,1
81403,-100,4,2,2,70,0,1
82003,-50,4,2,2,70,0,1
83003,-100,4,2,2,70,0,1
83603,-50,4,2,2,70,0,1
84603,-100,4,2,2,70,0,1
85203,-200,4,2,2,70,0,1
85803,-50,4,2,2,70,0,1
86603,-100,4,2,2,70,0,1
88403,-150.000000000015,4,2,2,70,0,1
89003,-200,4,2,2,70,0,1
90203,-500,4,2,2,40,0,0
115803,-333.333333333333,4,2,2,40,0,0
116603,-200,4,2,2,40,0,0
117003,-333.333333333333,4,2,2,40,0,0
118203,-200,4,2,2,40,0,0
119003,-333.333333333333,4,2,2,40,0,0
119803,-200,4,2,2,40,0,0
120403,-333.333333333333,4,2,2,40,0,0
121403,-200,4,2,2,40,0,0
123003,-333.333333333333,4,2,2,40,0,0
123603,-200,4,2,2,40,0,0
124603,-333.333333333333,4,2,2,40,0,0
125403,-200,4,2,2,40,0,0
129403,-166.666666666667,4,2,2,40,0,0
130003,-200,4,2,2,40,0,0
131003,-166.666666666667,4,2,2,40,0,0
131803,-200,4,2,2,40,0,0
132603,-166.666666666667,4,2,2,40,0,0
133003,-200,4,2,2,40,0,0
135803,-166.666666666667,4,2,2,40,0,0
136203,-200,4,2,2,40,0,0
137403,-166.666666666667,4,2,2,40,0,0
137803,-200,4,2,2,40,0,0
141403,-66.6666666666667,4,2,2,70,0,0
142003,-33.3333333333333,4,2,2,70,0,0
142803,-100,4,2,2,70,0,0
143403,-66.6666666666667,4,2,2,70,0,0
143803,-50,4,2,2,70,0,0
144103,-100,4,2,2,70,0,0
144403,-50,4,2,2,70,0,0
144603,-66.6666666666667,4,2,2,70,0,0
145203,-66.6666666666667,4,2,2,70,0,0
145403,-50,4,2,99,40,0,0
145803,-133.333333333333,4,2,2,70,0,0
146603,-66.6666666666667,4,2,2,70,0,0
147003,-100,4,2,2,70,0,0
147603,-50,4,2,2,70,0,0
147803,-66.6666666666667,4,2,2,70,0,0
148403,-66.6666666666667,4,2,2,70,0,0
149003,-25,4,2,2,70,0,0
149103,-100,4,2,2,5,0,0
149203,-100,4,2,2,70,0,0
149603,-50,4,2,2,70,0,0
150503,-100,4,2,2,70,0,0
150803,-50,4,2,2,70,0,0
151003,-66.6666666666667,4,2,2,70,0,0
151803,-100,4,2,2,70,0,0
153003,-50,4,2,2,70,0,0
153403,-100,4,2,2,70,0,0
154003,-50,4,2,2,70,0,0
154203,-100,4,2,2,70,0,0
154803,-100,4,2,2,70,0,0
155603,-400,4,2,2,70,0,0
156203,-66.6666666666667,4,2,2,70,0,0
156403,-50,4,2,2,70,0,0
156903,-100,4,2,2,70,0,0
157203,-50,4,2,2,70,0,0
157403,-100,4,2,2,70,0,0
158003,-50,4,2,2,70,0,0
158203,-100,4,2,2,70,0,0
158803,-133.333333333333,4,2,2,70,0,0
159403,-66.6666666666667,4,2,2,70,0,0
160103,-133.333333333333,4,2,2,70,0,0
160403,-66.6666666666667,4,2,2,70,0,0
160603,-100,4,2,2,70,0,0
161403,-66.6666666666667,4,2,2,70,0,0
162003,-100,4,2,2,70,0,0
163803,-66.6666666666667,4,2,2,70,0,0
164403,-50,4,2,2,70,0,0
164603,-100,4,2,2,70,0,0
165203,-150.00000000015,4,2,2,70,0,0
165703,-100,4,2,2,70,0,0
166203,-300,4,2,2,70,0,0
166603,-80,4,2,2,70,0,0
167003,-66.6666666666667,4,2,2,70,0,1
167803,-133.333333333333,4,2,2,70,0,1
169003,-100,4,2,2,70,0,1
171003,-300.0000000003,4,2,2,70,0,1
172603,-100,4,2,2,70,0,1
174203,-50,4,2,2,70,0,1
174603,-100,4,2,2,70,0,1
176603,-66.6666666666667,4,2,2,70,0,1
177003,-100,4,2,2,70,0,1
178003,-50,4,2,2,70,0,1
178203,-66.6666666666667,4,2,2,70,0,1
181203,-133.333333333333,4,2,2,70,0,1
181703,-66.6666666666667,4,2,2,70,0,1
183003,-133.333333333333,4,2,2,70,0,1
184203,-50,4,2,2,70,0,1
184403,-100,4,2,2,70,0,1
184903,-66.6666666666667,4,2,2,70,0,1
187003,-50,4,2,2,70,0,1
187403,-100,4,2,2,70,0,1
187503,-133.333333333333,4,2,2,70,0,1
188003,-100,4,2,2,70,0,1
192603,-666.666666666667,4,2,2,35,0,0
216594,-100,4,2,2,35,0,0
216803,-76.9230769230769,4,2,2,30,0,0
217003,-62.5,4,2,2,25,0,0
217203,-55.5555555555556,4,2,2,20,0,0
217403,-50,4,2,2,15,0,0
217603,-45.4545454545455,4,2,2,10,0,0
217803,-41.6666666666667,4,2,2,5,0,0
218003,-571.428571428571,4,2,2,3,0,0

[Colours]
Combo1 : 119,96,79
Combo2 : 41,137,154
Combo3 : 143,117,97
Combo4 : 51,255,235
Combo5 : 0,185,167

[HitObjects]
264,200,603,6,0,B|227:147|227:147|229:132|229:132|214:129|214:129|153:42|153:42|126:101|126:101|113:106|113:106|117:119|117:119|72:216|72:216|136:211|136:211|147:221|147:221|156:209|156:209|190:206,1,500,4|0,0:0|0:0,0:0:0:0:
264,200,3003,2,0,B|334:192|334:192|347:206|347:206|361:189|361:189|437:183,1,187.5,0|0,0:0|0:0,0:0:0:0:
312,288,3803,6,0,B|216:296|216:296|207:289|207:289|200:297|200:297|128:304|128:304|121:312|121:312|112:305|112:305|56:310|56:310|67:333|67:333|85:356|85:356|95:379|95:379|119:377|119:377|126:368|126:368|134:375|134:375|174:372|174:372|183:379|183:379|190:370|190:370|238:366,1,500,0|0,0:0|0:0,0:0:0:0:
312,288,6203,2,0,B|307:240|307:240|315:231|315:231|306:224|306:224|302:176|302:176|293:169|293:169|300:160|300:160|296:112,1,187.5,0|0,0:0|0:0,0:0:0:0:
256,24,7003,6,0,B|152:33|152:33|145:41|145:41|136:34|136:34|96:37|96:37|87:30|87:30|80:39|80:39|59:42|59:42|46:72|46:72|48:81|48:81|40:85|40:85|29:111|29:111|71:174|71:174|104:171|104:171|113:179|113:179|120:170|120:170|144:168|144:168|151:159|151:159|160:166|160:166|192:164,1,500,4|0,0:0|0:0,0:0:0:0:
191,164,9403,1,0,0:0:0:0:
191,164,9453,2,0,B|230:167|230:167|239:160|239:160|246:168|246:168|270:170,1,62.5
271,260,9603,2,0,B|231:256|231:256|222:263|222:263|215:255|215:255|191:253,1,62.5
352,304,10203,6,0,B|356:250|356:250|364:244|364:244|357:236|357:236|361:196|361:196|355:189|355:189|362:182|362:182|366:136|366:136|374:129|374:129|367:122|367:122|371:75|371:75|403:98|403:98|417:99|417:99|416:106|416:106|435:121|435:121|449:122|449:122|448:129|448:129|467:144|467:144|440:160|440:160|438:169|438:169|425:167|425:167|396:186,1,437.5,0|0,0:0|0:0,0:0:0:0:
256,216,11803,1,0,0:0:0:0:
255,215,12003,2,0,B|250:261|250:261|258:269|258:269|249:277|249:277|244:332,1,125,0|0,0:0|0:0,0:0:0:0:
152,368,12603,1,0,0:0:0:0:
152,368,12803,2,0,B|156:321|156:321|148:313|148:313|157:305|157:305|162:250,1,125,0|0,0:0|0:0,0:0:0:0:
168,144,13403,6,0,L|175:56,1,62.5,6|0,0:0|0:0,0:0:0:0:
312,208,13803,2,0,L|306:145,1,62.5,2|0,0:0|0:0,0:0:0:0:
120,296,14203,6,0,L|127:208,1,62.5,2|0,0:0|0:0,0:0:0:0:
224,336,14503,2,0,L|231:248,1,62.5,2|0,0:0|0:0,0:0:0:0:
328,376,14803,6,0,L|335:288,1,62.5,2|0,0:0|0:0,0:0:0:0:
408,88,15203,6,0,L|413:150,1,62.5,2|0,0:0|0:0,0:0:0:0:
424,240,15403,6,0,L|429:302,1,62.5,2|0,0:0|0:0,0:0:0:0:
224,336,15803,6,0,L|231:248,1,62.5,2|0,0:0|0:0,0:0:0:0:
112,216,16103,2,0,L|104:128,1,62.5,2|0,0:0|0:0,0:0:0:0:
240,112,16403,2,0,L|245:49,1,62.5,2|0,0:0|0:0,0:0:0:0:
336,56,16603,6,0,L|331:119,1,62.5,6|0,0:0|0:0,0:0:0:0:
228,273,17003,2,0,L|223:336,1,62.5,2|0,0:0|0:0,0:0:0:0:
344,224,17403,6,0,L|349:287,1,62.5,2|0,0:0|0:0,0:0:0:0:
472,160,17703,2,0,L|467:223,1,62.5,2|0,0:0|0:0,0:0:0:0:
328,64,18003,6,0,L|333:127,1,62.5,2|0,0:0|0:0,0:0:0:0:
120,296,18403,6,0,L|127:208,1,62.5,2|0,0:0|0:0,0:0:0:0:
160,88,18603,2,0,L|164:150,1,62.5,0|0,0:0|0:0,0:0:0:0:
232,312,19003,2,0,L|239:224,1,62.5,2|0,0:0|0:0,0:0:0:0:
288,72,19303,2,0,L|292:134,1,62.5,2|0,0:0|0:0,0:0:0:0:
352,320,19603,2,0,L|359:232,1,62.5,2|0,0:0|0:0,0:0:0:0:
368,176,19803,6,0,L|375:88,1,62.5,6|0,0:0|0:0,0:0:0:0:
232,312,20203,2,0,L|225:224,1,62.5,2|0,0:0|0:0,0:0:0:0:
144,112,20603,6,0,L|149:175,1,62.5,2|0,0:0|0:0,0:0:0:0:
264,144,20903,2,0,L|259:81,1,62.5,2|0,0:0|0:0,0:0:0:0:
376,48,21203,6,0,L|381:111,1,62.5,2|0,0:0|0:0,0:0:0:0:
480,176,21603,6,0,L|475:239,1,62.5,2|0,0:0|0:0,0:0:0:0:
464,320,21803,6,0,L|459:383,1,62.5,2|0,0:0|0:0,0:0:0:0:
312,56,22203,6,0,L|317:119,1,62.5,2|0,0:0|0:0,0:0:0:0:
328,200,22503,2,0,L|333:263,1,62.5,2|0,0:0|0:0,0:0:0:0:
344,368,22803,1,2,0:0:0:0:
168,320,23003,6,0,L|175:232,1,62.5,2|0,0:0|0:0,0:0:0:0:
48,256,23403,2,0,L|43:193,1,62.5,2|0,0:0|0:0,0:0:0:0:
188,105,23803,6,0,L|184:168,1,62.5,2|0,0:0|0:0,0:0:0:0:
43,193,24103,2,0,L|48:256,1,62.5,2|0,0:0|0:0,0:0:0:0:
172,257,24403,2,0,L|168:320,1,62.5,2|0,0:0|0:0,0:0:0:0:
56,344,24603,5,2,0:0:0:0:
48,256,24803,2,0,L|43:193,1,62.5,2|0,0:0|0:0,0:0:0:0:
280,368,25403,5,2,0:0:0:0:
288,280,25603,2,0,L|292:217,1,62.5,2|0,0:0|0:0,0:0:0:0:
315,33,26203,6,0,L|320:96,1,62.5,6|0,0:0|0:0,0:0:0:0:
192,152,26603,2,0,L|196:89,1,62.5,2|0,0:0|0:0,0:0:0:0:
59,145,27003,6,0,L|64:208,1,62.5,2|0,0:0|0:0,0:0:0:0:
120,234,27303,2,0,L|64:208,1,62.5,2|0,0:0|0:0,0:0:0:0:
12,243,27603,6,0,L|63:207,1,62.5,2|0,0:0|0:0,0:0:0:0:
240,296,28003,6,0,L|244:233,1,62.5,2|0,0:0|0:0,0:0:0:0:
344,192,28203,2,0,L|348:254,1,62.5,2|0,0:0|0:0,0:0:0:0:
252,119,28603,6,0,L|256:56,1,62.5,2|0,0:0|0:0,0:0:0:0:
203,22,28903,2,0,L|255:56,1,62.5,2|0,0:0|0:0,0:0:0:0:
311,28,29203,6,0,L|254:56,1,62.5,2|0,0:0|0:0,0:0:0:0:
351,140,29403,6,0,L|355:202,1,62.5,6|0,0:0|0:0,0:0:0:0:
366,364,29803,2,0,L|362:302,1,62.5,2|0,0:0|0:0,0:0:0:0:
155,304,30203,6,0,L|159:242,1,62.5,2|0,0:0|0:0,0:0:0:0:
107,206,30503,2,0,L|158:240,1,62.5,2|0,0:0|0:0,0:0:0:0:
215,212,30803,6,0,L|159:239,1,62.5,2|0,0:0|0:0,0:0:0:0:
167,132,31203,6,0,L|171:70,1,62.5,2|0,0:0|0:0,0:0:0:0:
263,50,31403,6,0,L|259:112,1,62.5,2|0,0:0|0:0,0:0:0:0:
379,246,31803,6,0,L|375:184,1,62.5,2|0,0:0|0:0,0:0:0:0:
450,333,32103,2,0,L|505:360,1,62.5,2|0,0:0|0:0,0:0:0:0:
339,350,32403,6,0,L|287:384,1,62.5,2|0,0:0|0:0,0:0:0:0:
186,338,32603,6,0,L|238:304,1,62.5,2|0,0:0|0:0,0:0:0:0:
310,256,32803,1,0,0:0:0:0:
119,384,33003,1,2,0:0:0:0:
310,256,33203,1,0,0:0:0:0:
177,190,33403,6,0,L|181:252,1,62.5,2|0,0:0|0:0,0:0:0:0:
186,338,33603,1,0,0:0:0:0:
171,108,33803,1,2,0:0:0:0:
186,338,34003,1,0,0:0:0:0:
310,256,34203,6,0,L|254:228,1,62.5,2|0,0:0|0:0,0:0:0:0:
176,190,34403,1,0,0:0:0:0:
383,291,34603,1,2,0:0:0:0:
176,190,34803,1,0,0:0:0:0:
377,146,35003,6,0,L|325:180,1,62.5,2|0,0:0|0:0,0:0:0:0:
253,228,35203,1,0,0:0:0:0:
444,101,35403,1,2,0:0:0:0:
253,228,35603,1,0,0:0:0:0:
176,72,35803,5,2,0:0:0:0:
256,80,35903,1,2,0:0:0:0:
176,72,36003,5,2,0:0:0:0:
128,160,36203,5,2,0:0:0:0:
208,152,36303,1,2,0:0:0:0:
128,160,36403,5,2,0:0:0:0:
173,228,36603,6,0,P|176:272|160:304,1,62.5,2|0,0:0|0:0,0:0:0:0:
115,316,36903,2,0,P|151:291|187:289,1,62.5,2|0,0:0|0:0,0:0:0:0:
220,321,37203,6,0,P|180:301|160:271,1,62.5,2|0,0:0|0:0,0:0:0:0:
312,200,37603,6,0,P|351:219|371:249,1,62.5,2|0,0:0|0:0,0:0:0:0:
168,288,37803,6,0,P|161:244|174:211,1,62.5,2|0,0:0|0:0,0:0:0:0:
363,232,38003,6,0,P|369:275|356:308,1,62.5,2|0,0:0|0:0,0:0:0:0:
165,227,38203,1,2,0:0:0:0:
264,264,38403,5,0,0:0:0:0:
265,279,38503,1,0,0:0:0:0:
266,295,38603,2,0,L|275:406,1,62.5,2|0,0:0|0:0,0:0:0:0:
256,48,39003,6,0,B|100:34|100:34|83:49|83:49|68:32|68:32|21:28,1,250,6|0,0:0|0:0,0:0:0:0:
16,56,39403,2,0,L|140:67,1,125,2|0,0:0|0:0,0:0:0:0:
263,79,39603,5,0,0:0:0:0:
263,79,39703,1,0,0:0:0:0:
263,79,39803,2,0,L|266:104,1,25,10|0,0:0|0:0,0:0:0:0:
279,252,40103,6,0,P|258:194|203:168,1,125,2|0,0:0|0:0,0:0:0:0:
265,103,40303,1,2,0:0:0:0:
280,252,40403,2,0,P|291:191|340:156,1,125,2|0,0:0|0:0,0:0:0:0:
500,244,40803,6,0,B|495:188|495:188|502:179|502:179|493:172|493:172|488:112,1,125,2|0,0:0|0:0,0:0:0:0:
396,340,41003,2,0,B|400:284|400:284|393:275|393:275|402:268|402:268|407:208,1,125,2|0,0:0|0:0,0:0:0:0:
489,126,41203,5,0,0:0:0:0:
489,126,41303,1,0,0:0:0:0:
489,126,41403,2,0,B|499:244|499:244|512:256|512:256|501:269|501:269|509:365,1,250,10|0,0:0|0:0,0:0:0:0:
228,368,41703,6,0,B|232:312|232:312|225:303|225:303|234:296|234:296|239:236,1,125,2|0,0:0|0:0,0:0:0:0:
248,144,42003,1,2,0:0:0:0:
248,144,42203,6,0,B|131:154|131:154|118:143|118:143|107:156|107:156|72:159,1,187.500007152558,6|0,0:0|0:0,0:0:0:0:
70,158,42603,2,0,P|45:102|53:41,1,125,2|0,0:0|0:0,0:0:0:0:
248,144,42803,5,0,0:0:0:0:
248,144,42903,1,0,0:0:0:0:
248,144,43003,2,0,L|250:173,1,25,10|0,0:0|0:0,0:0:0:0:
257,254,43303,6,0,B|261:300|261:300|270:307|270:307|262:316|262:316|268:372,1,125,2|0,0:0|0:0,0:0:0:0:
248,144,43503,1,2,0:0:0:0:
257,254,43603,2,0,B|261:299|261:299|253:308|253:308|261:316|261:316|266:372,1,125,2|0,0:0|0:0,0:0:0:0:
266,371,44003,6,0,P|336:356|384:312,1,125,2|0,0:0|0:0,0:0:0:0:
257,254,44203,2,0,P|187:269|139:313,1,125,2|0,0:0|0:0,0:0:0:0:
146,302,44403,5,2,0:0:0:0:
146,302,44503,1,2,0:0:0:0:
146,302,44603,2,0,B|162:110|162:110|175:99|175:99|164:86|164:86|167:50,1,250,14|0,0:0|0:0,0:0:0:0:
328,104,44903,6,0,B|332:151|332:151|349:166|349:166|334:183|334:183|337:209|341:259,1,125,2|0,0:0|0:0,0:0:0:0:
512,160,45203,2,0,B|468:139|468:139|447:147|447:147|439:126|439:126|416:115|370:94,1,125,2|0,0:0|0:0,0:0:0:0:
372,288,45403,6,0,B|411:260|411:260|415:238|415:238|437:242|437:242|458:227|499:198,1,125,6|0,0:0|0:0,0:0:0:0:
252,196,45803,6,0,B|247:252|247:252|238:259|238:259|246:268|246:268|242:314,1,125,2|0,0:0|0:0,0:0:0:0:
242,313,46003,5,2,0:0:0:0:
242,313,46103,1,0,0:0:0:0:
242,313,46203,2,0,P|226:309|214:309,1,25,10|0,0:0|0:0,0:0:0:0:
132,316,46503,6,0,P|68:356|8:328,1,125,2|0,0:0|0:0,0:0:0:0:
64,276,46703,1,2,0:0:0:0:
132,316,46803,2,0,P|68:356|8:328,1,125,2|0,0:0|0:0,0:0:0:0:
132,316,47203,6,0,P|122:256|161:209,1,125,2|0,0:0|0:0,0:0:0:0:
244,264,47403,2,0,B|249:320|249:320|258:327|258:327|250:336|250:336|254:382,1,125,2|0,0:0|0:0,0:0:0:0:
360,287,47603,5,0,0:0:0:0:
360,287,47703,1,0,0:0:0:0:
360,287,47803,2,0,B|368:191|368:191|357:178|357:178|370:166|370:166|380:48,1,250,8|0,0:0|0:0,0:0:0:0:
380,47,48103,6,0,P|316:80|260:68,1,125,2|0,0:0|0:0,0:0:0:0:
240,176,48403,2,0,P|182:132|125:134,1,125,2|0,0:0|0:0,0:0:0:0:
76,200,48603,6,0,B|81:256|81:256|90:263|90:263|82:272|82:272|86:318,1,125,6|0,0:0|0:0,0:0:0:0:
85,317,49003,2,0,P|144:284|232:304,1,125,2|0,0:0|0:0,0:0:0:0:
283,371,49203,5,0,0:0:0:0:
283,371,49303,1,0,0:0:0:0:
282,370,49403,2,0,P|269:366|257:361,1,25,10|0,0:0|0:0,0:0:0:0:
231,173,49703,6,0,P|230:240|168:306,1,125,2|0,0:0|0:0,0:0:0:0:
134,209,49903,1,2,0:0:0:0:
231,173,50003,6,0,P|235:214|223:255,1,83.3333333333333,2|0,0:0|0:0,0:0:0:0:
320,81,50303,2,0,P|316:39|327:-1,1,83.3333333333333,2|0,0:0|0:0,0:0:0:0:
389,189,50603,2,0,P|393:230|381:271,1,83.3333333333333,2|0,0:0|0:0,0:0:0:0:
381,270,50903,5,2,0:0:0:0:
270,222,51003,2,0,B|214:227|214:227|207:236|207:236|198:228|198:228|152:232,1,125,8|0,0:0|0:0,0:0:0:0:
101,339,51303,2,0,B|125:288|125:288|121:277|121:277|132:273|132:273|152:232,1,125,2|0,0:0|0:0,0:0:0:0:
84,134,51603,2,0,B|116:180|116:180|127:182|127:182|125:194|125:194|152:232,1,125,2|0,0:0|0:0,0:0:0:0:
216,328,51803,6,0,B|263:332|263:332|278:349|278:349|295:334|295:334|451:348,1,250,6|0,0:0|0:0,0:0:0:0:
456,336,52203,2,0,B|325:325,1,125,2|0,0:0|0:0,0:0:0:0:
272,240,52403,5,0,0:0:0:0:
272,240,52503,1,0,0:0:0:0:
272,240,52603,2,0,L|303:242,1,25,10|0,0:0|0:0,0:0:0:0:
392,256,52903,6,0,P|376:184|296:152,1,125,2|0,0:0|0:0,0:0:0:0:
405,94,53103,1,2,0:0:0:0:
392,256,53203,2,0,P|420:187|504:170,1,125,2|0,0:0|0:0,0:0:0:0:
350,364,53603,6,0,P|303:324|296:264,1,125,2|0,0:0|0:0,0:0:0:0:
270,175,53803,2,0,P|218:206|200:265,1,125,2|0,0:0|0:0,0:0:0:0:
106,338,54003,5,0,0:0:0:0:
106,338,54103,1,0,0:0:0:0:
106,338,54203,2,0,B|98:242|98:242|109:229|109:229|96:217|96:217|86:99,1,250,10|0,0:0|0:0,0:0:0:0:
85,98,54503,6,0,P|165:112|213:65,1,125,2|0,0:0|0:0,0:0:0:0:
280,132,54803,2,0,P|339:120|390:153,1,125,2|0,0:0|0:0,0:0:0:0:
421,238,55003,6,0,B|416:294|416:294|407:301|407:301|415:310|415:310|411:356,1,125,6|0,0:0|0:0,0:0:0:0:
411,355,55403,2,0,P|356:311|282:325,1,125,2|0,0:0|0:0,0:0:0:0:
214,383,55603,5,0,0:0:0:0:
214,383,55703,1,0,0:0:0:0:
214,383,55803,2,0,P|227:383|241:380,1,25,10|0,0:0|0:0,0:0:0:0:
308,319,56103,6,0,B|304:273|304:273|312:264|312:264|303:257|303:257|298:201,1,125,2|0,0:0|0:0,0:0:0:0:
184,256,56303,1,2,0:0:0:0:
184,256,56403,2,0,B|188:210|188:210|180:201|180:201|189:194|189:194|194:138,1,125,2|0,0:0|0:0,0:0:0:0:
80,172,56803,6,0,P|142:172|193:138,1,125,2|0,0:0|0:0,0:0:0:0:
325,86,57003,2,0,P|294:139|297:201,1,125,2|0,0:0|0:0,0:0:0:0:
443,308,57203,5,0,0:0:0:0:
443,308,57303,1,0,0:0:0:0:
443,308,57403,2,0,B|287:294|287:294|270:309|270:309|255:292|255:292|208:288,1,250,10|0,0:0|0:0,0:0:0:0:
206,287,57703,6,0,P|189:346|138:380,1,125,2|0,0:0|0:0,0:0:0:0:
120,288,58003,2,0,B|113:218|113:218|126:204|126:204|112:194|112:194|104:109,1,156.25,2|0,0:0|0:0,0:0:0:0:
108,143,58203,6,0,B|264:157|264:157|278:174|278:174|296:160|296:160|343:165,1,250,6|0,0:0|0:0,0:0:0:0:
343,164,58603,2,0,P|292:130|276:72,1,125,2|0,0:0|0:0,0:0:0:0:
432,120,58803,5,0,0:0:0:0:
432,120,58903,1,0,0:0:0:0:
432,120,59003,2,0,L|429:151,1,25,8|0,0:0|0:0,0:0:0:0:
422,224,59303,6,0,L|410:351,1,125,2|0,0:0|0:0,0:0:0:0:
433,119,59503,1,2,0:0:0:0:
422,224,59603,2,0,L|410:351,1,125,0|2,0:0|0:0,0:0:0:0:
411,348,60003,6,0,P|348:300|269:320,1,125,0|0,0:0|0:0,0:0:0:0:
216,293,60203,2,0,P|152:341|73:321,1,125,2|0,0:0|0:0,0:0:0:0:
30,277,60403,5,0,0:0:0:0:
30,277,60503,1,0,0:0:0:0:
30,277,60603,2,0,B|44:121|44:121|61:107|61:107|47:89|47:89|52:40,1,250,10|0,0:0|0:0,0:0:0:0:
52,40,60903,6,0,P|133:32|185:64,1,125,2|0,0:0|0:0,0:0:0:0:
314,107,61203,2,0,P|266:41|267:-19,1,125,2|0,0:0|0:0,0:0:0:0:
417,49,61403,6,0,L|405:176,1,125,6|0,0:0|0:0,0:0:0:0:
507,245,61803,6,0,L|403:171,1,125,2|0,0:0|0:0,0:0:0:0:
291,224,62003,5,0,0:0:0:0:
291,224,62103,1,0,0:0:0:0:
291,224,62203,2,0,L|319:210,1,25,10|0,0:0|0:0,0:0:0:0:
443,332,62503,6,0,P|392:303|326:324,1,125,2|0,0:0|0:0,0:0:0:0:
382,384,62703,1,2,0:0:0:0:
443,332,62803,2,0,P|409:307|367:303,1,83.3333333333333,2|0,0:0|0:0,0:0:0:0:
167,356,63103,6,0,P|133:380|92:384,1,83.3333333333333,2|0,0:0|0:0,0:0:0:0:
16,321,63403,2,0,P|11:280|28:242,1,83.3333333333333,2|0,0:0|0:0,0:0:0:0:
121,207,63703,2,0,P|158:223|183:256,1,83.3333333333333,2|0,0:0|0:0,0:0:0:0:
336,168,64003,6,0,P|240:160|172:98,1,187.500007152558,2|0,0:0|0:0,0:0:0:0:
174,101,64203,22,0,P|210:62|250:46,1,93.75,2|0,0:0|0:0,0:0:0:0:
435,96,64603,2,0,B|430:145|430:145|444:163|444:163|427:177|427:177|413:333,1,250,6|0,0:0|0:0,0:0:0:0:
413,332,65003,6,0,P|333:284|269:308,1,125,2|0,0:0|0:0,0:0:0:0:
224,328,65203,2,0,P|165:345|108:322,1,125,2|0,0:0|0:0,0:0:0:0:
0,264,65403,5,8,0:0:0:0:
15,244,65503,1,0,0:0:0:0:
35,229,65603,1,0,0:0:0:0:
59,222,65703,1,0,0:0:0:0:
84,223,65803,2,0,B|79:167|79:167|71:159|71:159|79:150|79:150|75:105,1,125,0|0,0:0|0:0,0:0:0:0:
74,104,66003,6,0,P|176:112|224:24,1,187.5,2|0,0:0|0:0,0:0:0:0:
294,126,66403,2,0,P|340:86|400:96,1,125,2|0,0:0|0:0,0:0:0:0:
448,176,66803,1,2,0:0:0:0:
221,50,67003,5,8,0:0:0:0:
223,81,67103,1,0,0:0:0:0:
226,112,67203,2,0,B|229:151|229:151|238:159|238:159|230:167|230:167|237:247,1,125,0|0,0:0|0:0,0:0:0:0:
236,229,67403,2,0,P|338:221|386:309,1,187.5,2|0,0:0|0:0,0:0:0:0:
357,382,67803,5,4,0:0:0:0:
236,229,68003,2,0,B|239:189|239:189|248:181|248:181|240:173|240:173|247:93,1,125,2|0,0:0|0:0,0:0:0:0:
128,192,68403,5,0,0:0:0:0:
129,207,68503,1,0,0:0:0:0:
130,223,68603,2,0,B|133:262|133:262|126:271|126:271|134:278|134:278|141:358,1,125,8|0,0:0|0:0,0:0:0:0:
140,340,68903,2,0,P|224:328|280:376,1,125,2|0,0:0|0:0,0:0:0:0:
408,24,69203,6,0,B|403:73|403:73|417:91|417:91|400:105|400:105|386:261,1,250,2|0,0:0|0:0,0:0:0:0:
386,260,69603,6,0,P|328:280|264:256,1,125,2|0,0:0|0:0,0:0:0:0:
211,159,69803,6,0,P|257:199|269:259,1,125,2|0,0:0|0:0,0:0:0:0:
274,348,70003,5,0,0:0:0:0:
249,350,70103,1,0,0:0:0:0:
224,352,70203,2,0,B|161:357|161:357|154:366|154:366|145:358|145:358|106:362,1,125,8|0,0:0|0:0,0:0:0:0:
85,175,70503,2,0,B|120:226|120:226|131:228|131:228|129:239|129:239|152:271,1,125,2|0,0:0|0:0,0:0:0:0:
0,384,70803,2,0,B|26:327|26:327|22:316|22:316|33:312|33:312|50:276,1,125,2|0,0:0|0:0,0:0:0:0:
85,175,71003,6,0,B|241:189|241:189|255:206|255:206|273:192|273:192|322:197,1,250,6|0,0:0|0:0,0:0:0:0:
321,196,71403,2,0,P|264:152|256:104,1,125,2|0,0:0|0:0,0:0:0:0:
432,176,71603,5,0,0:0:0:0:
429,200,71703,1,0,0:0:0:0:
427,225,71803,2,0,L|422:272,1,46.8750017881394,8|0,0:0|0:0,0:0:0:0:
324,365,72003,2,0,L|367:344,1,46.8750017881394,2|0,0:0|0:0,0:0:0:0:
496,384,72203,2,0,L|456:356,1,46.8750017881394,2|0,0:0|0:0,0:0:0:0:
328,256,72403,6,0,B|248:249|248:249|233:231|233:231|216:246|216:246|41:230,1,250,2|0,0:0|0:0,0:0:0:0:
92,234,72803,2,0,P|112:312|168:344,1,125,2|0,0:0|0:0,0:0:0:0:
328,256,73003,2,0,P|308:178|252:146,1,125,2|0,0:0|0:0,0:0:0:0:
152,144,73203,1,2,0:0:0:0:
328,256,73403,5,10,0:0:0:0:
352,258,73503,1,0,0:0:0:0:
377,260,73603,1,0,0:0:0:0:
400,264,73703,2,0,L|495:272,1,93.7500035762788,0|0,0:0|0:0,0:0:0:0:
250,330,74003,2,0,L|303:253,1,93.7500035762788,2|0,0:0|0:0,0:0:0:0:
320,90,74203,6,0,L|359:174,1,93.7500035762788,4|0,0:0|0:0,0:0:0:0:
400,264,74603,1,2,0:0:0:0:
250,330,74803,5,2,0:0:0:0:
225,332,74903,1,0,0:0:0:0:
200,334,75003,2,0,B|137:339|137:339|130:348|130:348|121:340|121:340|82:344,1,125,8|0,0:0|0:0,0:0:0:0:
82,343,75303,2,0,P|112:272|80:192,1,125,2|0,0:0|0:0,0:0:0:0:
0,136,75603,6,0,B|63:141|63:141|70:150|70:150|79:142|79:142|118:146,1,125,2|0,0:0|0:0,0:0:0:0:
208,152,76003,1,0,0:0:0:0:
320,88,76203,2,0,B|382:81|382:81|391:89|391:89|398:80|398:80|437:77,1,125,2|0,0:0|0:0,0:0:0:0:
437,76,76503,5,0,0:0:0:0:
437,76,76603,2,0,P|408:176|424:216,1,125,8|0,0:0|0:0,0:0:0:0:
455,297,76803,1,0,0:0:0:0:
455,297,76903,6,0,B|383:291|383:291|376:282|376:282|367:290|367:290|312:285,1,125,2|0,0:0|0:0,0:0:0:0:
269,384,77203,2,0,B|310:325|310:325|321:323|321:323|319:311|319:311|351:266,1,125,2|0,0:0|0:0,0:0:0:0:
286,179,77403,6,0,B|316:244|316:244|312:254|312:254|323:258|323:258|346:309,1,125,4|0,0:0|0:0,0:0:0:0:
384,376,77603,1,0,0:0:0:0:
286,179,77803,5,2,0:0:0:0:
270,177,77903,1,0,0:0:0:0:
254,176,78003,2,0,B|182:169|182:169|173:177|173:177|166:167|166:167|111:162,1,125,2|0,0:0|0:0,0:0:0:0:
136,165,78203,6,0,P|152:232|128:296,1,125,8|0,0:0|0:0,0:0:0:0:
31,343,78503,2,0,P|81:296|148:285,1,125,2|0,0:0|0:0,0:0:0:0:
237,345,78803,6,0,B|243:273|243:273|252:266|252:266|244:257|244:257|249:202,1,125,6|0,0:0|0:0,0:0:0:0:
246,227,79203,2,0,P|320:256|352:248,1,83.3333333333333,2|0,0:0|0:0,0:0:0:0:
400,192,79603,1,2,0:0:0:0:
246,227,79803,5,8,0:0:0:0:
244,211,79903,1,0,0:0:0:0:
243,195,80003,2,0,B|236:123|236:123|244:114|244:114|234:107|234:107|229:52,1,125,0|0,0:0|0:0,0:0:0:0:
224,0,80203,5,2,0:0:0:0:
232,77,80403,2,0,P|175:111|111:95,1,93.7500035762788,2|0,0:0|0:0,0:0:0:0:
243,195,80603,6,0,B|399:209|399:209|413:226|413:226|431:212|431:212|480:217,1,250,6|0,0:0|0:0,0:0:0:0:
479,216,81003,2,0,P|496:280|464:352,1,125,2|0,0:0|0:0,0:0:0:0:
384,360,81203,5,0,0:0:0:0:
368,362,81303,1,0,0:0:0:0:
352,363,81403,2,0,B|280:369|280:369|271:361|271:361|264:371|264:371|209:376,1,125,8|0,0:0|0:0,0:0:0:0:
234,373,81703,2,0,P|217:309|249:237,1,125,2|0,0:0|0:0,0:0:0:0:
360,184,82003,6,0,B|311:179|311:179|293:193|293:193|279:176|279:176|123:162,1,250,2|0,0:0|0:0,0:0:0:0:
66,264,82403,6,0,P|110:221|123:161,1,125,2|0,0:0|0:0,0:0:0:0:
63,60,82603,6,0,P|76:119|122:160,1,125,2|0,0:0|0:0,0:0:0:0:
240,159,82803,5,2,0:0:0:0:
265,161,82903,1,0,0:0:0:0:
290,163,83003,2,0,B|353:168|353:168|360:177|360:177|369:169|369:169|408:173,1,125,8|0,0:0|0:0,0:0:0:0:
474,76,83303,2,0,B|438:128|438:128|426:129|426:129|429:141|429:141|406:173,1,125,2|0,0:0|0:0,0:0:0:0:
456,278,83603,6,0,B|428:220|428:220|433:210|433:210|421:206|421:206|405:170,1,125,2|0,0:0|0:0,0:0:0:0:
360,64,83803,6,0,B|311:59|311:59|293:73|293:73|279:56|279:56|123:42,1,250,6|0,0:0|0:0,0:0:0:0:
123,42,84203,2,0,P|181:84|189:164,1,125,2|0,0:0|0:0,0:0:0:0:
188,211,84403,5,2,0:0:0:0:
185,235,84503,1,0,0:0:0:0:
183,260,84603,2,0,L|169:387,1,125,8|0,0:0|0:0,0:0:0:0:
295,206,84903,2,0,L|191:130,1,125,2|0,0:0|0:0,0:0:0:0:
286,330,85203,2,0,L|403:277,1,125,2|0,0:0|0:0,0:0:0:0:
310,93,85803,2,0,P|280:146|295:206,1,125,2|0,0:0|0:0,0:0:0:0:
477,107,86003,5,2,0:0:0:0:
452,105,86103,1,0,0:0:0:0:
427,103,86203,6,0,B|364:98|364:98|357:89|357:89|348:97|348:97|309:93,1,125,8|0,0:0|0:0,0:0:0:0:
282,276,86403,6,0,B|317:223|317:223|329:222|329:222|326:210|326:210|349:178,1,125,2|0,0:0|0:0,0:0:0:0:
205,64,86603,6,0,B|232:121|232:121|227:131|227:131|239:135|239:135|255:171,1,125,2|0,0:0|0:0,0:0:0:0:
282,276,87003,6,0,B|202:269|202:269|187:251|187:251|170:266|170:266|-5:250,1,250,6|0,0:0|0:0,0:0:0:0:
282,276,87603,1,2,0:0:0:0:
46,254,87803,6,0,P|88:211|94:149,1,125,10|0,0:0|0:0,0:0:0:0:
26,54,88103,2,0,P|42:111|92:148,1,125,2|0,0:0|0:0,0:0:0:0:
208,137,88403,2,0,P|149:122|93:147,1,125,2|0,0:0|0:0,0:0:0:0:
46,254,88803,5,2,0:0:0:0:
159,216,89003,2,0,P|201:231|225:270,1,93.75,2|0,0:0|0:0,0:0:0:0:
304,344,89403,2,0,P|215:391|200:536,1,250,2|4,0:0|0:0,0:0:0:0:
256,192,96603,12,0,102603,0:0:0:0:
178,38,103003,6,0,L|181:78,1,25,4|0,0:0|0:0,0:0:0:0:
189,165,103403,1,0,0:0:0:0:
72,111,103603,6,0,L|90:120,4,12.5,0|0|2|0|0,0:0|0:0|0:0|0:0|0:0,0:0:0:0:
189,165,104203,1,0,0:0:0:0:
84,240,104403,1,0,0:0:0:0:
189,165,104603,6,0,L|192:205,1,25,0|0,0:0|0:0,0:0:0:0:
200,293,105003,1,0,0:0:0:0:
304,218,105203,1,0,0:0:0:0:
129,210,105403,5,2,0:0:0:0:
189,165,105503,1,0,0:0:0:0:
129,210,105603,5,0,0:0:0:0:
200,293,105803,5,0,0:0:0:0:
95,367,106003,1,0,0:0:0:0:
83,239,106203,6,0,L|116:216,1,25,4|0,0:0|0:0,0:0:0:0:
187,164,106603,1,0,0:0:0:0:
199,293,106803,6,0,L|197:273,4,12.5,0|0|2|0|0,0:0|0:0|0:0|0:0|0:0,0:0:0:0:
187,164,107403,1,0,0:0:0:0:
304,218,107603,1,0,0:0:0:0:
187,164,107803,6,0,L|223:181,1,25,0|0,0:0|0:0,0:0:0:0:
304,218,108203,1,0,0:0:0:0:
292,91,108403,5,0,0:0:0:0:
225,58,108503,1,0,0:0:0:0:
292,91,108603,5,2,0:0:0:0:
225,58,108703,1,0,0:0:0:0:
292,91,108803,5,0,0:0:0:0:
421,272,109003,5,0,0:0:0:0:
304,218,109203,1,0,0:0:0:0:
315,347,109403,6,0,L|312:307,1,25,4|0,0:0|0:0,0:0:0:0:
304,219,109803,1,0,0:0:0:0:
421,273,110003,6,0,L|403:265,4,12.5,0|0|2|0|0,0:0|0:0|0:0|0:0|0:0,0:0:0:0:
304,219,110603,1,0,0:0:0:0:
409,145,110803,1,0,0:0:0:0:
304,219,111003,6,0,L|301:180,1,25,0|0,0:0|0:0,0:0:0:0:
293,92,111403,1,0,0:0:0:0:
304,219,111603,1,0,0:0:0:0:
364,125,111803,5,2,0:0:0:0:
293,92,111903,1,0,0:0:0:0:
364,125,112003,5,0,0:0:0:0:
398,17,112203,5,0,0:0:0:0:
293,92,112403,1,0,0:0:0:0:
188,165,112603,6,0,L|151:147,1,25,4|0,0:0|0:0,0:0:0:0:
72,111,113003,1,0,0:0:0:0:
176,38,113203,6,0,L|178:58,4,12.5,0|0|2|0|0,0:0|0:0|0:0|0:0|0:0,0:0:0:0:
188,165,113803,1,0,0:0:0:0:
71,111,114003,1,0,0:0:0:0:
83,239,114203,6,0,L|86:279,1,25,0|0,0:0|0:0,0:0:0:0:
199,293,114603,1,0,0:0:0:0:
141,143,114803,5,0,0:0:0:0:
71,110,114903,1,0,0:0:0:0:
141,143,115003,5,2,0:0:0:0:
71,110,115103,1,0,0:0:0:0:
141,143,115203,5,0,0:0:0:0:
199,293,115403,5,0,0:0:0:0:
83,239,115603,1,0,0:0:0:0:
94,380,115803,6,0,B|94:370|94:370|79:370|79:392|94:392|107:392|107:370|94:370|94:370|94:380,1,74.9999977111817,6|0,0:0|0:0,0:0:0:0:
184,118,116603,6,0,P|144:135|66:105,1,125,8|0,0:0|0:0,0:0:0:0:
131,47,117203,2,0,B|131:37|131:37|116:37|116:59|131:59|144:59|144:37|131:37|131:37|131:47,1,74.9999977111817,2|0,0:0|0:0,0:0:0:0:
131,47,117803,1,2,0:0:0:0:
192,228,118203,6,0,P|226:254|239:336,1,125,8|0,0:0|0:0,0:0:0:0:
241,330,118803,1,0,0:0:0:0:
157,309,119003,2,0,B|157:299|157:299|142:299|142:321|157:321|170:321|170:299|157:299|157:299|157:309,1,74.9999977111817,2|0,0:0|0:0,0:0:0:0:
381,121,119803,6,0,P|341:138|263:108,1,125,8|0,0:0|0:0,0:0:0:0:
329,48,120403,2,0,B|329:38|329:38|314:38|314:60|329:60|342:60|342:38|329:38|329:38|329:48,1,74.9999977111817,2|0,0:0|0:0,0:0:0:0:
329,48,121003,1,2,0:0:0:0:
394,253,121403,5,8,0:0:0:0:
330,348,121603,2,0,P|335:304|400:252,1,125,2|0,0:0|0:0,0:0:0:0:
330,348,122203,6,0,P|335:304|400:252,1,125,6|0,0:0|0:0,0:0:0:0:
112,304,123003,6,0,B|112:294|112:294|97:294|97:316|112:316|125:316|125:294|112:294|112:294|112:304,1,74.9999977111817,8|0,0:0|0:0,0:0:0:0:
188,246,123603,2,0,P|141:210|76:214,1,125,2|0,0:0|0:0,0:0:0:0:
112,304,124203,1,2,0:0:0:0:
240,16,124603,6,0,B|240:6|240:6|225:6|225:28|240:28|253:28|253:6|240:6|240:6|240:16,1,74.9999977111817,8|0,0:0|0:0,0:0:0:0:
326,27,125203,1,0,0:0:0:0:
243,106,125403,2,0,P|297:83|326:25,1,125,2|0,0:0|0:0,0:0:0:0:
408,252,126003,1,2,0:0:0:0:
381,140,126203,2,0,P|373:198|409:252,1,125,0|0,0:0|0:0,0:0:0:0:
171,209,126803,6,0,P|232:205|282:242,1,125,0|0,0:0|0:0,0:0:0:0:
208,292,127403,1,0,0:0:0:0:
242,106,127803,5,8,0:0:0:0:
326,27,128003,2,0,P|298:81|242:106,1,125,2|0,0:0|0:0,0:0:0:0:
408,251,128603,6,0,P|375:199|381:138,1,125,6|0,0:0|0:0,0:0:0:0:
171,209,129403,6,0,B|171:203|171:203|162:203|162:217|171:217|179:217|179:203|171:203|171:203|162:203|162:217|171:217|179:217|179:203|171:203|171:203|162:203|162:217|171:217|179:217|179:203|171:203|171:203|162:203|162:217|171:217|179:217|179:203|171:203|171:203|171:209,1,149.999995422363,8|0,0:0|0:0,0:0:0:0:
96,261,130003,2,0,P|145:297|206:293,1,125,2|0,0:0|0:0,0:0:0:0:
96,261,130603,1,2,0:0:0:0:
276,152,131003,6,0,B|276:146|276:146|267:146|267:160|276:160|284:160|284:146|276:146|276:146|267:146|267:160|276:160|284:160|284:146|276:146|276:146|267:146|267:160|276:160|284:160|284:146|276:146|276:146|267:146|267:160|276:160|284:160|284:146|276:146|276:146|276:152,1,149.999995422363,8|0,0:0|0:0,0:0:0:0:
326,78,131603,1,0,0:0:0:0:
354,190,131803,2,0,P|360:129|326:78,1,125,2|0,0:0|0:0,0:0:0:0:
171,94,132603,6,0,B|171:88|171:88|162:88|162:102|171:102|179:102|179:88|171:88|171:88|162:88|162:102|171:102|179:102|179:88|171:88|171:88|162:88|162:102|171:102|179:102|179:88|171:88|171:88|162:88|162:102|171:102|179:102|179:88|171:88|171:88|171:94,1,149.999995422363,8|0,0:0|0:0,0:0:0:0:
163,3,133203,2,0,P|106:27|79:82,1,125,0|0,0:0|0:0,0:0:0:0:
163,3,133803,1,2,0:0:0:0:
205,292,134203,5,8,0:0:0:0:
95,261,134403,2,0,P|144:297|205:293,1,125,2|0,0:0|0:0,0:0:0:0:
95,261,135003,6,0,P|144:297|205:293,1,125,6|0,0:0|0:0,0:0:0:0:
348,144,135803,6,0,B|348:138|348:138|339:138|339:152|348:152|356:152|356:138|348:138|348:138|339:138|339:152|348:152|356:152|356:138|348:138|348:138|339:138|339:152|348:152|356:152|356:138|348:138|348:138|339:138|339:152|348:152|356:152|356:138|348:138|348:138|348:144,1,149.999995422363,8|0,0:0|0:0,0:0:0:0:
340,56,136403,2,0,P|284:80|257:135,1,125,2|0,0:0|0:0,0:0:0:0:
348,144,137003,1,2,0:0:0:0:
312,332,137403,6,0,B|312:326|312:326|303:326|303:340|312:340|320:340|320:326|312:326|312:326|303:326|303:340|312:340|320:340|320:326|312:326|312:326|303:326|303:340|312:340|320:340|320:326|312:326|312:326|303:326|303:340|312:340|320:340|320:326|312:326|312:326|312:332,1,149.999995422363,8|0,0:0|0:0,0:0:0:0:
367,258,138003,1,2,0:0:0:0:
395,370,138203,2,0,P|401:309|367:258,1,125,2|0,0:0|0:0,0:0:0:0:
299,116,138803,5,0,0:0:0:0:
272,228,139003,2,0,P|265:167|299:116,1,125,2|0,0:0|0:0,0:0:0:0:
392,112,139603,1,2,0:0:0:0:
256,192,139703,12,0,141003,0:0:0:0:
56,352,141403,6,0,B|60:304|60:304|68:296|68:296|61:288|61:288|65:240|65:240|58:231|58:231|67:224|67:224|72:168,1,187.500007152558,4|0,0:0|0:0,0:0:0:0:
304,240,141703,2,0,B|260:260|260:260|249:256|249:256|245:267|245:267|202:287|202:287|198:297|198:297|187:294|187:294|137:317,1,187.500007152558,2|0,0:0|0:0,0:0:0:0:
84,82,142003,6,0,B|123:109|123:109|125:120|125:120|136:118|136:118|175:146|175:146|186:144|186:144|188:155|188:155|234:187,1,187.500007152558,2|0,0:0|0:0,0:0:0:0:
407,303,142203,5,0,0:0:0:0:
304,240,142303,1,0,0:0:0:0:
412,253,142403,5,0,0:0:0:0:
308,222,142503,1,0,0:0:0:0:
406,208,142603,5,0,0:0:0:0:
308,206,142703,1,0,0:0:0:0:
389,170,142803,2,0,P|347:126|224:168,1,187.5,6|0,0:0|0:0,0:0:0:0:
216,240,143203,5,0,0:0:0:0:
216,240,143303,1,0,0:0:0:0:
216,240,143403,2,0,B|211:296|211:296|218:304|218:304|209:311|209:311|208:325,1,93.7500035762788,2|0,0:0|0:0,0:0:0:0:
120,352,143603,2,0,B|124:295|124:295|117:287|117:287|126:280|126:280|127:266,1,93.7500035762788,2|0,0:0|0:0,0:0:0:0:
48,112,143803,6,0,P|144:144|200:80,1,125,8|0,0:0|0:0,0:0:0:0:
232,88,144003,1,0,0:0:0:0:
232,88,144103,2,0,P|254:31|309:4,1,125,2|0,0:0|0:0,0:0:0:0:
384,88,144403,2,0,B|389:144|389:144|398:151|398:151|390:160|390:160|394:206,1,125,2|0,0:0|0:0,0:0:0:0:
408,328,144603,6,0,P|288:272|176:304,1,187.500007152558,2|0,0:0|0:0,0:0:0:0:
24,360,144903,2,0,P|132:284|160:171,1,187.500007152558,2|0,0:0|0:0,0:0:0:0:
188,10,145203,2,0,P|180:60|186:109,1,93.7500035762788,2|0,0:0|0:0,0:0:0:0:
256,176,145403,6,0,B|256:160|256:160|282:160|282:202|256:202|229:202|229:160|256:160|256:160|282:160|282:202|229:202|229:160|256:160|256:160|282:160|282:202|256:202|229:202|229:160|256:160|256:160|282:160|282:202|256:202|229:202|229:160|256:160|256:160|282:160|282:202|256:202|229:202|229:160|256:160|256:160|282:160|282:202|229:202|229:160|282:160|282:202|229:202|229:160|282:160|282:202|229:202|229:160|256:160|256:160|256:176,1,625,4|0,0:0|0:0,0:0:0:0:
335,229,146003,2,0,P|277:271|191:245,1,140.625005364418,6|0,0:0|0:0,0:0:0:0:
179,384,146403,5,0,0:0:0:0:
179,384,146503,1,0,0:0:0:0:
179,384,146603,2,0,P|171:312|237:251,1,93.7500035762788,2|0,0:0|0:0,0:0:0:0:
122,171,146803,6,0,P|187:200|207:287,1,93.7500035762788,2|0,0:0|0:0,0:0:0:0:
262,356,147003,6,0,B|318:361|318:361|325:370|325:370|334:362|334:362|380:366,1,125,8|0,0:0|0:0,0:0:0:0:
372,184,147303,2,0,B|339:229|339:229|328:231|328:231|330:243|330:243|304:281,1,125,2|0,0:0|0:0,0:0:0:0:
465,365,147603,2,0,B|441:314|441:314|445:303|445:303|434:299|434:299|414:257,1,125,2|0,0:0|0:0,0:0:0:0:
332,109,147803,6,0,P|257:30|145:44,1,187.500007152558,4|0,0:0|0:0,0:0:0:0:
188,275,148103,2,0,P|293:249|337:145,1,187.500007152558,2|0,0:0|0:0,0:0:0:0:
116,66,148403,2,0,P|90:109|83:158,1,93.7500035762788,2|0,0:0|0:0,0:0:0:0:
244,120,149003,6,0,P|252:164|240:116,1,250,10|0,0:0|0:0,0:0:0:0:
312,74,149203,2,0,P|337:162|296:244,1,187.500007152558
141,314,149603,5,0,0:0:0:0:
141,314,149703,1,0,0:0:0:0:
141,314,149803,2,0,P|204:247|295:243,1,125,2|0,0:0|0:0,0:0:0:0:
434,342,150003,6,0,P|345:320|295:243,1,125,2|0,0:0|0:0,0:0:0:0:
312,74,150203,6,0,B|256:79|256:79|249:88|249:88|240:80|240:80|194:84,1,125,10|0,0:0|0:0,0:0:0:0:
345,208,150403,5,0,0:0:0:0:
345,208,150503,2,0,B|368:157|368:157|364:146|364:146|375:142|375:142|395:100,1,125,2|0,0:0|0:0,0:0:0:0:
212,169,150803,2,0,B|244:214|244:214|256:216|256:216|254:227|254:227|280:266,1,125,2|0,0:0|0:0,0:0:0:0:
179,339,151003,6,0,P|163:272|241:148,1,187.500007152558,6|0,0:0|0:0,0:0:0:0:
375,110,151303,2,0,P|324:157|178:151,1,187.500007152558,2|0,0:0|0:0,0:0:0:0:
78,53,151603,2,0,P|124:63|164:87,1,93.7500035762788,2|0,0:0|0:0,0:0:0:0:
179,339,151803,6,0,B|335:353|335:353|349:370|349:370|367:356|367:356|414:361,1,250,8|0,0:0|0:0,0:0:0:0:
415,361,152403,2,0,P|363:285|367:245,1,125,2|0,0:0|0:0,0:0:0:0:
248,247,152803,5,0,0:0:0:0:
248,247,152903,1,0,0:0:0:0:
248,247,153003,2,0,P|339:239|372:263,1,125,2|0,0:0|0:0,0:0:0:0:
429,159,153203,6,0,P|389:242|352:258,1,125,2|0,0:0|0:0,0:0:0:0:
208,108,153403,6,0,B|264:113|264:113|271:122|271:122|280:114|280:114|326:118,1,125,10|0,0:0|0:0,0:0:0:0:
100,281,153703,2,0,B|126:243|126:243|124:231|124:231|135:229|135:229|168:184,1,125,2|0,0:0|0:0,0:0:0:0:
71,3,154003,2,0,B|91:45|91:45|102:49|102:49|98:60|98:60|122:111,1,125,2|0,0:0|0:0,0:0:0:0:
322,314,154203,6,0,P|299:219|247:188,1,125,6|0,0:0|0:0,0:0:0:0:
167,184,154503,2,0,P|260:212|313:182,1,125,2|0,0:0|0:0,0:0:0:0:
357,113,154803,2,0,P|315:135|288:173,1,62.5,2|0,0:0|0:0,0:0:0:0:
235,301,155003,5,14,0:0:0:0:
322,314,155103,2,0,P|359:307|404:275,1,62.5,2|0,0:0|0:0,0:0:0:0:
222,116,155303,5,2,0:0:0:0:
167,184,155403,2,0,P|154:219|159:274,1,62.5
357,113,155603,6,0,P|333:84|283:61,1,62.5,2|0,0:0|0:0,0:0:0:0:
312,70,156103,1,0,0:0:0:0:
312,70,156203,2,0,P|307:113|271:159,1,93.7500035762788,2|0,0:0|0:0,0:0:0:0:
278,153,156403,6,0,P|216:113|134:126,1,125,2|0,0:0|0:0,0:0:0:0:
84,164,156603,2,0,P|80:237|132:302,1,125,10|0,0:0|0:0,0:0:0:0:
205,339,156803,1,0,0:0:0:0:
205,339,156903,2,0,P|270:305|300:227,1,125,2|0,0:0|0:0,0:0:0:0:
278,153,157203,6,0,P|216:113|134:126,1,125,2|0,0:0|0:0,0:0:0:0:
101,301,157403,6,0,B|143:264|143:264|144:247|144:247|161:248|161:248|197:217,1,125,6|0,0:0|0:0,0:0:0:0:
295,262,157703,2,0,B|242:243|242:243|226:251|226:251|219:235|219:235|173:220,1,125,2|0,0:0|0:0,0:0:0:0:
166,112,158003,2,0,B|176:166|176:166|190:176|190:176|181:190|181:190|190:237,1,125,2|0,0:0|0:0,0:0:0:0:
205,339,158203,6,0,B|361:353|361:353|375:370|375:370|393:356|393:356|440:361,1,250,8|0,0:0|0:0,0:0:0:0:
441,361,158803,6,0,P|381:307|385:239,1,140.625005364418,6|0,0:0|0:0,0:0:0:0:
492,140,159203,1,0,0:0:0:0:
492,140,159303,1,0,0:0:0:0:
492,139,159403,6,0,P|452:163|405:162,1,93.7500035762788,2|0,0:0|0:0,0:0:0:0:
344,100,159603,2,0,P|343:53|367:13,1,93.7500035762788,2|0,0:0|0:0,0:0:0:0:
492,139,159803,1,8,0:0:0:0:
344,100,160003,5,0,0:0:0:0:
344,100,160103,2,0,P|343:53|367:13,1,93.7500035762788,2|0,0:0|0:0,0:0:0:0:
492,139,160403,6,0,P|452:163|405:162,1,93.7500035762788,2|0,0:0|0:0,0:0:0:0:
256,108,160603,6,0,P|136:116|112:148,1,125,6|0,0:0|0:0,0:0:0:0:
85,216,160903,2,0,P|138:108|122:71,1,125,2|0,0:0|0:0,0:0:0:0:
75,12,161203,2,0,P|77:43|90:72,1,62.5,2|0,0:0|0:0,0:0:0:0:
208,236,161403,6,0,P|239:261|207:232,1,375,14305116|0,0:0|0:0,0:0:0:0:
332,148,162003,2,0,P|244:108|152:148,1,187.500007152558,6|0,0:0|0:0,0:0:0:0:
324,312,162403,5,0,0:0:0:0:
324,312,162503,1,0,0:0:0:0:
324,312,162603,2,0,P|343:287|354:258,1,62.5,2|0,0:0|0:0,0:0:0:0:
128,256,162803,6,0,P|139:284|159:309,1,62.5,2|0,0:0|0:0,0:0:0:0:
271,112,163003,6,0,P|240:107|209:112,1,62.5,2|0,0:0|0:0,0:0:0:0:
128,256,163203,1,0,0:0:0:0:
300,328,163403,6,0,P|354:261|351:176,1,125,2|0,0:0|0:0,0:0:0:0:
271,112,163803,6,0,B|224:116|224:116|217:125|217:125|208:118|208:118|160:122|160:122|152:115|152:115|144:123|144:123|96:127,1,187.500007152558,6|0,0:0|0:0,0:0:0:0:
4,146,164103,2,0,B|30:184|30:184|42:186|42:186|40:197|40:197|68:237|68:237|66:247|66:247|77:250|77:250|104:290,1,187.500007152558,2|0,0:0|0:0,0:0:0:0:
168,360,164403,2,0,B|188:317|188:317|183:306|183:306|194:302|194:302|217:252,1,125,2|0,0:0|0:0,0:0:0:0:
271,112,164603,6,0,P|280:40|320:4,1,125,2|0,0:0|0:0,0:0:0:0:
331,239,164903,2,0,P|264:267|213:249,1,125,2|0,0:0|0:0,0:0:0:0:
411,124,165203,2,0,P|468:167|478:220,1,125,10|0,0:0|0:0,0:0:0:0:
271,112,165603,5,2,0:0:0:0:
271,112,165703,1,0,0:0:0:0:
271,112,165803,2,0,P|267:78|277:45,1,62.5,2|0,0:0|0:0,0:0:0:0:
331,238,166004,6,0,P|303:259|270:267,1,62.5,2|0,0:0|0:0,0:0:0:0:
410,123,166203,6,0,P|442:137|465:162,1,62.5,6|0,0:0|0:0,0:0:0:0:
491,248,166603,2,0,B|422:253|422:253|400:278|400:278|375:256|375:256|230:269,1,234.375,0|0,0:0|0:0,0:0:0:0:
276,264,167003,6,0,P|266:185|154:166,1,187.500007152558,6|0,0:0|0:0,0:0:0:0:
28,192,167303,2,0,P|101:222|173:135,1,187.500007152558,2|0,0:0|0:0,0:0:0:0:
214,12,167603,2,0,P|169:34|145:77,1,93.7500035762788,2|0,0:0|0:0,0:0:0:0:
276,264,167803,5,10,0:0:0:0:
172,156,167903,1,0,0:0:0:0:
312,218,168003,5,2,0:0:0:0:
209,156,168103,1,0,0:0:0:0:
332,163,168203,5,2,0:0:0:0:
239,136,168303,1,0,0:0:0:0:
339,102,168403,6,0,P|274:38|170:60,1,187.500007152558,2|0,0:0|0:0,0:0:0:0:
334,221,168903,5,0,0:0:0:0:
334,221,169003,2,0,P|421:196|454:95,1,187.500007152558,2|0,0:0|0:0,0:0:0:0:
184,48,169403,6,0,L|194:146,1,62.5,10|0,0:0|0:0,0:0:0:0:
109,264,169603,6,0,L|188:205,1,62.5,2|0,0:0|0:0,0:0:0:0:
334,221,169803,6,0,L|243:180,1,62.5,2|0,0:0|0:0,0:0:0:0:
184,48,170003,6,0,L|194:146,1,62.5,2|0,0:0|0:0,0:0:0:0:
224,315,170203,6,0,L|286:321,1,62.5,6|0,0:0|0:0,0:0:0:0:
364,377,170403,5,2,0:0:0:0:
382,318,170503,1,0,0:0:0:0:
359,261,170603,2,0,P|316:231|270:231,1,62.5,2|0,0:0|0:0,0:0:0:0:
464,160,170803,5,2,0:0:0:0:
422,115,170903,1,0,0:0:0:0:
361,106,171003,2,0,P|312:127|289:167,1,62.5,10|0,0:0|0:0,0:0:0:0:
62,184,171403,5,0,0:0:0:0:
111,146,171503,1,0,0:0:0:0:
172,148,171603,2,0,P|215:177|231:221,1,62.5,6|0,0:0|0:0,0:0:0:0:
251,384,172003,5,2,0:0:0:0:
272,255,172103,1,0,0:0:0:0:
311,354,172203,5,2,0:0:0:0:
300,249,172303,1,0,0:0:0:0:
355,315,172403,5,2,0:0:0:0:
324,236,172503,1,0,0:0:0:0:
398,273,172603,6,0,P|398:204|345:160,1,125,8|0,0:0|0:0,0:0:0:0:
203,68,172903,2,0,P|262:102|327:78,1,125,2|0,0:0|0:0,0:0:0:0:
478,1,173203,2,0,P|418:35|406:84,1,62.5,2|0,0:0|0:0,0:0:0:0:
313,239,173403,6,0,P|240:258|176:238,1,125,6|0,0:0|0:0,0:0:0:0:
140,354,173703,2,0,P|160:281|209:235,1,125,2|0,0:0|0:0,0:0:0:0:
125,146,174003,2,0,P|153:167|175:193,1,62.5,2|0,0:0|0:0,0:0:0:0:
257,363,174203,6,0,B|211:359|211:359|202:367|202:367|195:358|195:358|139:353,1,125,10|0,0:0|0:0,0:0:0:0:
232,65,174403,5,2,0:0:0:0:
247,98,174503,1,0,0:0:0:0:
263,132,174603,2,0,B|282:173|282:173|293:177|293:177|289:188|289:188|313:239,1,125,2|0,0:0|0:0,0:0:0:0:
15,303,175003,5,6,0:0:0:0:
36,273,175103,1,0,0:0:0:0:
57,242,175203,2,0,B|83:204|83:204|81:192|81:192|92:190|92:190|124:144,1,125,2|0,0:0|0:0,0:0:0:0:
331,369,175603,5,0,0:0:0:0:
294,365,175703,1,0,0:0:0:0:
257,363,175803,2,0,B|139:352,1,62.5,10|0,0:0|0:0,0:0:0:0:
15,303,176003,5,2,0:0:0:0:
146,284,176103,1,0,0:0:0:0:
8,247,176203,5,2,0:0:0:0:
113,259,176303,1,0,0:0:0:0:
17,191,176403,5,2,0:0:0:0:
95,222,176503,1,0,0:0:0:0:
48,145,176603,2,0,P|137:142|182:195,1,93.7500035762788,6|0,0:0|0:0,0:0:0:0:
146,37,176803,5,2,0:0:0:0:
205,50,176903,1,0,0:0:0:0:
244,99,177003,2,0,P|250:151|227:191,1,62.5,2|0,0:0|0:0,0:0:0:0:
306,335,177203,5,0,0:0:0:0:
287,277,177303,1,0,0:0:0:0:
310,219,177403,2,0,P|352:187|398:187,1,62.5,10|0,0:0|0:0,0:0:0:0:
380,101,177603,6,0,P|331:80|308:39,1,62.5,2|0,0:0|0:0,0:0:0:0:
244,99,177803,6,0,P|250:151|227:191,1,62.5,2|0,0:0|0:0,0:0:0:0:
171,383,178003,2,0,B|157:226|157:226|172:210|172:210|155:194|155:194|151:145,1,250,6|0,0:0|0:0,0:0:0:0:
151,146,178303,5,0,0:0:0:0:
151,146,178403,2,0,P|114:186|66:195,1,93.7500035762788,2|0,0:0|0:0,0:0:0:0:
244,100,178603,6,0,P|227:47|244:1,1,93.7500035762788,2|0,0:0|0:0,0:0:0:0:
238,204,178803,6,0,P|291:216|322:253,1,93.7500035762788,2|0,0:0|0:0,0:0:0:0:
335,327,179003,5,2,0:0:0:0:
376,177,179103,1,0,0:0:0:0:
403,292,179203,5,2,0:0:0:0:
403,167,179303,1,0,0:0:0:0:
447,252,179403,5,2,0:0:0:0:
420,155,179503,1,0,0:0:0:0:
474,212,179603,5,2,0:0:0:0:
433,142,179703,1,0,0:0:0:0:
505,189,179803,6,0,P|483:73|395:67,1,187.500007152558,6|0,0:0|0:0,0:0:0:0:
295,251,180103,2,0,P|406:289|455:216,1,187.500007152558,2|0,0:0|0:0,0:0:0:0:
345,38,180403,2,0,P|298:49|264:85,1,93.7500035762788,2|0,0:0|0:0,0:0:0:0:
505,189,180603,6,0,P|518:142|504:95,1,93.7500035762788,10|0,0:0|0:0,0:0:0:0:
345,38,180803,5,2,0:0:0:0:
368,161,180903,1,0,0:0:0:0:
292,54,181003,5,2,0:0:0:0:
336,144,181103,1,0,0:0:0:0:
252,90,181203,6,0,P|241:171|328:242,1,187.500007152558,6|0,0:0|0:0,0:0:0:0:
473,259,181703,5,0,0:0:0:0:
473,259,181803,2,0,P|439:222|392:206,1,93.7500035762788,2|0,0:0|0:0,0:0:0:0:
213,366,182003,5,0,0:0:0:0:
213,366,182103,1,0,0:0:0:0:
213,366,182203,2,0,P|261:355|298:322,1,93.7500035762788,10|0,0:0|0:0,0:0:0:0:
240,165,182403,5,2,0:0:0:0:
222,280,182503,1,0,0:0:0:0:
211,158,182603,5,2,0:0:0:0:
173,243,182703,1,0,0:0:0:0:
184,143,182803,5,2,0:0:0:0:
137,200,182903,1,0,0:0:0:0:
163,120,183003,2,0,P|70:149|52:219,1,140.625005364418,2|0,0:0|0:0,0:0:0:0:
240,165,183403,5,2,0:0:0:0:
240,165,183503,1,0,0:0:0:0:
240,165,183603,2,0,P|261:69|209:19,1,140.625005364418,4|0,0:0|0:0,0:0:0:0:
162,209,184003,5,0,0:0:0:0:
162,209,184103,1,0,0:0:0:0:
162,209,184203,2,0,P|233:275|303:255,1,125,2|0,0:0|0:0,0:0:0:0:
471,146,184403,6,0,B|409:150|409:150|389:172|389:172|367:153|367:153|238:164,1,250,4|0,0:0|0:0,0:0:0:0:
239,164,184903,5,0,0:0:0:0:
239,164,185003,2,0,P|290:121|297:73,1,93.7500035762788,2|0,0:0|0:0,0:0:0:0:
145,153,185203,2,0,P|157:218|195:248,1,93.7500035762788,2|0,0:0|0:0,0:0:0:0:
285,270,185403,5,2,0:0:0:0:
125,309,185503,1,0,0:0:0:0:
302,281,185603,5,2,0:0:0:0:
186,344,185703,1,0,0:0:0:0:
318,287,185803,5,2,0:0:0:0:
241,359,185903,1,0,0:0:0:0:
334,290,186003,5,2,0:0:0:0:
289,361,186103,1,0,0:0:0:0:
416,308,186203,6,0,P|407:247|372:216,1,93.7500035762788,6|0,0:0|0:0,0:0:0:0:
206,186,186403,1,0,0:0:0:0:
206,186,186503,6,0,P|263:208|307:193,1,93.7500035762788,2|0,0:0|0:0,0:0:0:0:
416,65,186703,1,0,0:0:0:0:
416,65,186803,6,0,P|367:103|358:149,1,93.7500035762788,2|0,0:0|0:0,0:0:0:0:
314,305,187003,6,0,B|268:309|268:309|260:318|260:318|252:310|252:310|196:315,1,125,10|0,0:0|0:0,0:0:0:0:
144,378,187203,5,0,0:0:0:0:
118,344,187303,1,0,0:0:0:0:
115,306,187403,2,0,P|122:275|141:251,1,62.5,2|0,0:0|0:0,0:0:0:0:
176,102,187603,5,0,0:0:0:0:
176,102,187703,2,0,P|184:163|220:194,1,93.7500035762788,6|0,0:0|0:0,0:0:0:0:
316,178,188003,5,0,0:0:0:0:
342,144,188103,1,0,0:0:0:0:
345,106,188203,2,0,P|337:75|318:51,1,62.5,2|0,0:0|0:0,0:0:0:0:
446,303,188403,5,0,0:0:0:0:
420,269,188503,1,0,0:0:0:0:
417,231,188603,2,0,P|424:200|443:176,1,62.5,10|0,0:0|0:0,0:0:0:0:
393,373,188803,5,2,0:0:0:0:
346,314,188903,1,0,0:0:0:0:
279,283,189003,5,2,0:0:0:0:
205,286,189103,1,0,0:0:0:0:
140,322,189203,5,2,0:0:0:0:
68,309,189303,1,0,0:0:0:0:
32,243,189403,2,0,P|31:208|42:176,1,62.5,6|0,0:0|0:0,0:0:0:0:
18,43,189603,5,0,0:0:0:0:
18,43,189703,2,0,P|71:87|81:144,1,125,2|0,0:0|0:0,0:0:0:0:
197,131,190003,5,0,0:0:0:0:
197,131,190103,2,0,P|131:155|77:135,1,125,2|0,0:0|0:0,0:0:0:0:
157,43,190403,5,0,0:0:0:0:
157,43,190503,2,0,P|222:18|276:38,1,125,2|0,0:0|0:0,0:0:0:0:
326,108,190803,2,0,L|317:210,1,62.5,2|0,0:0|0:0,0:0:0:0:
311,254,191003,5,6,0:0:0:0:
415,242,191103,1,0,0:0:0:0:
311,254,191203,5,2,0:0:0:0:
415,242,191303,1,0,0:0:0:0:
254,335,191403,5,2,0:0:0:0:
356,348,191503,1,0,0:0:0:0:
254,335,191603,5,2,0:0:0:0:
356,348,191703,1,0,0:0:0:0:
151,282,191803,5,10,0:0:0:0:
164,384,191903,1,0,0:0:0:0:
151,282,192003,5,2,0:0:0:0:
164,384,192103,1,0,0:0:0:0:
16,336,192203,5,2,0:0:0:0:
22,261,192303,1,0,0:0:0:0:
29,186,192403,5,2,0:0:0:0:
35,111,192503,1,0,0:0:0:0:
42,37,192603,6,0,L|45:75,1,37.4999988555909,6|0,0:0|0:0,0:0:0:0:
277,114,193403,2,0,L|280:76,1,37.4999988555909,10|0,0:0|0:0,0:0:0:0:
268,198,194003,2,0,L|265:236,1,37.4999988555909,6|0,0:0|0:0,0:0:0:0:
257,319,194603,1,2,0:0:0:0:
494,289,195003,2,0,L|492:266,1,18.7499994277954,10|0,0:0|0:0,0:0:0:0:
492,270,195303,1,2,0:0:0:0:
492,270,195603,1,2,0:0:0:0:
441,121,195803,6,0,L|438:159,1,37.4999988555909,6|0,0:0|0:0,0:0:0:0:
237,114,196603,2,0,L|234:76,1,37.4999988555909,10|0,0:0|0:0,0:0:0:0:
246,198,197203,2,0,L|249:236,1,37.4999988555909,2|0,0:0|0:0,0:0:0:0:
257,319,197803,1,2,0:0:0:0:
18,289,198203,2,0,L|19:270,1,18.7499994277954,10|0,0:0|0:0,0:0:0:0:
20,270,198503,1,2,0:0:0:0:
19,270,198803,1,2,0:0:0:0:
71,121,199003,6,0,L|74:159,1,37.4999988555909,6|0,0:0|0:0,0:0:0:0:
240,78,199803,2,0,L|243:40,1,37.4999988555909,10|0,0:0|0:0,0:0:0:0:
326,84,200403,2,0,L|329:122,1,37.4999988555909,2|0,0:0|0:0,0:0:0:0:
337,205,201003,1,2,0:0:0:0:
63,255,201403,2,0,L|61:273,1,18.7499994277954,10|0,0:0|0:0,0:0:0:0:
61,274,201703,1,2,0:0:0:0:
61,274,202003,1,2,0:0:0:0:
141,141,202203,6,0,L|144:179,1,37.4999988555909,6|0,0:0|0:0,0:0:0:0:
151,254,202803,1,2,0:0:0:0:
276,45,203003,2,2,L|273:83,1,37.4999988555909,8|2,0:0|0:0,0:0:0:0:
264,162,203603,2,0,L|261:200,1,37.4999988555909,2|0,0:0|0:0,0:0:0:0:
261,199,204203,1,2,0:0:0:0:
441,97,204603,5,10,0:0:0:0:
441,97,204903,1,0,0:0:0:0:
426,309,205203,1,0,0:0:0:0:
429,272,205403,6,0,L|426:310,1,37.4999988555909,6|0,0:0|0:0,0:0:0:0:
135,210,206203,2,0,L|138:248,1,37.4999988555909,10|0,0:0|0:0,0:0:0:0:
194,147,206803,2,0,L|197:109,1,37.4999988555909,2|0,0:0|0:0,0:0:0:0:
206,30,207403,1,2,0:0:0:0:
372,219,207803,2,0,L|370:200,1,18.7499994277954,6|0,0:0|0:0,0:0:0:0:
364,119,208103,2,0,L|363:109,1,9.37499971389771,2|0,0:0|0:0,0:0:0:0:
358,28,208403,1,2,0:0:0:0:
224,112,208603,6,0,L|221:150,1,37.4999988555909,6|0,0:0|0:0,0:0:0:0:
512,240,209403,2,0,L|509:202,1,37.4999988555909,10|0,0:0|0:0,0:0:0:0:
448,304,210003,2,0,L|445:342,1,37.4999988555909,2|0,0:0|0:0,0:0:0:0:
445,341,210603,1,2,0:0:0:0:
230,264,211003,2,0,L|232:282,1,18.7499994277954,10|0,0:0|0:0,0:0:0:0:
232,283,211303,1,2,0:0:0:0:
232,283,211603,1,2,0:0:0:0:
151,345,211803,6,0,L|154:307,1,37.4999988555909,6|0,0:0|0:0,0:0:0:0:
292,93,212603,2,0,L|295:131,1,37.4999988555909,10|0,0:0|0:0,0:0:0:0:
327,210,213203,2,0,L|324:248,1,37.4999988555909,2|0,0:0|0:0,0:0:0:0:
315,328,213803,1,2,0:0:0:0:
129,197,214203,2,0,L|131:215,1,18.7499994277954,10|0,0:0|0:0,0:0:0:0:
131,216,214503,1,2,0:0:0:0:
131,216,214803,1,2,0:0:0:0:
229,354,215003,6,0,L|239:222,1,131.249995994568,6|0,0:0|0:0,0:0:0:0:
249,132,216603,6,0,L|241:38,1,62.5,2|0,0:0|0:0,0:0:0:0:
259,57,216803,2,0,L|265:137,1,81.2499962806703,2|0,0:0|0:0,0:0:0:0:
281,145,217003,6,0,L|273:45,1,100,2|0,0:0|0:0,0:0:0:0:
286,38,217203,2,0,L|294:150,1,112.499996566773,2|0,0:0|0:0,0:0:0:0:
306,155,217403,6,0,L|297:32,1,125,6|0,0:0|0:0,0:0:0:0:
306,23,217603,6,0,L|317:161,1,137.500004196167,2|0,0:0|0:0,0:0:0:0:
328,167,217803,6,0,L|314:-4,1,149.999995422363,2|0,0:0|0:0,0:0:0:0:
325,16,218003,6,0,L|337:178,1,153.124995326996,2|0,0:0|0:0,0:0:0:0:
