osu file format v14

[General]
AudioFilename: city.mp3
AudioLeadIn: 0
PreviewTime: 160086
Countdown: 0
SampleSet: Soft
StackLeniency: 0.2
Mode: 0
LetterboxInBreaks: 0
WidescreenStoryboard: 0

[Editor]
Bookmarks: 40981,54222,67463,120429,133670,146912
DistanceSpacing: 6
BeatDivisor: 8
GridSize: 32
TimelineZoom: 1.9

[Metadata]
Title:City Lights Feat. EVO+ , Jinmenusagi (Pa's Lam System Remix)
TitleUnicode:City Lights Feat. EVO+ , Jinmenusagi (Pa's Lam System Remix)
Artist:Pa's Lam System
ArtistUnicode:Pa's Lam System
Creator:handsome
Version:byfar x handsome
Source:
Tags:hyperjuice byfar
BeatmapID:1219210
BeatmapSetID:575809

[Difficulty]
HPDrainRate:4
CircleSize:4
OverallDifficulty:9
ApproachRate:9.4
SliderMultiplier:3.59999990463257
SliderTickRate:1

[Events]
//Background and Video events
0,0,"city.jpg",0,0
//Break Periods
2,93931,106219
//Storyboard Layer 0 (Background)
//Storyboard Layer 1 (Fail)
//Storyboard Layer 2 (Pass)
//Storyboard Layer 3 (Foreground)
//Storyboard Sound Samples

[TimingPoints]
1242,413.793103448276,4,2,1,20,1,0
1242,-200,4,2,1,20,0,0
3931,-300,4,2,1,20,0,0
4552,-200,4,2,1,20,0,0
6207,-300,4,2,1,20,0,0
7862,-200,4,2,1,20,0,0
9517,-300,4,2,1,20,0,0
11173,-200,4,2,1,20,0,0
13862,-200,4,2,1,20,0,0
14483,-200,4,2,1,40,0,0
26069,-300,4,2,1,40,0,0
26483,-200,4,2,1,50,0,0
26690,-300,4,2,1,50,0,0
26897,-133.333333333333,4,2,1,60,0,0
27104,-300,4,2,1,60,0,0
27310,-100,4,2,1,70,0,0
27724,-300,4,2,1,60,0,0
37655,-300,4,2,1,55,0,0
39310,-200,4,2,1,50,0,0
40966,-66.6666666666667,4,2,1,80,0,1
41379,-100,4,2,1,80,0,1
41897,-55.5555555555556,4,2,1,80,0,1
42207,-50,4,2,1,80,0,1
42362,-500,4,2,1,5,0,1
42414,-62.5,4,2,1,80,0,1
42621,-125,4,2,1,80,0,1
42828,-83.3333333333333,4,2,1,80,0,1
43035,-62.5,4,2,1,80,0,1
43448,-50,4,2,1,80,0,1
43655,-500,4,2,1,80,0,1
43810,-500,4,2,1,5,0,1
43862,-50,4,2,1,80,0,1
44276,-100,4,2,1,80,0,1
45207,-55.5555555555556,4,2,1,80,0,1
45517,-50,4,2,1,80,0,1
45673,-500,4,2,1,5,0,1
45724,-62.5,4,2,1,80,0,1
45931,-125,4,2,1,80,0,1
46138,-83.3333333333333,4,2,1,80,0,1
46345,-62.5,4,2,1,80,0,1
46758,-50,4,2,1,80,0,1
46914,-500,4,2,1,5,0,1
46966,-50,4,2,1,80,0,1
47173,-166.666666666667,4,2,1,80,0,1
47586,-100,4,2,1,80,0,1
48517,-55.5555555555556,4,2,1,80,0,1
48827,-50,4,2,1,80,0,1
48983,-500,4,2,1,5,0,1
49034,-62.5,4,2,1,80,0,1
49241,-125,4,2,1,80,0,1
49448,-83.3333333333333,4,2,1,80,0,1
49655,-62.5,4,2,1,80,0,1
50068,-50,4,2,1,80,0,1
50276,-500,4,2,1,80,0,1
50431,-500,4,2,1,5,0,1
50483,-50,4,2,1,80,0,1
50896,-62.5,4,2,1,80,0,1
52345,-62.5,4,2,1,80,0,1
52397,-500,4,2,2,60,0,1
52448,-500,4,2,1,40,0,1
52500,-500,4,2,2,20,0,1
52552,-62.5,4,2,1,5,0,0
53793,-166.666666666667,4,2,1,80,0,1
54207,-800,4,2,1,80,0,1
54362,-800,4,2,1,5,0,1
54414,-50,4,2,1,80,0,1
54724,-66.6666666666667,4,2,1,80,0,1
55655,-200,4,2,1,80,0,1
55862,-125,4,2,1,80,0,1
56069,-83.3333333333333,4,2,1,80,0,1
56276,-62.5,4,2,1,80,0,1
56793,-83.3333333333333,4,2,1,80,0,1
57000,-125,4,2,1,80,0,1
57517,-800,4,2,1,80,0,1
57673,-800,4,2,1,5,0,1
57724,-50,4,2,1,80,0,1
57879,-50,4,2,1,5,0,1
57931,-800,4,2,1,80,0,1
58035,-66.6666666666667,4,2,1,80,0,1
58966,-200,4,2,1,80,0,1
59173,-125,4,2,1,80,0,1
59379,-83.3333333333333,4,2,1,80,0,1
59535,-83.3333333333333,4,2,1,80,0,1
59586,-62.5,4,2,1,80,0,1
60207,-100,4,2,1,80,0,1
60362,-100,4,2,1,5,0,1
60414,-50,4,2,1,80,0,1
60828,-800,4,2,1,80,0,1
60983,-800,4,2,1,80,0,1
61035,-50,4,2,1,80,0,1
61345,-66.6666666666667,4,2,1,80,0,1
62276,-200,4,2,1,80,0,1
62483,-125,4,2,1,80,0,1
62690,-83.3333333333333,4,2,1,80,0,1
62897,-62.5,4,2,1,80,0,1
63414,-83.3333333333333,4,2,1,80,0,1
63621,-125,4,2,1,80,0,1
63931,-800,4,2,1,80,0,1
64086,-66.6666666666667,4,2,1,80,0,1
64138,-66.6666666666667,4,2,1,80,0,1
64552,-800,4,2,1,80,0,1
64759,-57.1428571428571,4,2,1,80,0,1
64914,-57.1428571428571,4,2,1,80,0,1
64966,-100,4,2,1,80,0,1
65066,-66.6666666666667,4,2,1,80,0,1
65173,-800,4,2,1,80,0,1
65328,-800,4,2,1,80,0,1
65379,-50,4,2,1,80,0,1
65793,-800,4,2,1,80,0,1
66000,-50,4,2,1,80,0,1
66621,-800,4,2,1,80,0,1
67448,-100,4,2,1,30,0,0
80483,-200,4,2,1,40,0,0
80690,-500,4,2,1,40,0,0
85655,-100,4,2,1,40,0,0
88759,-500,4,2,1,40,0,0
90621,-100,4,2,1,40,0,0
107173,-71.4285714285714,4,2,1,50,0,0
112138,-200,4,2,1,50,0,0
112966,-71.4285714285714,4,2,1,50,0,0
113793,-55.5555555555556,4,2,1,60,0,0
114414,-800,4,2,1,60,0,0
114621,-55.5555555555556,4,2,1,60,0,0
115242,-800,4,2,1,60,0,0
115448,-55.5555555555556,4,2,1,60,0,0
116069,-800,4,2,1,60,0,0
116276,-55.5555555555556,4,2,1,60,0,0
116897,-800,4,2,1,60,0,0
117104,-100,4,2,1,70,0,0
118759,-100,4,2,1,60,0,0
119586,-50,4,2,1,60,0,0
120414,-50,4,2,1,80,0,1
120673,-50,4,2,1,80,0,1
120724,-50,4,2,1,80,0,1
121862,-800,4,2,1,80,0,1
122897,-50,4,2,1,80,0,1
124035,-100,4,2,1,80,0,1
124345,-800,4,2,1,80,0,1
124500,-200,4,2,1,5,0,1
124552,-50,4,2,1,80,0,1
126621,-33.3,4,2,1,80,0,1
126776,-33.3,4,2,1,5,0,1
126828,-33.3,4,2,1,80,0,1
126983,-33.3,4,2,1,5,0,1
127035,-50,4,2,1,80,0,1
128276,-33.3,4,2,1,80,0,1
128483,-50,4,2,1,80,0,1
133448,-100,4,2,1,80,0,1
133655,-50,4,2,1,80,0,1
134483,-500,4,2,1,80,0,1
134897,-62.5,4,2,1,80,0,1
135104,-50,4,2,1,80,0,1
135517,-83.3333333333333,4,2,1,80,0,1
135828,-62.5,4,2,1,80,0,1
136138,-50,4,2,1,80,0,1
136448,-100,4,2,1,80,0,1
136966,-50,4,2,1,80,0,1
137793,-500,4,2,1,80,0,1
138000,-125,4,2,1,80,0,1
138104,-83.3333333333333,4,2,1,80,0,1
138207,-62.5,4,2,1,80,0,1
138310,-50,4,2,1,80,0,1
138621,-50,4,2,1,80,0,1
141517,-33.3,4,2,1,80,0,1
141724,-100,4,2,1,80,0,1
142552,-500,4,2,1,80,0,1
143586,-50,4,2,1,80,0,1
144414,-500,4,2,1,80,0,1
145035,-50,4,2,1,80,0,1
145242,-500,4,2,1,80,0,1
145655,-800,4,2,1,80,0,1
146069,-50,4,2,1,80,0,1
147517,-800,4,2,1,60,0,0
148138,-50,4,2,1,60,0,0
148345,-100,4,2,1,60,0,0
148966,-50,4,2,1,60,0,0
149690,-100,4,2,1,60,0,0
150207,-50,4,2,1,60,0,0
150983,-50,4,2,1,60,0,0
151035,-100,4,2,1,60,0,0
151862,-500,4,2,1,60,0,0
152173,-800,4,2,1,60,0,0
152690,-50,4,2,1,60,0,0
154966,-100,4,2,1,60,0,0
155586,-50,4,2,1,60,0,0
156000,-50,4,2,1,60,0,0
157474,-500,4,2,1,60,0,0
157655,-500,4,2,1,60,0,0
158897,-800,4,2,1,60,0,0
159310,-50,4,2,1,60,0,0
160086,-50,4,2,1,5,0,0
160138,-800,4,2,1,40,0,0
172759,-400,4,2,1,50,0,0
172966,-200,4,2,1,60,0,0
173173,-100,4,2,1,70,0,0

[Colours]
Combo1 : 255,238,81
Combo2 : 138,250,253

[HitObjects]
136,294,1242,6,0,B|158:327|142:371|142:371|199:335|214:267|166:217|166:217|101:213|78:152|78:152|117:231|55:299|3:291|-28:259|-23:216|6:195,1,629.9999833107,4|0,0:0|0:0,0:0:0:0:
163,128,2897,6,0,P|301:124|490:13,1,359.999990463257,4|0,0:0|0:0,0:0:0:0:
392,316,3931,2,0,P|339:286|281:275,1,119.999996821086,6|0,0:0|0:0,0:0:0:0:
26,0,4552,6,0,B|32:80|127:104|127:104|169:118|175:163|147:196|103:185|103:185|39:163|39:163|-6:226|10:312|93:339|93:339|71:316|70:278,1,629.9999833107,6|0,0:0|0:0,0:0:0:0:
215,234,6207,6,0,P|325:207|462:226,1,239.999993642171,4|0,0:0|0:0,0:0:0:0:
134,350,7242,2,0,B|106:295|106:295|126:239,1,119.999996821086,4|0,0:0|0:0,0:0:0:0:
371,0,7862,6,0,B|514:163|437:389|437:389|224:363,1,629.9999833107,4|0,0:0|0:0,0:0:0:0:
347,122,9517,6,0,B|391:198|368:294|368:294|307:286,1,239.999993642171,4|0,0:0|0:0,0:0:0:0:
77,122,10552,2,0,P|83:62|106:7,1,119.999996821086,4|0,0:0|0:0,0:0:0:0:
195,360,11173,6,0,B|289:277|248:156|248:156|185:173|132:236|150:291|150:291|201:245|172:174|172:174|150:131|166:81,1,629.9999833107,4|0,0:0|0:0,0:0:0:0:
65,223,12828,6,0,P|281:200|326:83,1,359.999990463257,4|0,0:0|0:0,0:0:0:0:
442,384,13862,6,0,P|362:309|254:324,1,224.999994039536,4|0,0:0|0:0,0:0:0:0:
101,351,14483,5,4,0:0:0:0:
178,340,14690,5,0,0:0:0:0:
124,112,14897,1,0,0:0:0:0:
101,351,15104,1,0,0:0:0:0:
326,311,15310,1,8,0:0:0:0:
338,191,15517,1,0,0:0:0:0:
349,72,15724,1,0,0:0:0:0:
360,191,15931,1,0,0:0:0:0:
124,272,16138,5,4,0:0:0:0:
101,33,16345,5,0,0:0:0:0:
178,44,16552,1,0,0:0:0:0:
101,33,16759,1,0,0:0:0:0:
326,73,16966,1,8,0:0:0:0:
349,312,17173,5,4,0:0:0:0:
338,193,17379,5,0,0:0:0:0:
349,312,17586,1,0,0:0:0:0:
0,268,17793,5,4,0:0:0:0:
255,231,18000,5,0,0:0:0:0:
84,159,18207,1,0,0:0:0:0:
39,376,18414,1,0,0:0:0:0:
92,236,18621,1,8,0:0:0:0:
84,313,18828,1,0,0:0:0:0:
84,159,19035,1,0,0:0:0:0:
92,236,19242,1,0,0:0:0:0:
479,244,19448,5,4,0:0:0:0:
495,117,19655,5,0,0:0:0:0:
495,117,19862,1,0,0:0:0:0:
307,162,20069,1,0,0:0:0:0:
495,117,20276,1,8,0:0:0:0:
387,81,20483,5,4,0:0:0:0:
360,329,20690,5,0,0:0:0:0:
112,302,20897,1,0,0:0:0:0:
246,55,21104,5,4,0:0:0:0:
272,313,21310,5,0,0:0:0:0:
359,307,21517,1,0,0:0:0:0:
360,329,21724,1,0,0:0:0:0:
195,348,21931,1,8,0:0:0:0:
203,263,22138,1,0,0:0:0:0:
15,244,22345,1,0,0:0:0:0:
32,366,22552,1,0,0:0:0:0:
272,313,22759,5,4,0:0:0:0:
108,251,22966,5,0,0:0:0:0:
108,251,23173,1,0,0:0:0:0:
161,184,23379,1,0,0:0:0:0:
99,336,23586,1,8,0:0:0:0:
0,45,23793,5,4,0:0:0:0:
108,251,24000,5,0,0:0:0:0:
156,99,24207,1,0,0:0:0:0:
161,184,24414,5,4,0:0:0:0:
389,58,24621,5,0,0:0:0:0:
384,318,24828,1,0,0:0:0:0:
161,182,25035,1,0,0:0:0:0:
318,99,25242,1,8,0:0:0:0:
310,177,25448,1,0,0:0:0:0:
318,99,25655,1,0,0:0:0:0:
310,177,25862,1,0,0:0:0:0:
197,350,26069,6,0,P|196:336|200:321,1,29.9999992052714,4|0,0:0|0:0,0:0:0:0:
438,151,26276,6,0,L|452:159,2,14.9999996026357,2|0|0,0:0|0:0|0:0,0:0:0:0:
289,340,26483,6,0,P|293:326|315:302,1,44.9999988079071,4|0,0:0|0:0,0:0:0:0:
402,235,26690,6,0,L|417:237,2,14.9999996026357,2|0|0,0:0|0:0|0:0,0:0:0:0:
289,340,26897,6,0,L|298:269,1,67.5000007867814,4|0,0:0|0:0,0:0:0:0:
395,325,27104,6,0,L|410:323,2,14.9999996026357,2|0|0,0:0|0:0|0:0,0:0:0:0:
289,340,27310,2,0,P|289:291|260:239,1,89.9999976158143,2|0,0:0|0:0,0:0:0:0:
112,131,27517,2,0,P|66:116|7:128,1,89.9999976158143,2|0,0:0|0:0,0:0:0:0:
279,91,27724,6,0,L|276:120,3,29.9999992052714,12|0|2|0,0:0|0:0|0:0|0:0,0:0:0:0:
174,241,28138,6,0,L|181:270,1,29.9999992052714,10|0,0:0|0:0,0:0:0:0:
99,303,28345,2,0,L|116:328,1,29.9999992052714,2|0,0:0|0:0,0:0:0:0:
262,236,28552,6,0,L|265:207,1,29.9999992052714,10|0,0:0|0:0,0:0:0:0:
276,121,28759,2,0,L|279:92,1,29.9999992052714,2|0,0:0|0:0,0:0:0:0:
494,81,28966,6,0,L|497:110,1,29.9999992052714,10|0,0:0|0:0,0:0:0:0:
508,196,29173,2,0,L|511:225,1,29.9999992052714,2|0,0:0|0:0,0:0:0:0:
196,154,29379,6,0,L|167:151,3,29.9999992052714,12|0|2|0,0:0|0:0|0:0|0:0,0:0:0:0:
116,328,29793,6,0,L|100:304,1,29.9999992052714,10|0,0:0|0:0,0:0:0:0:
262,236,30000,2,0,L|265:207,1,29.9999992052714,2|0,0:0|0:0,0:0:0:0:
181,270,30207,2,0,L|174:241,1,29.9999992052714,10|0,0:0|0:0,0:0:0:0:
400,164,30414,6,0,L|429:161,3,29.9999992052714,4|0|10|0,0:0|0:0|0:0|0:0,0:0:0:0:
249,31,30828,6,0,L|252:60,1,29.9999992052714,2|0,0:0|0:0,0:0:0:0:
265,206,31035,6,0,L|262:235,3,29.9999992052714,12|0|2|0,0:0|0:0|0:0|0:0,0:0:0:0:
249,321,31448,6,0,L|246:350,1,29.9999992052714,10|0,0:0|0:0,0:0:0:0:
345,337,31655,2,0,L|337:308,1,29.9999992052714,2|0,0:0|0:0,0:0:0:0:
162,253,31862,2,0,P|164:267|170:282,1,29.9999992052714,10|0,0:0|0:0,0:0:0:0:
406,255,32069,2,0,P|409:240|408:225,1,29.9999992052714,2|0,0:0|0:0,0:0:0:0:
168,151,32276,2,0,P|177:163|190:172,1,29.9999992052714,10|0,0:0|0:0,0:0:0:0:
369,151,32483,2,0,P|379:140|386:126,1,29.9999992052714,2|0,0:0|0:0,0:0:0:0:
83,295,32690,6,0,L|44:299,3,29.9999992052714,12|0|2|0,0:0|0:0|0:0|0:0,0:0:0:0:
0,91,33104,6,0,L|39:95,1,29.9999992052714,10|0,0:0|0:0,0:0:0:0:
113,105,33310,2,0,L|152:109,1,29.9999992052714,2|0,0:0|0:0,0:0:0:0:
385,126,33517,2,0,P|379:139|369:151,1,29.9999992052714,10|0,0:0|0:0,0:0:0:0:
252,307,33724,6,0,P|258:293|268:282,1,29.9999992052714,4|0,0:0|0:0,0:0:0:0:
411,248,33931,6,0,P|396:249|381:246,1,29.9999992052714,10|0,0:0|0:0,0:0:0:0:
170,213,34138,2,0,P|185:211|199:214,1,29.9999992052714,2|0,0:0|0:0,0:0:0:0:
352,347,34345,5,12,1:2:0:0:
352,347,34448,2,0,L|360:375,1,29.9999992052714,0|10,1:0|0:0,0:0:0:0:
261,77,34655,5,0,1:0:0:0:
261,77,34759,2,0,L|270:106,1,29.9999992052714,10|0,1:2|0:0,0:0:0:0:
453,177,34966,1,10,1:2:0:0:
453,177,35069,2,0,L|424:186,1,29.9999992052714,0|10,1:0|0:0,0:0:0:0:
155,276,35276,1,0,1:0:0:0:
155,276,35379,2,0,L|183:268,1,29.9999992052714,10|0,1:2|0:0,0:0:0:0:
328,232,35586,2,0,L|298:223,1,29.9999992052714,10|0,1:2|0:0,0:0:0:0:
25,147,35793,2,0,L|52:156,1,29.9999992052714,10|0,1:2|0:0,0:0:0:0:
47,347,36000,5,12,1:2:0:0:
47,347,36104,2,0,L|75:339,1,29.9999992052714,0|10,1:0|0:0,0:0:0:0:
360,276,36310,5,0,1:0:0:0:
361,291,36414,2,0,L|333:283,1,29.9999992052714,10|0,1:2|0:0,0:0:0:0:
33,193,36621,1,10,1:2:0:0:
30,212,36724,2,0,L|58:204,1,29.9999992052714,0|10,1:0|0:0,0:0:0:0:
376,132,36931,1,0,1:0:0:0:
378,156,37035,6,0,L|350:148,1,29.9999992052714,12|0,1:2|0:0,0:0:0:0:
13,77,37242,6,0,L|41:69,1,29.9999992052714,10|0,1:2|0:0,0:0:0:0:
395,21,37448,2,0,L|367:13,1,29.9999992052714,10|0,1:2|0:0,0:0:0:0:
186,0,37655,5,12,1:2:0:0:
203,76,37759,1,8,1:2:0:0:
262,125,37862,5,8,1:2:0:0:
248,187,37966,1,8,1:2:0:0:
189,237,38069,5,8,1:2:0:0:
201,285,38173,1,8,1:2:0:0:
260,335,38276,5,8,1:2:0:0:
251,373,38379,1,8,1:2:0:0:
260,335,38483,5,8,1:2:0:0:
251,373,38586,1,8,1:2:0:0:
189,237,38690,5,8,1:2:0:0:
201,285,38793,1,8,1:2:0:0:
262,125,38897,5,8,1:2:0:0:
248,187,39000,1,8,1:2:0:0:
186,0,39104,5,8,1:2:0:0:
203,76,39207,1,8,1:2:0:0:
322,64,39310,6,0,L|320:36,1,22.4999994039536,8|0,1:2|1:0,0:0:0:0:
333,65,39414,2,0,L|337:40,1,22.4999994039536,8|0,1:2|1:0,0:0:0:0:
343,69,39517,2,0,L|357:39,1,22.4999994039536,8|0,1:2|1:0,0:0:0:0:
352,76,39621,2,0,L|376:47,1,22.4999994039536,8|0,1:2|1:0,0:0:0:0:
269,291,39724,6,0,L|271:331,1,22.4999994039536,8|0,1:2|1:0,0:0:0:0:
257,288,39828,2,0,L|249:319,1,22.4999994039536,8|0,1:2|1:0,0:0:0:0:
247,285,39931,2,0,L|229:321,1,22.4999994039536,8|0,1:2|1:0,0:0:0:0:
239,278,40035,2,0,L|213:306,1,22.4999994039536,8|0,1:2|1:0,0:0:0:0:
419,214,40138,6,0,L|459:211,1,22.4999994039536,8|0,1:2|1:0,0:0:0:0:
416,226,40242,2,0,L|447:233,1,22.4999994039536,8|0,1:2|1:0,0:0:0:0:
413,236,40345,2,0,L|449:253,1,22.4999994039536,8|0,1:2|1:0,0:0:0:0:
406,244,40448,2,0,L|434:269,1,22.4999994039536,8|0,1:2|1:0,0:0:0:0:
188,128,40552,5,4,1:0:0:0:
284,253,40966,5,4,1:2:0:0:
284,253,41379,6,0,P|306:317|292:372,1,89.9999976158142,0|0,1:0|0:0,1:0:0:0:
132,307,41586,1,0,1:0:0:0:
122,324,41690,2,0,P|156:321|213:252,1,89.9999976158142,0|8,1:0|0:1,1:0:0:0:
150,136,41897,5,0,1:0:0:0:
103,205,42000,2,0,B|81:184|81:184|164:151|216:214,1,161.999990764618,2|0,1:0|0:0,0:0:0:0:
450,269,42207,6,0,B|488:219|488:219|205:266,1,269.999992847443,2|0,1:0|0:0,0:0:0:0:
283,252,42414,2,0,P|295:313|363:368,1,143.999996185303,0|0,1:0|0:0,0:0:0:0:
389,257,42621,6,0,P|379:281|396:261,1,71.9999980926514,0|0,1:0|0:0,1:0:0:0:
293,115,42828,2,0,P|312:147|297:113,1,107.999993843079,0|0,1:0|0:0,1:0:0:0:
94,95,43035,2,0,P|142:107|97:87,1,143.999996185303,0|0,1:0|0:0,1:0:0:0:
209,175,43242,5,0,3:0:0:0:
200,181,43345,1,0,1:0:0:0:
179,257,43448,2,0,B|154:270|154:270|185:154|185:154|200:181,1,179.999995231629,8|0,1:0|1:0,0:0:0:0:
270,251,43655,6,0,L|302:244,1,26.9999992847443,2|0,1:2|0:0,0:0:0:0:
344,168,43862,6,0,B|354:139|354:139|181:183,1,179.999995231629,2|0,3:1|0:0,0:0:0:0:
11,121,44069,2,0,B|1:150|1:150|174:106,1,179.999995231629,2|0,1:0|0:0,0:0:0:0:
427,47,44276,5,4,1:2:0:0:
427,47,44690,6,0,P|367:24|308:49,1,89.9999976158143,0|0,1:0|0:0,1:0:0:0:
319,196,44897,1,0,1:0:0:0:
293,181,45000,2,0,P|270:121|295:62,1,89.9999976158143,0|8,1:0|0:1,1:0:0:0:
452,146,45207,5,0,1:0:0:0:
371,122,45310,2,0,B|395:115|427:138|427:138|445:221|356:264,1,161.999990764618,2|0,1:0|0:0,0:0:0:0:
216,313,45517,6,0,B|176:298|163:259|163:259|218:148|322:197,1,269.999992847443,2|0,1:0|0:0,0:0:0:0:
319,196,45724,2,2,B|325:266|325:266|321:271|321:271|325:275|325:275|332:345,1,143.999996185303,2|0,1:1|0:1,0:1:0:0:
217,327,45931,6,0,B|181:322|181:322|220:311,1,71.9999980926514,0|0,1:0|0:0,1:0:0:0:
436,248,46138,2,0,B|487:262|487:262|433:269,1,107.999993843079,0|0,1:0|0:0,0:0:0:0:
224,213,46345,2,0,B|150:202|150:202|230:180,1,143.999996185303,0|0,1:0|0:0,1:0:0:0:
276,104,46552,5,0,3:0:0:0:
280,115,46655,1,0,1:0:0:0:
184,81,46759,6,0,B|308:67|308:67|328:81|328:81|448:66,1,269.999992847443,8|0,1:0|0:0,0:0:0:0:
484,227,46966,2,0,B|461:271|461:271|387:211|429:114,1,179.999995231629,0|0,1:0|0:0,0:0:0:0:
448,66,47173,6,0,P|497:100|515:164,1,107.999993843079,4|0,1:0|0:0,0:0:0:0:
56,357,47586,5,4,1:2:0:0:
56,357,48000,6,0,P|32:320|32:261,1,89.9999976158143,0|0,1:0|0:0,0:0:0:0:
138,140,48207,1,0,1:0:0:0:
126,123,48310,2,0,P|102:160|102:219,1,89.9999976158143,0|8,1:0|0:1,0:0:0:0:
246,330,48517,5,0,1:0:0:0:
142,320,48621,2,0,B|119:295|119:295|282:307,1,161.999990764618,2|0,1:0|0:0,0:0:0:0:
395,211,48828,6,0,B|444:181|444:181|347:138|347:138|252:187,1,269.999992847443,2|0,1:0|0:0,0:0:0:0:
252,186,49035,2,0,L|244:366,1,143.999996185303,0|0,1:0|0:0,0:0:0:0:
355,291,49242,6,0,B|330:265|330:265|327:309,1,71.9999980926514,0|0,1:0|0:0,1:0:0:0:
448,212,49448,2,0,B|395:210|395:210|437:259,1,107.999993843079,0|0,1:0|0:0,1:0:0:0:
445,73,49655,2,0,B|394:121|394:121|479:127,1,143.999996185303,0|0,1:0|0:0,1:0:0:0:
305,172,49862,5,0,3:0:0:0:
314,165,49966,1,0,1:0:0:0:
239,110,50069,2,0,B|231:70|231:70|292:76|314:113|313:165,1,179.999995231629,8|0,1:0|1:0,0:0:0:0:
229,192,50276,6,0,L|201:190,1,26.9999992847443,2|0,1:2|0:0,0:0:0:0:
120,218,50483,6,0,B|85:217|68:198|57:173|57:173|51:169|51:169|55:164|55:164|52:136|60:109|91:90,1,179.999995231629,2|0,3:1|0:0,0:0:0:0:
87,91,50690,2,0,B|122:92|139:111|150:136|150:136|156:140|156:140|152:145|152:145|155:173|147:200|116:219,1,179.999995231629,2|0,1:0|0:0,0:0:0:0:
475,328,50897,6,2,B|412:316|406:242|406:242|398:174|332:158|332:158|293:198|229:191|229:191|223:246|162:300,1,431.999988555908,2|0,1:0|0:0,0:1:0:0:
271,95,51310,6,0,P|263:65|270:97,1,143.999996185303,2|0,1:2|0:0,0:0:0:0:
448,34,51517,6,2,B|409:-2|327:10|327:10|354:45|356:78|356:78|429:90|489:165|492:246,1,431.999988555908,2|0,1:0|0:0,0:1:0:0:
388,305,51931,6,0,B|433:331|475:328|475:328|439:320|421:294,1,143.999996185303,2|0,1:2|0:0,0:0:0:0:
161,178,52138,6,2,B|226:170|226:170|232:174|232:174|237:169|237:169|332:158|332:158|387:173|398:215|398:215|384:192|356:184|356:184|384:175|398:214|398:214|385:192|353:185|353:185|384:175|399:214|399:214|386:193|357:185|357:185|369:188|369:188|354:186,1,575.999984741211,4|0,1:2|0:0,0:1:0:0:
131,243,53793,5,2,0:0:0:0:
162,254,53897,1,2,0:0:0:0:
237,286,54000,5,2,0:0:0:0:
268,297,54104,1,2,0:0:0:0:
154,106,54207,6,0,L|138:108,1,16.8749995529652,4|0,1:2|0:0,0:0:0:0:
13,53,54414,6,0,P|97:39|153:105,1,179.999995231629,2|0,0:1|0:0,0:0:0:0:
231,76,54621,5,0,1:0:0:0:
219,157,54724,2,0,L|84:170,1,135.000001573563,0|0,1:0|0:0,0:0:0:0:
296,23,54931,6,2,B|321:59|321:59|300:147,1,135.000001573563,2|8,1:0|0:1,0:1:0:0:
70,376,55138,2,2,B|45:340|45:340|65:251,1,135.000001573563,2|0,1:0|0:0,0:1:0:0:
388,141,55345,6,2,B|482:131|482:131|517:70|487:4|419:-5,1,270.000003147125,0|0,1:0|1:0,0:1:0:0:
433,253,55655,6,0,L|461:250,1,22.4999994039536,2|0,0:0|0:0,0:0:0:0:
473,250,55759,2,0,L|501:247,1,22.4999994039536,2|0,0:0|0:0,0:0:0:0:
415,79,55862,6,0,P|392:105|387:140,1,71.9999980926514,2|0,1:3|0:0,1:0:0:0:
301,133,56069,2,0,P|311:186|351:220,1,107.999993843079,2|0,1:3|0:0,1:0:0:0:
433,253,56276,6,0,B|362:233|318:306|318:306|276:378|188:354,1,287.999992370606,2|0,1:3|0:0,1:0:0:0:
194,36,56586,6,2,P|208:-13|212:38,1,143.999996185303,2|8,1:0|0:1,0:1:0:0:
185,166,56793,2,2,P|184:128|194:164,1,107.999993843079,2|0,1:0|0:0,0:1:0:0:
229,272,57000,2,2,P|220:248|236:268,1,71.9999980926514,2|0,1:0|0:0,0:1:0:0:
399,384,57207,5,2,0:0:0:0:
403,359,57310,1,2,0:0:0:0:
407,334,57414,1,2,0:0:0:0:
247,352,57517,6,0,L|230:356,1,16.8749995529652,4|0,1:2|0:0,0:0:0:0:
23,293,57724,6,0,B|-15:259|-15:259|112:282,1,179.999995231629,2|0,0:1|0:0,0:0:0:0:
325,316,57931,5,0,1:0:0:0:
317,235,58035,2,0,B|312:196|312:196|308:193|308:193|311:189|311:189|302:100,1,135.000001573563,0|0,1:0|1:0,0:0:0:0:
498,201,58242,6,2,P|459:150|394:152,1,135.000001573563,2|8,1:0|0:1,0:1:0:0:
120,116,58448,2,2,P|185:118|225:66,1,135.000001573563,2|0,1:0|0:0,0:1:0:0:
411,258,58655,6,2,B|252:272|252:272|231:214|170:209,1,270.000003147125,2|2,1:0|0:0,0:0:0:0:
169,293,58966,6,2,L|162:325,1,22.4999994039536,2|0,0:0|0:0,0:0:0:0:
155,294,59069,2,0,L|148:326,1,22.4999994039536,2|0,0:0|0:0,0:0:0:0:
0,187,59173,6,0,P|5:158|41:122,1,71.9999980926514,2|0,1:3|0:0,1:0:0:0:
114,144,59379,2,2,P|41:123|0:186,1,161.999990764618,2|2,1:3|0:0,1:0:0:0:
0,187,59586,6,0,B|73:187|95:117|95:117|108:60|153:21|212:34,1,287.999992370606,2|0,1:3|1:0,1:0:0:0:
368,335,59897,2,0,P|417:383|495:361,1,143.999996185303,2|8,1:0|0:1,0:0:0:0:
512,154,60104,1,0,1:0:0:0:
328,178,60207,6,0,B|293:182|293:182|290:178|290:178|289:182|289:182|187:194,1,134.999996423721,2|0,1:0|0:0,0:0:0:0:
199,193,60414,6,0,B|213:155|190:121|190:121|287:150|322:279|252:373,1,359.999990463257,4|0,1:0|0:0,0:0:0:0:
63,286,60724,1,0,0:0:0:0:
63,286,60828,6,0,L|65:269,1,16.8749995529652,4|0,1:2|0:0,0:0:0:0:
61,307,61035,6,2,P|139:339|196:277,1,179.999995231629,2|0,0:1|0:0,0:1:0:0:
61,22,61242,5,0,1:1:0:0:
61,22,61345,2,0,B|36:64|36:64|54:159,1,135.000001573563,0|0,1:0|0:0,0:0:0:0:
196,276,61552,6,2,B|201:241|201:241|197:238|197:238|202:236|202:236|218:146,1,135.000001573563,2|8,1:1|0:1,0:1:0:0:
234,65,61759,2,0,B|317:44|317:44|278:74,1,135.000001573563,2|0,1:0|0:0,0:1:0:0:
51,148,61966,6,0,P|184:160|292:239,1,270.000003147125,2|2,1:0|0:0,0:0:0:0:
275,320,62276,6,0,L|270:345,1,22.4999994039536,2|0,0:0|0:0,0:0:0:0:
267,362,62379,2,0,L|262:387,1,22.4999994039536,2|0,0:0|0:0,0:0:0:0:
292,239,62483,6,0,P|313:213|353:208,1,71.9999980926514,2|0,1:3|0:0,0:0:0:0:
364,127,62690,2,0,P|419:161|432:201,1,107.999993843079,2|0,1:3|0:0,0:0:0:0:
359,339,62897,6,0,B|337:208|337:208|328:203|328:203|332:196|332:196|311:56,1,287.999992370606,0|0,1:0|0:0,1:0:0:0:
512,178,63207,6,2,P|501:247|442:284,1,143.999996185303,2|8,1:0|0:1,0:1:0:0:
359,339,63414,2,2,P|315:311|263:322,1,107.999993843079,2|0,1:0|0:0,0:1:0:0:
183,366,63621,2,2,B|86:354,1,71.9999980926514,2|0,1:0|0:0,0:1:0:0:
27,346,63828,5,2,0:0:0:0:
27,346,63931,6,0,L|25:329,1,16.8749995529652,2|0,1:2|0:0,0:0:0:0:
1,358,64138,6,2,B|77:373|111:299|111:299|131:246|192:222|249:251|249:251|194:269|191:326,1,405.000004720688,2|0,1:0|0:0,0:1:0:0:
496,282,64552,6,0,L|512:279,1,16.8749995529652,2|0,1:2|0:0,0:0:0:0:
472,364,64759,6,2,P|366:379|342:247,1,236.249995994568,2|0,1:0|0:0,0:1:0:0:
421,215,64966,2,0,L|409:304,1,89.9999976158143,8|0,0:1|1:0,0:0:0:0:
202,16,65173,6,0,L|201:33,1,16.8749995529652,2|0,1:3|0:0,0:0:0:0:
202,16,65379,6,2,B|290:-19|394:2|443:93|443:93|360:114,1,359.999990463257,2|8,1:0|0:1,0:1:0:0:
40,66,65690,1,0,1:0:0:0:
120,31,65793,6,0,L|119:48,1,16.8749995529652,2|0,1:3|0:0,0:0:0:0:
119,283,66000,6,2,B|157:348|246:359|308:303|304:223|304:223|293:268|248:287,1,359.999990463257,2|0,1:0|0:0,0:1:0:0:
248,287,66310,1,0,0:0:0:0:
219,203,66414,6,0,P|165:138|82:158,1,179.999995231629,2|0,1:0|0:0,0:0:0:0:
15,216,66621,6,2,L|6:217,6,5.62499985098839
8,76,67035,6,0,L|11:68,1,5.62499985098839,2|0,0:3|0:0,0:0:0:0:
75,121,67138,2,0,L|80:115,1,5.62499985098839,2|0,0:3|0:0,0:0:0:0:
126,182,67242,2,0,L|133:178,1,5.62499985098839,2|0,0:3|0:0,0:0:0:0:
148,260,67345,2,0,L|156:259,1,5.62499985098839,2|0,0:3|0:0,0:0:0:0:
142,342,67448,5,4,1:2:0:0:
479,67,67655,5,0,0:0:0:0:
470,65,67862,1,0,0:0:0:0:
461,63,68069,1,0,0:0:0:0:
429,343,68276,5,8,1:0:0:0:
452,61,68483,5,0,1:0:0:0:
443,60,68690,1,0,0:0:0:0:
39,301,68897,6,0,B|38:224|103:163|103:163|201:214|218:351|133:403|47:305|197:174,1,539.999985694885,4|0,0:0|0:0,0:0:0:0:
182,189,69724,1,0,1:0:0:0:
466,319,69931,5,8,1:0:0:0:
182,189,70138,6,0,B|269:133|331:180|287:204|340:273|452:231|452:231|386:240|354:316|401:379,1,449.999988079071,4|0,1:2|0:0,0:0:0:0:
466,319,70759,1,4,1:2:0:0:
67,151,70966,5,0,0:0:0:0:
68,142,71173,1,0,0:0:0:0:
70,133,71379,1,0,1:0:0:0:
387,127,71586,5,8,1:0:0:0:
72,124,71793,5,0,0:0:0:0:
73,115,72000,1,0,0:0:0:0:
344,237,72207,6,0,B|331:282|358:313|358:313|271:262|301:153|364:117|427:118|492:175|495:226|468:282|468:282|367:250,1,539.999985694885,4|0,1:2|0:0,0:0:0:0:
422,267,73035,1,0,1:0:0:0:
364,14,73242,5,8,1:0:0:0:
422,267,73448,6,0,B|430:215|499:194|499:194|480:180|480:180|551:150|524:45|453:25|453:25|444:77|404:110|336:100,1,449.999988079071,4|0,1:2|0:0,0:0:0:0:
364,14,74069,1,4,1:2:0:0:
276,348,74276,5,0,0:0:0:0:
267,346,74483,1,0,0:0:0:0:
258,344,74690,1,0,0:0:0:0:
274,86,74897,5,8,1:0:0:0:
249,342,75104,5,0,0:0:0:0:
240,341,75310,1,0,0:0:0:0:
55,173,75517,6,0,B|-8:175|-32:99|-32:99|12:34|118:-5|199:72|199:72|111:33|44:100,1,539.999985694885,4|0,1:2|0:0,0:0:0:0:
55,173,76345,5,0,0:0:0:0:
47,164,76448,1,0,1:0:0:0:
57,87,76552,1,8,1:0:0:0:
417,116,76759,6,0,B|359:150|311:140|268:103|268:103|261:33|183:0|106:13|106:13|168:60|130:149,1,449.999988079071,4|0,1:2|0:0,0:0:0:0:
57,87,77379,1,4,1:2:0:0:
121,341,77586,5,0,0:0:0:0:
129,342,77793,1,0,0:0:0:0:
138,344,78000,1,0,1:0:0:0:
163,46,78207,5,8,1:0:0:0:
147,346,78414,5,0,1:0:0:0:
156,347,78621,1,0,1:0:0:0:
165,348,78828,1,0,1:0:0:0:
512,209,79035,6,0,B|476:156|416:179|416:179|414:221|414:221|391:252|391:252|409:291|387:336,1,269.999992847443,2|0,0:1|0:0,0:0:0:0:
247,48,79448,2,0,B|218:105|269:145|269:145|306:126|306:126|344:130|344:130|369:95|419:91,1,269.999992847443,2|0,0:1|0:0,0:0:0:0:
241,358,79862,2,0,B|304:353|314:290|314:290|279:267|279:267|263:232|263:232|221:227|192:186,1,269.999992847443,6|0,0:1|0:0,0:0:0:0:
146,122,80276,6,0,L|94:126,3,44.9999988079071,0|0|0|0,1:0|1:0|1:0|1:0,1:0:0:0:
231,112,80483,2,0,L|275:107,1,44.9999988079071,0|0,1:0|1:0,0:0:0:0:
360,97,80690,5,4,1:2:0:0:
408,109,80793,1,2,0:0:0:0:
421,157,80897,1,2,0:0:0:0:
386,193,81000,1,2,0:0:0:0:
337,180,81104,1,2,0:0:0:0:
325,132,81207,1,2,0:0:0:0:
360,97,81310,5,2,0:0:0:0:
325,132,81414,1,2,0:0:0:0:
337,180,81517,1,8,1:0:0:0:
386,193,81621,1,0,0:0:0:0:
421,157,81724,1,2,0:0:0:0:
408,109,81828,1,2,0:3:0:0:
279,22,81931,5,2,0:0:0:0:
279,22,82035,1,2,0:0:0:0:
279,22,82138,2,0,L|278:63,1,35.9999990463257,6|2,1:2|0:0,0:0:0:0:
182,297,82552,6,2,L|158:291,1,17.9999995231628
275,319,82759,2,2,L|251:313,1,17.9999995231628
368,341,82966,2,2,L|344:335,1,17.9999995231628,2|2,0:3|0:0,0:0:0:0:
88,274,83173,1,8,1:0:0:0:
461,363,83379,5,6,1:2:0:0:
443,358,83483,1,2,0:3:0:0:
443,358,83793,5,2,0:3:0:0:
88,274,84000,5,6,1:2:0:0:
59,222,84103,1,2,0:0:0:0:
71,164,84206,1,2,0:0:0:0:
118,128,84310,1,2,0:0:0:0:
176,131,84413,1,2,0:0:0:0:
219,171,84517,1,2,0:0:0:0:
225,230,84620,1,2,0:3:0:0:
225,230,84828,5,8,1:0:0:0:
287,329,84931,1,2,0:0:0:0:
402,350,85034,1,2,0:0:0:0:
495,280,85138,1,2,0:3:0:0:
507,164,85241,1,2,0:0:0:0:
430,77,85345,1,2,0:0:0:0:
314,74,85448,6,0,L|308:123,1,35.9999990463257,4|0,1:0|0:0,0:0:0:0:
363,275,85862,5,2,0:2:0:0:
366,265,85966,1,2,0:3:0:0:
68,326,86173,5,2,0:3:0:0:
71,316,86277,1,2,0:3:0:0:
366,265,86483,6,0,P|314:213|285:214,1,89.9999976158143,8|0,1:0|0:0,0:0:0:0:
167,195,86690,2,0,B|184:130|251:135|251:135|215:152|210:207,1,179.999995231629,0|0,1:0|0:0,0:0:0:0:
256,382,87000,1,2,0:3:0:0:
254,367,87104,2,0,L|235:260,1,89.9999976158143,2|0,0:3|0:0,0:0:0:0:
496,13,87310,5,4,1:2:0:0:
490,64,87414,1,2,0:0:0:0:
485,116,87517,1,2,0:0:0:0:
479,168,87621,1,2,0:0:0:0:
474,220,87724,1,2,0:0:0:0:
468,272,87828,1,2,0:0:0:0:
496,13,87931,5,2,0:0:0:0:
490,64,88035,1,2,0:3:0:0:
485,116,88138,1,8,1:0:0:0:
479,168,88242,1,2,0:0:0:0:
474,220,88345,1,2,0:0:0:0:
468,272,88448,1,2,0:0:0:0:
390,316,88552,6,0,P|377:266|395:222,1,89.9999976158143,2|2,0:0|0:0,0:0:0:0:
501,351,88759,2,0,L|466:360,1,35.9999990463257,4|2,1:2|0:0,0:0:0:0:
212,293,89173,6,0,L|206:317,1,17.9999995231628,2|2,0:3|0:0,0:0:0:0:
234,200,89379,2,0,L|228:224,1,17.9999995231628,2|2,0:0|0:0,0:0:0:0:
256,107,89586,2,0,L|250:131,1,17.9999995231628,2|2,0:0|0:3,0:0:0:0:
278,14,89793,2,0,L|272:38,1,17.9999995231628,8|2,1:0|0:3,0:0:0:0:
504,266,90000,5,0,1:0:0:0:
68,268,90207,5,2,0:3:0:0:
321,208,90414,1,0,1:0:0:0:
68,268,90621,6,0,P|51:233|78:156,1,89.9999976158143,6|0,1:2|0:0,0:0:0:0:
205,72,90828,2,0,P|151:103|136:154,1,89.9999976158143,2|0,0:0|0:0,0:0:0:0:
150,219,91035,1,2,0:0:0:0:
474,121,91242,6,0,B|488:64|488:64|463:101,1,89.9999976158143,0|0,1:0|0:0,0:0:0:0:
150,219,91448,6,0,L|253:209,1,89.9999976158143,8|0,1:0|0:0,0:0:0:0:
418,192,91655,2,0,L|328:200,1,89.9999976158143,2|0,0:0|0:0,0:0:0:0:
68,268,91862,6,0,P|51:233|78:156,1,89.9999976158143,2|0,0:0|0:0,0:0:0:0:
205,72,92069,2,0,P|151:103|136:154,1,89.9999976158143,2|0,1:2|0:0,0:0:0:0:
150,219,92276,6,0,B|278:290|374:171|327:74|225:147|228:198|291:280,1,359.999990463257,6|0,1:2|0:0,0:0:0:0:
278,263,92897,1,0,1:0:0:0:
38,87,93104,6,0,P|75:39|67:1,1,89.9999976158143,8|0,1:0|0:0,0:0:0:0:
278,263,93310,5,0,1:0:0:0:
132,246,106759,6,0,L|163:241,1,22.4999994039536,4|0,1:0|0:0,0:0:0:0:
154,242,107173,6,0,B|126:211|130:165|130:165|101:361,1,251.999985633851,4|0,1:2|0:0,0:0:0:0:
314,148,107483,5,0,1:0:0:0:
333,145,107586,2,0,P|279:180|174:157,1,125.999992816925,8|0,1:0|0:0,0:0:0:0:
38,158,107793,2,0,P|66:103|123:78,1,125.999992816925,0|0,1:0|0:0,0:0:0:0:
425,154,108000,5,0,1:0:0:0:
219,180,108104,2,0,B|287:144|344:189|344:189|380:262|482:235,1,251.999985633851,0|0,1:0|0:0,0:0:0:0:
275,250,108414,6,0,B|229:289|229:289|152:249,1,125.999992816925,8|0,1:0|0:0,0:0:0:0:
176,109,108621,1,0,1:0:0:0:
176,109,108828,6,0,B|152:80|178:46|214:25|287:42|287:132|249:165|212:182,1,251.999985633851,4|0,1:2|0:0,0:0:0:0:
46,120,109138,5,0,1:0:0:0:
24,133,109242,2,0,P|68:176|148:181,1,125.999992816925,8|0,1:0|0:0,0:0:0:0:
401,44,109448,2,0,P|339:53|295:96,1,125.999992816925,0|0,1:0|0:0,0:0:0:0:
286,307,109655,5,0,1:0:0:0:
388,178,109759,2,0,B|380:132|380:132|342:239|342:239|377:273|371:328,1,251.999985633851,0|0,1:0|0:0,0:0:0:0:
227,242,110069,6,0,P|284:218|342:239,1,125.999992816925,8|0,1:0|0:0,0:0:0:0:
194,325,110276,1,0,1:0:0:0:
194,325,110483,6,0,B|254:286|254:286|37:263,1,251.999985633851,4|0,1:2|0:0,0:0:0:0:
0,158,110793,5,0,1:0:0:0:
14,172,110897,2,0,L|189:193,1,125.999992816925,8|0,1:0|0:0,0:0:0:0:
217,114,111104,2,0,L|229:290,1,125.999992816925,0|0,1:0|0:0,0:0:0:0:
132,99,111310,5,0,1:0:0:0:
387,151,111414,2,0,B|217:114|217:114|225:69|178:20,1,251.999985633851,0|0,1:0|0:0,0:0:0:0:
418,68,111724,6,0,P|347:70|313:191,1,125.999992816925,8|0,1:0|0:0,0:0:0:0:
409,238,111931,1,0,1:0:0:0:
409,238,112138,6,0,L|385:143,1,89.9999976158143,0|0,1:0|0:0,0:0:0:0:
464,135,112448,1,0,1:0:0:0:
464,135,112552,2,0,B|469:153|469:153|474:156|474:156|471:162|471:162|494:263,1,134.999996423721,8|0,1:0|0:0,0:0:0:0:
334,311,112966,5,8,1:0:0:0:
469,357,113069,2,0,B|517:319|517:319|271:281,1,251.999985633851,0|0,1:0|0:0,0:0:0:0:
222,354,113379,6,0,P|177:324|182:217,1,125.999992816925,8|0,1:0|0:0,0:0:0:0:
434,180,113586,1,0,1:0:0:0:
434,180,113793,6,0,B|399:193|399:193|385:240|341:256|341:256|328:289,1,161.999990764618,8|0,1:0|0:0,0:0:0:0:
259,65,114000,2,0,B|288:89|288:89|336:78|372:108|372:108|407:102,1,161.999990764618,8|0,1:0|0:0,0:0:0:0:
248,273,114207,2,0,B|255:238|255:238|221:202|229:156|229:156|206:128,1,161.999990764618,8|0,1:0|0:0,0:0:0:0:
322,170,114414,6,0,L|306:176,1,16.8749995529652,0|0,1:0|0:0,0:0:0:0:
306,175,114621,6,0,B|302:110|357:87|357:87|428:109,1,161.999990764618,8|0,1:0|0:0,0:0:0:0:
482,292,114828,2,0,B|427:327|380:291|380:291|363:219,1,161.999990764618,8|0,1:0|0:0,0:0:0:0:
496,82,115035,2,0,B|554:111|546:170|546:170|492:220,1,161.999990764618,8|0,1:0|0:0,0:0:0:0:
419,182,115242,6,0,L|438:186,1,16.8749995529652,0|0,1:0|0:0,0:0:0:0:
435,185,115448,6,0,B|364:203|334:171|334:171|330:136|297:114,1,161.999990764618,8|0,1:0|0:0,0:0:0:0:
154,348,115655,2,0,B|174:277|217:267|217:267|249:281|285:263,1,161.999990764618,8|0,1:0|0:0,0:0:0:0:
154,22,115862,2,0,B|204:75|192:117|192:117|163:138|161:177,1,161.999990764618,8|0,1:0|0:0,0:0:0:0:
240,187,116069,6,0,L|259:181,1,16.8749995529652,0|0,1:0|0:0,0:0:0:0:
256,181,116276,6,0,B|322:144|280:62|280:62|255:107,1,161.999990764618,8|0,1:0|0:0,0:0:0:0:
62,246,116483,2,0,B|61:322|153:326|153:326|127:282,1,161.999990764618,8|0,1:0|0:0,0:0:0:0:
103,45,116690,2,0,B|37:6|-12:84|-12:84|38:83,1,161.999990764618,8|0,1:0|0:0,0:0:0:0:
141,158,116897,6,0,L|143:142,1,16.8749995529652,0|0,1:0|0:0,0:0:0:0:
143,141,117104,5,8,1:0:0:0:
125,136,117207,1,0,1:0:0:0:
89,134,117310,1,8,1:0:0:0:
54,145,117414,1,0,1:0:0:0:
15,182,117517,1,8,1:0:0:0:
0,236,117621,1,0,1:0:0:0:
24,303,117724,1,8,1:0:0:0:
86,339,117828,1,0,1:0:0:0:
172,316,117931,1,0,1:0:0:0:
208,233,118035,1,0,1:0:0:0:
207,125,118138,1,0,1:0:0:0:
277,42,118242,1,0,1:0:0:0:
401,29,118345,1,0,1:0:0:0:
495,110,118448,1,0,1:0:0:0:
493,254,118552,1,0,1:0:0:0:
373,333,118655,1,0,1:0:0:0:
208,233,118759,5,2,0:3:0:0:
428,165,118897,1,2,0:3:0:0:
428,165,119035,1,2,0:3:0:0:
94,83,119173,5,2,0:3:0:0:
512,154,119310,1,2,0:3:0:0:
512,154,119448,1,2,0:3:0:0:
267,352,119586,6,0,B|263:308|263:308|269:303|269:303|263:300|263:300|250:99,1,239.999993642171,4|0,1:0|0:0,0:0:0:0:
46,24,120414,6,2,B|66:177|66:177|59:194|59:194|82:380,1,359.999990463257,4|0,1:2|0:0,0:1:0:0:
451,296,120724,2,2,P|324:173|149:150,1,359.999990463257,4|0,1:3|0:0,0:1:0:0:
167,376,121035,2,2,B|224:367|247:312|247:312|214:335|178:326,1,179.999995231629,4|0,1:3|0:0,0:1:0:0:
197,245,121242,5,8,0:1:0:0:
203,228,121345,1,2,0:0:0:0:
232,130,121448,5,2,0:0:0:0:
242,95,121552,1,2,0:0:0:0:
138,66,121655,5,4,0:3:0:0:
34,37,121759,1,4,0:3:0:0:
479,109,121862,6,2,L|511:103,1,33.7499991059303,2|0,1:0|0:0,0:1:0:0:
400,122,122276,1,0,0:0:0:0:
234,274,122483,6,0,L|202:268,1,33.7499991059303,0|0,1:0|0:0,0:0:0:0:
356,56,122897,6,0,P|323:221|471:301,1,359.999990463257,8|0,1:0|0:0,0:1:0:0:
511,218,123207,2,0,P|355:153|234:273,1,359.999990463257,4|0,1:3|0:0,0:0:0:0:
64,375,123517,2,0,P|78:296|29:177,1,179.999995231629,4|0,1:3|0:0,0:0:0:0:
0,86,123724,6,0,L|348:175,1,359.999990463257,2|0,1:0|0:0,0:0:0:0:
348,174,124035,6,0,P|388:95|397:6,1,179.999995231629,2|0,1:0|0:0,0:0:0:0:
159,77,124345,6,0,P|151:78|144:83,1,16.8749995529652,2|0,1:0|0:0,0:0:0:0:
250,53,124552,6,0,P|352:194|308:363,1,359.999990463257,8|2,1:0|0:3,0:0:0:0:
296,366,124862,1,2,0:3:0:0:
217,321,124966,1,2,0:3:0:0:
204,324,125069,1,2,0:3:0:0:
121,284,125173,6,0,B|54:270|19:190|56:124|56:124|82:171|143:173,1,269.999992847443,2|0,0:3|0:0,0:0:0:0:
394,259,125379,6,0,B|497:251|497:251|322:235|322:235|284:202|284:202|186:196|186:196|175:253|121:284,1,539.999985694885,8|0,1:3|0:0,0:0:0:0:
216,84,125793,2,0,B|519:11|519:11|447:147|447:147|372:140,1,539.999985694885,8|0,1:3|0:0,0:0:0:0:
150,0,126207,6,0,P|241:151|231:329,1,359.999990463257,8|2,1:0|0:3,0:0:0:0:
225,350,126517,1,2,1:3:0:0:
17,298,126621,6,0,B|106:222|106:222|423:253,1,405.405403954112,2|0,0:3|0:0,0:0:0:0:
393,250,126828,2,0,B|304:326|304:326|-13:295,1,405.405403954112,4|0,1:3|0:0,0:0:0:0:
62,118,127035,6,2,P|229:168|304:326,1,359.999990463257,4|0,1:3|0:0,0:1:0:0:
146,369,127345,2,0,P|132:195|252:69,1,359.999990463257,4|0,1:3|0:0,1:0:0:0:
459,17,127655,2,2,B|529:24|548:75|548:75|519:52|479:60,1,179.999995231629,4|0,1:3|0:0,0:1:0:0:
498,142,127862,5,8,1:0:0:0:
498,142,128069,1,0,1:0:0:0:
417,152,128276,6,0,B|303:191|343:311|343:311|387:297|396:241,1,270.270269302741,0|0,1:0|1:0,0:0:0:0:
465,323,128483,6,0,B|321:308|321:308|367:313|367:313|223:300|223:300|271:305|271:305|77:286|77:286|160:292|191:213,1,719.999980926514,4|0,1:0|0:0,0:0:0:0:
114,21,129104,6,0,B|73:70|73:70|92:184,1,179.999995231629,2|0,1:0|0:0,0:0:0:0:
270,370,129310,2,0,B|311:321|311:321|290:200,1,179.999995231629,2|0,0:1|0:0,0:0:0:0:
218,23,129517,6,0,L|163:379,1,359.999990463257,10|0,1:0|0:0,0:0:0:0:
7,197,129828,2,0,L|362:141,1,359.999990463257,0|0,1:0|0:0,0:0:0:0:
362,140,130138,5,2,0:0:0:0:
509,120,130242,1,2,0:0:0:0:
337,307,130345,6,2,B|307:236|214:250|214:250|4:283,1,359.999990463257,4|0,1:3|0:0,0:1:0:0:
245,36,130655,2,2,B|212:245|212:245|198:338|270:369,1,359.999990463257,4|0,1:3|0:0,0:1:0:0:
459,316,130966,2,2,L|438:138,1,179.999995231629,4|0,1:3|0:0,0:1:0:0:
286,109,131173,5,8,1:0:0:0:
281,132,131276,1,0,0:0:0:0:
346,52,131379,5,2,0:3:0:0:
350,32,131483,1,2,0:3:0:0:
249,3,131586,5,0,0:0:0:0:
149,41,131690,1,2,0:3:0:0:
93,131,131793,1,2,0:3:0:0:
101,236,131897,1,2,0:3:0:0:
173,316,132000,6,0,B|309:299|309:299|340:281|340:281|371:290|371:290|502:272|502:272|536:146|536:146|467:191,1,539.999985694885,8|0,1:3|0:0,0:0:0:0:
462,90,132414,2,0,B|401:129|401:129|380:201|380:201|262:171|262:171|229:56|229:56|64:78,1,539.999985694885,8|0,1:3|0:0,0:0:0:0:
3,344,132828,6,0,B|36:266|36:266|35:257|35:257|59:202|59:202|263:171,1,359.999990463257,10|2,1:0|0:0,0:0:0:0:
387,319,133138,2,0,B|291:332|291:332|226:261|226:261|121:277|121:277|100:334,1,359.999990463257,4|0,1:3|0:0,0:0:0:0:
197,375,133448,2,0,B|180:350|180:350|194:348|194:348|226:382,1,89.9999976158143,4|0,1:3|0:0,0:0:0:0:
351,209,133655,6,2,B|410:228|410:228|322:238|322:238|255:173|255:173|139:189,1,359.999990463257,4|0,1:2|0:0,0:1:0:0:
148,57,133966,2,2,B|38:34|38:34|-15:66|-3:156|46:187|46:187|45:140|90:111,1,359.999990463257,4|0,1:3|0:0,0:1:0:0:
301,85,134276,2,2,B|355:57|355:57|196:85,1,179.999995231629,4|0,1:3|0:0,0:1:0:0:
148,57,134483,6,0,L|156:100,1,35.9999990463257,8|4,1:0|0:3,0:0:0:0:
191,351,134793,1,4,0:3:0:0:
311,190,134897,6,0,P|243:210|194:263,1,143.999996185303,2|0,0:1|0:0,0:0:0:0:
78,293,135104,6,0,B|16:279|16:279|64:222|186:239|236:299|183:338|236:420|366:421|426:313,1,539.999985694885,4|0,1:2|0:0,0:0:0:0:
350,276,135517,6,0,B|329:305|302:300|302:300|311:277|347:270,1,107.999993843079,2|0,0:1|0:0,0:0:0:0:
450,208,135724,5,0,1:0:0:0:
284,183,135931,6,0,B|246:213|213:197|213:197|233:170|282:174,1,143.999996185303,2|0,0:1|0:0,0:0:0:0:
431,126,136138,5,8,1:0:0:0:
246,58,136345,6,0,B|192:81|158:52|158:52|190:27|246:47,1,179.999995231629,2|0,0:1|0:0,0:0:0:0:
457,46,136552,5,0,1:0:0:0:
427,222,136759,2,0,P|420:178|392:144,1,89.9999976158143,4|0,1:3|0:0,0:0:0:0:
75,221,136966,6,2,B|39:181|39:181|149:194|149:194|156:189|156:189|159:196|159:196|357:219,1,359.999990463257,4|0,1:3|0:0,0:1:0:0:
474,112,137276,2,2,B|510:152|510:152|399:138|399:138|393:144|393:144|390:137|390:137|192:114,1,359.999990463257,2|0,1:0|0:0,0:1:0:0:
103,74,137586,2,2,B|116:-1|116:-1|132:191,1,179.999995231629,2|0,1:0|0:0,0:1:0:0:
161,214,137793,6,0,L|156:188,1,26.9999992847443,8|0,1:0|0:0,0:0:0:0:
156,188,138000,6,0,P|183:200|196:226,1,35.9999990463257,2|0,0:3|0:0,0:0:0:0:
190,156,138104,6,0,P|206:180|184:237,1,53.9999969215394,2|0,0:3|0:0,0:0:0:0:
265,155,138207,6,0,P|256:210|196:249,1,71.9999980926514,2|0,0:3|0:0,0:0:0:0:
350,242,138310,6,0,P|285:290|220:271,1,89.9999976158143,2|0,0:3|0:0,0:0:0:0:
195,290,138414,5,0,0:0:0:0:
195,290,138621,6,0,B|461:320|461:320|414:315|386:279|386:279|414:315|461:320|461:320|414:315|380:268,1,539.999985694885,8|0,1:3|0:0,0:0:0:0:
501,94,139035,2,0,B|491:63|491:63|435:87|415:165|457:232|457:232|479:194|479:194|458:231|458:231|479:192|479:192|457:232|457:232|477:196|477:196|457:231|457:231|497:161,1,539.999985694885,8|0,1:3|0:0,0:0:0:0:
186,71,139448,6,0,L|-31:57,1,179.999995231629,8|0,1:0|0:0,0:0:0:0:
289,44,139655,5,2,0:3:0:0:
297,40,139759,1,6,1:3:0:0:
381,270,139862,5,2,0:3:0:0:
186,71,140069,6,0,P|158:170|249:222,1,179.999995231629,4|0,1:3|0:0,0:0:0:0:
381,270,140276,6,2,B|424:256|448:218|448:218|371:228|371:228|367:224|367:224|364:229|364:229|293:240|293:240|267:328|145:299,1,359.999990463257,4|0,1:3|0:0,0:1:0:0:
86,218,140586,2,2,B|19:210|19:210|5:255|37:363|144:360|144:360|112:321|130:260,1,359.999990463257,4|0,1:3|0:0,0:1:0:0:
206,217,140897,2,2,B|201:165|142:149|142:149|182:188|173:250,1,179.999995231629,4|0,1:3|0:0,0:1:0:0:
290,348,141104,6,0,B|337:322|337:322|211:306,1,179.999995231629,2|0,0:3|0:0,0:0:0:0:
123,297,141310,1,2,0:3:0:0:
461,302,141517,6,0,B|528:257|528:257|168:212,1,405.405403954112,4|0,1:0|0:0,0:0:0:0:
27,193,141724,2,0,L|142:208,2,89.9999976158143,4|0|0,1:2|0:0|0:0,0:0:0:0:
421,47,142345,6,0,B|436:27|452:28|452:28|421:80,1,89.9999976158143,0|0,1:0|0:0,0:0:0:0:
27,193,142552,5,0,0:0:0:0:
65,86,142655,1,0,0:0:0:0:
163,31,142759,1,8,1:0:0:0:
274,54,142862,1,0,0:0:0:0:
342,143,142966,1,0,0:0:0:0:
335,256,143069,1,4,1:3:0:0:
256,337,143173,5,2,0:0:0:0:
232,260,143276,1,2,0:0:0:0:
209,183,143379,1,4,1:3:0:0:
186,107,143483,1,2,0:0:0:0:
273,53,143586,6,2,B|313:24|313:24|237:-46|26:-12|51:199,1,359.999990463257,4|0,1:3|0:0,0:1:0:0:
127,265,143897,2,2,B|144:300|113:352|113:352|44:313|23:234|50:189|50:189|106:192|134:146,1,359.999990463257,4|0,1:3|0:0,0:1:0:0:
127,48,144207,2,2,B|8:74|8:74|88:118,1,179.999995231629,4|0,1:3|0:0,0:1:0:0:
186,107,144414,6,0,L|218:110,1,26.9999992847443,8|0,1:0|0:0,0:0:0:0:
212,109,144621,5,2,0:3:0:0:
338,84,144724,1,2,0:3:0:0:
463,58,144828,1,2,0:3:0:0:
348,94,144931,5,2,0:3:0:0:
474,69,145035,2,0,P|514:111|444:205,1,179.999995231629,2|0,0:3|0:0,0:0:0:0:
36,336,145242,6,0,L|96:343,1,53.9999985694885,8|0,1:3|0:0,0:0:0:0:
36,336,145655,6,0,L|70:332,1,33.7499991059303,8|0,1:3|0:0,0:0:0:0:
36,336,146069,6,2,B|120:248|208:305|172:330|313:390|398:267,1,359.999990463257,4|0,1:3|0:0,0:1:0:0:
328,134,146379,2,2,B|305:110|260:117|260:117|300:110|328:134|328:134|304:109|260:118|260:118|296:112|325:129|325:129|300:107|247:120,1,359.999990463257,4|0,1:3|0:0,0:1:0:0:
274,227,146690,2,2,B|273:205|273:205|250:205|240:233|247:252|274:264|293:254|311:232|297:206|273:205|273:205|273:226,1,179.999995231629,4|0,1:3|0:0,0:1:0:0:
120,214,146897,6,0,B|97:138|97:138|92:134|92:134|95:129|95:129|79:73|79:73|191:14|191:14|167:94,1,359.999990463257,4|0,1:2|0:0,0:0:0:0:
16,324,147207,6,0,B|58:242|164:216|258:266|258:266|251:297|251:297|255:303|255:303|249:306|249:306|241:349,1,359.999990463257,0|0,1:0|0:0,0:0:0:0:
161,360,147517,6,0,L|151:363,1,11.2499997019768,8|0,1:3|0:0,0:0:0:0:
241,336,148138,6,0,P|297:273|376:305,1,179.999995231629,4|0,1:0|0:0,0:0:0:0:
512,135,148345,6,0,B|495:196|495:196|472:217|472:217|498:279|498:279|475:303|475:303|450:404,1,269.999992847443,4|0,1:2|0:0,0:0:0:0:
380,319,148759,1,2,0:0:0:0:
378,312,148862,1,2,0:0:0:0:
376,305,148966,6,0,B|377:277|395:259|395:259|335:234|266:261|242:336|242:336|181:294|171:218|224:167|224:167|185:200|129:181,1,539.999985694885,4|0,1:2|0:0,0:0:0:0:
68,34,149379,6,0,B|48:-18|48:-18|167:-31|250:56|224:168,1,359.999990463257,8|0,1:0|0:0,0:0:0:0:
29,376,149690,6,0,P|3:294|64:235,1,179.999995231629,4|0,1:3|0:0,0:0:0:0:
131,181,150000,6,0,B|157:217|157:217|145:261,1,89.9999976158143,12|0,1:3|0:0,0:0:0:0:
512,263,150207,6,2,B|486:339|546:375|546:375|545:289|477:254|458:245|378:291,1,359.999990463257,4|2,1:3|0:0,0:1:0:0:
301,326,150517,6,2,B|201:386|201:386|263:151,1,359.999990463257,4|0,1:3|0:0,0:1:0:0:
180,105,150828,6,2,B|258:134|302:61|302:61|339:-1|410:15,1,269.999992847443,4|0,1:3|0:0,0:1:0:0:
471,82,151035,6,0,P|471:127|447:164,1,89.9999976158143,8|0,1:0|0:0,0:0:0:0:
333,231,151242,1,2,0:3:0:0:
333,231,151345,1,2,0:3:0:0:
345,317,151448,5,2,0:0:0:0:
317,152,151552,1,2,0:3:0:0:
163,98,151655,1,2,0:3:0:0:
39,205,151759,1,2,0:0:0:0:
69,364,151862,6,0,L|130:347,1,62.99999833107,8|0,1:3|3:3,3:0:0:0:
368,293,152276,6,0,L|330:284,1,39.3749989569187,8|0,1:3|0:0,0:0:0:0:
69,364,152690,6,0,B|84:273|171:208|277:217|277:217|227:257|254:328,1,359.999990463257,8|0,1:0|0:0,0:0:0:0:
448,193,153000,6,0,B|487:163|487:163|504:276|504:276|456:318|456:318|397:301|397:301|392:303|392:303|389:299|389:299|330:284,1,359.999990463257,4|0,1:3|2:0,2:0:0:0:
43,108,153310,2,0,P|127:127|156:208,1,179.999995231629,4|0,1:3|0:0,0:0:0:0:
127,357,153517,6,2,P|120:199|277:216,1,359.999990463257,4|0,1:3|0:0,0:1:0:0:
247,321,153828,6,2,P|173:203|147:340,1,359.999990463257,4|0,1:3|0:0,0:1:0:0:
188,277,154138,6,2,L|386:293,1,179.999995231629,4|0,1:3|0:0,0:1:0:0:
485,303,154345,5,8,1:0:0:0:
491,322,154448,1,0,0:0:0:0:
410,382,154552,5,0,1:0:0:0:
498,57,154655,1,0,0:0:0:0:
453,211,154759,5,2,1:0:0:0:
459,230,154862,1,2,1:0:0:0:
512,139,154966,6,0,B|466:147|415:111|415:58|415:58|347:44|320:111|320:111|300:153|251:176|189:146,1,404.999989271164,4|0,1:2|0:0,0:0:0:0:
61,18,155586,6,0,B|133:30|141:97|141:97|96:94|45:139|52:188|52:188|139:266|81:364|81:364|54:324|3:325,1,539.999985694885,4|0,1:2|0:0,0:0:0:0:
16,325,156000,6,0,B|380:286,1,359.999990463257,8|0,1:0|0:0,0:0:0:0:
472,92,156310,6,0,B|545:140|545:140|356:124|356:124|351:128|351:128|348:123|348:123|273:117,1,359.999990463257,4|0,1:3|0:0,0:0:0:0:
197,45,156621,6,0,B|190:98|190:98|185:101|185:101|189:106|189:106|175:250,1,179.999995231629,4|0,1:3|0:0,0:0:0:0:
486,393,156828,6,2,P|383:250|221:299,1,359.999990463257,4|0,1:3|0:0,0:1:0:0:
220,300,157138,5,4,1:3:0:0:
399,383,157242,2,2,P|338:327|277:382,1,179.999995231629,2|0,1:3|0:0,0:1:0:0:
440,121,157448,2,2,P|457:202|379:226,1,179.999995231629,4|0,1:3|0:0,0:1:0:0:
52,337,157655,5,8,1:0:0:0:
47,313,157759,1,0,0:0:0:0:
42,289,157862,5,2,0:3:0:0:
137,268,157966,1,2,0:3:0:0:
230,251,158069,5,2,0:0:0:0:
232,225,158173,1,2,0:3:0:0:
236,201,158276,5,2,0:3:0:0:
124,171,158379,1,2,0:0:0:0:
13,143,158483,6,0,L|-1:77,1,62.99999833107,8|0,1:3|0:0,0:0:0:0:
84,68,158897,6,0,P|100:56|121:49,1,39.3749989569187,8|0,1:3|0:0,0:0:0:0:
152,128,159310,6,0,B|122:286|122:286|216:259|216:259|280:319|280:319|312:199|312:199|354:236|354:236|514:193|514:193|527:70|527:70|445:-6|445:-6|342:29|342:29|326:101|326:101|377:149|377:149|441:132|441:132|444:101|444:101|380:41,1,1349.99996423721,8|0,1:0|0:0,0:0:0:0:
392,52,160138,6,0,L|390:63,5,11.2499997019768,4|0|0|0|0|0,1:2|0:0|0:0|0:0|0:0|0:0,0:0:0:0:
301,54,160759,2,0,L|303:65,1,11.2499997019768,0|0,1:0|0:0,0:0:0:0:
216,87,160966,2,0,L|221:96,5,11.2499997019768,8|0|0|0|0|0,0:0|0:0|0:0|0:0|0:0|0:0,0:0:0:0:
147,147,161586,6,0,L|155:154,9,11.2499997019768,0|0|0|0|0|0|0|0|0|0,1:0|0:0|0:0|0:0|0:0|0:0|0:0|0:0|0:0|0:0,0:0:0:0:
103,226,162621,2,0,L|113:229,7,11.2499997019768,8|0|0|0|0|0|0|0,0:0|0:0|0:0|0:0|0:0|0:0|0:0|0:0,0:0:0:0:
417,315,163448,6,0,L|429:316,5,11.2499997019768,0|0|0|0|0|0,1:0|0:0|0:0|0:0|0:0|0:0,0:0:0:0:
404,229,164069,2,0,L|415:226,1,11.2499997019768,0|0,1:0|0:0,0:0:0:0:
362,154,164276,2,0,L|371:147,5,11.2499997019768,8|0|0|0|0|0,0:0|0:0|0:0|0:0|0:0|0:0,0:0:0:0:
296,96,164897,6,0,L|302:87,7,11.2499997019768,0|0|0|0|0|0|0|0,1:0|0:0|0:0|0:0|0:0|0:0|0:0|0:0,0:0:0:0:
214,65,165724,2,0,L|217:54,1,11.2499997019768,0|0,1:0|0:0,0:0:0:0:
127,63,165931,6,0,L|126:52,1,11.2499997019768,8|0,0:0|0:0,0:0:0:0:
165,252,166138,6,0,L|163:240,3,11.2499997019768,0|0|0|0,1:0|0:0|0:0|0:0,0:0:0:0:
214,65,166552,6,0,L|217:54,1,11.2499997019768,0|0,1:0|0:0,0:0:0:0:
127,63,166759,6,0,L|126:52,5,11.2499997019768,0|0|0|0|0|0,1:0|0:0|0:0|0:0|0:0|0:0,0:0:0:0:
214,65,167379,6,0,L|217:54,1,11.2499997019768,0|0,1:0|0:0,0:0:0:0:
45,91,167586,6,0,L|39:81,3,11.2499997019768,8|0|0|0,0:0|0:0|0:0|0:0,0:0:0:0:
155,254,168000,6,0,L|153:241,1,11.2499997019768,0|0,1:0|0:0,0:0:0:0:
141,158,168207,6,0,L|139:145,9,11.2499997019768,0|0|0|0|0|0|0|0|0|0,1:0|0:0|0:0|0:0|0:0|0:0|0:0|0:0|0:0|0:0,0:0:0:0:
155,254,169242,6,0,L|153:241,7,11.2499997019768,8|0|0|0|0|0|0|0,0:0|0:0|0:0|0:0|0:0|0:0|0:0|0:0,0:0:0:0:
3,321,170069,6,0,L|15:323,5,11.2499997019768,0|0|0|0|0|0,1:0|0:0|0:0|0:0|0:0|0:0,0:0:0:0:
98,336,170690,6,0,L|110:338,1,11.2499997019768,0|0,1:0|0:0,0:0:0:0:
193,351,170897,6,0,L|205:353,5,11.2499997019768,8|0|0|0|0|0,0:0|0:0|0:0|0:0|0:0|0:0,0:0:0:0:
288,366,171517,6,0,L|300:368,9,11.2499997019768,0|0|0|0|0|0|0|0|0|0,1:0|0:0|0:0|0:0|0:0|0:0|0:0|0:0|0:0|0:0,0:0:0:0:
387,384,172552,6,2,L|391:372,1,11.2499997019768,10|2,0:0|0:0,0:0:0:0:
436,303,172759,6,0,L|419:282,1,22.4999994039536,2|2,0:0|0:0,0:0:0:0:
397,205,172966,6,2,L|344:213,1,44.9999988079071
268,227,173173,6,2,L|160:244,1,89.9999976158143
