osu file format v14

[General]
AudioFilename: audio.mp3
AudioLeadIn: 0
PreviewTime: 119650
Countdown: 0
SampleSet: Soft
StackLeniency: 0.7
Mode: 2
LetterboxInBreaks: 0
WidescreenStoryboard: 1

[Editor]
Bookmarks: 14559
DistanceSpacing: 1.3
BeatDivisor: 4
GridSize: 4
TimelineZoom: 2.5

[Metadata]
Title:City Lights feat. EVO+ , Jinmenusagi (Pa's Lam System Remix)
TitleUnicode:City Lights feat. EVO+ , Jinmenusagi (Pa's Lam System Remix)
Artist:Pa's Lam System
ArtistUnicode:Pa's Lam System
Creator:[_-Kukkai-_]
Version:Jemzuu's Overdose
Source:
Tags:rew0825 Dapuluous -luminate jemzuu ajamez HyperJuice Electronic Japanese future bass
BeatmapID:3048361
BeatmapSetID:1486745

[Difficulty]
HPDrainRate:6
CircleSize:3.8
OverallDifficulty:9.4
ApproachRate:9.4
SliderMultiplier:1.9
SliderTickRate:2

[Events]
//Background and Video events
0,0,"overdosee.jpg",0,0
//Break Periods
//Storyboard Layer 0 (Background)
//Storyboard Layer 1 (Fail)
//Storyboard Layer 2 (Pass)
//Storyboard Layer 3 (Foreground)
//Storyboard Layer 4 (Overlay)
//Storyboard Sound Samples

[TimingPoints]
1306,413.793103448276,4,2,1,50,1,0
1306,-100,4,2,1,50,0,0
1409,-100,4,2,1,5,0,0
2547,-100,4,2,1,50,0,0
2961,-100,4,2,1,50,0,0
3064,-100,4,2,1,5,0,0
3995,-100,4,2,1,50,0,0
4099,-100,4,2,1,5,0,0
4616,-100,4,2,1,50,0,0
4719,-100,4,2,1,5,0,0
5857,-100,4,2,1,50,0,0
6271,-100,4,2,1,50,0,0
6374,-100,4,2,1,5,0,0
7306,-100,4,2,1,50,0,0
7409,-100,4,2,1,5,0,0
7926,-100,4,2,1,50,0,0
8030,-100,4,2,1,5,0,0
9168,-100,4,2,1,50,0,0
9581,-100,4,2,1,50,0,0
9685,-100,4,2,1,5,0,0
10616,-100,4,2,1,50,0,0
10719,-100,4,2,1,5,0,0
11237,-100,4,2,1,50,0,0
11340,-100,4,2,1,5,0,0
12271,-100,4,2,1,50,0,0
12892,-100,4,2,1,50,0,0
12995,-100,4,2,1,5,0,0
13512,-100,4,2,1,50,0,0
13926,-100,4,2,1,50,0,0
14030,-100,4,2,1,5,0,0
14547,-100,4,2,1,60,0,0
27788,-100,4,2,2,60,0,0
40616,-100,4,2,2,100,0,0
40719,-100,4,2,2,60,0,0
41030,-66.6666666666667,4,2,2,70,0,1
47237,-66.6666666666667,4,2,2,100,0,0
47340,-66.6666666666667,4,2,2,70,0,0
47650,-66.6666666666667,4,2,2,70,0,1
52616,-66.6666666666667,4,2,2,70,0,0
52823,-66.6666666666667,4,2,0,70,0,0
53857,-66.6666666666667,4,2,2,100,0,0
53961,-66.6666666666667,4,2,2,70,0,0
54271,-66.6666666666667,4,2,2,70,0,1
60478,-66.6666666666667,4,2,2,100,0,0
60581,-66.6666666666667,4,2,2,70,0,0
60892,-66.6666666666667,4,2,2,70,0,1
66685,-66.6666666666667,4,2,2,70,0,0
67512,-100,4,2,1,60,0,0
80754,-100,4,2,2,60,0,0
93995,-100,4,2,2,40,0,0
103099,-100,4,2,2,50,0,0
106823,-100,4,2,2,100,0,0
106926,-100,4,2,2,50,0,0
107237,-100,4,2,2,60,0,0
117168,-100,4,2,2,55,0,0
117995,-100,4,2,2,50,0,0
118823,-100,4,2,2,40,0,0
119650,-100,4,2,2,100,0,0
119754,-100,4,2,2,60,0,0
120478,-66.6666666666667,4,2,2,70,0,1
120685,-66.6666666666667,4,2,2,5,0,1
120788,-66.6666666666667,4,2,2,70,0,1
120995,-66.6666666666667,4,2,2,5,0,1
121099,-66.6666666666667,4,2,2,70,0,1
121202,-66.6666666666667,4,2,2,5,0,1
121306,-66.6666666666667,4,2,2,70,0,1
121926,-66.6666666666667,4,2,2,50,0,1
122547,-66.6666666666667,4,2,2,70,0,1
122961,-66.6666666666667,4,2,2,70,0,1
123168,-66.6666666666667,4,2,2,5,0,1
123271,-66.6666666666667,4,2,2,70,0,1
123478,-66.6666666666667,4,2,2,5,0,1
123581,-66.6666666666667,4,2,2,70,0,1
123685,-66.6666666666667,4,2,2,5,0,1
123788,-66.6666666666667,4,2,2,70,0,1
123995,-66.6666666666667,4,2,2,5,0,1
124099,-66.6666666666667,4,2,2,70,0,1
124306,-66.6666666666667,4,2,2,5,0,1
124409,-66.6666666666667,4,2,2,70,0,1
124512,-66.6666666666667,4,2,2,5,0,1
124616,-66.6666666666667,4,2,2,70,0,1
124823,-66.6666666666667,4,2,3,70,0,1
125443,-66.6666666666667,4,2,2,70,0,1
125754,-66.6666666666667,4,2,2,5,0,1
125857,-66.6666666666667,4,2,2,70,0,1
126168,-66.6666666666667,4,2,2,5,0,1
126271,-66.6666666666667,4,2,2,70,0,1
126478,-66.6666666666667,4,2,2,5,0,1
126581,-66.6666666666667,4,2,2,70,0,1
126788,-66.6666666666667,4,2,2,5,0,1
126892,-66.6666666666667,4,2,2,70,0,1
126995,-66.6666666666667,4,2,2,5,0,1
127099,-66.6666666666667,4,2,2,70,0,1
127306,-66.6666666666667,4,2,2,5,0,1
127409,-66.6666666666667,4,2,2,70,0,1
127616,-66.6666666666667,4,2,2,5,0,1
127719,-66.6666666666667,4,2,2,70,0,1
127823,-66.6666666666667,4,2,2,5,0,1
127926,-66.6666666666667,4,2,2,70,0,1
128547,-66.6666666666667,4,2,2,70,0,1
129168,-66.6666666666667,4,2,2,70,0,1
129581,-66.6666666666667,4,2,2,70,0,1
129788,-66.6666666666667,4,2,2,5,0,1
129892,-66.6666666666667,4,2,2,70,0,1
130099,-66.6666666666667,4,2,2,5,0,1
130202,-66.6666666666667,4,2,2,70,0,1
130306,-66.6666666666667,4,2,2,5,0,1
130409,-66.6666666666667,4,2,2,70,0,1
130616,-66.6666666666667,4,2,2,5,0,1
130719,-66.6666666666667,4,2,2,70,0,1
130926,-66.6666666666667,4,2,2,5,0,1
131030,-66.6666666666667,4,2,2,70,0,1
131133,-66.6666666666667,4,2,2,5,0,1
131237,-66.6666666666667,4,2,2,70,0,1
131443,-66.6666666666667,4,2,3,70,0,1
132064,-66.6666666666667,4,2,2,70,0,1
132374,-66.6666666666667,4,2,2,5,0,1
132478,-66.6666666666667,4,2,2,70,0,1
132788,-66.6666666666667,4,2,2,5,0,1
132892,-66.6666666666667,4,2,2,70,0,1
133099,-66.6666666666667,4,2,2,5,0,1
133202,-66.6666666666667,4,2,2,70,0,1
133409,-66.6666666666667,4,2,2,5,0,1
133512,-66.6666666666667,4,2,2,70,0,1
133616,-66.6666666666667,4,2,2,5,0,1
133719,-66.6666666666667,4,2,2,70,0,1
133926,-66.6666666666667,4,2,2,5,0,1
134030,-66.6666666666667,4,2,2,70,0,1
134237,-66.6666666666667,4,2,2,5,0,1
134340,-66.6666666666667,4,2,2,70,0,1
134443,-66.6666666666667,4,2,2,5,0,1
134547,-66.6666666666667,4,2,2,70,0,1
135168,-66.6666666666667,4,2,2,70,0,1
135788,-66.6666666666667,4,2,2,70,0,1
136202,-66.6666666666667,4,2,2,70,0,1
136409,-66.6666666666667,4,2,2,5,0,1
136512,-66.6666666666667,4,2,2,70,0,1
136719,-66.6666666666667,4,2,2,5,0,1
136823,-66.6666666666667,4,2,2,70,0,1
136926,-66.6666666666667,4,2,2,5,0,1
137030,-66.6666666666667,4,2,2,70,0,1
137237,-66.6666666666667,4,2,2,5,0,1
137340,-66.6666666666667,4,2,2,70,0,1
137547,-66.6666666666667,4,2,2,5,0,1
137650,-66.6666666666667,4,2,2,70,0,1
137754,-66.6666666666667,4,2,2,5,0,1
137857,-66.6666666666667,4,2,2,70,0,1
138064,-66.6666666666667,4,2,3,70,0,1
138685,-66.6666666666667,4,2,2,70,0,1
138995,-66.6666666666667,4,2,2,5,0,1
139099,-66.6666666666667,4,2,2,70,0,1
139409,-66.6666666666667,4,2,2,5,0,1
139512,-66.6666666666667,4,2,2,70,0,1
139719,-66.6666666666667,4,2,2,5,0,1
139823,-66.6666666666667,4,2,2,70,0,1
140030,-66.6666666666667,4,2,2,5,0,1
140133,-66.6666666666667,4,2,2,70,0,1
140237,-66.6666666666667,4,2,2,5,0,1
140340,-66.6666666666667,4,2,2,70,0,1
140547,-66.6666666666667,4,2,2,5,0,1
140650,-66.6666666666667,4,2,2,70,0,1
140857,-66.6666666666667,4,2,2,5,0,1
140961,-66.6666666666667,4,2,2,70,0,1
141064,-66.6666666666667,4,2,2,5,0,1
141168,-66.6666666666667,4,2,4,70,0,1
141374,-66.6666666666667,4,2,4,70,0,1
141478,-66.6666666666667,4,2,2,70,0,1
141581,-66.6666666666667,4,2,4,70,0,1
141685,-66.6666666666667,4,2,2,70,0,1
141788,-66.6666666666667,4,2,2,70,0,1
141995,-66.6666666666667,4,2,2,70,0,1
142306,-66.6666666666667,4,2,2,5,0,1
142409,-66.6666666666667,4,2,2,70,0,1
142823,-66.6666666666667,4,2,2,70,0,1
143650,-66.6666666666667,4,2,2,70,0,1
143857,-66.6666666666667,4,2,2,5,0,1
143961,-66.6666666666667,4,2,2,70,0,1
144168,-66.6666666666667,4,2,2,5,0,1
144271,-66.6666666666667,4,2,2,70,0,1
144374,-66.6666666666667,4,2,2,5,0,1
144478,-66.6666666666667,4,2,2,70,0,1
144685,-66.6666666666667,4,2,3,70,0,1
145306,-66.6666666666667,4,2,2,70,0,1
145616,-66.6666666666667,4,2,2,5,0,1
145719,-66.6666666666667,4,2,2,70,0,1
146030,-66.6666666666667,4,2,2,5,0,1
146133,-66.6666666666667,4,2,2,70,0,1
146340,-66.6666666666667,4,2,2,5,0,1
146443,-66.6666666666667,4,2,2,70,0,1
146650,-66.6666666666667,4,2,2,5,0,1
146754,-66.6666666666667,4,2,2,70,0,1
146857,-66.6666666666667,4,2,2,5,0,1
146961,-66.6666666666667,4,2,2,70,0,0
148202,-66.6666666666667,4,2,2,100,0,0
148306,-66.6666666666667,4,2,2,70,0,0
148409,-66.6666666666667,4,2,2,70,0,1
151306,-66.6666666666667,4,2,3,70,0,1
151926,-66.6666666666667,4,2,2,70,0,1
157926,-66.6666666666667,4,2,3,70,0,1
158547,-66.6666666666667,4,2,2,70,0,1
160202,-100,4,2,2,70,0,0

[Colours]
Combo1 : 193,159,170
Combo2 : 41,90,218
Combo3 : 150,169,203

[HitObjects]
248,312,1306,6,0,P|56:216|296:152,1,570,2|0,0:0|0:0,0:0:0:0:
168,208,2754,1,0,0:0:0:0:
376,104,2961,2,0,P|360:48|112:88,1,380,2|0,0:0|0:0,0:0:0:0:
296,240,3995,2,0,L|496:256,1,190,2|0,0:0|0:0,0:0:0:0:
136,344,4616,6,0,B|128:224|128:224|224:184|224:184|108:114|108:114|105:35|105:35|264:32,1,570,2|0,0:0|0:0,0:0:0:0:
136,32,6064,1,0,0:0:0:0:
424,288,6271,2,0,P|421:144|202:121,1,380,2|0,0:0|0:0,0:0:0:0:
440,312,7306,2,0,L|448:112,1,190,2|0,0:0|0:0,0:0:0:0:
140,127,7926,6,0,P|156:71|284:263,1,570,2|0,0:0|0:0,0:0:0:0:
176,264,9374,1,0,0:0:0:0:
464,288,9581,2,0,P|503:199|310:51,1,380,2|0,0:0|0:0,0:0:0:0:
99,320,10616,2,0,L|315:328,1,190,2|0,0:0|0:0,0:0:0:0:
57,200,11237,6,0,P|65:136|289:248,1,475,2|0,0:0|0:0,0:0:0:0:
160,232,12478,2,0,L|160:352,1,95,0|0,0:0|0:0,0:0:0:0:
472,64,12892,2,0,L|160:56,1,285,2|0,0:0|0:0,0:0:0:0:
310,59,13719,1,0,0:0:0:0:
120,280,13926,2,0,P|80:224|184:200,1,190,2|0,0:0|0:0,0:0:0:0:
456,184,14547,5,2,0:2:0:0:
481,94,14753,1,0,0:2:0:0:
434,14,14960,1,0,0:2:0:0:
345,0,15167,1,0,0:2:0:0:
219,48,15374,1,8,0:2:0:0:
376,154,15581,1,0,0:2:0:0:
224,170,15788,1,0,0:2:0:0:
376,154,15995,1,0,0:2:0:0:
85,216,16202,6,0,P|85:128|197:80,1,190,2|0,0:2|0:2,0:0:0:0:
298,49,16823,1,0,0:2:0:0:
163,76,17030,1,8,0:2:0:0:
370,252,17237,2,0,L|250:268,2,95,2|0|0,0:2|0:2|0:2,0:0:0:0:
96,352,17857,5,2,0:2:0:0:
71,262,18063,1,0,0:2:0:0:
118,182,18270,1,0,0:2:0:0:
207,168,18477,1,0,0:2:0:0:
314,213,18684,1,8,0:2:0:0:
164,294,18891,1,0,0:2:0:0:
316,310,19098,1,0,0:2:0:0:
164,294,19305,1,0,0:2:0:0:
452,262,19512,6,0,P|460:190|356:134,1,190,2|0,0:2|0:2,0:0:0:0:
208,168,20133,1,0,0:2:0:0:
342,125,20340,1,8,0:2:0:0:
136,288,20547,2,0,L|24:288,2,95,2|0|0,0:2|0:2|0:2,0:0:0:0:
432,232,21168,6,0,L|216:224,1,190,2|0,0:2|0:2,0:0:0:0:
356,310,21788,2,0,L|368:288,2,23.75,0|0|0,0:2|0:0|0:0,0:0:0:0:
184,320,21995,1,8,0:2:0:0:
140,239,22201,1,0,0:2:0:0:
177,155,22408,1,0,0:2:0:0:
266,134,22615,1,0,0:2:0:0:
48,336,22823,6,0,L|264:312,1,190,2|0,0:2|0:2,0:0:0:0:
144,256,23443,1,0,0:2:0:0:
40,256,23650,1,8,0:2:0:0:
248,176,23857,2,0,P|264:120|144:80,1,190,2|0,0:2|0:2,0:0:0:0:
472,304,24478,6,0,L|272:296,1,190,2|0,0:2|0:2,0:0:0:0:
160,287,25099,2,0,L|144:265,2,23.75,0|0|0,0:2|0:0|0:0,0:0:0:0:
407,234,25306,1,8,0:2:0:0:
451,144,25512,1,0,0:2:0:0:
400,58,25719,1,0,0:2:0:0:
310,38,25926,1,0,0:2:0:0:
22,198,26133,6,0,L|182:206,1,142.5,2|0,0:2|0:2,0:0:0:0:
352,296,26547,2,0,L|168:312,1,142.5,2|0,0:2|0:2,0:0:0:0:
424,224,26961,2,0,P|432:160|344:144,1,142.5,2|0,0:2|0:2,0:0:0:0:
152,128,27374,2,0,P|144:64|232:48,1,142.5,2|0,0:2|0:0,0:0:0:0:
448,264,27788,6,0,L|464:208,3,47.5,10|0|0|0,1:2|0:2|0:2|0:2,0:0:0:0:
240,328,28202,1,8,0:2:0:0:
216,288,28305,1,0,0:2:0:0:
226,243,28408,1,0,0:2:0:0:
264,217,28512,1,0,0:2:0:0:
461,218,28616,1,8,0:2:0:0:
485,178,28719,1,0,0:2:0:0:
475,133,28822,1,0,0:2:0:0:
437,107,28926,1,0,0:2:0:0:
240,120,29030,2,0,P|232:64|272:56,1,95,8|0,0:2|0:2,0:0:0:0:
328,56,29340,1,0,0:2:0:0:
64,320,29443,6,0,L|48:264,3,47.5,10|0|0|0,0:2|0:2|0:2|0:2,0:0:0:0:
272,384,29857,1,8,0:2:0:0:
296,344,29960,1,0,0:2:0:0:
286,299,30063,1,0,0:2:0:0:
248,273,30167,1,0,0:2:0:0:
51,274,30271,1,8,0:2:0:0:
27,234,30374,1,0,0:2:0:0:
37,189,30477,1,2,0:2:0:0:
75,163,30581,1,0,0:2:0:0:
272,176,30685,2,0,P|280:120|240:112,1,95,8|0,0:2|0:2,0:0:0:0:
184,112,30995,1,0,0:2:0:0:
416,232,31099,6,0,L|464:216,3,47.5,10|0|0|0,0:2|0:2|0:2|0:2,0:0:0:0:
236,271,31512,1,8,0:2:0:0:
212,231,31615,1,0,0:2:0:0:
228,189,31718,1,0,0:2:0:0:
272,176,31822,1,0,0:2:0:0:
72,248,31926,1,8,0:2:0:0:
48,208,32029,1,0,0:2:0:0:
64,166,32132,1,0,0:2:0:0:
108,153,32236,1,0,0:2:0:0:
304,104,32340,2,0,L|208:96,1,95,8|0,0:2|0:2,0:0:0:0:
160,88,32650,1,0,0:2:0:0:
400,264,32754,6,0,L|352:258,3,47.5,10|0|0|0,0:2|0:2|0:2|0:2,0:0:0:0:
160,233,33168,1,8,0:2:0:0:
116,243,33272,1,0,0:2:0:0:
100,286,33375,1,0,0:2:0:0:
128,322,33478,1,0,0:2:0:0:
320,352,33581,2,0,L|376:352,1,47.5,8|0,0:2|0:2,0:0:0:0:
176,128,33788,5,2,0:2:0:0:
223,130,33891,1,0,0:2:0:0:
270,133,33994,1,8,0:2:0:0:
318,135,34098,1,0,0:2:0:0:
104,40,34202,2,0,L|32:48,1,47.5,0|0,0:2|0:2,0:0:0:0:
268,257,34409,6,0,L|283:317,2,47.5,8|8|0,1:1|0:1|0:1,0:0:0:0:
78,219,34719,1,8,1:1:0:0:
260,159,34823,2,0,L|330:153,1,47.5,8|0,0:1|0:1,0:0:0:0:
134,101,35030,1,8,1:1:0:0:
318,62,35133,2,0,L|394:58,1,47.5,8|0,0:1|0:1,0:0:0:0:
199,6,35340,1,8,1:1:0:0:
382,232,35443,2,0,L|445:236,1,47.5,8|0,0:1|0:1,0:0:0:0:
237,347,35650,2,0,L|165:362,1,47.5,8|0,1:1|0:1,0:0:0:0:
369,346,35857,2,0,L|443:364,1,47.5,8|0,1:1|0:1,0:0:0:0:
209,268,36064,6,0,L|194:328,2,47.5,8|8|0,1:1|0:1|0:1,0:0:0:0:
399,230,36374,1,8,1:1:0:0:
217,170,36478,2,0,L|147:164,1,47.5,8|0,0:1|0:1,0:0:0:0:
343,112,36685,1,8,1:1:0:0:
159,73,36788,2,0,L|83:69,1,47.5,8|0,0:1|0:1,0:0:0:0:
278,17,36995,1,8,1:1:0:0:
95,243,37098,2,0,L|32:247,1,47.5,8|0,0:1|0:1,0:0:0:0:
47,246,37306,2,0,L|95:243,1,47.5,8|0,1:1|0:1,0:0:0:0:
312,318,37512,2,0,L|238:336,1,47.5,8|0,1:1|0:1,0:0:0:0:
496,224,37719,6,0,L|504:168,3,47.5,8|0|8|0,1:1|0:1|1:1|0:1,0:0:0:0:
280,72,38133,2,0,L|280:16,3,47.5,8|0|8|0,1:1|0:1|1:1|0:1,0:0:0:0:
56,240,38547,2,0,L|48:184,3,47.5,8|0|8|0,1:1|0:1|1:1|0:1,0:0:0:0:
272,272,38961,2,0,L|328:264,1,47.5,8|0,1:1|0:1,0:0:0:0:
112,352,39168,2,0,L|56:344,1,47.5,8|0,1:1|0:1,0:0:0:0:
352,152,39374,6,0,L|376:144,1,23.75,8|0,1:1|1:1,0:0:0:0:
407,130,39478,2,0,L|399:106,1,23.75,0|0,1:1|1:1,0:0:0:0:
213,108,39581,2,0,L|189:100,1,23.75,0|0,1:1|1:1,0:0:0:0:
154,86,39685,2,0,L|162:62,1,23.75,0|0,1:1|1:1,0:0:0:0:
360,232,39788,6,0,L|384:224,1,23.75,8|0,1:1|1:1,0:0:0:0:
420,215,39892,2,0,L|412:191,1,23.75,0|0,1:1|1:1,0:0:0:0:
176,168,39995,2,0,L|152:160,1,23.75,8|0,1:1|1:1,0:0:0:0:
108,140,40099,2,0,L|116:116,1,23.75,0|0,1:1|1:1,0:0:0:0:
334,326,40202,5,8,1:1:0:0:
351,283,40305,1,0,1:1:0:0:
330,241,40408,1,0,1:1:0:0:
286,229,40512,1,0,1:1:0:0:
64,144,40616,6,0,L|64:-32,1,142.5,4|0,0:1|0:1,0:0:0:0:
424,104,41030,6,0,L|272:104,1,142.500005435944,2|0,1:1|0:0,0:0:0:0:
352,72,41340,1,0,0:1:0:0:
104,216,41443,2,0,L|104:368,1,142.500005435944,2|2,1:1|0:1,0:0:0:0:
336,224,41754,2,0,L|496:216,1,142.500005435944,2|0,1:1|0:1,0:0:0:0:
246,176,42064,2,0,L|166:168,1,71.2500027179719,2|0,1:1|0:1,0:0:0:0:
411,223,42271,2,0,P|473:122|403:86,1,213.750008153916,2|0,0:1|0:1,0:0:0:0:
178,261,42685,6,0,L|202:381,1,71.2500027179719,2|0,1:1|0:1,0:0:0:0:
398,384,42892,2,0,L|376:298,1,71.2500027179719,2|0,1:1|0:1,0:0:0:0:
186,180,43099,2,0,L|346:172,1,142.500005435944,2|0,1:1|0:1,0:0:0:0:
130,80,43409,2,0,L|226:80,2,71.2500027179719,2|10|0,1:1|1:1|1:1,0:0:0:0:
328,194,43719,1,2,1:1:0:0:
401,181,43822,1,0,0:1:0:0:
332,129,43925,1,2,0:1:0:0:
253,117,44029,1,0,0:1:0:0:
461,67,44133,2,0,L|469:147,1,71.2500027179719,2|0,1:1|0:1,0:0:0:0:
232,136,44340,6,0,P|136:144|216:224,1,213.750008153916,2|0,1:1|0:1,0:0:0:0:
384,336,44754,1,2,1:1:0:0:
309,319,44857,1,0,0:0:0:0:
384,336,44960,1,2,0:1:0:0:
196,299,45064,1,2,1:1:0:0:
267,252,45168,2,0,L|335:233,1,71.2500027179719,10|0,1:1|0:1,0:0:0:0:
123,113,45375,2,0,L|52:119,1,71.2500027179719,2|0,1:1|0:1,0:0:0:0:
255,157,45581,2,0,L|264:62,1,71.2500027179719,2|0,0:1|0:1,0:0:0:0:
74,199,45788,2,0,L|160:190,1,71.2500027179719,2|0,1:1|0:1,0:0:0:0:
367,333,45995,6,0,L|462:334,1,71.2500027179719,2|0,1:1|0:1,0:0:0:0:
249,350,46202,2,0,L|247:255,1,71.2500027179719,2|0,1:1|0:1,0:0:0:0:
52,205,46409,2,0,L|125:158,1,71.2500027179719,2|0,1:1|0:0,0:0:0:0:
185,192,46616,1,2,0:1:0:0:
389,117,46719,2,0,L|233:87,1,142.500005435944,2|0,1:1|1:1,0:0:0:0:
328,99,47030,2,0,L|256:99,1,71.2500027179719,2|0,1:1|0:1,0:0:0:0:
480,344,47237,6,0,L|488:112,1,213.750008153916,6|0,1:1|0:1,0:0:0:0:
192,280,47650,6,0,P|159:228|266:151,1,213.750008153916,2|0,1:1|0:0,0:0:0:0:
456,216,48064,6,0,L|368:216,2,71.2500027179719,2|0|0,1:1|0:0|0:1,0:0:0:0:
192,280,48374,2,0,L|349:283,1,142.500005435944,2|0,1:1|0:1,0:0:0:0:
264,248,48685,2,0,L|336:248,1,71.2500027179719,2|0,1:1|0:1,0:0:0:0:
104,280,48892,2,0,L|96:136,1,142.500005435944,2|2,0:1|1:1,0:0:0:0:
176,120,49202,1,0,0:1:0:0:
400,176,49306,6,0,L|416:80,1,71.2500027179719,2|0,1:1|0:1,0:0:0:0:
184,208,49513,2,0,L|256:192,1,71.2500027179719,2|0,1:1|0:1,0:0:0:0:
440,336,49719,2,0,L|360:336,1,71.2500027179719,2|0,1:1|0:0,0:0:0:0:
192,296,49927,1,0,0:1:0:0:
408,256,50030,2,0,P|408:176|336:176,1,142.500005435944,2|0,1:1|1:1,0:0:0:0:
288,163,50341,2,0,L|360:163,1,71.2500027179719,2|0,1:1|0:1,0:0:0:0:
88,208,50547,1,2,0:1:0:0:
77,139,50650,1,0,0:1:0:0:
161,126,50753,1,2,1:1:0:0:
74,81,50857,1,0,0:1:0:0:
287,111,50961,6,0,L|135:119,1,142.500005435944,2|0,1:1|0:0,0:0:0:0:
71,127,51271,1,0,1:1:0:0:
260,227,51374,2,0,L|164:219,1,71.2500027179719,2|0,0:1|0:1,0:0:0:0:
390,115,51581,2,0,P|445:136|433:246,1,142.500005435944,2|8,1:1|1:1,0:0:0:0:
387,250,51892,1,0,1:1:0:0:
192,335,51995,2,0,L|272:343,1,71.2500027179719,2|0,0:1|0:1,0:0:0:0:
60,311,52202,6,0,P|57:214|331:120,1,427.500016307831,2|2,1:1|0:0,0:0:0:0:
229,157,53030,1,2,0:0:0:0:
357,175,53237,1,2,0:0:0:0:
223,194,53443,1,2,0:0:0:0:
395,232,53650,1,2,0:0:0:0:
72,208,53857,5,6,1:1:0:0:
38,147,53960,1,2,0:1:0:0:
60,82,54063,1,2,0:1:0:0:
123,55,54167,1,2,0:1:0:0:
352,64,54271,6,0,L|496:80,1,142.500005435944,2|0,1:1|0:0,0:0:0:0:
424,104,54581,1,0,0:1:0:0:
248,160,54685,2,0,L|160:152,2,71.2500027179719,2|2|0,1:1|0:1|0:1,0:0:0:0:
61,214,54995,1,2,1:1:0:0:
30,147,55098,1,8,1:1:0:0:
59,84,55201,1,2,0:1:0:0:
261,55,55306,2,0,L|155:49,1,71.2500027179719,0|2,1:1|0:1,0:0:0:0:
277,111,55512,2,0,L|357:111,1,71.2500027179719,0|2,0:1|0:1,0:0:0:0:
167,248,55719,2,0,L|247:232,1,71.2500027179719,2|2,1:1|0:1,0:0:0:0:
434,243,55926,6,0,L|450:147,1,71.2500027179719,2|0,1:1|0:1,0:0:0:0:
218,275,56133,2,0,L|290:259,1,71.2500027179719,2|0,1:1|0:1,0:0:0:0:
472,336,56340,2,0,L|320:336,1,142.500005435944,2|0,1:1|0:1,0:0:0:0:
408,312,56650,1,2,1:1:0:0:
208,174,56754,2,0,L|121:176,1,71.2500027179719,8|2,1:1|0:1,0:0:0:0:
236,102,56961,2,0,L|150:102,1,71.2500027179719,0|2,1:1|0:1,0:0:0:0:
265,36,57168,1,0,0:1:0:0:
53,85,57271,2,0,L|45:29,4,35.625001358986,2|0|2|0|2,0:1|0:0|1:1|0:0|0:1,0:0:0:0:
256,321,57581,6,0,P|289:269|182:192,1,213.750008153916,2|0,1:1|0:0,0:0:0:0:
381,141,57995,6,0,L|469:141,2,71.2500027179719,2|2|0,1:1|0:1|0:1,0:0:0:0:
168,296,58305,2,0,L|304:304,1,71.2500027179719,2|8,1:1|1:1,0:0:0:0:
310,300,58512,2,0,L|238:300,1,71.2500027179719,2|0,0:1|0:1,0:0:0:0:
51,180,58719,1,2,1:1:0:0:
124,127,58823,2,0,L|196:119,1,71.2500027179719,0|2,0:1|0:1,0:0:0:0:
375,48,59030,1,2,1:1:0:0:
292,41,59133,1,2,0:1:0:0:
80,136,59237,6,0,L|64:40,1,71.2500027179719,2|0,1:1|0:1,0:0:0:0:
296,168,59444,2,0,L|224:152,1,71.2500027179719,2|0,1:1|0:1,0:0:0:0:
34,333,59650,2,0,L|43:233,1,71.2500027179719,2|0,1:1|0:0,0:0:0:0:
121,248,59858,1,0,0:1:0:0:
321,291,59961,2,0,L|167:286,1,142.500005435944,2|2,1:1|0:1,0:0:0:0:
360,195,60272,2,0,L|288:195,1,71.2500027179719,2|0,1:1|0:1,0:0:0:0:
469,228,60478,5,6,1:1:0:0:
495,154,60581,1,0,0:1:0:0:
461,85,60684,1,2,0:1:0:0:
375,72,60788,1,0,0:1:0:0:
94,282,60892,6,0,P|63:224|175:152,1,213.750008153916,2|0,1:1|0:1,0:0:0:0:
349,261,61306,2,0,L|261:269,2,71.2500027179719,2|2|0,1:1|0:1|0:1,0:0:0:0:
142,339,61616,2,0,L|71:335,1,71.2500027179719,2|8,1:1|1:1,0:0:0:0:
154,295,61823,1,2,0:1:0:0:
349,242,61926,1,0,1:1:0:0:
276,207,62030,2,0,L|195:194,2,71.2500027179719,2|0|2,0:1|0:1|0:1,0:0:0:0:
92,57,62340,2,0,L|13:69,1,71.2500027179719,2|2,1:1|0:1,0:0:0:0:
223,230,62547,6,0,L|226:133,1,71.2500027179719,2|0,1:1|0:1,0:0:0:0:
434,88,62754,2,0,L|355:96,1,71.2500027179719,2|0,1:1|0:1,0:0:0:0:
164,35,62960,2,0,L|244:35,1,71.2500027179719,2|0,1:1|0:0,0:0:0:0:
314,43,63168,1,0,0:1:0:0:
112,173,63271,6,0,L|36:180,2,71.2500027179719,2|8|2,1:1|1:1|0:1,0:0:0:0:
319,298,63581,2,0,L|237:317,1,71.2500027179719,0|2,1:1|0:1,0:0:0:0:
334,339,63788,2,2,L|413:348,1,71.2500027179719,2|2,0:1|0:1,0:1:0:0:
204,246,63995,2,2,L|125:253,1,71.2500027179719,2|2,1:1|0:1,0:1:0:0:
337,171,64202,6,0,L|169:147,1,142.500005435944,2|0,1:1|0:0,0:0:0:0:
279,120,64512,1,0,1:1:0:0:
367,71,64616,2,0,L|287:55,1,71.2500027179719,2|0,0:1|0:1,0:0:0:0:
80,339,64823,2,0,P|81:270|159:248,1,142.500005435944,2|8,1:1|1:1,0:0:0:0:
355,251,65133,1,0,1:1:0:0:
434,176,65237,2,0,L|354:184,1,71.2500027179719,2|0,0:1|0:1,0:0:0:0:
120,352,65443,6,0,L|288:328,1,142.500005435944,2|0,1:1|0:0,0:0:0:0:
180,295,65753,1,0,1:1:0:0:
92,309,65857,2,0,L|188:293,1,71.2500027179719,2|0,0:1|0:1,0:0:0:0:
421,297,66064,1,2,1:1:0:0:
457,225,66167,1,0,0:0:0:0:
421,297,66270,1,0,0:0:0:0:
340,278,66374,1,0,1:1:0:0:
159,194,66478,2,0,L|231:202,1,71.2500027179719,2|0,0:1|0:1,0:0:0:0:
48,216,66685,5,0,0:0:0:0:
33,183,66736,1,0,0:0:0:0:
33,148,66788,1,0,0:0:0:0:
47,115,66840,1,0,0:0:0:0:
72,90,66891,1,0,0:0:0:0:
105,77,66943,1,0,0:0:0:0:
140,78,66995,1,0,0:0:0:0:
352,80,67099,5,8,0:0:0:0:
248,88,67202,1,8,0:0:0:0:
352,80,67306,1,8,0:0:0:0:
248,88,67409,1,8,0:0:0:0:
488,272,67512,6,0,P|496:200|448:136,1,142.5,6|0,1:2|0:0,0:0:0:0:
370,140,67926,1,0,0:0:0:0:
339,132,67978,1,0,0:0:0:0:
322,105,68030,1,0,0:0:0:0:
339,132,68081,1,0,0:0:0:0:
370,140,68133,1,0,0:0:0:0:
432,144,68237,1,0,0:0:0:0:
239,198,68340,2,0,L|119:190,1,95,8|0,0:1|0:0,0:0:0:0:
313,175,68650,2,0,L|393:175,2,47.5,8|0|0,0:3|0:0|0:0,0:0:0:0:
112,320,68961,6,0,P|96:256|176:208,1,142.5,2|0,1:2|0:0,0:0:0:0:
200,208,69374,2,0,L|264:208,1,47.5,0|0,0:0|0:0,0:0:0:0:
152,152,69581,1,0,0:0:0:0:
110,171,69684,1,0,0:0:0:0:
103,216,69787,1,8,0:3:0:0:
136,248,69891,1,0,0:0:0:0:
320,96,69995,2,0,L|376:96,1,47.5,8|0,0:1|0:0,0:0:0:0:
136,216,70202,2,0,P|104:280|144:336,1,142.5,2|0,1:2|0:0,0:0:0:0:
176,344,70616,2,0,L|240:344,1,47.5,0|0,1:0|0:0,0:0:0:0:
488,272,70823,6,0,P|496:200|448:136,1,142.5,2|0,1:2|0:0,0:0:0:0:
372,123,71237,1,0,0:0:0:0:
345,121,71288,1,0,0:0:0:0:
317,121,71340,1,0,0:0:0:0:
345,121,71392,1,0,0:0:0:0:
372,123,71443,1,0,0:0:0:0:
435,122,71547,1,0,0:0:0:0:
242,169,71651,2,0,L|122:161,1,95,8|0,0:1|0:0,0:0:0:0:
215,229,71961,1,8,0:3:0:0:
148,264,72064,1,8,0:3:0:0:
218,279,72168,1,8,0:3:0:0:
416,312,72271,6,0,P|432:248|352:200,1,142.5,2|0,1:2|0:0,0:0:0:0:
328,208,72685,1,0,0:0:0:0:
136,168,72788,2,0,L|64:168,2,47.5,8|0|0,0:3|0:0|0:0,0:0:0:0:
328,120,73099,2,0,L|376:112,1,47.5,8|0,0:3|0:0,0:0:0:0:
197,31,73305,2,0,L|186:110,1,47.5,8|0,0:1|0:0,0:0:0:0:
424,208,73512,2,0,P|440:272|400:312,1,95,2|0,1:2|0:0,0:0:0:0:
355,320,73823,1,8,0:3:0:0:
414,340,73926,1,8,0:3:0:0:
473,344,74029,1,0,0:0:0:0:
255,296,74133,6,0,P|239:232|319:184,1,142.5,2|0,1:2|0:0,0:0:0:0:
344,176,74547,1,0,0:0:0:0:
367,136,74650,1,0,0:0:0:0:
353,93,74753,1,0,0:0:0:0:
310,76,74857,1,8,0:3:0:0:
133,69,74961,2,0,L|77:69,1,47.5,8|0,0:1|0:0,0:0:0:0:
168,152,75168,2,0,L|224:152,1,47.5,0|0,0:0|0:0,0:0:0:0:
168,152,75374,1,0,0:0:0:0:
120,152,75477,1,0,0:0:0:0:
352,288,75581,6,0,P|376:224|312:200,1,142.5,2|0,1:2|0:0,0:0:0:0:
136,328,75995,1,8,0:3:0:0:
206,334,76099,1,0,0:0:0:0:
136,328,76202,1,0,0:0:0:0:
106,294,76305,1,0,0:0:0:0:
136,328,76408,1,0,0:0:0:0:
186,237,76512,1,8,0:3:0:0:
352,288,76616,2,0,L|416:288,1,47.5,8|8,0:1|0:3,0:0:0:0:
208,232,76823,2,0,P|176:168|232:120,1,142.5,2|0,1:2|0:0,0:0:0:0:
168,120,77237,2,0,L|80:120,1,47.5,0|0,1:0|0:0,0:0:0:0:
336,176,77443,6,0,P|360:112|296:80,1,142.5,2|0,1:2|0:0,0:0:0:0:
226,80,77857,1,0,0:0:0:0:
257,75,77909,1,0,0:0:0:0:
270,48,77961,1,0,0:0:0:0:
257,75,78012,1,0,0:0:0:0:
226,80,78064,1,0,0:0:0:0:
165,102,78168,1,0,0:0:0:0:
334,33,78271,2,0,L|387:29,1,47.5,8|0,0:1|0:0,0:0:0:0:
168,198,78478,2,0,L|48:206,2,95,0|0|0,1:2|1:2|1:0,0:0:0:0:
464,304,79099,5,2,1:2:0:0:
405,296,79202,1,0,0:0:0:0:
232,340,79306,1,0,1:0:0:0:
228,294,79409,1,0,0:0:0:0:
440,160,79512,1,0,0:0:0:0:
463,139,79564,1,0,0:0:0:0:
440,160,79616,1,0,0:0:0:0:
357,101,79719,2,0,L|427:94,1,47.5,0|0,1:0|0:0,0:0:0:0:
192,152,79926,6,0,L|296:160,1,95,8|0,0:1|1:0,0:0:0:0:
336,160,80237,1,0,0:0:0:0:
160,360,80340,1,8,0:3:0:0:
145,340,80391,1,8,0:3:0:0:
160,312,80443,1,8,0:3:0:0:
360,280,80547,2,0,L|312:280,1,47.5,8|8,0:3|0:3,0:0:0:0:
56,224,80754,5,2,1:2:0:0:
59,176,80857,1,0,0:0:0:0:
76,132,80960,1,0,0:0:0:0:
107,96,81064,1,0,0:0:0:0:
147,71,81167,1,0,0:0:0:0:
193,60,81271,1,0,0:0:0:0:
240,64,81374,1,0,0:0:0:0:
284,82,81478,1,0,0:0:0:0:
56,224,81581,5,8,0:1:0:0:
44,178,81684,1,0,0:0:0:0:
55,132,81787,1,0,0:0:0:0:
84,95,81891,1,8,0:3:0:0:
127,75,81994,1,0,0:0:0:0:
174,76,82098,1,0,0:0:0:0:
363,282,82202,5,2,1:2:0:0:
374,236,82305,1,0,0:0:0:0:
363,190,82408,1,0,0:0:0:0:
334,153,82512,1,0,0:0:0:0:
291,133,82615,1,0,0:0:0:0:
244,134,82719,1,0,0:0:0:0:
202,155,82822,1,0,0:0:0:0:
174,192,82926,1,0,0:0:0:0:
363,282,83029,1,8,0:3:0:0:
374,236,83132,1,0,0:0:0:0:
264,240,83237,5,8,0:1:0:0:
227,269,83339,1,0,0:0:0:0:
432,160,83443,1,2,1:2:0:0:
454,119,83546,1,8,0:3:0:0:
447,73,83649,1,0,0:0:0:0:
413,41,83753,1,0,0:0:0:0:
366,38,83856,1,8,1:3:0:0:
328,65,83960,1,0,0:0:0:0:
144,192,84064,5,2,1:2:0:0:
190,189,84167,1,0,0:0:0:0:
221,155,84270,1,0,0:0:0:0:
218,108,84374,1,0,0:0:0:0:
184,77,84477,1,0,0:0:0:0:
138,80,84581,1,0,0:0:0:0:
320,200,84685,1,8,0:3:0:0:
331,154,84788,1,0,0:0:0:0:
221,155,84892,5,8,0:1:0:0:
190,189,84995,1,0,0:0:0:0:
368,320,85099,1,0,0:0:0:0:
320,320,85202,1,8,0:3:0:0:
273,320,85305,1,0,0:0:0:0:
225,320,85409,1,0,0:0:0:0:
400,232,85512,1,2,1:2:0:0:
353,237,85615,1,0,0:0:0:0:
160,200,85719,6,0,L|104:192,2,47.5,0|0|0,0:0|0:0|0:0,0:0:0:0:
344,136,86030,2,0,L|408:128,2,47.5,8|0|0,0:3|0:0|0:0,0:0:0:0:
168,88,86340,2,0,L|96:80,1,47.5,8|0,0:3|0:0,0:0:0:0:
240,32,86547,2,0,L|304:24,1,47.5,8|0,0:1|0:0,0:0:0:0:
64,288,86754,1,2,1:2:0:0:
64,242,86857,1,0,0:0:0:0:
114,224,86960,1,0,0:0:0:0:
280,224,87064,2,0,L|352:232,2,47.5,8|8|0,0:3|0:3|0:0,0:0:0:0:
464,280,87374,5,2,1:2:0:0:
493,243,87477,1,0,0:0:0:0:
504,197,87580,1,0,0:0:0:0:
492,151,87684,1,0,0:0:0:0:
462,115,87787,1,0,0:0:0:0:
419,97,87891,1,0,0:0:0:0:
240,152,87994,1,0,0:0:0:0:
199,175,88098,1,8,0:3:0:0:
400,304,88202,5,8,0:1:0:0:
412,258,88305,1,0,0:0:0:0:
401,212,88408,1,0,0:0:0:0:
372,175,88512,1,0,0:0:0:0:
329,155,88615,1,0,0:0:0:0:
282,156,88719,1,0,0:0:0:0:
93,246,88823,5,2,1:2:0:0:
82,200,88926,1,0,0:0:0:0:
93,154,89029,1,0,0:0:0:0:
122,117,89133,1,0,0:0:0:0:
165,97,89236,1,8,0:3:0:0:
212,98,89340,1,0,0:0:0:0:
254,119,89443,1,0,0:0:0:0:
282,156,89547,1,0,0:0:0:0:
116,331,89650,1,0,0:0:0:0:
105,285,89753,1,8,0:3:0:0:
215,289,89856,1,8,0:1:0:0:
252,318,89960,1,8,0:3:0:0:
47,209,90064,5,2,1:2:0:0:
25,168,90167,1,0,0:0:0:0:
32,122,90270,1,8,0:3:0:0:
66,90,90374,1,0,0:0:0:0:
113,87,90477,1,0,1:0:0:0:
151,114,90581,1,0,0:0:0:0:
360,224,90685,5,2,1:2:0:0:
406,221,90788,1,0,0:0:0:0:
437,187,90891,1,0,0:0:0:0:
434,140,90995,1,0,0:0:0:0:
400,109,91098,1,0,0:0:0:0:
354,112,91202,1,0,0:0:0:0:
153,251,91306,1,0,1:0:0:0:
142,205,91409,1,0,0:0:0:0:
258,204,91512,5,8,0:1:0:0:
289,238,91616,1,0,0:0:0:0:
111,369,91720,1,0,1:0:0:0:
159,369,91823,1,0,0:0:0:0:
206,369,91926,1,0,0:0:0:0:
254,369,92030,1,0,0:0:0:0:
79,281,92133,1,2,1:2:0:0:
126,286,92236,1,0,0:0:0:0:
319,249,92340,6,0,L|375:241,2,47.5,0|0|0,0:0|0:0|0:0,0:0:0:0:
254,237,92650,1,0,0:0:0:0:
175,223,92754,2,0,L|161:151,1,47.5,0|0,0:0|0:0,0:0:0:0:
350,146,92961,2,0,L|360:75,1,47.5,2|0,1:2|0:0,0:0:0:0:
181,70,93168,6,0,L|257:66,1,47.5,8|0,0:1|0:0,0:0:0:0:
402,42,93374,1,2,1:2:0:0:
447,49,93477,1,0,0:0:0:0:
474,86,93580,1,0,0:0:0:0:
447,49,93684,1,0,0:0:0:0:
261,168,93788,2,0,L|200:169,1,47.5,0|0,0:0|0:0,0:0:0:0:
435,125,93995,6,0,P|315:85|411:309,1,570,2|0,0:0|0:0,0:0:0:0:
225,133,95443,2,0,P|345:93|297:317,1,475,2|0,0:0|0:0,0:0:0:0:
103,348,96685,2,0,B|41:229|41:229|121:119,1,237.5,2|0,0:0|0:0,0:0:0:0:
288,120,97306,6,0,P|408:80|312:304,1,570,2|0,0:0|0:0,0:0:0:0:
120,243,98754,2,0,P|304:283|184:91,1,522.5,2|0,0:0|0:0,0:0:0:0:
392,200,99995,2,0,P|432:128|304:72,1,237.5,2|0,0:0|0:0,0:0:0:0:
128,264,100616,6,0,P|104:208|392:200,1,570,2|0,0:0|0:0,0:0:0:0:
176,384,102064,2,0,P|72:320|296:184,1,522.5,2|0,0:0|0:0,0:0:0:0:
464,264,103306,6,0,B|496:176|496:176|392:72,1,237.5,2|0,0:0|0:0,0:0:0:0:
224,264,103926,6,0,P|40:160|264:64,1,570,2|0,0:0|0:0,0:0:0:0:
55,269,105374,2,0,P|47:101|279:77,1,427.5,2|0,0:0|0:0,0:0:0:0:
312,80,106409,1,0,0:0:0:0:
336,117,106512,1,0,0:0:0:0:
313,156,106615,1,2,0:0:0:0:
269,152,106719,1,0,0:0:0:0:
55,269,106823,6,0,P|31:213|103:149,1,142.5,4|0,0:1|0:0,0:0:0:0:
312,160,107237,6,0,L|472:152,1,142.5,0|0,1:2|1:0,0:0:0:0:
256,240,107650,2,0,L|104:232,1,142.5,8|0,0:1|0:0,0:0:0:0:
310,312,108064,1,8,0:1:0:0:
366,297,108167,1,0,1:0:0:0:
387,254,108270,1,0,0:0:0:0:
356,214,108374,1,0,0:0:0:0:
294,199,108478,1,8,1:1:0:0:
254,163,108581,1,0,0:0:0:0:
288,112,108684,1,0,1:0:0:0:
356,108,108788,1,0,0:0:0:0:
113,232,108892,6,0,L|296:224,1,142.5,0|0,1:2|1:0,0:0:0:0:
448,328,109306,2,0,L|288:312,1,142.5,8|0,0:1|0:0,0:0:0:0:
372,277,109719,1,8,0:1:0:0:
440,273,109823,1,0,1:0:0:0:
208,128,109926,2,0,L|112:128,2,95,0|8|0,0:2|1:1|1:0,0:0:0:0:
160,192,110443,1,0,0:0:0:0:
360,232,110547,6,0,P|400:176|336:144,1,142.5,8|0,1:1|1:0,0:0:0:0:
152,288,110961,2,0,P|112:232|176:200,1,142.5,8|0,0:1|0:0,0:0:0:0:
328,304,111374,2,0,L|176:304,1,142.5,8|0,0:1|0:0,0:0:0:0:
416,240,111788,2,0,L|424:112,1,95,8|0,1:1|1:0,0:0:0:0:
368,128,112099,1,0,0:0:0:0:
159,196,112202,6,0,L|311:188,1,142.5,8|0,1:1|1:0,0:0:0:0:
96,112,112616,2,0,L|80:0,1,95,8|0,0:1|1:0,0:0:0:0:
136,8,112926,1,0,0:0:0:0:
315,78,113030,2,0,L|163:70,1,142.5,8|0,0:1|0:0,0:0:0:0:
373,160,113443,2,0,L|395:266,1,95,8|0,1:1|1:0,0:0:0:0:
34,348,113857,6,0,L|48:292,1,47.5,0|0,1:1|0:1,0:0:0:0:
128,264,114064,2,0,L|208:240,1,47.5,0|0,1:1|0:1,0:0:0:0:
397,221,114271,2,0,L|372:160,1,47.5,0|0,1:1|0:1,0:0:0:0:
290,134,114478,2,0,L|210:110,1,47.5,0|0,1:1|0:1,0:0:0:0:
55,60,114685,2,0,L|111:52,1,47.5,0|0,1:1|0:1,0:0:0:0:
302,41,114892,2,0,L|374:41,1,47.5,0|0,1:1|0:1,0:0:0:0:
173,246,115099,2,0,L|166:184,1,47.5,0|0,1:1|0:1,0:0:0:0:
343,343,115306,2,0,L|255:343,1,47.5,0|0,1:1|0:1,0:0:0:0:
63,272,115512,6,0,L|15:209,1,47.5,0|0,1:1|0:1,0:0:0:0:
117,175,115719,2,0,L|175:153,1,47.5,0|0,1:1|0:1,0:0:0:0:
399,231,115926,2,0,L|439:161,1,47.5,0|0,1:1|0:1,0:0:0:0:
330,143,116133,2,0,L|270:137,1,47.5,0|0,1:1|0:1,0:0:0:0:
80,32,116340,2,0,L|32:32,1,47.5,0|0,1:1|0:1,0:0:0:0:
237,62,116547,6,0,L|292:62,1,47.5,0|0,1:1|0:1,0:0:0:0:
99,345,116754,1,0,1:1:0:0:
88,287,116857,1,0,0:1:0:0:
158,273,116960,1,0,1:1:0:0:
234,268,117064,1,0,0:1:0:0:
496,192,117168,6,0,L|480:272,1,47.5,0|0,1:1|1:1,0:0:0:0:
280,144,117374,2,0,L|280:224,1,47.5,0|0,1:1|1:1,0:0:0:0:
72,264,117581,2,0,L|88:344,1,47.5,0|0,1:1|1:1,0:0:0:0:
264,304,117788,2,0,L|336:320,1,47.5,0|0,1:1|1:1,0:0:0:0:
72,128,117995,6,0,L|62:81,1,47.5,0|0,1:1|1:1,0:0:0:0:
264,152,118202,2,0,L|264:96,1,47.5,0|0,1:1|1:1,0:0:0:0:
464,152,118409,2,0,L|473:105,1,47.5,0|0,1:1|1:1,0:0:0:0:
256,288,118615,2,0,L|304:360,1,47.5,0|0,1:1|1:1,0:0:0:0:
472,272,118823,5,0,1:1:0:0:
379,273,118961,1,0,1:1:0:0:
472,272,119099,1,0,1:1:0:0:
200,128,119237,1,0,1:1:0:0:
98,128,119374,1,0,1:1:0:0:
200,128,119512,1,0,1:1:0:0:
440,80,119650,5,4,1:1:0:0:
104,168,120478,6,0,L|288:168,1,142.500005435944,0|0,1:0|0:0,0:0:0:0:
32,288,120788,2,0,L|192:288,1,142.500005435944,0|0,1:0|0:0,0:0:0:0:
352,312,121099,2,0,L|280:320,1,71.2500027179719,0|0,1:0|0:0,0:0:0:0:
480,288,121306,1,6,0:1:0:0:
507,225,121409,1,2,0:1:0:0:
471,166,121512,1,2,0:1:0:0:
403,162,121616,1,2,0:1:0:0:
232,176,121719,2,2,L|304:184,1,71.2500027179719,2|2,0:1|0:1,0:1:0:0:
72,168,121926,6,0,P|64:72|168:16,1,213.750008153916,2|0,1:1|0:0,0:0:0:0:
225,22,122340,2,0,L|153:14,1,71.2500027179719,0|0,0:1|0:0,0:0:0:0:
344,88,122547,2,0,L|265:104,1,71.2500027179719,2|0,1:1|0:0,0:0:0:0:
464,176,122754,2,0,L|392:184,1,71.2500027179719,0|0,0:1|0:0,0:0:0:0:
176,288,122961,2,0,P|168:216|232:192,1,142.500005435944,10|2,1:1|0:1,0:0:0:0:
408,368,123271,2,0,P|416:296|352:272,1,142.500005435944,2|0,1:1|0:1,0:0:0:0:
289,277,123581,2,0,L|369:269,1,71.2500027179719,2|0,1:1|0:1,0:0:0:0:
152,88,123788,6,0,L|304:80,1,142.500005435944,2|0,1:1|0:1,0:0:0:0:
104,192,124099,2,0,L|288:184,1,142.500005435944,2|0,1:1|0:1,0:0:0:0:
64,296,124409,2,0,L|144:304,1,71.2500027179719,2|0,1:1|0:1,0:0:0:0:
312,368,124616,2,0,L|240:376,1,71.2500027179719,8|0,1:1|0:0,0:0:0:0:
472,272,124823,1,0,0:1:0:0:
500,210,124926,1,0,0:1:0:0:
459,156,125029,1,0,0:1:0:0:
392,167,125133,1,0,0:1:0:0:
208,168,125237,2,0,L|128:160,1,71.2500027179719,0|0,0:1|0:1,0:0:0:0:
352,48,125443,6,0,L|136:32,1,213.750008153916,2|0,1:1|0:1,0:0:0:0:
392,167,125857,2,0,L|176:151,1,213.750008153916,2|0,1:1|0:1,0:0:0:0:
384,272,126271,2,0,L|232:264,1,142.500005435944,10|0,1:1|0:1,0:0:0:0:
424,360,126581,2,0,L|496:360,2,71.2500027179719,2|0|0,1:1|0:0|0:1,0:0:0:0:
241,264,126892,2,0,L|329:256,1,71.2500027179719,2|0,1:1|0:1,0:0:0:0:
104,176,127099,6,0,L|280:160,1,142.500005435944,2|0,1:1|0:1,0:0:0:0:
440,96,127409,2,0,L|280:80,1,142.500005435944,2|0,1:1|0:1,0:0:0:0:
384,192,127719,2,0,L|456:192,1,71.2500027179719,2|0,1:1|0:1,0:0:0:0:
256,256,127926,2,0,L|272:400,1,142.500005435944,10|8,1:0|0:3,0:0:0:0:
344,384,128237,1,0,0:0:0:0:
152,368,128340,2,0,L|64:360,1,71.2500027179719,8|8,0:3|0:3,0:0:0:0:
360,216,128547,6,0,P|384:144|272:96,1,213.750008153916,2|0,1:0|0:0,0:0:0:0:
209,103,128961,2,0,L|305:87,1,71.2500027179719,0|0,0:0|0:0,0:0:0:0:
112,208,129168,2,0,L|208:200,1,71.2500027179719,2|0,1:0|0:0,0:0:0:0:
360,216,129374,2,0,L|440:224,1,71.2500027179719,0|0,0:0|0:0,0:0:0:0:
152,308,129581,2,0,P|96:228|168:196,1,142.500005435944,10|0,1:0|0:0,0:0:0:0:
319,316,129892,2,0,P|375:236|303:204,1,142.500005435944,2|0,1:0|0:0,0:0:0:0:
288,215,130202,2,0,L|368:215,1,71.2500027179719,2|0,1:0|0:0,0:0:0:0:
120,104,130409,6,0,L|264:112,1,142.500005435944,2|0,1:0|0:0,0:0:0:0:
460,303,130719,2,0,L|276:319,1,142.500005435944,2|0,1:0|0:0,0:0:0:0:
144,320,131030,2,0,L|64:328,1,71.2500027179719,2|0,1:0|0:0,0:0:0:0:
288,208,131237,2,0,L|368:208,1,71.2500027179719,10|0,1:0|0:0,0:0:0:0:
184,144,131443,1,0,0:0:0:0:
120,131,131546,1,0,0:0:0:0:
128,67,131649,1,0,0:0:0:0:
193,70,131753,1,0,0:0:0:0:
376,96,131857,2,0,L|288:96,1,71.2500027179719,0|0,0:0|0:0,0:0:0:0:
40,328,132064,6,0,P|8:256|120:216,1,213.750008153916,2|0,1:0|0:0,0:0:0:0:
400,320,132478,2,0,P|432:248|320:208,1,213.750008153916,2|0,1:0|0:0,0:0:0:0:
160,104,132892,2,0,L|16:88,1,142.500005435944,10|0,1:0|0:0,0:0:0:0:
192,248,133202,2,0,L|-8:240,1,142.500005435944,2|0,1:0|0:0,0:0:0:0:
128,200,133512,2,0,L|199:200,1,71.2500027179719,2|0,1:0|0:0,0:0:0:0:
424,168,133719,6,0,L|240:168,1,142.500005435944,2|0,1:0|0:0,0:0:0:0:
496,288,134030,2,0,L|336:288,1,142.500005435944,2|0,1:0|0:0,0:0:0:0:
176,312,134340,2,0,L|248:320,1,71.2500027179719,2|0,1:0|0:0,0:0:0:0:
48,288,134547,1,10,1:0:0:0:
21,225,134650,1,0,0:0:0:0:
57,166,134753,1,8,0:3:0:0:
125,162,134857,1,8,0:3:0:0:
296,176,134960,2,0,L|224:184,1,71.2500027179719,8|8,0:3|0:3,0:0:0:0:
440,168,135167,6,0,P|448:72|344:16,1,213.750008153916,2|0,1:0|0:0,0:0:0:0:
287,22,135581,2,0,L|359:14,1,71.2500027179719,0|0,0:0|0:0,0:0:0:0:
168,88,135788,2,0,L|247:104,1,71.2500027179719,2|0,1:0|0:0,0:0:0:0:
48,176,135995,2,0,L|120:184,1,71.2500027179719,0|0,0:0|0:0,0:0:0:0:
336,288,136202,2,0,P|344:216|280:192,1,142.500005435944,10|0,1:0|0:0,0:0:0:0:
104,368,136512,2,0,P|96:296|160:272,1,142.500005435944,2|0,1:0|0:0,0:0:0:0:
223,277,136822,2,0,L|143:269,1,71.2500027179719,2|0,1:0|0:0,0:0:0:0:
360,88,137030,6,0,L|208:80,1,142.500005435944,2|0,1:0|0:0,0:0:0:0:
408,192,137340,2,0,L|224:184,1,142.500005435944,2|0,1:0|0:0,0:0:0:0:
448,296,137650,2,0,L|368:304,1,71.2500027179719,2|0,1:0|0:0,0:0:0:0:
200,368,137857,2,0,L|272:376,1,71.2500027179719,10|0,1:0|0:0,0:0:0:0:
40,272,138064,1,0,0:0:0:0:
12,210,138167,1,0,0:0:0:0:
53,156,138270,1,0,0:0:0:0:
120,167,138374,1,0,0:0:0:0:
304,168,138478,2,0,L|384:160,1,71.2500027179719,0|0,0:0|0:0,0:0:0:0:
160,48,138684,6,0,L|376:32,1,213.750008153916,2|0,1:0|0:0,0:0:0:0:
120,167,139098,2,0,L|336:151,1,213.750008153916,2|0,1:0|0:0,0:0:0:0:
128,272,139512,2,0,L|280:264,1,142.500005435944,10|0,1:0|0:0,0:0:0:0:
88,360,139823,2,0,L|16:360,2,71.2500027179719,2|0|0,1:0|0:0|0:0,0:0:0:0:
271,264,140133,2,0,L|183:256,1,71.2500027179719,2|0,1:0|0:0,0:0:0:0:
408,176,140340,6,0,L|232:160,1,142.500005435944,2|0,1:0|0:0,0:0:0:0:
72,96,140650,2,0,L|232:80,1,142.500005435944,2|0,1:0|0:0,0:0:0:0:
128,192,140960,2,0,L|56:192,1,71.2500027179719,2|0,1:0|0:0,0:0:0:0:
256,256,141167,2,0,L|240:400,1,142.500005435944,2|8,0:1|0:1,0:0:0:0:
168,384,141478,1,0,0:0:0:0:
360,369,141581,2,0,L|431:363,1,71.2500027179719,4|0,0:1|0:0,0:0:0:0:
152,216,141788,6,0,P|128:144|240:96,1,213.750008153916,2|0,1:1|0:0,0:0:0:0:
303,103,142202,2,0,L|207:87,1,71.2500027179719,0|0,0:0|0:1,0:0:0:0:
400,208,142409,2,0,L|304:200,1,71.2500027179719,2|0,1:1|0:0,0:0:0:0:
152,216,142615,2,0,L|72:224,1,71.2500027179719,0|0,0:1|0:1,0:0:0:0:
360,308,142823,2,0,P|416:228|344:196,1,142.500005435944,10|0,1:1|0:1,0:0:0:0:
193,316,143133,2,0,P|137:236|209:204,1,142.500005435944,2|0,1:1|0:1,0:0:0:0:
224,215,143443,2,0,L|144:215,1,71.2500027179719,2|0,1:1|0:1,0:0:0:0:
392,104,143650,6,0,L|248:112,1,142.500005435944,2|0,1:1|0:1,0:0:0:0:
52,303,143961,2,0,L|236:319,1,142.500005435944,2|0,1:1|0:1,0:0:0:0:
368,320,144271,2,0,L|448:328,1,71.2500027179719,2|0,1:1|0:1,0:0:0:0:
224,208,144478,2,0,L|144:208,1,71.2500027179719,10|0,1:1|0:0,0:0:0:0:
328,144,144684,1,0,0:1:0:0:
392,131,144787,1,0,0:1:0:0:
384,67,144892,1,0,0:1:0:0:
319,70,144994,1,0,0:0:0:0:
136,96,145098,2,0,L|224:96,1,71.2500027179719,0|0,0:1|0:1,0:0:0:0:
456,328,145306,6,0,P|496:256|384:224,1,213.750008153916,2|0,1:1|0:1,0:0:0:0:
168,304,145719,2,0,P|248:264|368:304,1,213.750008153916,2|0,1:1|0:1,0:0:0:0:
112,216,146133,2,0,P|56:144|120:112,1,142.500005435944,10|0,1:1|0:1,0:0:0:0:
307,115,146443,2,0,L|151:67,1,142.500005435944,2|0,1:1|0:1,0:0:0:0:
411,101,146754,2,0,L|492:96,1,71.2500027179719,2|0,1:1|0:1,0:0:0:0:
240,232,146961,6,0,L|48:360,2,213.750008153916,2|2|2,1:1|0:1|0:1,0:0:0:0:
96,224,147788,1,0,0:1:0:0:
49,174,147891,1,0,0:1:0:0:
69,109,147994,1,0,0:1:0:0:
135,94,148098,1,0,0:1:0:0:
304,128,148202,2,0,L|224:128,1,71.2500027179719,4|0,0:1|0:0,0:0:0:0:
416,232,148409,6,0,L|488:232,1,71.2500027179719,2|0,1:1|0:1,0:0:0:0:
407,278,148616,1,0,0:1:0:0:
335,272,148719,1,0,0:1:0:0:
415,240,148822,1,0,0:1:0:0:
344,225,148926,1,0,0:1:0:0:
155,262,149030,5,2,1:1:0:0:
151,191,149133,1,0,0:1:0:0:
224,165,149236,1,0,0:1:0:0:
306,160,149340,1,0,0:1:0:0:
111,128,149443,2,0,L|22:125,1,71.2500027179719,10|0,1:1|0:1,0:0:0:0:
113,93,149650,1,0,0:1:0:0:
308,52,149754,2,0,L|149:42,1,142.500005435944,2|0,1:1|0:1,0:0:0:0:
361,161,150064,2,0,L|463:158,1,71.2500027179719,2|0,1:1|0:1,0:0:0:0:
237,350,150271,6,0,L|228:174,1,142.500005435944,2|0,1:1|0:1,0:0:0:0:
428,317,150581,2,0,L|435:145,1,142.500005435944,2|0,1:1|0:1,0:0:0:0:
244,107,150892,2,0,L|324:99,1,71.2500027179719,2|0,1:1|0:1,0:0:0:0:
126,54,151099,2,0,L|54:62,1,71.2500027179719,10|0,1:1|0:1,0:0:0:0:
247,315,151306,1,0,0:1:0:0:
287,261,151409,1,0,0:1:0:0:
247,315,151512,1,0,0:1:0:0:
164,322,151616,1,0,0:1:0:0:
247,315,151719,1,0,0:1:0:0:
330,326,151823,1,0,0:1:0:0:
118,252,151926,6,0,P|29:213|63:123,1,213.750008153916,2|0,1:1|0:1,0:0:0:0:
314,319,152340,2,0,P|234:279|114:319,1,213.750008153916,2|0,1:1|0:1,0:0:0:0:
374,235,152754,2,0,P|430:163|366:131,1,142.500005435944,10|0,1:1|0:1,0:0:0:0:
182,171,153064,2,0,P|166:107|230:75,1,142.500005435944,2|0,1:1|0:1,0:0:0:0:
392,48,153374,2,0,L|496:32,1,71.2500027179719,2|0,1:1|0:1,0:0:0:0:
256,224,153581,6,0,L|416:216,1,142.500005435944,2|0,1:1|0:1,0:0:0:0:
208,336,153892,2,0,L|392:328,1,142.500005435944,2|0,1:1|0:1,0:0:0:0:
160,264,154202,2,0,L|64:272,1,71.2500027179719,2|0,1:1|0:1,0:0:0:0:
296,216,154409,2,0,L|320:64,1,142.500005435944,10|8,1:1|0:2,0:0:0:0:
240,64,154719,1,0,0:1:0:0:
64,128,154823,2,0,L|136:112,1,71.2500027179719,8|8,0:2|0:2,0:0:0:0:
352,320,155030,6,0,L|128:328,1,213.750008153916,2|0,1:1|0:1,0:0:0:0:
224,272,155443,2,0,L|304:272,1,71.2500027179719,0|0,0:1|0:1,0:0:0:0:
472,192,155650,2,0,L|304:176,1,142.500005435944,2|0,1:1|0:1,0:0:0:0:
408,152,155961,1,0,0:1:0:0:
208,144,156064,2,0,P|152:64|216:40,1,142.500005435944,10|0,1:1|0:1,0:0:0:0:
344,344,156374,2,0,P|400:264|336:240,1,142.500005435944,2|0,1:1|0:1,0:0:0:0:
315,248,156685,2,0,L|387:248,1,71.2500027179719,2|0,1:1|0:1,0:0:0:0:
144,144,156892,6,0,L|328:144,1,142.500005435944,2|0,1:1|0:1,0:0:0:0:
96,240,157202,2,0,L|256:240,1,142.500005435944,2|0,1:1|0:1,0:0:0:0:
56,328,157513,2,0,L|128:336,1,71.2500027179719,2|0,1:1|0:1,0:0:0:0:
363,270,157720,5,10,1:1:0:0:
390,207,157823,1,0,0:1:0:0:
354,148,157926,1,0,0:1:0:0:
286,144,158030,1,0,0:1:0:0:
115,158,158133,2,0,L|187:166,1,71.2500027179719,0|0,0:1|0:1,0:0:0:0:
185,165,158340,2,0,L|104:160,1,71.2500027179719,0|0,0:1|0:1,0:0:0:0:
360,280,158547,6,0,L|136:288,1,213.750008153916,2|0,1:1|0:1,0:0:0:0:
400,192,158961,2,0,L|176:200,1,213.750008153916,2|0,1:1|0:1,0:0:0:0:
440,104,159374,2,0,L|224:112,1,213.750008153916,10|0,1:1|0:1,0:0:0:0:
400,256,159788,1,0,0:1:0:0:
440,201,159891,1,0,0:1:0:0:
411,141,159994,1,0,0:1:0:0:
343,139,160098,1,0,0:1:0:0:
113,160,160202,6,0,L|99:230,5,47.5,0|0|0|0|0|0,1:0|0:0|0:0|0:0|0:0|0:0,0:0:0:0:
190,139,160823,2,0,L|251:126,1,47.5,0|0,0:0|0:0,0:0:0:0:
57,306,161030,6,0,L|83:365,5,47.5,8|0|0|0|0|0,0:0|0:0|0:0|0:0|0:0|0:0,0:0:0:0:
254,285,161650,2,0,L|303:280,1,47.5,0|0,1:0|0:0,0:0:0:0:
228,212,161857,1,0,0:0:0:0:
183,198,161960,1,0,0:0:0:0:
157,159,162063,1,0,0:0:0:0:
161,113,162167,1,0,0:0:0:0:
194,79,162270,1,0,0:0:0:0:
240,74,162374,1,0,0:0:0:0:
165,60,162478,2,0,L|114:50,1,47.5,0|0,0:0|0:0,0:0:0:0:
305,135,162685,6,0,L|379:131,5,47.5,8|0|0|0|0|0,0:0|0:0|0:0|0:0|0:0|0:0,0:0:0:0:
305,231,163306,2,0,L|242:235,1,47.5,0|0,0:0|0:0,0:0:0:0:
433,324,163512,1,0,1:0:0:0:
466,291,163615,1,0,0:0:0:0:
472,244,163718,1,0,0:0:0:0:
449,204,163822,1,0,0:0:0:0:
407,185,163925,1,0,0:0:0:0:
361,196,164029,1,0,0:0:0:0:
406,109,164133,2,0,L|488:86,1,47.5,0|0,0:0|0:0,0:0:0:0:
266,58,164340,5,8,0:0:0:0:
219,48,164443,1,0,0:0:0:0:
172,39,164546,1,0,0:0:0:0:
126,30,164650,1,0,0:0:0:0:
215,170,164753,1,0,0:0:0:0:
261,160,164857,1,0,0:0:0:0:
81,252,164961,6,0,L|144:269,1,47.5,0|0,1:0|0:0,0:0:0:0:
183,277,165168,2,0,L|238:275,1,47.5,0|0,0:0|0:0,0:0:0:0:
185,351,165374,2,0,L|116:357,1,47.5,0|0,0:0|0:0,0:0:0:0:
70,366,165581,2,0,L|150:365,1,47.5,0|0,0:0|0:0,0:0:0:0:
309,357,165788,2,0,L|392:357,1,47.5,0|0,0:0|0:0,0:0:0:0:
304,275,165995,5,8,0:0:0:0:
258,261,166098,1,0,0:0:0:0:
436,203,166202,2,0,L|503:194,1,47.5,0|0,1:0|0:0,0:0:0:0:
432,122,166409,1,0,0:0:0:0:
377,100,166512,1,0,0:0:0:0:
201,69,166616,2,0,L|126:56,1,47.5,0|0,1:0|0:0,0:0:0:0:
341,52,166823,5,0,1:0:0:0:
385,65,166926,1,0,0:0:0:0:
414,102,167029,1,0,0:0:0:0:
415,149,167133,1,0,0:0:0:0:
390,188,167236,1,0,0:0:0:0:
346,205,167340,1,0,0:0:0:0:
461,250,167443,2,0,L|455:327,1,47.5,0|0,0:0|0:0,0:0:0:0:
257,356,167650,6,0,L|314:352,3,47.5,8|0|0|0,0:0|0:0|0:0|0:0,0:0:0:0:
251,275,168064,2,0,L|175:265,1,47.5,0|0,0:0|0:0,0:0:0:0:
19,238,168271,1,0,1:0:0:0:
51,203,168374,1,0,0:0:0:0:
89,175,168477,5,0,0:0:0:0:
131,153,168581,1,0,0:0:0:0:
177,140,168684,1,0,0:0:0:0:
224,135,168788,1,0,0:0:0:0:
170,70,168892,2,0,L|106:56,1,47.5,0|0,0:0|0:0,0:0:0:0:
200,5,169099,2,0,L|269:-5,1,47.5,0|0,0:0|0:0,0:0:0:0:
57,112,169306,5,8,0:0:0:0:
23,142,169409,1,0,0:0:0:0:
31,186,169512,1,0,0:0:0:0:
74,202,169616,1,0,0:0:0:0:
151,228,169719,1,0,0:0:0:0:
184,258,169822,1,0,0:0:0:0:
149,305,169926,2,0,L|89:317,1,47.5,0|0,0:0|0:0,0:0:0:0:
320,356,170133,6,0,L|379:359,1,47.5,0|0,1:0|0:0,0:0:0:0:
313,278,170340,1,0,0:0:0:0:
267,266,170443,1,0,0:0:0:0:
239,228,170546,1,0,0:0:0:0:
240,182,170650,1,0,0:0:0:0:
349,147,170754,2,0,L|351:79,1,47.5,0|0,0:0|0:0,0:0:0:0:
162,49,170961,5,8,0:0:0:0:
200,21,171064,1,0,0:0:0:0:
244,2,171167,1,0,0:0:0:0:
290,0,171271,1,0,0:0:0:0:
337,0,171374,1,0,0:0:0:0:
294,63,171478,1,0,0:0:0:0:
107,237,171581,6,0,L|169:237,1,47.5,0|0,1:0|0:0,0:0:0:0:
230,301,171788,2,0,L|165:315,1,47.5,0|0,0:0|0:0,0:0:0:0:
105,363,171995,2,0,L|174:369,1,47.5,0|0,0:0|0:0,0:0:0:0:
334,352,172202,2,0,L|397:336,1,47.5,0|0,0:0|0:0,0:0:0:0:
312,266,172409,2,0,L|250:253,1,47.5,0|0,0:0|0:0,0:0:0:0:
432,231,172616,5,8,0:0:0:0:
472,208,172719,1,0,0:0:0:0:
483,163,172822,1,0,0:0:0:0:
458,124,172926,1,0,0:0:0:0:
412,105,173030,5,0,0:0:0:0:
305,92,173133,1,0,0:0:0:0:
206,85,173236,1,0,0:0:0:0:
99,86,173340,1,0,0:0:0:0:
