osu file format v14

[General]
AudioFilename: PURE WEST - ZOBOOMAFOO THEME.mp3
AudioLeadIn: 0
PreviewTime: 25552
Countdown: 0
SampleSet: Normal
StackLeniency: 0.7
Mode: 0
LetterboxInBreaks: 0
WidescreenStoryboard: 1

[Editor]
Bookmarks: 4286,59219
DistanceSpacing: 1
BeatDivisor: 4
GridSize: 4
TimelineZoom: 0.7999998

[Metadata]
Title:ZOBOOMAFOO THEME (TV Size)
TitleUnicode:ZOBOOMAFOO THEME (TV Size)
Artist:PURE WEST
ArtistUnicode:PURE WEST
Creator:Gero
Version:AVERAGE
Source:ZOBOOMAFOO
Tags:Sterling Jarvis
BeatmapID:1367795
BeatmapSetID:645468

[Difficulty]
HPDrainRate:4
CircleSize:4
OverallDifficulty:4
ApproachRate:5
SliderMultiplier:1.8
SliderTickRate:2

[Events]
//Background and Video events
0,0,"BG.jpg",0,0
Video,920,"Video.avi"
//Break Periods
//Storyboard Layer 0 (Background)
//Storyboard Layer 1 (Fail)
//Storyboard Layer 2 (Pass)
//Storyboard Layer 3 (Foreground)
//Storyboard Sound Samples

[TimingPoints]
4286,533.333333333333,4,1,0,100,1,0
24552,-100,4,1,0,100,0,0
24619,-100,4,1,0,5,0,0
24819,-100,4,1,0,100,0,0
24885,-100,4,1,0,5,0,0
25085,-100,4,1,0,100,0,0
25152,-100,4,1,0,5,0,0
25352,-100,4,1,0,100,0,0
25619,-100,4,1,0,100,0,1
34085,-100,4,1,0,100,0,0
34152,-100,4,1,0,100,0,1
34219,-100,4,1,0,100,0,0
42685,-100,4,1,0,100,0,1
51685,-100,4,1,0,100,0,0
51752,-100,4,1,0,100,0,1
52019,-100,4,1,0,100,0,1
52752,-100,4,1,0,100,0,0
52819,-100,4,1,0,100,0,1
53085,-100,4,1,0,100,0,1
59219,-100,4,1,0,100,0,0

[Colours]
Combo1 : 223,214,94
Combo2 : 255,81,81
Combo3 : 204,141,79

[HitObjects]
316,144,4286,6,0,P|256:118|196:144,2,135
316,240,5352,2,0,P|256:266|196:240,2,135
396,280,6419,2,0,P|412:192|396:104,1,180
476,64,7219,1,0,0:0:0:0:
396,24,7485,2,0,B|376:64|396:104|396:104|296:104,1,180
256,24,8285,1,0,0:0:0:0:
212,104,8552,6,0,B|154:104|154:104|146:108|146:108|138:112|138:112|79:112,2,135
256,184,9619,2,0,B|256:239|256:239|252:247|252:247|260:247|260:247|256:255|256:255|256:310,2,135
300,104,10685,2,0,B|358:104|358:104|366:108|366:108|374:112|374:112|433:112,2,135
256,24,11752,2,0,B|215:104|215:104|256:184,1,180
300,264,12552,1,0,0:0:0:0:
256,344,12819,6,0,P|196:370|136:344,2,135
300,264,13885,2,0,P|360:290|420:264,2,135
256,184,14952,2,0,P|196:210|136:184,2,135
300,104,16019,2,0,B|344:94|344:94|388:104,2,90
256,24,16819,1,0,0:0:0:0:
212,104,17085,6,0,L|80:73,2,135
256,184,18152,2,0,L|256:274,2,90
300,104,18952,1,0,0:0:0:0:
344,184,19219,6,0,B|372:225|418:229|418:229|372:233|344:274,1,180
388,354,20019,2,0,B|367:285|418:229|418:229|367:173|388:104,1,270
344,24,21085,1,0,0:0:0:0:
300,104,21352,6,0,B|262:104|262:104|210:104|180:147,2,135
256,192,22419,2,0,L|391:192,2,135
300,280,23485,2,0,B|262:280|262:280|210:280|180:237,2,135
344,360,24552,5,0,0:0:0:0:
412,192,25085,1,0,0:0:0:0:
344,24,25619,6,0,B|256:43|256:43|168:24,1,180
104,87,26419,1,0,0:0:0:0:
168,149,26685,2,0,B|168:224|168:224|168:288|123:313,1,180
190,374,27485,1,0,0:0:0:0:
256,313,27752,2,0,B|314:313|314:313|322:317|322:317|330:321|330:321|389:321,2,135
388,192,29085,1,0,0:0:0:0:
388,192,29352,1,0,0:0:0:0:
256,71,29885,6,0,B|198:71|198:71|190:67|190:67|182:63|182:63|123:63,2,135
322,132,30952,2,0,B|388:119|388:119|454:132,2,135
256,192,32019,2,0,B|201:192|201:192|193:188|193:188|193:196|193:196|185:192|185:192|130:192,2,135
322,252,33085,2,0,B|388:265|388:265|454:252,2,135
256,313,34152,6,0,B|190:312|190:312|131:313|68:276|45:192|45:192|68:108|131:71|190:71|190:71|256:71,1,540
388,192,36285,1,0,0:0:0:0:
256,313,36819,1,0,0:0:0:0:
124,192,37352,1,0,0:0:0:0:
256,71,37885,1,0,0:0:0:0:
388,192,38419,6,0,B|430:171|535:195|548:348|420:396|364:338|364:338|408:272|408:272|320:272|320:272|320:204|256:181|256:181|192:204|192:272|192:272|104:272|104:272|148:338|148:338|92:396|-36:348|-23:195|82:171|124:192,1,1260
168,24,42685,6,0,B|256:43|256:43|344:24,1,180
408,87,43485,1,0,0:0:0:0:
344,149,43752,2,0,B|344:224|344:224|344:288|389:313,1,180
322,374,44552,1,0,0:0:0:0:
256,313,44819,2,0,B|198:313|198:313|190:317|190:317|182:321|182:321|123:321,2,135
124,192,46152,1,0,0:0:0:0:
124,192,46419,1,0,0:0:0:0:
256,71,46952,6,0,B|314:71|314:71|322:67|322:67|330:63|330:63|389:63,2,135
190,132,48019,2,0,B|124:119|124:119|58:132,2,135
256,192,49085,2,0,B|311:192|311:192|319:188|319:188|319:196|319:196|327:192|327:192|382:192,2,135
190,252,50152,2,0,B|124:265|124:265|58:252,2,135
255,312,51219,6,0,P|343:312|406:250,1,180
476,192,52019,1,0,0:0:0:0:
406,133,52285,2,0,P|343:71|255:71,1,180
190,132,53085,1,0,0:0:0:0:
124,192,53352,6,0,B|69:192|69:192|61:196|61:196|61:188|61:188|53:192|53:192|-1:192,2,135
255,312,54685,1,0,0:0:0:0:
255,312,54952,1,0,0:0:0:0:
388,192,55485,6,0,B|443:192|443:192|451:196|451:196|451:188|451:188|459:192|459:192|513:192,2,135
322,252,56552,2,0,B|256:266|256:266|190:252,2,135
256,192,57619,12,4,59219,0:0:0:0:
