osu file format v14

[General]
AudioFilename: audio.mp3
AudioLeadIn: 0
PreviewTime: 217250
Countdown: 0
SampleSet: Soft
StackLeniency: 1
Mode: 0
LetterboxInBreaks: 0
WidescreenStoryboard: 1

[Editor]
Bookmarks: 72730,85926,102421,107715,123597,136792,149988,166483,177071,192953,255488
DistanceSpacing: 0.5
BeatDivisor: 4
GridSize: 32
TimelineZoom: 1

[Metadata]
Title:Scorpion Hill
TitleUnicode:Scorpion Hill
Artist:PUP
ArtistUnicode:PUP
Creator:pishifat
Version:Hard
Source:
Tags:english punk rock morbid stuff featured artist overranked -Aku bad_mapper Hobbes2 Arkayus Kyuko fa mappers' guild
BeatmapID:2517643
BeatmapSetID:1161281

[Difficulty]
HPDrainRate:5
CircleSize:3
OverallDifficulty:6
ApproachRate:8
SliderMultiplier:1
SliderTickRate:1

[Events]
//Background and Video events
0,0,"unknown.jpg",0,0
//Break Periods
2,102621,105641
2,193153,204203
//Storyboard Layer 0 (Background)
//Storyboard Layer 1 (Fail)
//Storyboard Layer 2 (Pass)
//Storyboard Layer 3 (Foreground)
//Storyboard Layer 4 (Overlay)
//Storyboard Sound Samples

[TimingPoints]
295,529.801324503311,3,2,1,100,1,0
8303,512.820512820513,3,2,1,100,1,0
9841,529.801324503311,3,2,1,100,1,0
11430,563.380281690141,3,2,1,100,1,0
12275,473.372781065089,3,2,1,100,1,0
12985,540.540540540541,3,2,1,100,1,0
14606,522.875816993464,3,2,1,100,1,0
16174,551.724137931035,3,2,1,100,1,0
17829,509.554140127389,3,2,1,100,1,0
19357,547.945205479452,3,2,1,100,1,0
21000,536.912751677852,3,2,1,100,1,0
22610,516.962843295638,3,2,1,100,1,0
24160,538.720538720539,3,2,1,100,1,0
29008,512.820512820513,3,2,1,100,1,0
30546,538.116591928251,3,2,1,100,1,0
31622,500,3,2,1,100,1,0
32122,526.315789473684,3,2,1,100,1,0
33699,550.45871559633,3,2,1,100,1,0
34799,491.803278688524,3,2,1,100,1,0
35290,540.54054054054,3,2,1,100,1,0
37992,480,3,2,1,100,1,0
38472,550.45871559633,3,2,1,100,1,0
39572,512.820512820513,3,2,1,100,1,0
40084,545.454545454545,3,2,1,100,1,0
41174,487.80487804878,3,2,1,100,1,0
41661,544.217687074829,3,2,1,100,1,0
43293,540.54054054054,3,2,1,100,1,0
44374,521.739130434782,3,2,1,100,1,0
44895,530.973451327433,3,2,1,100,1,0
45956,501.043841336116,3,2,1,100,1,0
46457,538.11659192825,3,2,1,100,1,0
47533,516.129032258063,3,2,1,100,1,0
48049,540.540540540539,3,2,1,100,1,0
49670,521.739130434781,3,2,1,100,1,0
51235,533.333333333332,3,2,1,100,1,0
52834,535.714285714284,3,2,1,100,1,0
53905,499.999999999999,3,2,1,100,1,0
54405,560.7476635514,3,2,1,100,1,0
54965,538.116591928249,3,2,1,100,1,0
57141,606.060606060604,3,2,1,100,1,0
57747,596.02649401342,3,2,1,100,1,0
59535,206.185567010309,4,2,1,75,1,0
59535,-100,4,2,1,75,0,0
59741,-100,4,2,1,75,0,0
60359,-100,4,2,1,75,0,0
60565,-100,4,2,1,75,0,0
62009,-100,4,2,1,75,0,0
62318,-100,4,2,1,75,0,0
62627,-100,4,2,1,75,0,0
62833,-100,4,2,1,75,0,0
63040,-100,4,2,1,75,0,0
63658,-100,4,2,1,75,0,0
63864,-100,4,2,1,75,0,0
64483,-100,4,2,1,75,0,0
64689,-100,4,2,1,75,0,0
65308,-100,4,2,1,75,0,0
65617,-100,4,2,1,75,0,0
65926,-100,4,2,1,75,0,0
66132,-100,4,2,1,75,0,0
66339,-100,4,2,1,75,0,0
67782,-100,4,2,1,75,0,0
67988,-100,4,2,1,75,0,0
68607,-100,4,2,1,75,0,0
68916,-100,4,2,1,75,0,0
69225,-100,4,2,1,75,0,0
69431,-100,4,2,1,75,0,0
69638,-100,4,2,1,75,0,0
70256,-100,4,2,1,75,0,0
70462,-100,4,2,1,75,0,0
71287,-100,4,2,1,50,0,0
71390,-100,4,2,1,55,0,0
71493,-100,4,2,1,60,0,0
71596,-100,4,2,1,65,0,0
71699,-100,4,2,1,70,0,0
71803,-100,4,2,1,75,0,0
72318,-100,4,2,1,60,0,0
72524,-100,4,2,1,50,0,0
72730,-133.333333333333,4,2,1,50,0,0
72937,-133.333333333333,4,2,1,60,0,0
73349,-133.333333333333,4,2,1,60,0,0
73555,-133.333333333333,4,2,1,60,0,0
73761,-133.333333333333,4,2,1,45,0,0
73864,-133.333333333333,4,2,1,60,0,0
74071,-133.333333333333,4,2,1,50,0,0
74174,-133.333333333333,4,2,1,60,0,0
74689,-133.333333333333,4,2,1,60,0,0
74998,-133.333333333333,4,2,1,60,0,0
75205,-133.333333333333,4,2,1,60,0,0
75308,-133.333333333333,4,2,1,45,0,0
75514,-133.333333333333,4,2,1,60,0,0
75720,-100,4,2,1,50,0,0
75823,-100,4,2,1,60,0,0
76029,-100,4,2,1,75,0,0
77163,-100,4,2,1,55,0,0
77266,-100,4,2,1,75,0,0
77370,-100,4,2,1,55,0,0
77473,-100,4,2,1,75,0,0
78504,-100,4,2,1,85,0,0
78710,-100,4,2,1,70,0,0
78813,-100,4,2,1,85,0,0
79019,-100,4,2,1,70,0,0
79122,-100,4,2,1,85,0,0
79328,-133.333333333333,4,2,1,50,0,0
79534,-133.333333333333,4,2,1,60,0,0
79947,-133.333333333333,4,2,1,60,0,0
80153,-133.333333333333,4,2,1,60,0,0
80256,-133.333333333333,4,2,1,45,0,0
80462,-133.333333333333,4,2,1,60,0,0
80669,-133.333333333333,4,2,1,45,0,0
80772,-133.333333333333,4,2,1,60,0,0
81287,-133.333333333333,4,2,1,60,0,0
81596,-133.333333333333,4,2,1,60,0,0
81803,-133.333333333333,4,2,1,60,0,0
82009,-133.333333333333,4,2,1,45,0,0
82112,-133.333333333333,4,2,1,60,0,0
82318,-133.333333333333,4,2,1,45,0,0
82421,-133.333333333333,4,2,1,60,0,0
82627,-100,4,2,1,75,0,0
85308,-100,4,2,1,55,0,0
85411,-100,4,2,1,60,0,0
85514,-100,4,2,1,65,0,0
85617,-100,4,2,1,70,0,0
85720,-100,4,2,1,75,0,0
85823,-100,4,2,1,80,0,0
85926,-100,4,2,1,75,0,0
86132,-100,4,2,1,75,0,0
86751,-100,4,2,1,75,0,0
86957,-100,4,2,1,75,0,0
87266,-100,4,2,1,55,0,0
87370,-100,4,2,1,75,0,0
87524,-100,4,2,1,5,0,0
87576,-100,4,2,1,75,0,0
87782,-100,4,2,1,75,0,0
88400,-100,4,2,1,75,0,0
88813,-100,4,2,1,75,0,0
88916,-100,4,2,1,55,0,0
89019,-100,4,2,1,75,0,0
89225,-100,4,2,1,75,0,0
89431,-100,4,2,1,75,0,0
90050,-100,4,2,1,90,0,0
90205,-100,4,2,1,5,0,0
90256,-100,4,2,1,75,0,0
90462,-100,4,2,1,90,0,0
90617,-100,4,2,1,5,0,0
90669,-100,4,2,1,75,0,0
90875,-100,4,2,1,75,0,0
91699,-100,4,2,1,85,0,0
91906,-100,4,2,1,70,0,0
92009,-100,4,2,1,85,0,0
92215,-100,4,2,1,70,0,0
92318,-100,4,2,1,85,0,0
92524,-100,4,2,1,75,0,0
93349,-100,4,2,1,75,0,0
93555,-100,4,2,1,75,0,0
94174,-100,4,2,1,75,0,0
94380,-100,4,2,1,75,0,0
94998,-100,4,2,1,75,0,0
95205,-100,4,2,1,75,0,0
95823,-100,4,2,1,75,0,0
96029,-100,4,2,1,75,0,0
96648,-100,4,2,1,90,0,0
96854,-100,4,2,1,75,0,0
97060,-100,4,2,1,90,0,0
97163,-100,4,2,1,75,0,0
97266,-100,4,2,1,75,0,0
97473,-100,4,2,1,75,0,0
98297,-100,4,2,1,75,0,0
99122,-100,4,2,1,75,0,0
99741,-100,4,2,1,55,0,0
99844,-100,4,2,1,75,0,0
100359,-100,4,2,1,75,0,0
100772,-100,4,2,1,67,0,0
102009,-100,4,2,1,75,0,0
102112,-100,4,2,1,5,0,0
102421,441.176470588235,3,2,1,55,1,0
106391,-66.6666666666667,3,2,1,60,0,0
106722,-66.6666666666667,3,2,1,45,0,0
106832,-66.6666666666667,3,2,1,60,0,0
107273,-66.6666666666667,3,2,1,60,0,0
107604,-66.6666666666667,3,2,1,5,0,0
107715,-66.6666666666667,3,2,1,70,0,1
108156,-66.6666666666667,3,2,1,50,0,1
108376,-66.6666666666667,3,2,1,70,0,1
108818,-66.6666666666667,3,2,1,50,0,1
108928,-66.6666666666667,3,2,1,70,0,1
109038,-66.6666666666667,3,2,1,70,0,1
109369,-66.6666666666667,3,2,1,5,0,1
109479,-66.6666666666667,3,2,1,50,0,1
109700,-66.6666666666667,3,2,1,70,0,1
110362,-66.6666666666667,3,2,1,70,0,1
110803,-66.6666666666667,3,2,1,50,0,1
111023,-66.6666666666667,3,2,1,70,0,1
111244,-66.6666666666667,3,2,1,70,0,1
111465,-66.6666666666667,3,2,1,50,0,1
111575,-66.6666666666667,3,2,1,70,0,1
111685,-66.6666666666667,3,2,1,70,0,1
112898,-66.6666666666667,3,2,1,5,0,1
113009,-66.6666666666667,3,2,1,70,0,1
113450,-66.6666666666667,3,2,1,50,0,1
113671,-66.6666666666667,3,2,1,70,0,1
113891,-66.6666666666667,3,2,1,70,0,1
114112,-66.6666666666667,3,2,1,50,0,1
114222,-66.6666666666667,3,2,1,70,0,1
114332,-66.6666666666667,3,2,1,70,0,1
114773,-66.6666666666667,3,2,1,50,0,1
114994,-66.6666666666667,3,2,1,70,0,1
115656,-66.6666666666667,3,2,1,70,0,1
116097,-66.6666666666667,3,2,1,50,0,1
116318,-66.6666666666667,3,2,1,70,0,1
116538,-66.6666666666667,3,2,1,70,0,1
116759,-66.6666666666667,3,2,1,50,0,1
116869,-66.6666666666667,3,2,1,70,0,1
116979,-66.6666666666667,3,2,1,70,0,1
118303,-80,3,2,1,60,0,0
119516,-100,3,2,1,75,0,0
119626,-66.6666666666667,3,2,1,75,0,0
119737,-100,3,2,1,65,0,0
120950,-57.1428571428571,3,2,1,75,0,0
121060,-100,3,2,1,70,0,0
121391,-100,3,2,1,70,0,0
121832,-100,3,2,1,70,0,0
122163,-100,3,2,1,75,0,0
122273,-50,3,2,1,60,0,0
122715,-100,3,2,1,60,0,0
123156,-100,3,2,1,60,0,0
123597,206.185567010309,4,2,1,75,1,0
123597,-100,4,2,1,75,0,0
123803,-100,4,2,1,75,0,0
124421,-100,4,2,1,75,0,0
124627,-100,4,2,1,75,0,0
126071,-100,4,2,1,75,0,0
126380,-100,4,2,1,75,0,0
126689,-100,4,2,1,75,0,0
126895,-100,4,2,1,75,0,0
127102,-100,4,2,1,75,0,0
127720,-100,4,2,1,75,0,0
127926,-100,4,2,1,75,0,0
128545,-100,4,2,1,75,0,0
128751,-100,4,2,1,75,0,0
129370,-100,4,2,1,75,0,0
129679,-100,4,2,1,75,0,0
129988,-100,4,2,1,75,0,0
130194,-100,4,2,1,75,0,0
130401,-100,4,2,1,75,0,0
131844,-100,4,2,1,75,0,0
132050,-100,4,2,1,75,0,0
132669,-100,4,2,1,75,0,0
132978,-100,4,2,1,75,0,0
133287,-100,4,2,1,75,0,0
133493,-100,4,2,1,75,0,0
133700,-100,4,2,1,75,0,0
134318,-100,4,2,1,75,0,0
134524,-100,4,2,1,75,0,0
135349,-100,4,2,1,55,0,0
135452,-100,4,2,1,60,0,0
135555,-100,4,2,1,65,0,0
135658,-100,4,2,1,70,0,0
135761,-100,4,2,1,75,0,0
135968,-133.333333333333,4,2,1,62,0,0
136380,-133.333333333333,4,2,1,75,0,0
136586,-117.647058823529,4,2,1,55,0,0
137411,-117.647058823529,4,2,1,60,0,0
137617,-117.647058823529,4,2,1,60,0,0
137823,-117.647058823529,4,2,1,45,0,0
137926,-117.647058823529,4,2,1,60,0,0
138236,-117.647058823529,4,2,1,60,0,0
138648,-117.647058823529,4,2,1,60,0,0
139060,-117.647058823529,4,2,1,60,0,0
139267,-117.647058823529,4,2,1,60,0,0
139370,-117.647058823529,4,2,1,45,0,0
139576,-117.647058823529,4,2,1,60,0,0
139885,-117.647058823529,4,2,1,60,0,0
141947,-117.647058823529,4,2,1,60,0,0
142359,-117.647058823529,4,2,1,60,0,0
142566,-117.647058823529,4,2,1,60,0,0
142772,-117.647058823529,4,2,1,60,0,0
143184,-117.647058823529,4,2,1,60,0,0
143596,-117.647058823529,4,2,1,60,0,0
144009,-117.647058823529,4,2,1,60,0,0
144215,-117.647058823529,4,2,1,60,0,0
144421,-117.647058823529,4,2,1,45,0,0
144524,-117.647058823529,4,2,1,60,0,0
144834,-117.647058823529,4,2,1,60,0,0
145040,-117.647058823529,4,2,1,60,0,0
145658,-117.647058823529,4,2,1,60,0,0
145865,-117.647058823529,4,2,1,60,0,0
145968,-117.647058823529,4,2,1,45,0,0
146174,-117.647058823529,4,2,1,60,0,0
146483,-117.647058823529,4,2,1,60,0,0
147823,-117.647058823529,4,2,1,60,0,0
148133,-117.647058823529,4,2,1,60,0,0
148339,-117.647058823529,4,2,1,60,0,0
148545,-117.647058823529,4,2,1,45,0,0
148648,-117.647058823529,4,2,1,60,0,0
148957,-117.647058823529,4,2,1,60,0,0
149370,-100,4,2,1,55,0,0
149473,-100,4,2,1,60,0,0
149576,-100,4,2,1,65,0,0
149679,-100,4,2,1,70,0,0
149782,-100,4,2,1,75,0,0
149885,-100,4,2,1,80,0,0
149988,-100,4,2,1,75,0,0
150194,-100,4,2,1,75,0,0
150813,-100,4,2,1,75,0,0
151122,-100,4,2,1,75,0,0
151638,-100,4,2,1,75,0,0
151844,-100,4,2,1,75,0,0
152462,-100,4,2,1,75,0,0
152772,-100,4,2,1,75,0,0
153287,-100,4,2,1,75,0,0
153493,-100,4,2,1,75,0,0
154112,-100,4,2,1,75,0,0
154524,-100,4,2,1,75,0,0
154731,-100,4,2,1,75,0,0
154937,-100,4,2,1,75,0,0
155143,-100,4,2,1,90,0,0
155246,-100,4,2,1,75,0,0
155555,-100,4,2,1,75,0,0
155761,-100,4,2,1,75,0,0
156895,-100,4,2,1,75,0,0
157411,-100,4,2,1,75,0,0
157617,-100,4,2,1,75,0,0
158236,-100,4,2,1,75,0,0
158442,-100,4,2,1,75,0,0
159060,-100,4,2,1,75,0,0
159370,-100,4,2,1,75,0,0
159473,-100,4,2,1,75,0,0
159679,-100,4,2,1,75,0,0
159834,-100,4,2,1,75,0,0
160091,-100,4,2,1,75,0,0
160710,-100,4,2,1,90,0,0
160813,-100,4,2,1,75,0,0
161122,-100,4,2,1,90,0,0
161225,-100,4,2,1,75,0,0
161328,-100,4,2,1,75,0,0
161535,-100,4,2,1,75,0,0
162359,-100,4,2,1,75,0,0
163184,-100,4,2,1,75,0,0
165865,-100,4,2,1,60,0,0
166071,-100,4,2,1,60,0,0
166483,441.176470588235,3,2,1,70,1,1
166703,-66.6666666666667,3,2,1,70,0,1
166924,-66.6666666666667,3,2,1,50,0,1
167144,-66.6666666666667,3,2,1,70,0,1
167365,-66.6666666666667,3,2,1,70,0,1
167585,-66.6666666666667,3,2,1,50,0,1
167696,-66.6666666666667,3,2,1,70,0,1
167806,-66.6666666666667,3,2,1,70,0,1
168247,-66.6666666666667,3,2,1,50,0,1
168468,-66.6666666666667,3,2,1,70,0,1
169130,-66.6666666666667,3,2,1,70,0,1
169571,-66.6666666666667,3,2,1,50,0,1
169791,-66.6666666666667,3,2,1,70,0,1
170012,-66.6666666666667,3,2,1,70,0,1
170233,-66.6666666666667,3,2,1,50,0,1
170343,-66.6666666666667,3,2,1,70,0,1
170453,-66.6666666666667,3,2,1,70,0,1
171666,-66.6666666666667,3,2,1,5,0,1
171777,-66.6666666666667,3,2,1,70,0,1
171997,-66.6666666666667,3,2,1,70,0,1
172218,-66.6666666666667,3,2,1,50,0,1
172438,-66.6666666666667,3,2,1,70,0,1
172659,-66.6666666666667,3,2,1,70,0,1
172880,-66.6666666666667,3,2,1,50,0,1
172990,-66.6666666666667,3,2,1,70,0,1
173100,-66.6666666666667,3,2,1,70,0,1
173541,-66.6666666666667,3,2,1,50,0,1
173762,-66.6666666666667,3,2,1,70,0,1
174424,-66.6666666666667,3,2,1,70,0,1
174865,-66.6666666666667,3,2,1,50,0,1
175085,-66.6666666666667,3,2,1,70,0,1
175306,-66.6666666666667,3,2,1,70,0,1
175527,-66.6666666666667,3,2,1,50,0,1
175637,-66.6666666666667,3,2,1,70,0,1
175747,-66.6666666666667,3,2,1,70,0,1
176188,-66.6666666666667,3,2,1,70,0,1
176409,-66.6666666666667,3,2,1,50,0,1
176630,-66.6666666666667,3,2,1,70,0,1
177071,-66.6666666666667,3,2,1,70,0,0
178394,-66.6666666666667,3,2,1,70,0,0
179056,-66.6666666666667,3,2,1,50,0,0
179277,-66.6666666666667,3,2,1,70,0,0
181372,-66.6666666666667,3,2,1,5,0,0
181483,-66.6666666666667,3,2,1,60,0,0
181813,-66.6666666666667,3,2,1,5,0,0
181924,-66.6666666666667,3,2,1,60,0,0
182365,-66.6666666666667,3,2,1,70,0,0
183027,-66.6666666666667,3,2,1,50,0,0
183247,-66.6666666666667,3,2,1,70,0,0
184350,-66.6666666666667,3,2,1,50,0,0
184571,-66.6666666666667,3,2,1,70,0,0
185674,-66.6666666666667,3,2,1,50,0,0
185894,-66.6666666666667,3,2,1,70,0,0
186115,-66.6666666666667,3,2,1,50,0,0
186335,-66.6666666666667,3,2,1,70,0,0
186556,-66.6666666666667,3,2,1,50,0,0
186777,-66.6666666666667,3,2,1,70,0,0
186997,-66.6666666666667,3,2,1,50,0,0
187218,-66.6666666666667,3,2,1,70,0,0
187880,-66.6666666666667,3,2,1,55,0,0
188983,-66.6666666666667,3,2,1,60,0,0
190306,-66.6666666666667,3,2,1,70,0,0
191630,-66.6666666666667,3,2,1,80,0,0
192733,-100,3,2,1,65,0,0
192843,-100,3,2,1,50,0,0
192953,500,3,2,1,40,1,0
193953,-100,3,2,1,35,0,0
194390,-100,3,2,1,5,0,0
194453,-100,3,2,1,35,0,0
195890,-100,3,2,1,5,0,0
195953,-100,3,2,1,35,0,0
197390,-100,3,2,1,5,0,0
197453,-100,3,2,1,35,0,0
197953,-100,3,2,1,20,0,0
198453,-100,3,2,1,35,0,0
198890,-100,3,2,1,5,0,0
198953,-100,3,2,1,35,0,0
199953,-100,3,2,1,35,0,0
200390,-100,3,2,1,5,0,0
200453,-100,3,2,1,35,0,0
201890,-100,3,2,1,5,0,0
201953,-100,3,2,1,35,0,0
203390,-100,3,2,1,5,0,0
203453,-100,3,2,1,35,0,0
203953,-100,3,2,1,20,0,0
204453,-100,3,2,1,35,0,0
204892,-100,3,2,1,5,0,0
204953,487.80487804878,3,2,1,40,1,0
206416,491.803278688524,3,2,1,45,1,0
207399,479.999999999999,3,2,1,45,1,0
207879,476.190476190475,3,2,1,50,1,0
207879,-100,3,2,1,50,0,0
208117,-100,3,2,1,35,0,0
208355,-100,3,2,1,50,0,0
208593,-100,3,2,1,35,0,0
208831,-100,3,2,1,50,0,0
209069,-100,3,2,1,35,0,0
209307,468.749999999999,3,2,1,55,1,0
209541,-100,3,2,1,40,0,0
209775,-100,3,2,1,55,0,0
210010,-100,3,2,1,40,0,0
210244,461.538461538461,3,2,1,55,1,0
210474,-100,3,2,1,40,0,0
210705,447.761194029851,3,2,1,60,1,0
212048,442.804428044281,3,2,1,65,1,0
217269,206.185567010309,4,2,1,20,1,0
217269,-133.333333333333,4,2,1,20,0,0
217475,-100,4,2,1,5,0,0
217578,-100,4,2,1,20,0,0
217681,-100,4,2,1,5,0,0
217784,-100,4,2,1,20,0,0
218121,206.185567010309,4,2,1,75,1,0
218121,-100,4,2,1,75,0,0
218430,-100,4,2,1,75,0,0
218945,-100,4,2,1,75,0,0
219151,-100,4,2,1,75,0,0
219770,-100,4,2,1,75,0,0
219976,-100,4,2,1,75,0,0
220595,-100,4,2,1,75,0,0
220801,-100,4,2,1,55,0,0
220904,-100,4,2,1,75,0,0
221110,-100,4,2,1,55,0,0
221213,-100,4,2,1,75,0,0
221626,-100,4,2,1,75,0,0
222244,-100,4,2,1,75,0,0
222553,-100,4,2,1,75,0,0
223069,-100,4,2,1,75,0,0
223378,-100,4,2,1,75,0,0
223894,-100,4,2,1,75,0,0
224100,-100,4,2,1,55,0,0
224203,-100,4,2,1,75,0,0
224409,-100,4,2,1,55,0,0
224512,-100,4,2,1,75,0,0
224925,-100,4,2,1,75,0,0
225543,-100,4,2,1,75,0,0
225749,-100,4,2,1,75,0,0
226368,-100,4,2,1,75,0,0
226574,-100,4,2,1,75,0,0
227193,-100,4,2,1,75,0,0
227399,-100,4,2,1,55,0,0
227502,-100,4,2,1,75,0,0
227708,-100,4,2,1,55,0,0
227811,-100,4,2,1,75,0,0
228224,-100,4,2,1,75,0,0
228842,-100,4,2,1,75,0,0
229048,-100,4,2,1,75,0,0
229667,-100,4,2,1,75,0,0
229976,-100,4,2,1,75,0,0
230492,-100,4,2,1,75,0,0
230904,-100,4,2,1,75,0,0
232141,-100,4,2,1,75,0,0
232553,-100,4,2,1,75,0,0
234615,428.571428571429,3,2,1,70,1,1
234829,-66.6666666666667,3,2,1,70,0,1
235043,-66.6666666666667,3,2,1,50,0,1
235257,-66.6666666666667,3,2,1,70,0,1
235472,-66.6666666666667,3,2,1,70,0,1
235686,-66.6666666666667,3,2,1,50,0,1
235793,-66.6666666666667,3,2,1,70,0,1
235900,-66.6666666666667,3,2,1,70,0,1
236329,-66.6666666666667,3,2,1,50,0,1
236543,-66.6666666666667,3,2,1,70,0,1
237186,-66.6666666666667,3,2,1,70,0,1
237615,-66.6666666666667,3,2,1,50,0,1
237829,-66.6666666666667,3,2,1,70,0,1
238043,-66.6666666666667,3,2,1,70,0,1
238257,-66.6666666666667,3,2,1,50,0,1
238365,-66.6666666666667,3,2,1,70,0,1
238472,-66.6666666666667,3,2,1,70,0,1
239972,-66.6666666666667,3,2,1,70,0,1
240186,-66.6666666666667,3,2,1,50,0,1
240400,-66.6666666666667,3,2,1,70,0,1
240615,-66.6666666666667,3,2,1,70,0,1
240829,-66.6666666666667,3,2,1,50,0,1
240936,-66.6666666666667,3,2,1,70,0,1
241043,-66.6666666666667,3,2,1,70,0,1
241472,-66.6666666666667,3,2,1,50,0,1
241686,-66.6666666666667,3,2,1,70,0,1
242329,-66.6666666666667,3,2,1,70,0,1
242757,-66.6666666666667,3,2,1,50,0,1
242972,-66.6666666666667,3,2,1,70,0,1
243186,-66.6666666666667,3,2,1,70,0,1
243400,-66.6666666666667,3,2,1,50,0,1
243615,-66.6666666666667,3,2,1,70,0,1
244686,-66.6666666666667,3,2,1,70,0,0
244900,441.176470588236,3,2,1,70,1,1
244900,-66.6666666666667,3,2,1,70,0,1
245010,-66.6666666666667,3,2,1,44,0,1
245120,-66.6666666666667,3,2,1,70,0,1
245230,-66.6666666666667,3,2,1,44,0,1
245341,-66.6666666666667,3,2,1,70,0,1
245451,-66.6666666666667,3,2,1,44,0,1
245561,-66.6666666666667,3,2,1,70,0,1
245672,-66.6666666666667,3,2,1,44,0,1
245782,-66.6666666666667,3,2,1,70,0,1
245892,-66.6666666666667,3,2,1,44,0,1
246002,-66.6666666666667,3,2,1,70,0,1
246113,-66.6666666666667,3,2,1,44,0,1
246223,-66.6666666666667,3,2,1,70,0,1
246333,-66.6666666666667,3,2,1,44,0,1
246444,-66.6666666666667,3,2,1,70,0,1
246554,-66.6666666666667,3,2,1,44,0,1
246664,-66.6666666666667,3,2,1,70,0,1
246775,-66.6666666666667,3,2,1,44,0,1
246885,-66.6666666666667,3,2,1,70,0,1
246995,-66.6666666666667,3,2,1,44,0,1
247105,-66.6666666666667,3,2,1,70,0,1
247216,-66.6666666666667,3,2,1,44,0,1
247326,-66.6666666666667,3,2,1,70,0,1
247436,-66.6666666666667,3,2,1,44,0,1
247547,-66.6666666666667,3,2,1,70,0,1
247657,-66.6666666666667,3,2,1,44,0,1
247767,-66.6666666666667,3,2,1,70,0,1
247877,-66.6666666666667,3,2,1,44,0,1
247988,-66.6666666666667,3,2,1,70,0,1
248098,-66.6666666666667,3,2,1,44,0,1
248208,-66.6666666666667,3,2,1,70,0,1
248319,-66.6666666666667,3,2,1,44,0,1
248429,-66.6666666666667,3,2,1,70,0,1
248539,-66.6666666666667,3,2,1,44,0,1
248650,-66.6666666666667,3,2,1,70,0,1
248760,-66.6666666666667,3,2,1,44,0,1
248870,-66.6666666666667,3,2,1,70,0,1
248980,-66.6666666666667,3,2,1,44,0,1
249091,-66.6666666666667,3,2,1,70,0,1
249311,-66.6666666666667,3,2,1,44,0,1
249422,-66.6666666666667,3,2,1,70,0,1
249642,-66.6666666666667,3,2,1,44,0,1
249752,-66.6666666666667,3,2,1,70,0,1
249863,-66.6666666666667,3,2,1,44,0,1
249973,-66.6666666666667,3,2,1,70,0,1
250083,-66.6666666666667,3,2,1,44,0,1
250194,-66.6666666666667,3,2,1,70,0,1
250304,-66.6666666666667,3,2,1,44,0,1
250414,-66.6666666666667,3,2,1,70,0,1
250525,-66.6666666666667,3,2,1,44,0,1
250635,-66.6666666666667,3,2,1,70,0,1
250745,-66.6666666666667,3,2,1,44,0,1
250855,-66.6666666666667,3,2,1,70,0,1
250966,-66.6666666666667,3,2,1,44,0,1
251076,-66.6666666666667,3,2,1,70,0,1
251186,-66.6666666666667,3,2,1,44,0,1
251297,-66.6666666666667,3,2,1,70,0,1
251407,-66.6666666666667,3,2,1,44,0,1
251517,-66.6666666666667,3,2,1,70,0,1
251627,-66.6666666666667,3,2,1,44,0,1
251738,-66.6666666666667,3,2,1,70,0,1
251848,-66.6666666666667,3,2,1,44,0,1
251958,-66.6666666666667,3,2,1,70,0,1
252069,-66.6666666666667,3,2,1,44,0,1
252179,-66.6666666666667,3,2,1,70,0,1
252289,-66.6666666666667,3,2,1,44,0,1
252400,-66.6666666666667,3,2,1,70,0,1
252510,-66.6666666666667,3,2,1,44,0,1
252620,-66.6666666666667,3,2,1,70,0,1
252730,-66.6666666666667,3,2,1,44,0,1
252841,-66.6666666666667,3,2,1,70,0,1
252951,-66.6666666666667,3,2,1,44,0,1
253061,-66.6666666666667,3,2,1,70,0,1
253172,-66.6666666666667,3,2,1,44,0,1
253282,-66.6666666666667,3,2,1,70,0,1
253392,-66.6666666666667,3,2,1,44,0,1
253502,-66.6666666666667,3,2,1,70,0,1
253613,-66.6666666666667,3,2,1,44,0,1
253723,-66.6666666666667,3,2,1,70,0,1
253833,-66.6666666666667,3,2,1,44,0,1
253944,-66.6666666666667,3,2,1,70,0,1
254054,-66.6666666666667,3,2,1,44,0,1
254164,-66.6666666666667,3,2,1,70,0,1
254275,-66.6666666666667,3,2,1,44,0,1
254385,-66.6666666666667,3,2,1,70,0,1
254495,-66.6666666666667,3,2,1,44,0,1
254605,-66.6666666666667,3,2,1,70,0,1
254716,-66.6666666666667,3,2,1,44,0,1
254826,-66.6666666666667,3,2,1,70,0,1
254936,-66.6666666666667,3,2,1,44,0,1
255047,-66.6666666666667,3,2,1,70,0,1
255488,-80,3,2,1,70,0,0
255929,-80,3,2,1,55,0,0
256811,-80,3,2,1,70,0,0
257252,-80,3,2,1,55,0,0
258135,-80,3,2,1,70,0,0
258576,-80,3,2,1,55,0,0
259458,-80,3,2,1,70,0,0
261444,-80,3,2,1,55,0,0
262105,-80,3,2,1,70,0,0
264091,-80,3,2,1,55,0,0
264752,-80,3,2,1,70,0,0
266076,-76.9230769230769,3,2,1,70,0,0
266186,-76.9230769230769,3,2,1,5,0,0
266297,-76.9230769230769,3,2,1,66,0,0
266407,-76.9230769230769,3,2,1,5,0,0
266517,-76.9230769230769,3,2,1,66,0,0
266627,-76.9230769230769,3,2,1,5,0,0
266738,-76.9230769230769,3,2,1,66,0,0
266848,-76.9230769230769,3,2,1,5,0,0
266958,-76.9230769230769,3,2,1,66,0,0
267069,-76.9230769230769,3,2,1,5,0,0
267179,-76.9230769230769,3,2,1,66,0,0
267289,-76.9230769230769,3,2,1,5,0,0
267400,-71.4285714285714,3,2,1,71,0,0
267510,-71.4285714285714,3,2,1,5,0,0
267620,-71.4285714285714,3,2,1,71,0,0
267730,-71.4285714285714,3,2,1,5,0,0
267841,-71.4285714285714,3,2,1,71,0,0
267951,-71.4285714285714,3,2,1,5,0,0
268061,-71.4285714285714,3,2,1,71,0,0
268172,-71.4285714285714,3,2,1,5,0,0
268282,-71.4285714285714,3,2,1,71,0,0
268392,-71.4285714285714,3,2,1,5,0,0
268502,-71.4285714285714,3,2,1,71,0,0
268613,-71.4285714285714,3,2,1,5,0,0
268723,-66.6666666666667,3,2,1,77,0,0
268833,-66.6666666666667,3,2,1,5,0,0
268944,-66.6666666666667,3,2,1,77,0,0
269054,-66.6666666666667,3,2,1,5,0,0
269164,-66.6666666666667,3,2,1,77,0,0
269275,-66.6666666666667,3,2,1,5,0,0
269385,-66.6666666666667,3,2,1,77,0,0
269495,-66.6666666666667,3,2,1,5,0,0
269605,-66.6666666666667,3,2,1,77,0,0
269716,-66.6666666666667,3,2,1,5,0,0
269826,-66.6666666666667,3,2,1,77,0,0
269936,-66.6666666666667,3,2,1,5,0,0
270047,-66.6666666666667,3,2,1,80,0,0
270157,-66.6666666666667,3,2,1,5,0,0
270267,-66.6666666666667,3,2,1,80,0,0
270377,-66.6666666666667,3,2,1,5,0,0
270488,-66.6666666666667,3,2,1,85,0,0
270598,-66.6666666666667,3,2,1,5,0,0
270708,-66.6666666666667,3,2,1,85,0,0
270819,-66.6666666666667,3,2,1,5,0,0
270929,-66.6666666666667,3,2,1,90,0,0
271039,-66.6666666666667,3,2,1,5,0,0
271150,-66.6666666666667,3,2,1,90,0,0
271260,-66.6666666666667,3,2,1,5,0,0
272713,458.015267175573,4,2,1,100,1,0
273629,419.58041958042,4,2,1,100,1,0
274468,431.654676258994,4,2,1,100,1,0
275762,454.545454545455,4,2,1,100,1,0
276216,454.545454545455,4,2,1,100,1,0
277125,447.761194029851,4,2,1,100,1,0
278020,434.782608695653,4,2,1,100,1,0
278889,458.015267175573,4,2,1,100,1,0
279805,458.015267175573,4,2,1,100,1,0
280654,461.538461538462,4,2,1,100,1,0
282206,434.782608695653,4,2,1,100,1,0
282858,447.761194029852,4,2,1,100,1,0
285096,428.57142857143,4,2,1,100,1,0
285953,441.988950276245,4,2,1,100,1,0
289228,439.560439560441,4,2,1,100,1,0
289667,446.927374301678,4,2,1,100,1,0
290337,444.444444444444,4,2,1,100,1,0

[Colours]
Combo1 : 173,156,209
Combo2 : 162,221,172
Combo3 : 150,207,198
Combo4 : 146,171,205

[HitObjects]
64,109,59535,5,4,0:1:0:0:
64,109,59741,2,0,P|135:156|208:150,1,150,10|4,0:0|0:3,0:0:0:0:
219,143,60153,1,8,0:0:0:0:
78,243,60359,5,6,0:3:0:0:
170,310,60565,2,0,P|220:291|259:253,1,100,8|0,0:0|0:0,0:0:0:0:
268,239,60875,1,4,0:3:0:0:
277,215,60978,1,8,0:0:0:0:
307,371,61184,5,6,0:3:0:0:
425,344,61390,2,0,P|421:272|373:186,1,150,10|4,0:0|0:3,0:0:0:0:
368,185,61803,1,8,0:0:0:0:
490,85,62009,6,0,L|382:102,1,100,6|8,0:3|0:0,0:0:0:0:
370,86,62318,2,0,L|271:70,1,100,4|4,0:3|0:3,0:0:0:0:
251,85,62627,1,8,0:0:0:0:
112,22,62833,5,6,0:3:0:0:
34,91,63040,2,0,P|92:112|162:186,1,150,10|4,0:0|0:3,0:0:0:0:
163,196,63452,1,8,0:0:0:0:
64,303,63658,5,6,0:3:0:0:
201,340,63864,2,0,P|270:322|307:296,1,100,10|0,0:0|0:0,0:0:0:0:
311,289,64174,1,4,0:3:0:0:
325,268,64277,1,8,0:0:0:0:
292,129,64483,5,6,0:3:0:0:
428,175,64689,2,0,P|466:222|484:317,1,150,10|4,0:0|0:3,0:0:0:0:
475,331,65102,1,8,0:0:0:0:
325,268,65308,5,6,0:3:0:0:
203,352,65514,1,8,0:0:0:0:
179,360,65617,2,0,L|77:344,1,100,4|4,0:3|0:3,0:0:0:0:
56,351,65926,1,8,0:0:0:0:
145,234,66132,5,6,0:3:0:0:
33,182,66339,2,0,P|0:107|9:33,1,150,10|4,0:0|0:3,0:0:0:0:
23,23,66751,1,8,0:0:0:0:
118,85,66957,6,0,L|179:74,1,50,6|2,0:3|0:0,0:0:0:0:
186,59,67163,2,0,P|256:72|293:100,1,100,8|0,0:0|0:0,0:0:0:0:
294,107,67473,1,4,0:3:0:0:
302,130,67576,1,8,0:0:0:0:
190,186,67782,5,6,0:3:0:0:
239,299,67988,2,0,P|312:291|393:241,1,150,10|4,0:0|0:3,0:0:0:0:
391,233,68400,1,8,0:0:0:0:
490,322,68607,6,0,L|480:380,2,50,6|0|8,0:3|0:0|0:0,0:0:0:0:
505,302,68916,2,0,L|490:185,1,100,4|4,0:3|0:3,0:0:0:0:
502,180,69225,1,8,0:0:0:0:
427,68,69431,5,6,0:3:0:0:
303,130,69638,2,0,P|220:119|150:78,1,150,10|4,0:0|0:3,0:0:0:0:
147,68,70050,1,8,0:0:0:0:
13,24,70256,5,4,0:3:0:0:
12,158,70462,2,0,P|43:230|105:288,1,150,8|4,0:0|0:3,0:0:0:0:
115,291,70875,1,8,0:0:0:0:
247,250,71081,5,4,1:1:0:0:
348,353,71287,1,0,1:0:0:0:
364,333,71390,1,0,1:0:0:0:
386,322,71493,2,0,P|422:319|448:329,3,50,0|0|0|0,1:0|1:0|1:0|1:0,0:0:0:0:
477,340,71906,6,0,B|458:220|415:282|384:163,1,200,4|4,3:2|3:3,0:0:0:0:
459,35,72524,2,0,P|453:63|432:86,1,50,4|4,3:3|3:3,0:0:0:0:
440,79,72730,6,0,L|356:69,1,75.0000028610231,4|8,3:2|0:0,0:0:0:0:
126,44,73246,1,8,0:0:0:0:
126,44,73349,1,10,0:0:0:0:
199,157,73555,2,0,L|309:136,2,112.500004291535,6|6|10,0:3|0:3|0:0,0:0:0:0:
62,221,74380,6,0,L|46:298,1,75.0000028610231,6|8,0:3|0:0,0:0:0:0:
279,229,74895,1,8,0:0:0:0:
279,229,74998,1,8,0:0:0:0:
164,271,75205,2,0,L|182:384,2,112.500004291535,6|6|10,0:3|0:3|0:0,0:0:0:0:
168,275,76029,6,0,P|207:309|269:317,1,100,4|8,0:1|0:0,0:0:0:0:
272,334,76339,2,0,P|320:317|358:267,1,100,6|4,0:3|0:3,0:0:0:0:
374,271,76648,2,0,P|383:220|359:162,1,100,8|4,0:0|0:3,0:0:0:0:
260,104,77060,1,10,0:0:0:0:
149,168,77266,1,2,0:0:0:0:
98,54,77473,1,10,0:0:0:0:
211,0,77679,6,0,P|264:5|322:35,1,100,4|8,0:3|0:0,0:0:0:0:
325,40,77988,2,0,P|391:68|479:60,1,150,6|10,0:3|0:0,0:0:0:0:
490,184,78504,6,0,B|441:191|441:191|395:231,1,100,6|8,0:2|0:0,0:0:0:0:
385,241,78813,2,0,B|346:210|346:210|326:152,1,100,6|4,0:0|0:3,0:0:0:0:
320,145,79122,2,0,B|294:143|294:143|266:160,1,50,12|2,0:0|0:0,0:0:0:0:
273,155,79328,6,0,L|256:240,1,75.0000028610231,4|10,0:0|0:0,0:0:0:0:
18,209,79844,1,10,0:0:0:0:
18,209,79947,1,8,0:0:0:0:
90,332,80153,2,0,L|211:306,2,112.500004291535,6|6|8,0:3|0:3|0:0,0:0:0:0:
18,209,80978,6,0,L|97:225,1,75.0000028610231,6|8,0:3|0:0,0:0:0:0:
305,186,81493,1,8,0:0:0:0:
305,186,81596,1,8,0:0:0:0:
182,153,81803,2,0,L|157:32,2,112.500004291535,6|6|10,0:3|0:3|0:0,0:0:0:0:
186,157,82627,6,0,P|216:219|212:257,1,100,4|8,0:1|0:0,0:0:0:0:
203,271,82937,2,0,P|241:327|276:343,1,100,4|4,0:3|0:3,0:0:0:0:
289,328,83246,1,8,0:0:0:0:
393,253,83452,6,0,P|416:304|412:363,1,100,6|8,0:3|0:0,0:0:0:0:
424,370,83761,2,0,P|491:297|516:232,1,150,6|10,0:3|0:0,0:0:0:0:
495,107,84277,5,6,0:0:0:0:
376,139,84483,1,8,0:0:0:0:
351,144,84586,2,0,P|315:85|311:-6,1,150,6|10,0:3|0:0,0:0:0:0:
224,106,85102,5,6,0:3:0:0:
116,56,85308,1,0,1:0:0:0:
116,56,85411,1,0,1:0:0:0:
116,56,85514,2,0,P|71:40|58:40,3,50,0|0|0|0,1:0|1:0|1:0|1:0,0:0:0:0:
29,58,85926,5,4,0:1:0:0:
133,149,86132,2,0,L|103:268,1,100,8|0,0:0|0:0,0:0:0:0:
91,264,86442,1,4,0:3:0:0:
74,282,86545,1,8,0:0:0:0:
209,222,86751,2,0,P|255:233|308:278,1,100,6|8,0:3|0:0,0:0:0:0:
432,204,87163,2,0,P|455:248|459:297,1,100,2|8,0:3|0:0,0:0:0:0:
360,378,87576,1,4,0:3:0:0:
206,355,87782,6,0,L|47:376,1,150,10|4,0:0|0:3,0:0:0:0:
37,359,88194,1,10,0:0:0:0:
115,270,88400,2,0,P|104:213|72:172,1,100,6|8,0:3|0:0,0:0:0:0:
4,90,88813,2,0,P|23:44|59:10,2,100,2|8|4,0:3|0:0|0:3,0:0:0:0:
80,179,89431,5,10,0:0:0:0:
195,139,89638,1,10,0:3:0:0:
200,163,89741,1,4,0:3:0:0:
206,187,89844,1,10,0:0:0:0:
320,155,90050,2,0,L|422:120,1,100,4|8,0:1|0:0,0:0:0:0:
377,256,90462,2,0,L|476:273,1,100,4|8,0:1|0:0,0:0:0:0:
292,333,90875,2,0,L|382:386,2,100,6|8|2,0:2|0:0|0:0,0:0:0:0:
280,309,91390,1,4,0:3:0:0:
273,287,91493,1,8,0:0:0:0:
120,269,91699,6,0,B|83:235|83:235|63:180,1,100,4|8,0:1|0:0,0:0:0:0:
46,171,92009,2,0,L|148:152,1,100,4|4,0:3|0:3,0:0:0:0:
163,137,92318,2,0,B|146:89|146:89|107:57,1,100,8|4,0:0|0:3,0:0:0:0:
250,75,92730,5,10,0:0:0:0:
270,61,92833,2,0,L|387:76,1,100,6|4,0:3|0:3,0:0:0:0:
394,77,93143,1,10,0:0:0:0:
450,182,93349,2,0,P|431:240|390:273,1,100,6|8,0:3|0:0,0:0:0:0:
378,266,93658,2,0,P|262:292|230:325,1,150,0|10,0:0|0:0,0:0:0:0:
104,365,94174,6,0,L|84:266,1,100,6|8,0:3|0:0,0:0:0:0:
64,251,94483,2,0,P|105:149|144:118,1,150,6|10,0:3|0:0,0:0:0:0:
245,178,94998,2,0,P|321:208|358:206,1,100,6|8,0:3|0:0,0:0:0:0:
361,198,95308,2,0,L|395:30,1,150,0|10,0:0|0:0,0:0:0:0:
275,0,95823,6,0,P|245:29|223:93,1,100,6|10,0:3|0:0,0:0:0:0:
210,103,96132,2,0,P|119:102|58:63,1,150,0|10,0:0|0:0,0:0:0:0:
15,229,96648,2,0,L|120:204,1,100,4|8,0:1|0:0,0:0:0:0:
203,293,97060,2,0,L|308:268,1,100,4|8,0:1|0:0,0:0:0:0:
391,348,97473,2,0,L|496:323,2,100,6|8|2,0:0|0:0|0:0,0:0:0:0:
367,355,97988,1,4,0:3:0:0:
343,362,98091,1,8,0:0:0:0:
430,207,98297,5,6,0:3:0:0:
288,96,98504,1,10,0:0:0:0:
288,96,98607,2,0,B|340:86|340:86|393:122,1,100,6|6,0:3|0:3,0:0:0:0:
378,112,98916,2,0,P|334:127|322:140,1,50,10|2,0:0|0:1,0:0:0:0:
286,200,99122,5,4,0:1:0:0:
160,111,99328,1,10,0:0:0:0:
72,234,99534,1,0,0:0:0:0:
72,234,99638,2,0,L|85:299,1,50,6|8,0:3|0:0,0:0:0:0:
87,307,99844,2,0,P|160:340|235:335,1,150,2|8,0:3|0:0,0:0:0:0:
356,237,100359,5,2,0:3:0:0:
211,175,100565,1,8,0:0:0:0:
336,85,100772,2,0,L|396:69,3,50,8|8|8|8,0:3|0:3|0:3|0:3,0:0:0:0:
413,94,101184,2,0,L|461:106,3,50,8|8|8|8,0:3|0:3|0:3|0:3,0:0:0:0:
476,144,101596,1,4,0:3:0:0:
481,168,101699,1,4,0:3:0:0:
479,193,101803,1,4,0:3:0:0:
472,216,101906,1,4,0:3:0:0:
456,235,102009,1,8,0:0:0:0:
256,32,102421,5,4,0:2:0:0:
256,352,106391,5,12,0:0:0:0:
256,256,106612,2,0,L|256:218,1,37.5000014305115,8|8,0:0|0:3,0:0:0:0:
256,192,106832,2,0,L|256:154,3,37.5000014305115,4|4|4|4,0:3|0:3|0:3|0:3,0:0:0:0:
256,108,107273,1,12,0:0:0:0:
43,228,107715,5,4,0:1:0:0:
110,279,107935,2,0,P|112:318|97:361,1,75.0000028610231,2|0,0:2|0:1,0:0:0:0:
43,228,108376,1,6,0:3:0:0:
151,207,108597,2,0,P|215:232|233:261,1,75.0000028610231,6|0,0:3|0:1,0:0:0:0:
217,235,108928,1,4,0:3:0:0:
217,235,109038,2,0,P|208:160|277:89,1,150.000005722046,14|0,0:0|0:1,0:0:0:0:
348,85,109700,1,6,0:3:0:0:
447,72,109921,1,6,0:3:0:0:
447,72,110362,6,0,B|365:70|403:18|287:14,1,150.000005722046,6|0,0:3|0:0,0:0:0:0:
249,102,111023,1,6,0:3:0:0:
156,69,111244,2,0,P|116:76|72:106,1,75.0000028610231,6|4,0:3|0:3,0:0:0:0:
86,92,111575,1,4,0:3:0:0:
86,92,111685,2,0,L|66:198,1,75.0000028610231,14|4,0:0|0:3,0:0:0:0:
132,341,112126,6,0,L|117:283,1,37.5000014305115,8|4,0:0|0:3,0:0:0:0:
90,286,112347,2,0,L|81:322,1,37.5000014305115,4|4,0:3|0:3,0:0:0:0:
50,350,112568,2,0,B|25:354|25:354|-7:251,1,112.500004291535,12|0,0:0|0:0,0:0:0:0:
0,270,113009,5,4,0:1:0:0:
25,190,113229,2,0,P|54:168|91:161,1,75.0000028610231,2|0,0:0|0:0,0:0:0:0:
296,184,113671,5,6,0:3:0:0:
171,217,113891,2,0,P|200:239|237:246,1,75.0000028610231,6|4,0:3|0:3,0:0:0:0:
237,246,114222,1,4,0:3:0:0:
237,246,114332,2,0,P|271:370|303:402,1,150.000005722046,14|0,0:0|0:1,0:0:0:0:
377,337,114994,1,6,0:3:0:0:
466,291,115215,1,6,0:3:0:0:
466,291,115656,6,0,B|461:208|515:246|501:130,1,150.000005722046,6|0,0:3|0:0,0:0:0:0:
439,66,116318,1,6,0:3:0:0:
404,168,116538,2,0,P|371:146|315:138,1,75.0000028610231,6|4,0:3|0:3,0:0:0:0:
337,137,116869,1,4,0:3:0:0:
337,137,116979,2,0,L|254:151,1,75.0000028610231,6|4,0:0|0:3,0:0:0:0:
107,56,117420,6,0,L|150:67,1,37.5000014305115,8|4,0:0|0:3,0:0:0:0:
183,91,117641,2,0,L|146:100,1,37.5000014305115,4|4,0:3|0:3,0:0:0:0:
120,136,117862,1,8,0:0:0:0:
47,335,118303,6,0,P|37:301|35:272,1,62.5,4|0,0:1|0:0,0:0:0:0:
137,297,118744,1,2,0:0:0:0:
137,297,118965,1,0,0:0:0:0:
137,297,119185,1,2,0:0:0:0:
137,297,119406,1,0,0:0:0:0:
235,244,119626,6,0,P|243:204|248:169,1,75,10|0,0:0|0:0,0:0:0:0:
158,193,120068,1,2,0:0:0:0:
158,193,120288,1,0,0:0:0:0:
158,193,120509,1,2,0:0:0:0:
158,193,120729,1,0,0:0:0:0:
76,95,120950,6,0,P|136:69|176:65,1,87.500000834465,8|0,0:0|0:0,0:0:0:0:
269,142,121391,1,2,0:0:0:0:
269,142,121612,1,0,0:0:0:0:
269,142,121832,1,2,0:0:0:0:
269,142,122053,1,0,0:0:0:0:
512,54,122273,6,0,P|466:32|418:21,1,100,12|0,0:0|0:0,0:0:0:0:
272,43,122715,1,2,0:0:0:0:
272,43,122935,1,0,0:0:0:0:
359,159,123156,1,10,0:0:0:0:
47,129,123597,6,0,L|36:80,1,50,4|2,0:1|0:0,0:0:0:0:
31,55,123803,2,0,P|101:83|142:154,1,150,10|4,0:0|0:3,0:0:0:0:
142,168,124215,1,8,0:0:0:0:
25,251,124421,5,6,0:3:0:0:
99,341,124627,2,0,P|165:324|195:294,1,100,8|0,0:0|0:0,0:0:0:0:
197,280,124937,1,4,0:3:0:0:
203,255,125040,1,8,0:0:0:0:
274,337,125246,6,0,L|337:346,1,50,6|2,0:3|0:0,0:0:0:0:
342,328,125452,2,0,P|382:286|477:280,1,150,10|4,0:0|0:3,0:0:0:0:
492,288,125865,1,8,0:0:0:0:
403,185,126071,6,0,P|392:152|402:75,1,100,6|8,0:3|0:0,0:0:0:0:
408,65,126380,2,0,L|304:89,1,100,4|4,0:3|0:3,0:0:0:0:
286,82,126689,1,8,0:0:0:0:
238,186,126895,5,6,0:3:0:0:
119,168,127102,2,0,P|59:110|45:34,1,150,10|4,0:0|0:3,0:0:0:0:
53,23,127514,1,8,0:0:0:0:
150,68,127720,6,0,L|213:78,1,50,6|0,0:3|0:0,0:0:0:0:
218,59,127926,2,0,P|266:26|323:29,1,100,8|0,0:0|0:0,0:0:0:0:
328,35,128236,1,4,0:3:0:0:
347,50,128339,1,8,0:0:0:0:
308,163,128545,5,6,0:3:0:0:
426,142,128751,2,0,P|465:185|475:289,1,150,8|4,0:0|0:3,0:0:0:0:
471,297,129164,1,8,0:0:0:0:
366,349,129370,5,6,0:3:0:0:
277,273,129576,1,8,0:0:0:0:
253,264,129679,2,0,L|151:287,1,100,4|4,0:3|0:3,0:0:0:0:
138,303,129988,1,8,0:0:0:0:
14,230,130194,5,6,0:3:0:0:
132,151,130401,2,0,L|282:179,1,150,10|4,0:0|0:3,0:0:0:0:
302,168,130813,1,8,0:0:0:0:
296,29,131019,6,0,P|262:44|243:62,1,50,6|2,0:3|0:0,0:0:0:0:
233,69,131225,2,0,P|186:72|131:40,1,100,10|0,0:0|0:0,0:0:0:0:
122,30,131535,1,4,0:3:0:0:
111,7,131638,1,8,0:0:0:0:
8,87,131844,5,6,0:3:0:0:
109,164,132050,2,0,P|116:210|66:311,1,150,10|4,0:0|0:3,0:0:0:0:
53,313,132462,1,8,0:0:0:0:
168,363,132669,6,0,L|268:348,1,100,6|8,0:3|0:0,0:0:0:0:
281,327,132978,2,0,L|387:309,1,100,4|4,0:3|0:3,0:0:0:0:
401,298,133287,1,8,0:0:0:0:
508,361,133493,5,6,0:3:0:0:
503,239,133700,2,0,P|453:195|365:182,1,150,10|4,0:0|0:3,0:0:0:0:
349,190,134112,1,8,0:0:0:0:
447,84,134318,5,6,0:3:0:0:
319,57,134524,2,0,P|250:89|203:163,1,150,8|4,0:0|0:3,0:0:0:0:
202,172,134937,1,8,0:0:0:0:
106,111,135143,5,4,0:0:0:0:
29,191,135349,1,0,1:0:0:0:
18,213,135452,1,0,1:0:0:0:
14,237,135555,2,0,P|16:261|24:285,2,50,0|0|4,1:0|1:0|1:2,0:0:0:0:
153,311,135968,6,0,L|192:317,3,37.5000014305115,4|4|4|4,0:3|0:3|0:3|0:3,0:0:0:0:
236,333,136380,2,0,L|199:339,3,37.5000014305115,4|0|4|4,0:3|0:0|0:3|0:3,0:0:0:0:
194,367,136792,1,4,0:2:0:0:
309,378,136999,6,0,P|340:289|325:212,1,170.000003242493,10|10,0:0|0:0,0:0:0:0:
226,184,137617,2,0,L|127:208,1,85.0000016212464,6|8,0:3|0:0,0:0:0:0:
143,204,137926,2,0,P|109:153|115:80,1,127.50000243187,6|10,0:3|0:0,0:0:0:0:
189,25,138442,1,4,0:3:0:0:
272,89,138648,5,10,0:0:0:0:
372,60,138854,2,0,L|381:18,2,42.5000008106232,0|4|10,0:0|0:3|0:0,0:0:0:0:
435,142,139267,2,0,P|453:194|445:231,1,85.0000016212464,6|10,0:3|0:0,0:0:0:0:
448,222,139576,2,0,L|350:248,1,85.0000016212464,6|4,0:3|0:3,0:0:0:0:
365,243,139885,1,10,0:0:0:0:
281,302,140091,6,0,L|185:284,1,85.0000016212464,4|8,0:3|0:0,0:0:0:0:
197,286,140401,2,0,P|146:307|96:368,1,127.50000243187,4|8,0:3|0:0,0:0:0:0:
0,302,140916,2,0,P|3:244|27:211,1,85.0000016212464,4|8,0:3|0:0,0:0:0:0:
16,221,141225,2,0,L|149:192,1,127.50000243187,4|10,0:3|0:0,0:0:0:0:
217,130,141741,5,6,0:3:0:0:
181,38,141947,1,10,0:0:0:0:
278,12,142153,1,2,0:0:0:0:
315,105,142359,1,10,0:0:0:0:
407,63,142566,2,0,P|456:46|502:58,1,85.0000016212464,6|10,0:3|0:0,0:0:0:0:
487,51,142875,2,0,L|472:142,1,85.0000016212464,4|4,0:3|0:3,0:0:0:0:
473,135,143184,2,0,P|506:156|535:205,1,85.0000016212464,8|4,0:0|0:0,0:0:0:0:
496,281,143596,5,10,0:0:0:0:
403,245,143803,1,0,0:0:0:0:
333,315,144009,1,10,0:0:0:0:
244,268,144215,2,0,L|229:173,1,85.0000016212464,6|8,0:3|0:0,0:0:0:0:
230,184,144524,2,0,P|170:187|109:238,1,127.50000243187,6|10,0:3|0:0,0:0:0:0:
52,295,145040,6,0,P|28:250|30:198,1,85.0000016212464,6|8,0:3|0:0,0:0:0:0:
26,216,145349,2,0,L|39:127,1,85.0000016212464,6|4,0:3|0:3,0:0:0:0:
38,132,145658,1,10,0:0:0:0:
12,48,145865,2,0,L|109:34,1,85.0000016212464,6|10,0:3|0:0,0:0:0:0:
96,35,146174,1,6,0:3:0:0:
218,134,146483,1,10,0:0:0:0:
292,75,146689,6,0,P|333:81|369:104,1,85.0000016212464,6|8,0:3|0:0,0:0:0:0:
369,104,146999,2,0,L|386:239,1,127.50000243187,4|8,0:3|0:0,0:0:0:0:
290,208,147514,2,0,P|226:239|211:259,1,85.0000016212464,4|10,0:3|0:0,0:0:0:0:
218,248,147823,1,4,0:3:0:0:
218,248,147926,1,2,0:0:0:0:
278,344,148133,1,10,0:0:0:0:
379,317,148339,5,6,0:3:0:0:
481,319,148545,1,10,0:0:0:0:
512,225,148751,2,0,P|506:177|482:139,1,85.0000016212464,2|8,0:0|0:0,0:0:0:0:
350,149,149164,5,6,1:2:0:0:
346,53,149370,1,0,1:0:0:0:
346,53,149473,1,0,1:0:0:0:
346,53,149576,2,0,L|282:70,3,50,0|0|0|0,1:0|1:0|1:0|1:0,0:0:0:0:
278,73,149988,1,4,0:1:0:0:
158,35,150194,5,10,0:0:0:0:
151,150,150401,1,2,0:0:0:0:
56,90,150607,1,10,0:0:0:0:
45,202,150813,2,0,L|70:322,1,100,6|8,0:3|0:0,0:0:0:0:
51,320,151122,2,0,B|129:300|108:350|211:330,1,150,6|8,0:3|0:0,0:0:0:0:
215,315,151535,1,0,0:0:0:0:
226,292,151638,1,4,0:3:0:0:
353,341,151844,5,10,0:0:0:0:
317,258,152050,1,2,0:0:0:0:
392,200,152256,1,10,0:0:0:0:
430,284,152462,2,0,P|489:262|513:234,1,100,6|8,0:3|0:0,0:0:0:0:
502,211,152772,2,0,L|479:59,1,150,6|10,0:3|0:0,0:0:0:0:
475,38,153184,1,0,0:0:0:0:
471,13,153287,1,4,0:3:0:0:
382,89,153493,5,10,0:0:0:0:
286,56,153700,1,10,0:3:0:0:
211,124,153906,1,10,0:0:0:0:
312,175,154112,2,0,P|313:231|280:281,1,100,4|8,0:1|0:0,0:0:0:0:
174,282,154524,2,0,P|141:244|128:186,1,100,2|8,0:0|0:0,0:0:0:0:
211,124,154937,1,4,0:3:0:0:
126,47,155143,6,0,P|79:68|25:154,1,150,4|4,0:1|0:3,0:0:0:0:
24,173,155555,1,8,0:0:0:0:
1,274,155761,2,0,B|53:266|53:266|103:294,1,100,6|8,0:3|0:0,0:0:0:0:
119,277,156071,2,0,L|217:257,1,100,6|4,0:3|0:3,0:0:0:0:
238,270,156380,2,0,B|278:298|278:298|336:289,1,100,10|4,0:0|0:2,0:0:0:0:
332,186,156792,5,10,0:0:0:0:
307,179,156895,2,0,P|271:117|276:39,1,150,6|10,0:3|0:0,0:0:0:0:
395,0,157411,1,6,0:3:0:0:
502,78,157617,1,10,0:0:0:0:
448,194,157823,2,0,L|458:249,1,50,2|4,0:0|0:3,0:0:0:0:
475,259,158029,2,0,P|417:289|395:315,1,100,10|4,0:0|0:3,0:0:0:0:
286,363,158442,6,0,P|217:329|169:258,1,150,10|6,0:0|0:3,0:0:0:0:
170,246,158854,1,8,0:0:0:0:
234,149,159060,1,6,0:3:0:0:
163,58,159267,2,0,P|110:68|72:99,1,100,8|0,0:0|0:0,0:0:0:0:
59,115,159576,1,6,0:3:0:0:
48,137,159679,2,0,L|38:236,1,100,10|4,0:0|0:3,0:0:0:0:
101,353,160091,5,8,0:0:0:0:
170,246,160298,2,0,P|166:217|150:186,2,50,10|4|8,0:3|0:3|0:0,0:0:0:0:
256,363,160710,2,0,P|317:385|359:382,1,100,4|8,0:1|0:0,0:0:0:0:
460,234,161122,2,0,P|414:253|364:254,1,100,4|8,0:1|0:0,0:0:0:0:
270,169,161535,1,6,0:0:0:0:
326,62,161741,2,0,L|434:74,1,100,8|2,0:0|0:0,0:0:0:0:
448,82,162050,1,4,0:3:0:0:
469,93,162153,1,8,0:0:0:0:
347,179,162359,5,6,0:3:0:0:
474,304,162566,1,10,0:0:0:0:
474,304,162669,2,0,B|485:258|485:258|450:196,1,100,6|6,0:3|0:3,0:0:0:0:
459,212,162978,2,0,P|438:228|407:231,1,50,10|2,0:0|0:1,0:0:0:0:
347,179,163184,6,0,P|307:160|235:161,1,100,4|10,0:1|0:0,0:0:0:0:
144,214,163596,2,0,L|128:110,1,100,2|8,0:0|0:0,0:0:0:0:
5,58,164009,2,0,L|17:161,1,100,6|8,0:3|0:0,0:0:0:0:
35,173,164318,2,0,P|35:238|-4:316,1,150,6|8,0:3|0:0,0:0:0:0:
104,380,164834,5,6,0:3:0:0:
193,301,165040,1,10,0:0:0:0:
216,292,165143,2,0,P|287:302|324:335,1,100,6|2,0:3|0:0,0:0:0:0:
323,337,165452,1,8,0:0:0:0:
391,249,165658,5,12,0:0:0:0:
500,301,165865,1,4,0:3:0:0:
495,187,166071,1,8,0:0:0:0:
495,187,166483,5,4,0:1:0:0:
407,158,166703,2,0,P|391:129|386:86,1,75,6|0,0:3|0:0,0:0:0:0:
495,187,167144,1,6,0:3:0:0:
391,249,167365,2,0,P|336:238|306:214,1,75.0000028610231,6|0,0:3|0:1,0:0:0:0:
320,228,167696,1,4,0:3:0:0:
320,228,167806,2,0,P|258:227|172:290,1,150.000005722046,14|0,0:0|0:0,0:0:0:0:
140,345,168468,1,6,0:3:0:0:
55,323,168688,1,6,0:3:0:0:
55,323,169130,6,0,P|49:260|84:173,1,150.000005722046,6|0,0:3|0:0,0:0:0:0:
163,145,169791,1,6,0:3:0:0:
150,66,170012,2,0,P|116:30|69:16,1,75.0000028610231,6|4,0:3|0:3,0:0:0:0:
93,19,170343,1,4,0:3:0:0:
93,19,170453,2,0,L|183:9,1,75.0000028610231,14|4,0:0|0:3,0:0:0:0:
279,81,170894,6,0,L|268:133,1,37.5000014305115,8|4,0:0|0:3,0:0:0:0:
305,134,171115,2,0,L|312:97,1,37.5000014305115,4|4,0:3|0:3,0:0:0:0:
350,114,171335,2,0,B|341:147|341:147|434:130,1,112.500004291535,12|0,0:0|0:0,0:0:0:0:
418,132,171777,5,4,0:1:0:0:
487,197,171997,2,0,P|503:241|497:291,1,75.0000028610231,2|0,0:0|0:0,0:0:0:0:
413,349,172438,1,6,0:3:0:0:
372,284,172659,2,0,P|335:265|292:267,1,75.0000028610231,6|0,0:3|0:0,0:0:0:0:
302,264,172990,1,4,0:3:0:0:
302,264,173100,2,0,P|255:331|174:356,1,150.000005722046,14|0,0:0|0:0,0:0:0:0:
130,298,173762,1,6,0:3:0:0:
150,216,173983,1,6,0:3:0:0:
150,216,174424,6,0,L|182:43,1,150.000005722046,6|0,0:3|0:0,0:0:0:0:
100,13,175085,1,6,0:3:0:0:
21,54,175306,2,0,L|40:151,1,75.0000028610231,6|0,0:3|0:0,0:0:0:0:
35,127,175637,1,4,0:3:0:0:
35,127,175747,2,0,P|59:164|59:211,1,75.0000028610231,14|4,0:0|0:3,0:0:0:0:
42,339,176188,2,0,P|61:300|102:276,1,75.0000028610231,4|4,0:3|0:3,0:0:0:0:
177,298,176630,1,8,0:0:0:0:
177,298,177071,6,0,P|216:307|267:311,1,75.0000028610231,6|0,0:2|0:0,0:0:0:0:
336,289,177512,2,0,P|372:270|413:241,1,75.0000028610231,0|4,0:0|0:3,0:0:0:0:
457,183,177953,2,0,P|472:145|485:96,1,75.0000028610231,0|6,0:0|0:3,0:0:0:0:
330,36,178394,5,10,0:0:0:0:
381,107,178615,1,0,0:0:0:0:
294,114,178835,2,0,P|259:130|174:212,1,150.000005722046,2|2,0:0|0:0,0:0:0:0:
178,205,179497,1,2,0:0:0:0:
69,147,179718,6,0,P|88:224|89:240,1,75.0000028610231,8|0,0:0|0:0,0:0:0:0:
144,288,180159,2,0,P|136:347|126:373,2,75.0000028610231,6|4|2,0:3|0:3|0:0,0:0:0:0:
185,213,180821,1,6,0:3:0:0:
250,321,181041,6,0,L|367:305,1,112.500004291535,12|0,0:0|0:0,0:0:0:0:
373,293,181483,2,0,L|484:277,1,112.500004291535,4|0,0:0|0:0,0:0:0:0:
496,268,181924,2,0,P|441:256|417:247,1,75.0000028610231,4|0,0:0|0:0,0:0:0:0:
346,139,182365,5,12,0:0:0:0:
397,72,182585,1,0,0:0:0:0:
429,152,182806,2,0,P|354:106|266:96,1,150.000005722046,2|2,0:0|0:0,0:0:0:0:
217,122,183468,1,6,0:3:0:0:
91,21,183688,5,12,0:0:0:0:
117,100,183909,1,4,0:3:0:0:
50,154,184130,2,0,P|19:199|7:244,1,75.0000028610231,2|4,0:0|0:3,0:0:0:0:
51,359,184571,1,12,0:0:0:0:
75,277,184791,1,0,0:0:0:0:
157,334,185012,6,0,P|211:319|254:315,1,75.0000028610231,12|0,0:0|0:0,0:0:0:0:
305,276,185453,2,0,P|341:282|377:293,1,75.0000028610231,2|4,0:0|0:3,0:0:0:0:
455,268,185894,2,0,P|489:291|516:321,1,75.0000028610231,2|4,0:0|0:3,0:0:0:0:
377,293,186335,5,14,0:0:0:0:
361,216,186556,1,4,0:3:0:0:
433,169,186777,2,0,P|461:82|461:67,1,75.0000028610231,2|4,0:0|0:3,0:0:0:0:
421,22,187218,1,14,0:0:0:0:
91,100,187659,6,0,P|81:64|62:32,1,75.0000028610231,4|6,0:2|0:3,0:0:0:0:
91,100,188100,2,0,P|64:126|46:159,1,75.0000028610231,6|6,0:3|0:3,0:0:0:0:
91,100,188541,2,0,P|127:109|164:110,1,75.0000028610231,6|6,0:3|0:3,0:0:0:0:
228,204,188983,6,0,P|191:204|155:215,1,75.0000028610231,6|6,0:3|0:3,0:0:0:0:
228,204,189424,2,0,P|247:236|273:262,1,75.0000028610231,6|6,0:3|0:3,0:0:0:0:
228,204,189865,2,0,P|247:171|257:135,1,75.0000028610231,6|6,0:3|0:3,0:0:0:0:
348,48,190306,6,0,L|407:95,1,75.0000028610231,6|6,0:3|0:3,0:0:0:0:
478,68,190747,2,0,L|407:95,1,75.0000028610231,6|6,0:3|0:3,0:0:0:0:
394,169,191188,2,0,L|407:95,1,75.0000028610231,6|6,0:3|0:3,0:0:0:0:
320,238,191630,6,0,L|332:313,1,75.0000028610231,6|6,0:3|0:3,0:0:0:0:
274,360,192071,2,0,L|331:312,1,75.0000028610231,6|6,0:3|0:3,0:0:0:0:
401,340,192512,2,0,L|331:312,1,75.0000028610231,6|6,0:3|0:3,0:0:0:0:
178,255,192953,5,4,0:2:0:0:
44,81,204953,5,4,0:3:0:0:
75,196,205440,1,4,0:3:0:0:
108,311,205928,1,4,0:3:0:0:
108,311,206416,5,4,0:3:0:0:
170,164,206907,1,4,0:3:0:0:
223,22,207399,1,4,0:3:0:0:
223,22,207879,6,0,P|256:26|289:48,1,50,4|4,0:3|0:3,0:0:0:0:
353,53,208355,2,0,P|378:94|380:118,1,50,4|4,0:3|0:3,0:0:0:0:
441,153,208831,2,0,P|430:207|421:221,1,50,4|4,0:3|0:3,0:0:0:0:
332,247,209307,6,0,L|344:314,1,50,4|4,0:3|0:3,0:0:0:0:
265,334,209775,2,0,L|253:266,1,50,4|4,0:3|0:3,0:0:0:0:
181,322,210244,2,0,L|190:378,1,50,4|4,0:3|0:3,0:0:0:0:
97,353,210705,5,4,0:3:0:0:
97,353,210928,1,4,0:3:0:0:
97,353,211152,1,4,0:3:0:0:
97,353,211376,1,4,0:3:0:0:
97,353,211600,2,0,P|36:371|29:370,1,50,4|4,0:3|0:3,0:0:0:0:
0,259,212048,5,4,0:3:0:0:
0,259,212269,1,4,0:3:0:0:
0,259,212490,1,4,0:3:0:0:
0,259,212712,1,4,0:3:0:0:
0,259,212933,2,0,P|46:282|60:282,1,50,4|4,0:3|0:3,0:0:0:0:
64,192,213376,5,4,0:3:0:0:
401,192,217269,2,0,L|526:191,2,112.500004291535,2|2|2,0:0|0:0|0:0,0:0:0:0:
401,192,218121,6,0,P|362:166|290:161,1,100,4|8,0:1|0:0,0:0:0:0:
290,173,218430,2,0,P|265:289|245:315,1,150,4|10,0:3|0:0,0:0:0:0:
86,306,218945,2,0,P|64:262|61:195,1,100,6|8,0:3|0:0,0:0:0:0:
165,117,219358,2,0,P|137:143|118:151,2,50,6|4|8,0:3|0:3|0:0,0:0:0:0:
247,8,219770,6,0,L|345:25,1,100,6|8,0:3|0:0,0:0:0:0:
463,90,220182,2,0,L|512:83,2,50,2|4|8,0:0|0:3|0:0,0:0:0:0:
352,155,220595,2,0,P|331:197|331:259,1,100,6|8,0:3|0:0,0:0:0:0:
335,273,220904,2,0,P|262:278|229:300,1,100,6|12,0:3|0:3,0:0:0:0:
228,312,221213,1,10,0:0:0:0:
204,187,221419,6,0,L|188:74,1,100,4|8,0:2|0:0,0:0:0:0:
86,20,221832,1,6,0:3:0:0:
26,119,222038,1,10,0:0:0:0:
99,205,222244,2,0,P|86:275|57:309,1,100,6|8,0:3|0:0,0:0:0:0:
49,311,222553,2,0,P|127:324|187:370,1,150,6|10,0:3|0:0,0:0:0:0:
319,383,223069,6,0,P|358:358|392:310,1,100,4|8,0:3|0:0,0:0:0:0:
397,291,223378,2,0,L|374:134,1,150,4|8,0:3|0:0,0:0:0:0:
443,12,223894,2,0,P|384:49|342:55,1,100,6|8,0:3|0:0,0:0:0:0:
333,41,224203,2,0,P|276:22|233:30,1,100,6|4,0:3|0:3,0:0:0:0:
218,44,224512,1,10,0:0:0:0:
168,156,224718,6,0,L|186:267,1,100,4|8,0:2|0:0,0:0:0:0:
304,335,225131,1,6,0:3:0:0:
309,310,225234,1,4,0:3:0:0:
314,285,225337,2,0,L|296:172,1,100,10|4,0:0|0:3,0:0:0:0:
184,254,225749,2,0,P|120:258|82:242,1,100,10|0,0:0|0:0,0:0:0:0:
32,146,226162,2,0,L|16:79,1,50,8|0,0:0|0:0,0:0:0:0:
34,76,226368,5,4,0:3:0:0:
146,132,226574,2,0,P|220:111|245:94,1,100,10|0,0:0|0:0,0:0:0:0:
255,80,226883,1,4,0:3:0:0:
272,62,226986,2,0,L|380:78,1,100,10|6,0:0|0:3,0:0:0:0:
480,126,227399,1,8,0:0:0:0:
462,139,227502,2,0,P|444:201|450:256,1,100,6|4,0:3|0:3,0:0:0:0:
459,256,227811,6,0,L|477:359,1,100,10|4,0:0|0:3,0:0:0:0:
330,294,228224,2,0,L|346:180,1,100,10|0,0:0|0:0,0:0:0:0:
327,176,228533,1,4,0:3:0:0:
310,157,228636,2,0,P|239:180|214:207,1,100,10|4,0:0|0:3,0:0:0:0:
120,263,229048,2,0,P|135:190|124:154,1,100,10|0,0:0|0:0,0:0:0:0:
98,45,229461,2,0,P|130:82|142:87,1,50,10|0,0:0|0:0,0:0:0:0:
154,88,229667,6,0,L|269:71,1,100,6|8,0:3|0:0,0:0:0:0:
270,55,229976,2,0,L|388:68,1,100,6|4,0:3|0:3,0:0:0:0:
393,57,230285,1,10,0:0:0:0:
492,122,230492,2,0,P|479:192|453:225,1,100,4|8,0:3|0:0,0:0:0:0:
324,199,230904,2,0,P|309:155|308:136,2,50,2|4|8,0:3|0:3|0:0,0:0:0:0:
384,315,231316,5,4,0:0:0:0:
281,288,231523,1,10,0:0:0:0:
256,290,231626,2,0,P|208:313|172:357,1,100,6|6,0:3|0:3,0:0:0:0:
168,370,231935,1,8,0:0:0:0:
43,337,232141,2,0,L|27:217,1,100,6|8,0:3|0:0,0:0:0:0:
73,131,232553,1,2,0:3:0:0:
181,166,232760,1,8,0:0:0:0:
260,90,232966,6,0,L|272:-14,1,100,4|8,0:3|0:0,0:0:0:0:
393,30,233378,1,2,0:3:0:0:
389,54,233481,1,4,0:3:0:0:
386,78,233584,1,8,0:0:0:0:
506,69,233791,5,4,0:2:0:0:
165,25,234203,1,4,0:0:0:0:
506,69,234615,5,4,0:1:0:0:
475,146,234829,2,0,P|449:161|390:168,1,75.0000028610231,2|0,0:0|0:0,0:0:0:0:
260,77,235257,1,6,0:3:0:0:
343,52,235472,2,0,P|379:57|412:75,1,75.0000028610231,6|0,0:3|0:0,0:0:0:0:
412,75,235793,1,4,0:3:0:0:
412,75,235900,6,0,P|304:162|295:194,1,150.000005722046,14|0,0:0|0:0,0:0:0:0:
300,263,236543,1,6,0:3:0:0:
380,312,236757,1,6,0:3:0:0:
380,312,237186,6,0,L|212:296,1,150.000005722046,6|0,0:3|0:0,0:0:0:0:
144,331,237829,1,6,0:3:0:0:
81,280,238043,2,0,P|74:232|89:191,1,75.0000028610231,6|0,0:3|0:2,0:0:0:0:
80,206,238365,1,4,0:3:0:0:
80,206,238472,2,0,L|174:194,1,75.0000028610231,14|4,0:0|0:3,0:0:0:0:
75,75,238900,6,0,L|27:64,1,37.5000014305115,8|4,0:0|0:3,0:0:0:0:
51,25,239115,2,0,L|87:33,1,37.5000014305115,4|4,0:3|0:3,0:0:0:0:
117,66,239329,2,0,B|150:71|150:71|192:45|192:45|239:53,1,112.500004291535,12|2,0:0|0:0,0:0:0:0:
221,49,239757,5,4,0:1:0:0:
210,136,239972,2,0,P|244:171|283:188,1,75.0000028610231,2|0,0:0|0:0,0:0:0:0:
429,112,240400,1,6,0:3:0:0:
372,189,240615,2,0,P|371:263|381:279,1,75.0000028610231,6|0,0:3|0:0,0:0:0:0:
370,261,240936,1,4,0:3:0:0:
370,261,241043,2,0,P|449:280|506:351,1,150.000005722046,14|0,0:0|0:0,0:0:0:0:
397,356,241686,1,6,0:3:0:0:
303,383,241900,1,6,0:3:0:0:
303,383,242329,6,0,P|262:275|236:250,1,150.000005722046,6|0,0:3|0:0,0:0:0:0:
141,257,242972,1,6,0:3:0:0:
79,183,243186,1,6,0:3:0:0:
248,100,243615,6,0,L|196:112,3,37.5000014305115,8|8|4|4,0:0|0:0|0:3|0:3,0:0:0:0:
174,141,244043,2,0,L|210:132,3,37.5000014305115,8|4|4|4,0:0|0:3|0:3|0:3,0:0:0:0:
225,149,244472,1,4,0:0:0:0:
306,227,244686,1,2,0:0:0:0:
306,227,244793,1,2,0:0:0:0:
306,227,244900,5,4,0:1:0:0:
380,276,245120,2,0,P|389:259|394:241,3,37.5000014305115,6|2|2|2,0:3|0:0|0:0|0:0,0:0:0:0:
394,202,245561,1,6,0:3:0:0:
473,284,245782,2,0,P|481:300|486:318,3,37.5000014305115,2|2|2|2,0:0|0:0|0:0|0:0,0:0:0:0:
469,354,246223,6,0,P|425:368|412:380,5,37.5000014305115,14|2|2|2|2|2,0:0|0:0|0:0|0:0|0:0|0:0,0:0:0:0:
404,382,246885,1,6,0:3:0:0:
305,352,247105,2,0,P|287:309|288:291,3,37.5000014305115,6|2|2|2,0:3|0:0|0:0|0:0,0:0:0:0:
286,279,247547,5,6,0:3:0:0:
189,322,247767,2,0,L|133:329,3,37.5000014305115,6|2|2|2,0:3|0:0|0:0|0:0,0:0:0:0:
114,306,248208,1,6,0:3:0:0:
174,231,248429,2,0,L|230:238,3,37.5000014305115,6|2|2|2,0:0|0:0|0:0|0:0,0:0:0:0:
243,210,248870,5,6,0:0:0:0:
193,112,249091,1,10,0:0:0:0:
193,112,249201,1,6,0:3:0:0:
193,112,249311,2,0,L|184:165,2,37.5000014305115,6|10|6,0:0|0:0|0:3,0:0:0:0:
210,0,249752,1,6,0:0:0:0:
279,62,249973,1,2,0:0:0:0:
122,45,250194,5,4,0:1:0:0:
55,128,250414,2,0,P|69:164|81:180,3,37.5000014305115,6|2|2|2,0:3|0:0|0:0|0:0,0:0:0:0:
103,185,250855,1,6,0:3:0:0:
0,266,251076,2,0,P|12:251|27:241,3,37.5000014305115,6|2|2|2,0:3|0:0|0:0|0:0,0:0:0:0:
68,262,251517,6,0,P|81:276|97:286,5,37.5000014305115,14|2|2|2|2|2,0:0|0:0|0:0|0:0|0:0|0:0,0:0:0:0:
140,296,252179,1,6,0:3:0:0:
230,366,252400,2,0,P|269:343|294:338,3,37.5000014305115,6|2|2|2,0:3|0:0|0:0|0:0,0:0:0:0:
306,348,252841,5,6,0:2:0:0:
372,282,253061,2,0,L|379:225,3,37.5000014305115,6|2|2|2,0:3|0:0|0:0|0:0,0:0:0:0:
355,212,253502,1,6,0:3:0:0:
455,188,253723,2,0,L|451:151,3,37.5000014305115,6|2|2|2,0:0|0:0|0:0|0:0,0:0:0:0:
473,116,254164,6,0,P|439:66|408:48,1,75.0000028610231,14|6,0:0|0:3,0:0:0:0:
331,116,254605,1,6,0:3:0:0:
249,138,254826,1,6,0:3:0:0:
146,74,255047,1,12,0:0:0:0:
60,340,255488,5,4,0:1:0:0:
60,340,255929,2,0,L|142:352,1,62.5,4|4,0:3|0:3,0:0:0:0:
136,343,256260,1,4,0:3:0:0:
150,337,256370,2,0,L|232:349,1,62.5,4|4,0:3|0:3,0:0:0:0:
347,366,256811,5,12,0:0:0:0:
347,366,257252,2,0,P|330:318|331:288,1,62.5,4|4,0:3|0:3,0:0:0:0:
339,294,257583,1,4,0:3:0:0:
347,280,257694,2,0,P|368:226|391:205,1,62.5,4|0,0:3|0:0,0:0:0:0:
488,162,258135,5,12,0:0:0:0:
488,162,258576,2,0,L|414:149,1,62.5,4|4,0:3|0:3,0:0:0:0:
413,141,258907,1,4,0:3:0:0:
400,131,259017,2,0,L|315:115,1,62.5,4|4,0:3|0:3,0:0:0:0:
238,160,259458,5,12,0:0:0:0:
238,160,259679,1,4,0:3:0:0:
148,78,259900,1,12,0:0:0:0:
148,78,260120,1,4,0:3:0:0:
116,194,260341,1,12,0:0:0:0:
116,194,260782,6,0,P|55:188|-17:156,1,125,4|0,0:1|0:0,0:0:0:0:
75,104,261444,2,0,P|45:60|36:37,1,62.5,4|2,0:3|0:0,0:0:0:0:
254,153,262105,5,12,0:0:0:0:
254,153,262326,1,4,0:3:0:0:
365,87,262547,1,12,0:0:0:0:
365,87,262767,1,4,0:3:0:0:
439,195,262988,1,12,0:0:0:0:
439,195,263429,6,0,P|426:264|433:335,1,125,4|0,0:1|0:0,0:0:0:0:
354,356,264091,2,0,P|314:320|299:291,1,62.5,4|4,0:3|0:3,0:0:0:0:
67,100,264752,5,12,0:0:0:0:
219,272,265194,2,0,L|189:281,3,31.25,8|4|4|4,0:0|0:3|0:3|0:3,0:0:0:0:
173,280,265635,1,8,0:0:0:0:
173,280,266076,6,0,L|157:355,1,64.9999970245363,6|6,0:3|0:3,0:0:0:0:
100,237,266517,2,0,L|48:293,1,64.9999970245363,6|6,0:3|0:3,0:0:0:0:
61,159,266958,2,0,L|-11:182,1,64.9999970245363,6|6,0:3|0:3,0:0:0:0:
122,98,267400,6,0,P|160:112|198:120,1,69.9999978637696,6|6,0:3|0:3,0:0:0:0:
265,5,267841,1,6,0:3:0:0:
181,30,268061,1,6,0:3:0:0:
334,67,268282,2,0,P|349:21|354:-12,1,69.9999978637696,6|6,0:3|0:3,0:0:0:0:
268,131,268723,6,0,L|307:201,1,75.0000028610231,6|6,0:3|0:3,0:0:0:0:
442,187,269164,1,6,0:3:0:0:
386,258,269385,1,6,0:3:0:0:
452,361,269605,2,0,L|369:354,1,75.0000028610231,6|6,0:3|0:3,0:0:0:0:
241,322,270047,5,6,0:3:0:0:
138,361,270267,1,6,0:3:0:0:
68,278,270488,1,6,0:3:0:0:
126,184,270708,1,6,0:3:0:0:
232,211,270929,1,6,0:3:0:0:
161,273,271150,5,6,0:3:0:0:
