osu file format v14

[General]
AudioFilename: audio.mp3
AudioLeadIn: 0
PreviewTime: 14416
Countdown: 0
SampleSet: Drum
StackLeniency: 0.7
Mode: 0
LetterboxInBreaks: 0
WidescreenStoryboard: 1

[Editor]
DistanceSpacing: 1.2
BeatDivisor: 4
GridSize: 16
TimelineZoom: 4.100003

[Metadata]
Title:Old Wounds
TitleUnicode:Old Wounds
Artist:PUP
ArtistUnicode:PUP
Creator:Hectic
Version:extreme
Source:
Tags:h4d0uk3n1 rock english garage alternative featured artist mappers' guild mpg fa The Dream Is Over
BeatmapID:2455429
BeatmapSetID:1173552

[Difficulty]
HPDrainRate:6.5
CircleSize:3.5
OverallDifficulty:8.6
ApproachRate:9.5
SliderMultiplier:1.4
SliderTickRate:1

[Events]
//Background and Video events
0,0,";;;;;;;;;;;;;;;;;;;;;;;;;;;;;;;;;;;;;;;;;;;;;;;;;;;;;;;.jpg",0,0
//Break Periods
2,4700,8951
2,107957,111722
//Storyboard Layer 0 (Background)
//Storyboard Layer 1 (Fail)
//Storyboard Layer 2 (Pass)
//Storyboard Layer 3 (Foreground)
//Storyboard Layer 4 (Overlay)
//Storyboard Sound Samples

[TimingPoints]
134,312.5,4,3,1,55,1,0
1540,311.688311688312,4,3,1,55,1,0
1695,311.688311688312,4,3,1,55,1,0
4501,312.5,4,3,1,55,1,0
7938,303.030303030303,4,3,1,55,1,0
8544,310.880829015544,4,3,1,55,1,0
9476,310.880829015544,4,3,1,55,1,0
9476,-333.333333333333,4,3,1,55,0,0
11963,307.692307692308,4,3,1,55,1,0
11963,-100,4,3,1,55,0,0
13116,-100,4,3,1,55,0,0
13193,315.789473684211,4,3,1,55,1,0
13350,355.029585798817,4,3,1,55,1,0
13527,244.897959183673,4,3,1,55,1,0
13649,300,4,3,1,55,1,0
14099,305.343511450382,4,3,1,55,1,0
14099,-200,4,3,1,55,0,0
14404,331.491712707182,4,3,1,70,1,1
14404,-50,4,3,1,70,0,1
14735,310.880829015544,4,3,1,70,1,1
14735,-50,4,3,1,70,0,1
15039,-50,4,3,1,70,0,1
15356,314.96062992126,4,3,1,70,1,1
15666,-40,4,3,1,70,0,1
15670,319.148936170213,4,3,1,70,1,1
16308,310.880829015544,4,3,1,70,1,1
16308,-40,4,3,1,70,0,1
16929,327.868852459016,4,3,1,70,1,1
17256,312.5,4,3,1,70,1,1
17256,-40,4,3,1,70,0,1
17881,307.692307692308,4,3,1,70,1,1
17881,-40,4,3,1,70,0,1
18188,312.5,4,3,1,70,1,1
18188,-40,4,3,1,70,0,1
19125,300,4,3,1,70,1,1
19125,-40,4,3,1,70,0,1
19275,363.636363636364,4,3,1,70,1,1
19275,-100,4,3,1,70,0,0
19456,312.5,4,3,1,70,1,1
19456,-33.3333333333333,4,3,1,70,0,1
19768,304.568527918782,4,3,1,70,1,1
19768,-33.3333333333333,4,3,1,70,0,1
20072,314.96062992126,4,3,1,70,1,1
20072,-40,4,3,1,70,0,1
20701,337.078651685393,4,3,1,70,1,1
20701,-40,4,3,1,70,0,1
21038,285.714285714286,4,3,1,70,1,1
21180,342.857142857143,4,3,1,70,1,1
21351,292.682926829268,4,3,1,70,1,1
21351,-40,4,3,1,70,0,1
21497,342.857142857143,4,3,1,70,1,1
21668,312.5,4,3,1,70,1,1
21668,-40,4,3,1,70,0,1
21978,-40,4,3,1,70,0,1
21980,337.078651685393,4,3,1,70,1,1
22317,315.789473684211,4,3,1,70,1,1
22317,-40,4,3,1,70,0,1
23264,320.855614973262,4,3,1,70,1,1
23271,-40,4,3,1,70,0,1
23584,285.714285714286,4,3,1,70,1,1
23726,312.5,4,3,1,70,1,1
23726,-40,4,3,1,70,0,1
24038,329.67032967033,4,3,1,70,1,1
24202,309.278350515464,4,3,1,70,1,1
24356,-100,4,3,1,70,0,0
24511,312.5,4,3,1,70,1,1
24511,-40,4,3,1,70,0,1
24823,307.692307692308,4,3,1,70,1,1
25592,327.868852459016,4,3,1,70,1,1
25919,297.029702970297,4,3,1,70,1,1
26067,307.692307692308,4,3,1,70,1,1
26374,292.682926829268,4,3,1,70,1,1
26813,361.44578313253,4,3,1,70,1,1
26993,310.880829015544,4,3,1,70,1,1
26993,-40,4,3,1,70,0,1
27925,306.122448979592,4,3,1,70,1,1
28231,306.122448979592,4,3,1,70,1,1
28843,301.507537688442,4,3,1,70,1,1
29295,329.67032967033,4,3,1,55,1,0
29295,-40,4,3,1,55,0,0
29453,-66.6666666666667,4,3,1,55,0,0
29624,312.5,4,3,1,55,1,0
29780,309.278350515464,4,3,1,55,1,0
29780,-66.6666666666667,4,3,1,55,0,0
30398,317.460317460317,4,3,1,55,1,0
30398,-66.6666666666667,4,3,1,55,0,0
30715,314.13612565445,4,3,1,55,1,0
30715,-66.6666666666667,4,3,1,55,0,0
31343,317.460317460317,4,3,1,55,1,0
31343,-66.6666666666667,4,3,1,55,0,0
31660,300,4,3,1,55,1,0
31660,-66.6666666666667,4,3,1,55,0,0
31960,324.324324324324,4,3,1,70,1,1
31960,-40,4,3,1,70,0,1
32284,312.5,4,3,1,70,1,1
32284,-40,4,3,1,70,0,1
33214,-100,4,3,1,70,0,1
33221,304.568527918782,4,3,1,70,1,1
33830,300,4,3,1,70,1,1
34280,312.5,4,3,1,55,1,0
34280,-67.1140939597315,4,3,1,55,0,0
34438,-66.6666666666667,4,3,1,55,0,0
34592,344.827586206897,4,3,1,55,1,0
34764,306.122448979592,4,3,1,55,1,0
35223,319.148936170213,4,3,1,55,1,0
35223,-66.6666666666667,4,3,1,55,0,0
35542,312.5,4,3,1,55,1,0
35698,315.789473684211,4,3,1,55,1,0
35698,-66.6666666666667,4,3,1,55,0,0
36171,300,4,3,1,55,1,0
36171,-66.6666666666667,4,3,1,55,0,0
36471,340.909090909091,4,3,1,55,1,0
36641,279.06976744186,4,3,1,55,1,0
36641,-66.6666666666667,4,3,1,55,0,0
36694,-66.6666666666667,4,3,1,55,0,0
36780,340.909090909091,4,3,1,55,1,0
36950,312.5,4,3,1,70,1,1
36950,-100,4,3,1,70,0,1
37262,324.324324324324,4,3,1,70,1,1
38234,304.568527918782,4,3,1,70,1,1
38234,-100,4,3,1,70,0,1
38843,300,4,3,1,70,1,1
39143,342.857142857143,4,3,1,70,1,0
39143,-100,4,3,1,70,0,0
39314,312.5,4,3,1,70,1,1
39314,-100,4,3,1,70,0,1
40251,329.67032967033,4,3,1,70,1,1
40745,312.5,4,3,1,70,1,1
41057,331.491712707182,4,3,1,70,1,1
41222,320.855614973262,4,3,1,70,1,1
41542,312.5,4,3,1,70,1,1
42010,333.333333333333,4,3,1,70,1,1
42176,307.692307692308,4,3,1,70,1,1
42637,337.078651685393,4,3,1,70,1,1
42805,314.13612565445,4,3,1,70,1,1
43590,312.093628088427,4,3,1,55,1,0
43590,-100,4,3,1,55,0,0
45773,-66.6666666666667,4,3,1,55,0,0
45774,340.909090909091,4,3,1,55,1,0
45944,314.13612565445,4,3,1,55,1,0
45944,-66.6666666666667,4,3,1,55,0,0
46258,315.789473684211,4,3,1,70,1,1
46258,-40,4,3,1,70,0,1
47521,320.855614973262,4,3,1,70,1,1
48002,-40,4,3,1,70,0,1
48162,270.27027027027,4,3,1,70,1,1
48297,357.142857142857,4,3,1,70,1,1
48475,312.5,4,3,1,70,1,1
48787,320.855614973262,4,3,1,55,1,0
50872,307.692307692308,4,3,1,55,1,0
50872,-66.6666666666667,4,3,1,55,0,0
51333,312.5,4,3,1,55,1,1
51333,-40,4,3,1,55,0,1
51645,-100,4,3,1,55,0,0
51958,306.122448979592,4,3,1,55,1,0
52570,312.5,4,3,1,55,1,0
52570,-66.6666666666667,4,3,1,55,0,0
53507,298.507462686567,4,3,1,55,1,0
53805,317.460317460317,4,3,1,70,1,1
53805,-40,4,3,1,70,0,1
54439,312.5,4,3,1,70,1,1
54439,-66.6666666666667,4,3,1,55,0,1
55064,320.855614973262,4,3,1,70,1,1
55064,-40,4,3,1,70,0,1
55866,338.983050847458,4,3,1,70,1,1
56035,304.568527918782,4,3,1,70,1,1
56035,-40,4,3,1,70,0,1
56336,-100,4,3,1,70,0,1
56339,337.078651685393,4,3,1,70,1,1
56676,312.5,4,3,1,70,1,1
57301,306.122448979592,4,3,1,70,1,1
57607,326.086956521739,4,3,1,70,1,1
57607,-40,4,3,1,70,0,1
57933,304.568527918782,4,3,1,70,1,1
58085,-40,4,3,1,70,0,1
58389,337.078651685393,4,3,1,70,1,1
58557,279.06976744186,4,3,1,70,1,1
58557,-40,4,3,1,70,0,1
58696,-100,4,3,1,70,0,0
58836,329.67032967033,4,3,1,70,1,1
58836,-28.5714285714286,4,3,1,70,0,1
59487,-40,4,3,1,70,0,1
59495,315.789473684211,4,3,1,70,1,1
60129,-40,4,3,1,70,0,1
60600,361.44578313253,4,3,1,70,1,1
60600,-40,4,3,1,70,0,1
60780,288.461538461538,4,3,1,70,1,1
60924,317.460317460317,4,3,1,70,1,1
61082,-40,4,3,1,70,0,1
61398,-40,4,3,1,70,0,1
61400,317.460317460317,4,3,1,70,1,1
61717,-40,4,3,1,70,0,1
62352,312.5,4,3,1,70,1,1
62352,-40,4,3,1,70,0,1
62661,-40,4,3,1,70,0,1
62664,327.868852459016,4,3,1,70,1,1
62991,285.714285714286,4,3,1,70,1,1
63133,314.13612565445,4,3,1,70,1,1
63133,-40,4,3,1,70,0,1
63761,-100,4,3,1,70,0,0
63918,307.692307692308,4,3,1,70,1,1
63918,-100,4,3,1,70,0,1
64225,314.13612565445,4,3,1,70,1,1
66109,285.714285714286,4,3,1,70,1,1
66251,348.837209302326,4,3,1,70,1,1
66425,312.5,4,3,1,70,1,1
67050,309.278350515464,4,3,1,70,1,1
68287,303.030303030303,4,3,1,70,1,1
68741,312.5,4,3,1,55,1,0
68741,-66.6666666666667,4,3,1,55,0,0
68896,-66.6666666666667,4,3,1,55,0,0
69209,314.13612565445,4,3,1,55,1,0
69209,-66.6666666666667,4,3,1,55,0,0
69837,309.278350515464,4,3,1,55,1,0
69837,-66.6666666666667,4,3,1,55,0,0
70764,324.324324324324,4,3,1,55,1,0
70764,-66.6666666666667,4,3,1,55,0,0
71088,270.27027027027,4,3,1,55,1,0
71088,-66.6666666666667,4,3,1,55,0,0
71223,340.909090909091,4,3,1,55,1,0
71393,315.789473684211,4,3,1,70,1,1
71393,-40,4,3,1,70,0,1
72024,320.855614973262,4,3,1,70,1,1
72024,-40,4,3,1,70,0,1
72665,312.5,4,3,1,70,1,1
72669,-100,4,3,1,70,0,1
73290,307.692307692308,4,3,1,70,1,1
73751,320.855614973262,4,3,1,55,1,0
73751,-66.6666666666667,4,3,1,55,0,0
73919,-66.6666666666667,4,3,1,55,0,0
74071,352.941176470588,4,3,1,55,1,0
74247,312.5,4,3,1,55,1,0
74715,324.324324324324,4,3,1,55,1,0
74715,-66.6666666666667,4,3,1,55,0,0
75039,303.030303030303,4,3,1,55,1,0
75190,312.5,4,3,1,55,1,0
75190,-66.6666666666667,4,3,1,55,0,0
75346,389.61038961039,4,3,1,55,1,0
75540,266.666666666667,4,3,1,55,1,0
75673,312.5,4,3,1,55,1,0
75673,-66.6666666666667,4,3,1,55,0,0
75985,350.877192982456,4,3,1,55,1,0
76160,279.06976744186,4,3,1,55,1,0
76299,361.44578313253,4,3,1,55,1,0
76479,312.5,4,3,1,70,1,1
76479,-100,4,3,1,70,0,1
77260,340.909090909091,4,3,1,70,1,1
77430,315.789473684211,4,3,1,70,1,1
77744,-40,4,3,1,70,0,1
77745,312.5,4,3,1,70,1,1
78370,300,4,3,1,70,1,1
78670,329.67032967033,4,3,1,70,1,0
78681,-40,4,3,1,70,0,0
78834,312.5,4,3,1,70,1,1
78834,-40,4,3,1,70,0,1
78994,-40,4,3,1,70,0,1
79146,365.853658536585,4,3,1,70,1,1
79328,304.568527918782,4,3,1,70,1,1
79328,-40,4,3,1,70,0,1
79784,346.820809248555,4,3,1,70,1,1
79957,312.5,4,3,1,70,1,1
79957,-40,4,3,1,70,0,1
80269,320.855614973262,4,3,1,70,1,1
80269,-40,4,3,1,70,0,1
80279,-40,4,3,1,70,0,1
80589,312.5,4,3,1,70,1,1
80745,-40,4,3,1,70,0,1
81370,324.324324324324,4,3,1,70,1,1
81370,-28.5714285714286,4,3,1,70,0,1
81526,-40,4,3,1,70,0,1
81856,312.5,4,3,1,70,1,1
82324,348.837209302326,4,3,1,70,1,1
82498,329.67032967033,4,3,1,70,1,1
82498,-40,4,3,1,70,0,1
82827,312.5,4,3,1,70,1,1
82827,-40,4,3,1,70,0,1
84077,331.491712707182,4,3,1,70,1,0
84077,-100,4,3,1,70,0,0
84574,320.855614973262,4,3,1,70,1,0
86499,312.5,4,3,1,70,1,0
86503,-100,4,3,1,70,0,0
86513,-100,4,3,1,70,0,0
87020,-100,4,3,1,70,0,0
87645,-100,4,3,1,70,0,0
87749,413.793103448276,4,3,1,70,1,0
87950,-100,4,3,1,70,0,0
87955,320.855614973262,4,3,1,70,1,0
88436,326.086956521739,4,3,1,70,1,0
89414,312.5,4,3,1,70,1,0
89882,326.086956521739,4,3,1,70,1,0
90366,-100,4,3,1,70,0,0
90371,335.195530726257,4,3,1,70,1,0
90915,-100,4,3,1,70,0,0
91536,-100,4,3,1,70,0,0
91544,292.682926829268,4,3,1,70,1,0
91836,312.5,4,3,1,70,1,0
91840,-100,4,3,1,70,0,0
92148,344.827586206897,4,3,1,70,1,0
92320,312.5,4,3,1,70,1,0
92788,319.148936170213,4,3,1,70,1,0
92792,-100,4,3,1,70,0,0
93585,292.682926829268,4,3,1,70,1,0
93731,307.692307692308,4,3,1,70,1,0
94192,312.5,4,3,1,70,1,0
94192,-40,4,3,1,70,0,0
94660,329.67032967033,4,3,1,70,1,0
94660,-40,4,3,1,70,0,0
94989,322.58064516129,4,3,1,70,1,0
95311,304.568527918782,4,3,1,70,1,0
95311,-40,4,3,1,70,0,0
95611,-40,4,3,1,70,0,0
95615,319.148936170213,4,3,1,70,1,0
95934,312.5,4,3,1,70,1,0
95934,-40,4,3,1,70,0,0
96246,319.148936170213,4,3,1,70,1,0
96565,326.975476839237,4,3,1,70,1,0
96887,-100,4,3,1,70,0,0
96891,312.5,4,3,1,70,1,0
97203,329.67032967033,4,3,1,70,1,0
97367,319.148936170213,4,3,1,70,1,0
97845,323.014804845222,4,3,1,70,1,0
97845,-101.010101010101,4,3,1,70,0,0
97854,-100,4,3,1,70,0,0
98329,312.5,4,3,1,70,1,0
98797,297.029702970297,4,3,1,70,1,0
99242,333.333333333333,4,3,1,70,1,0
99242,-40,4,3,1,70,0,0
99252,-40.3551251008878,4,3,1,70,0,0
99408,-40,4,3,1,70,0,0
99575,319.148936170213,4,3,1,70,1,0
99575,-40,4,3,1,70,0,0
99734,319.148936170213,4,3,1,70,1,0
99734,-40,4,3,1,70,0,0
100372,-40,4,3,1,70,0,0
100691,324.324324324324,4,3,1,70,1,0
100691,-40,4,3,1,70,0,0
101339,317.460317460317,4,3,1,70,1,0
101339,-40,4,3,1,70,0,0
101967,-100,4,3,1,70,0,0
101973,320.855614973262,4,3,1,70,1,0
102454,303.030303030303,4,3,1,70,1,0
102757,338.983050847458,4,3,1,70,1,0
102926,320.855614973262,4,3,1,70,1,0
103407,312.5,4,3,1,70,1,0
103719,348.837209302326,4,3,1,70,1,0
103893,326.086956521739,4,3,1,70,1,0
104382,319.148936170213,4,3,1,70,1,0
104860,324.324324324324,4,3,1,70,1,0
104860,-101.010101010101,4,3,1,70,0,0
105346,322.927879440258,4,3,1,70,1,0
105830,322.58064516129,4,3,1,70,1,0
105830,-100,4,3,1,70,0,0
106797,307.692307692308,4,3,1,70,1,0
107258,344.827586206897,4,3,1,70,1,0
107430,327.868852459016,4,3,1,70,1,0
107757,325.20325203252,4,3,1,55,1,0
107757,-333.333333333333,4,3,1,55,0,0
110358,314.96062992126,4,3,1,55,1,0
112247,311.688311688312,4,3,1,55,1,0
112248,-66.6666666666667,4,3,1,55,0,0
112714,315.789473684211,4,3,1,70,1,1
112714,-33.3333333333333,4,3,1,70,0,1
112871,315.789473684211,4,3,1,70,1,1
112873,-40,4,3,1,70,0,1
114134,327.868852459016,4,3,1,70,1,1
114142,-40,4,3,1,70,0,1
114461,315.789473684211,4,3,1,70,1,1
114461,-40,4,3,1,70,0,1
115092,301.507537688442,4,3,1,70,1,1
115238,-33.5570469798658,4,3,1,70,0,1
115400,-40,4,3,1,70,0,1
115544,337.078651685393,4,3,1,70,1,1
115712,319.148936170213,4,3,1,70,1,1
115712,-40,4,3,1,70,0,1
116350,309.278350515464,4,3,1,70,1,1
116659,-40,4,3,1,70,0,1
117277,329.67032967033,4,3,1,70,1,1
117606,315.789473684211,4,3,1,70,1,1
117763,-33.3333333333333,4,3,1,70,0,1
117921,-40,4,3,1,70,0,1
118079,324.324324324324,4,3,1,70,1,1
118565,315.789473684211,4,3,1,70,1,1
118722,-40,4,3,1,70,0,1
119196,307.692307692308,4,3,1,70,1,1
119196,-40,4,3,1,70,0,1
119811,301.507537688442,4,3,1,70,1,1
120112,-100,4,3,1,70,0,0
120263,333.333333333333,4,3,1,70,1,1
120263,-33.3333333333333,4,3,1,70,0,1
120439,-40,4,3,1,70,0,1
120763,312.5,4,3,1,70,1,1
120763,-40,4,3,1,70,0,1
121700,320.855614973262,4,3,1,70,1,1
121700,-40,4,3,1,70,0,1
121709,-40,4,3,1,70,0,1
122822,319.148936170213,4,3,1,70,1,1
122822,-33.3333333333333,4,3,1,70,0,1
122972,-40,4,3,1,70,0,1
123300,312.5,4,3,1,70,1,1
123300,-40,4,3,1,70,0,1
124237,320.855614973262,4,3,1,70,1,1
124248,-40,4,3,1,70,0,1
125199,307.692307692308,4,3,1,70,1,1
125352,-100,4,3,1,70,0,0
125506,317.460317460317,4,3,1,70,1,1
125506,-100,4,3,1,70,0,1
126458,312.5,4,3,1,70,1,1
126762,-100,4,3,1,70,0,1
126770,309.278350515464,4,3,1,70,1,1
127388,304.568527918782,4,3,1,70,1,1
127692,300,4,3,1,70,1,1
127842,324.324324324324,4,3,1,70,1,0
127842,-1000,4,3,1,70,0,0
128328,346.820809248555,4,3,1,70,1,0
128328,-1000,4,3,1,70,0,0
128848,352.941176470588,4,3,1,70,1,0
128848,-1000,4,3,1,70,0,0
129377,361.44578313253,4,3,1,70,1,0
129377,-561.797752808989,4,3,1,70,0,0
129462,-561.797752808989,4,3,1,30,0,0

[Colours]
Combo1 : 157,155,83
Combo2 : 81,112,149
Combo3 : 164,169,156

[HitObjects]
36,153,134,5,6,0:0:0:0:
507,249,602,1,6,0:0:0:0:
99,375,1071,1,6,0:0:0:0:
257,11,1540,1,6,0:0:0:0:
256,192,1617,12,4,4500,0:0:0:0:
406,72,9476,6,0,L|448:79,7,41.9999987182618,4|4|4|4|4|4|4|4,0:0|0:0|0:0|0:0|0:0|0:0|0:0|0:0,0:0:0:0:
466,73,11963,6,0,B|431:9|279:-36|159:386,1,525,4|0,0:0|0:0,0:0:0:0:
134,378,13193,5,8,0:0:0:0:
93,45,13350,1,8,0:0:0:0:
195,23,13527,1,4,0:0:0:0:
121,376,13649,5,8,0:0:0:0:
73,203,13799,1,4,0:0:0:0:
0,302,13949,5,4,0:0:0:0:
428,242,14099,2,0,L|480:234,1,52.5,8|0,0:0|0:0,0:0:0:0:
509,245,14404,6,0,B|472:207|472:207|352:255,1,140,6|0,0:0|0:0,0:0:0:0:
133,359,14735,2,0,B|86:325|86:325|111:214,1,140,10|0,0:2|0:0,0:0:0:0:
102,43,15045,2,0,B|144:69|144:69|149:170,1,140,6|4,0:2|0:0,0:0:0:0:
0,340,15356,5,8,0:0:0:0:
182,291,15513,1,2,0:2:0:0:
62,126,15670,5,6,0:2:0:0:
94,248,15829,1,6,0:2:0:0:
300,209,15989,5,10,0:2:0:0:
259,369,16148,1,4,0:0:0:0:
392,220,16308,6,0,P|390:156|356:25,1,175,2|4,0:2|0:0,0:0:0:0:
195,273,16618,2,0,P|298:294|410:332,1,175,10|0,0:2|0:0,0:0:0:0:
469,160,16929,5,4,0:0:0:0:
300,209,17092,1,4,0:0:0:0:
173,42,17256,2,0,P|71:26|-2:22,1,175,10|0,0:2|0:0,0:0:0:0:
152,152,17568,2,0,P|271:116|370:111,1,175,2|4,0:2|0:0,0:0:0:0:
56,384,17881,2,0,P|42:255|58:80,1,262.5,10|0,0:2|0:0,0:0:0:0:
67,115,18188,5,4,0:0:0:0:
247,240,18344,2,0,P|244:314|156:338,1,175,6|10,0:2|0:2,0:0:0:0:
148,246,18656,1,6,0:2:0:0:
344,270,18813,2,0,P|409:283|558:337,1,175,2|4,0:2|0:0,0:0:0:0:
336,42,19125,2,0,P|236:20|141:10,1,175,10|4,0:2|0:0,0:0:0:0:
424,61,19456,6,0,B|496:201|282:106|210:274,1,315.000012016297,6|0,0:0|0:0,0:0:0:0:
219,263,19768,2,0,B|180:356|255:451|389:374|426:268|228:292,1,315.000012016297,8|0,0:0|0:0,0:0:0:0:
296,291,20072,5,4,0:0:0:0:
128,370,20229,1,4,0:0:0:0:
2,154,20386,2,0,P|154:170|216:191,1,175,8|0,0:0|0:0,0:0:0:0:
74,251,20701,6,0,P|85:128|111:38,1,175,6|4,0:2|0:0,0:0:0:0:
281,189,21038,1,10,0:2:0:0:
236,384,21180,1,6,0:2:0:0:
353,262,21351,2,0,P|225:292|150:328,1,175,2|4,0:2|0:0,0:0:0:0:
142,105,21668,2,0,P|76:201|45:273,1,175,10|0,0:2|0:0,0:0:0:0:
8,131,21980,5,6,0:2:0:0:
113,356,22148,1,4,0:0:0:0:
370,276,22317,2,0,P|386:182|391:67,2,175,8|0|0,0:0|0:0|0:0,0:0:0:0:
99,339,22790,5,4,0:0:0:0:
302,203,22948,2,0,P|400:179|486:168,1,175,8|0,0:0|0:0,0:0:0:0:
221,274,23264,5,4,0:0:0:0:
31,245,23424,1,4,0:0:0:0:
165,47,23584,1,8,0:0:0:0:
59,8,23726,6,0,B|102:144|132:408,1,350,4|4,0:0|0:0,0:0:0:0:
272,122,24202,5,8,0:0:0:0:
221,353,24356,1,4,0:0:0:0:
420,156,24512,5,8,0:0:0:0:
337,184,24667,1,4,0:0:0:0:
227,50,24823,5,8,0:0:0:0:
140,37,24976,1,4,0:0:0:0:
52,24,25130,1,4,0:0:0:0:
203,235,25284,5,8,0:0:0:0:
188,322,25438,1,4,0:0:0:0:
344,191,25592,5,8,0:0:0:0:
328,103,25755,1,4,0:0:0:0:
312,15,25919,1,4,0:0:0:0:
284,258,26067,5,8,0:0:0:0:
296,345,26220,1,4,0:0:0:0:
162,228,26374,5,8,0:0:0:0:
133,312,26520,1,4,0:0:0:0:
366,284,26666,5,8,0:0:0:0:
406,363,26813,1,4,0:0:0:0:
303,117,26993,5,8,0:0:0:0:
387,89,27148,1,4,0:0:0:0:
200,133,27303,5,8,0:0:0:0:
238,52,27459,1,4,0:0:0:0:
124,236,27614,5,8,0:0:0:0:
110,148,27770,1,4,0:0:0:0:
127,342,27925,5,8,0:0:0:0:
57,287,28078,1,4,0:0:0:0:
291,142,28231,5,8,0:0:0:0:
306,55,28384,1,4,0:0:0:0:
485,117,28537,1,8,0:0:0:0:
398,136,28690,1,4,0:0:0:0:
209,27,28843,1,8,0:0:0:0:
120,17,28993,1,4,0:0:0:0:
99,218,29144,1,8,0:0:0:0:
58,81,29295,6,0,P|78:176|98:359,1,262.5,6|0,0:0|0:0,0:0:0:0:
102,384,29624,1,4,0:0:0:0:
264,353,29780,6,0,P|269:301|284:250,1,105.000004005432,8|0,0:0|0:0,0:0:0:0:
370,216,30089,1,4,0:0:0:0:
370,216,30243,1,4,0:0:0:0:
191,166,30398,6,0,P|242:157|294:161,1,105.000004005432,8|0,0:0|0:0,0:0:0:0:
371,227,30715,1,4,0:0:0:0:
371,227,30872,1,4,0:0:0:0:
338,47,31029,6,0,P|349:70|358:95,1,52.5000020027161,8|0,0:0|0:0,0:0:0:0:
364,237,31186,1,4,0:0:0:0:
364,237,31343,1,4,0:0:0:0:
448,97,31501,6,0,P|441:122|430:145,1,52.5000020027161,8|0,0:0|0:0,0:0:0:0:
488,211,31660,2,0,P|458:224|417:236,1,52.5000020027161,8|0,0:0|0:0,0:0:0:0:
345,239,31810,1,0,0:0:0:0:
432,361,31960,5,6,0:0:0:0:
353,221,32122,1,2,0:2:0:0:
462,9,32284,2,0,P|442:92|426:217,1,175,10|0,0:2|0:0,0:0:0:0:
329,78,32596,5,6,0:2:0:0:
472,277,32752,1,6,0:2:0:0:
418,79,32909,2,0,P|314:37|206:15,1,175,10|0,0:2|0:0,0:0:0:0:
210,213,33221,5,8,0:0:0:0:
47,247,33373,1,4,0:0:0:0:
281,161,33525,5,8,0:0:0:0:
118,189,33677,1,4,0:0:0:0:
454,119,33830,5,8,0:0:0:0:
365,126,33980,1,4,0:0:0:0:
277,140,34130,1,4,0:0:0:0:
34,229,34280,6,0,B|1:324|1:324|78:387,1,157.500006008148,6|0,0:0|0:0,0:0:0:0:
91,340,34592,1,4,0:0:0:0:
30,143,34764,1,8,0:0:0:0:
189,201,34917,1,0,0:0:0:0:
130,266,35070,5,4,0:0:0:0:
112,115,35223,2,0,P|98:57|68:-32,2,105.000004005432,4|8|0,0:0|0:0|0:0,0:0:0:0:
299,144,35698,6,0,P|281:192|268:272,1,105.000004005432,4|4,0:0|0:0,0:0:0:0:
129,361,36013,1,8,0:0:0:0:
179,194,36171,6,0,P|188:292|201:336,1,105.000004005432,4|0,0:0|0:0,0:0:0:0:
257,363,36471,1,4,0:0:0:0:
411,148,36641,6,0,P|376:201|359:241,1,105.000004005432,8|4,0:0|0:0,0:0:0:0:
158,312,36950,5,8,0:0:0:0:
78,272,37106,1,4,0:0:0:0:
27,198,37262,1,4,0:0:0:0:
109,27,37424,5,8,0:0:0:0:
115,116,37586,1,4,0:0:0:0:
143,199,37748,1,4,0:0:0:0:
31,268,37910,5,8,0:0:0:0:
55,182,38072,1,4,0:0:0:0:
230,144,38234,5,8,0:0:0:0:
44,177,38386,1,4,0:0:0:0:
213,53,38538,5,8,0:0:0:0:
21,88,38690,1,4,0:0:0:0:
242,228,38843,5,8,0:0:0:0:
157,254,38993,1,4,0:0:0:0:
72,279,39143,1,4,0:0:0:0:
13,84,39314,5,8,0:0:0:0:
96,95,39470,1,4,0:0:0:0:
166,139,39626,1,4,0:0:0:0:
340,293,39782,5,8,0:0:0:0:
417,258,39939,1,4,0:0:0:0:
426,174,40095,1,4,0:0:0:0:
165,252,40251,5,8,0:0:0:0:
170,336,40415,1,4,0:0:0:0:
246,370,40580,1,4,0:0:0:0:
303,117,40745,5,8,0:0:0:0:
289,34,40901,1,4,0:0:0:0:
205,43,41057,1,4,0:0:0:0:
52,279,41222,5,8,0:0:0:0:
134,266,41382,1,4,0:0:0:0:
110,22,41542,1,8,0:0:0:0:
191,42,41698,1,4,0:0:0:0:
417,89,41854,5,8,0:0:0:0:
334,106,42010,1,4,0:0:0:0:
160,182,42176,1,8,0:0:0:0:
105,118,42329,1,4,0:0:0:0:
30,307,42483,5,8,0:0:0:0:
107,344,42637,1,4,0:0:0:0:
244,177,42805,1,8,0:0:0:0:
326,160,42962,1,4,0:0:0:0:
367,345,43119,5,8,0:0:0:0:
280,325,43276,1,4,0:0:0:0:
446,306,43433,1,8,0:0:0:0:
512,36,43590,1,6,0:0:0:0:
476,27,45774,5,4,0:0:0:0:
394,175,45944,2,0,P|380:241|377:291,1,105.000004005432,8|4,0:0|0:0,0:0:0:0:
481,200,46258,6,0,B|559:145|452:82|241:60,1,262.5,6|0,0:0|0:0,0:0:0:0:
277,62,46573,2,0,B|194:51|119:108|15:103|84:2,1,262.5,8|0,0:0|0:0,0:0:0:0:
100,1,46889,5,4,0:0:0:0:
191,162,47047,1,4,0:0:0:0:
16,214,47205,2,0,P|-4:311|-16:393,1,175,8|0,0:0|0:0,0:0:0:0:
85,140,47521,5,4,0:0:0:0:
117,240,47681,1,4,0:0:0:0:
348,302,47841,1,8,0:0:0:0:
265,359,48002,2,0,P|261:241|325:197,1,175,4|0,0:0|0:0,0:0:0:0:
456,294,48297,5,4,0:0:0:0:
194,147,48475,1,8,0:0:0:0:
152,34,48631,1,4,0:0:0:0:
152,34,48709,1,4,0:0:0:0:
152,34,48787,1,4,0:0:0:0:
158,101,50872,5,4,0:0:0:0:
191,250,51025,2,0,P|195:306|196:367,1,105.000004005432,8|4,0:0|0:0,0:0:0:0:
68,116,51333,6,0,P|74:58|203:22,1,175,6|0,0:0|0:0,0:0:0:0:
369,149,51645,5,4,1:3:0:0:
359,151,51723,1,0,1:0:0:0:
350,154,51801,1,0,1:0:0:0:
340,157,51879,1,0,1:0:0:0:
331,160,51958,1,4,1:3:0:0:
321,163,52033,1,0,1:0:0:0:
312,167,52111,1,0,1:0:0:0:
303,171,52187,1,0,1:0:0:0:
293,174,52264,1,4,1:3:0:0:
284,178,52340,1,0,1:0:0:0:
275,182,52417,1,0,1:0:0:0:
266,187,52493,1,0,1:0:0:0:
257,192,52570,6,0,L|249:273,3,52.5000020027161,8|8|4|4,0:0|0:0|0:0|0:0,0:0:0:0:
191,318,52882,2,0,L|213:393,2,52.5000020027161,8|4|4,0:0|0:0|0:0,0:0:0:0:
42,257,53195,5,8,0:0:0:0:
28,348,53351,1,4,0:0:0:0:
286,137,53507,5,8,0:0:0:0:
211,77,53656,1,4,0:0:0:0:
113,0,53805,6,0,L|140:306,1,262.5,6|0,0:0|0:0,0:0:0:0:
123,296,54122,5,6,0:2:0:0:
277,230,54281,1,2,0:2:0:0:
391,230,54439,5,6,0:2:0:0:
218,298,54595,1,6,0:2:0:0:
161,96,54751,5,10,0:2:0:0:
287,226,54907,1,2,0:2:0:0:
476,189,55064,2,2,P|493:105|435:17,1,175,6|4,0:2|0:0,0:2:0:0:
255,105,55384,5,10,0:2:0:0:
271,230,55545,1,6,0:2:0:0:
375,168,55705,6,0,P|400:252|412:351,1,175,2|4,0:2|0:0,0:0:0:0:
146,172,56035,2,0,P|160:84|193:-19,1,175,10|0,0:2|0:0,0:0:0:0:
65,213,56339,5,4,0:0:0:0:
245,183,56507,1,6,0:2:0:0:
9,148,56676,5,10,0:2:0:0:
9,148,56832,1,2,0:2:0:0:
271,273,56988,1,2,0:2:0:0:
271,273,57144,1,6,0:2:0:0:
94,200,57301,1,10,0:2:0:0:
142,20,57454,1,2,0:2:0:0:
181,170,57607,6,0,P|192:267|194:377,1,175,6|4,0:2|0:0,0:0:0:0:
69,62,57933,1,10,0:2:0:0:
22,166,58085,6,0,P|141:190|329:274,1,262.5,6|0,0:0|0:0,0:0:0:0:
297,259,58389,1,4,0:0:0:0:
354,14,58557,2,0,P|369:117|367:205,1,175,8|0,0:0|0:0,0:0:0:0:
463,46,58836,6,0,B|449:209|220:-76|241:215|312:353,1,367.500003504753,6|0,0:0|0:0,0:0:0:0:
298,287,59165,2,0,B|354:334|423:302|448:138|250:129|141:291,1,367.500003504753,4|0,0:0|0:0,0:0:0:0:
160,263,59495,5,4,0:0:0:0:
276,377,59652,1,4,0:0:0:0:
73,213,59810,5,8,0:0:0:0:
111,21,59968,1,2,0:2:0:0:
94,116,60126,5,6,0:2:0:0:
94,116,60284,1,6,0:2:0:0:
309,227,60442,1,10,0:2:0:0:
231,320,60600,6,0,P|216:214|217:110,1,175,4|0,0:0|0:0,0:0:0:0:
325,337,60924,1,4,0:0:0:0:
111,215,61082,2,0,P|126:110|150:26,1,175,8|0,0:0|0:0,0:0:0:0:
34,80,61400,5,4,0:0:0:0:
228,116,61559,1,4,0:0:0:0:
419,200,61717,2,0,P|404:272|369:383,2,175,8|0|0,0:0|0:0|0:0,0:0:0:0:
345,16,62193,5,4,0:0:0:0:
316,217,62352,2,0,P|262:322|225:375,1,175,8|0,0:0|0:0,0:0:0:0:
73,159,62664,5,4,0:0:0:0:
233,179,62827,1,4,0:0:0:0:
511,44,62991,1,8,0:0:0:0:
372,0,63133,6,0,B|398:128|426:403,1,350,6|4,0:0|0:0,0:0:0:0:
476,119,63604,2,0,P|380:98|267:86,1,175,8|4,0:0|0:0,0:0:0:0:
200,339,63918,5,8,0:0:0:0:
113,355,64071,1,4,0:0:0:0:
155,177,64225,5,8,0:0:0:0:
122,259,64382,1,4,0:0:0:0:
104,346,64539,1,4,0:0:0:0:
33,115,64696,5,8,0:0:0:0:
49,201,64853,1,4,0:0:0:0:
199,319,65010,5,8,0:0:0:0:
287,327,65167,1,4,0:0:0:0:
374,344,65324,1,4,0:0:0:0:
384,179,65481,5,8,0:0:0:0:
412,263,65638,1,4,0:0:0:0:
492,65,65795,5,8,0:0:0:0:
465,149,65952,1,4,0:0:0:0:
428,0,66109,5,8,0:0:0:0:
382,189,66251,1,4,0:0:0:0:
382,189,66338,1,4,0:0:0:0:
382,189,66425,5,8,0:0:0:0:
293,199,66581,1,4,0:0:0:0:
297,373,66737,5,8,0:0:0:0:
208,361,66893,1,4,0:0:0:0:
186,141,67050,5,8,0:0:0:0:
272,117,67204,1,4,0:0:0:0:
34,30,67359,5,8,0:0:0:0:
122,44,67513,1,4,0:0:0:0:
181,271,67668,5,8,0:0:0:0:
92,281,67823,1,4,0:0:0:0:
319,366,67977,5,8,0:0:0:0:
232,347,68132,1,4,0:0:0:0:
327,173,68287,5,8,0:0:0:0:
412,150,68438,1,4,0:0:0:0:
175,130,68590,1,8,0:0:0:0:
98,13,68741,6,0,P|88:79|81:185,1,157.500006008148,6|0,0:0|0:0,0:0:0:0:
89,202,69053,1,4,0:0:0:0:
132,355,69209,6,0,P|145:305|168:258,1,105.000004005432,8|0,0:0|0:0,0:0:0:0:
233,335,69523,1,4,0:0:0:0:
233,335,69680,1,4,0:0:0:0:
93,193,69837,6,0,P|153:171|202:168,1,105.000004005432,8|0,0:0|0:0,0:0:0:0:
167,258,70146,1,4,0:0:0:0:
167,258,70300,1,4,0:0:0:0:
199,78,70455,6,0,P|237:94|267:113,1,52.5000020027161,8|0,0:0|0:0,0:0:0:0:
193,167,70610,1,4,0:0:0:0:
193,167,70764,1,4,0:0:0:0:
330,67,70926,6,0,P|342:105|346:133,1,52.5000020027161,8|0,0:0|0:0,0:0:0:0:
396,3,71088,2,0,P|420:72|433:138,1,105.000004005432,8|4,0:0|0:0,0:0:0:0:
256,100,71393,5,2,0:2:0:0:
512,65,71550,1,6,0:0:0:0:
333,59,71708,2,0,P|218:72|133:97,1,175,10|0,0:2|0:0,0:0:0:0:
1,201,72024,5,6,0:2:0:0:
146,10,72184,1,6,0:2:0:0:
96,189,72344,2,0,P|80:285|69:389,1,175,10|0,0:2|0:0,0:0:0:0:
135,117,72665,5,8,0:0:0:0:
167,308,72821,1,4,0:0:0:0:
208,70,72977,5,8,0:0:0:0:
251,239,73133,1,4,0:0:0:0:
276,16,73290,5,8,0:0:0:0:
308,98,73443,1,4,0:0:0:0:
340,180,73597,1,4,0:0:0:0:
344,384,73751,6,0,P|371:302|424:236,1,157.500006008148,6|0,0:0|0:0,0:0:0:0:
442,229,74071,1,4,0:0:0:0:
472,91,74247,1,8,0:0:0:0:
315,20,74403,1,0,0:0:0:0:
358,186,74559,5,4,0:0:0:0:
378,99,74715,2,0,P|395:43|414:-6,2,105.000004005432,4|8|0,0:0|0:0|0:0,0:0:0:0:
317,268,75190,6,0,P|327:332|334:386,1,105.000004005432,4|4,0:0|0:0,0:0:0:0:
191,198,75540,1,8,0:0:0:0:
232,281,75673,6,0,P|226:345|216:386,1,105.000004005432,4|0,0:0|0:0,0:0:0:0:
179,193,75985,1,4,0:0:0:0:
123,369,76160,5,8,0:0:0:0:
475,349,76299,1,4,0:0:0:0:
475,349,76389,1,4,0:0:0:0:
475,349,76479,5,8,0:0:0:0:
509,267,76635,1,4,0:0:0:0:
466,188,76791,1,4,0:0:0:0:
396,21,76947,5,8,0:0:0:0:
308,38,77104,1,4,0:0:0:0:
262,114,77260,1,4,0:0:0:0:
186,284,77430,5,8,0:0:0:0:
273,298,77587,1,4,0:0:0:0:
247,112,77745,5,8,0:0:0:0:
158,123,77901,1,4,0:0:0:0:
378,128,78057,5,8,0:0:0:0:
319,194,78213,1,4,0:0:0:0:
484,36,78370,5,8,0:0:0:0:
480,124,78520,1,4,0:0:0:0:
231,145,78670,1,8,0:0:0:0:
180,376,78834,6,0,P|167:276|124:93,1,262.5,6|0,0:0|0:0,0:0:0:0:
118,81,79146,1,4,0:0:0:0:
352,3,79328,2,0,P|333:110|306:219,1,175,8|0,0:0|0:0,0:0:0:0:
258,333,79632,5,4,0:0:0:0:
393,221,79784,1,6,0:2:0:0:
255,45,79957,2,0,P|140:29|56:25,1,175,10|0,0:2|0:0,0:0:0:0:
125,259,80269,6,0,P|223:245|344:211,1,175,6|4,0:2|0:0,0:0:0:0:
427,87,80589,1,8,0:0:0:0:
408,360,80745,6,0,P|398:232|369:135,1,175,2|4,0:2|0:0,0:0:0:0:
287,42,81057,1,4,0:0:0:0:
490,214,81214,5,10,0:2:0:0:
287,25,81370,2,0,P|361:178|156:206,1,367.500003504753,6|0,0:0|0:0,0:0:0:0:
176,226,81694,1,4,0:0:0:0:
455,79,81856,5,10,0:2:0:0:
232,125,82012,1,2,0:2:0:0:
18,151,82168,5,6,0:2:0:0:
301,187,82324,1,6,0:2:0:0:
142,63,82498,2,0,P|104:162|77:263,1,175,10|0,0:2|0:0,0:0:0:0:
217,384,82827,6,0,P|207:269|187:172,1,175,6|4,0:2|0:0,0:0:0:0:
38,47,83139,1,10,0:2:0:0:
261,117,83295,1,2,0:2:0:0:
382,56,83452,5,6,0:2:0:0:
289,216,83608,1,4,0:0:0:0:
380,179,83764,5,8,0:0:0:0:
366,346,83920,1,4,0:0:0:0:
451,119,84077,6,0,B|439:63|439:63|420:56|420:56|397:17|397:17|419:-9,1,140,6|0,0:0|0:0,0:0:0:0:
383,229,84574,2,0,B|350:254|350:254|346:292|346:292|350:300|350:300|342:307|342:307|328:345,1,140,6|0,0:0|0:0,0:0:0:0:
351,136,85055,2,0,B|297:112|297:112|284:119|284:119|254:123|254:123|235:130|235:130|225:101,1,140,6|0,0:0|0:0,0:0:0:0:
253,232,85536,2,0,B|191:244|191:244|188:254|188:254|146:283|146:283|157:313,1,140,6|0,0:0|0:0,0:0:0:0:
6,158,86017,5,6,0:0:0:0:
33,339,86178,1,6,0:0:0:0:
267,236,86338,1,6,0:0:0:0:
146,74,86499,1,6,0:0:0:0:
95,124,87955,6,0,B|144:147|144:147|139:157|139:157|152:207|152:207|126:216,1,140,6|0,0:0|0:0,0:0:0:0:
230,8,88436,2,0,B|209:34|209:34|206:65|206:65|239:94|239:94|231:153,1,140,6|0,0:0|0:0,0:0:0:0:
367,87,88925,2,0,B|325:102|325:102|321:122|321:122|325:132|325:132|324:147|324:147|336:158|336:158|340:204,1,140,6|0,0:0|0:0,0:0:0:0:
445,212,89414,2,0,B|408:267|408:267|390:263|390:263|376:289|376:289|377:307|377:307|346:330,1,140,6|0,0:0|0:0,0:0:0:0:
246,362,89882,5,6,0:0:0:0:
60,269,90045,1,6,0:0:0:0:
116,87,90208,1,6,0:0:0:0:
389,104,90371,1,6,0:0:0:0:
55,51,91836,5,8,0:0:0:0:
142,62,91992,1,4,0:0:0:0:
131,150,92148,1,4,0:0:0:0:
249,352,92320,5,8,0:0:0:0:
162,369,92476,1,4,0:0:0:0:
151,280,92632,1,4,0:0:0:0:
252,38,92788,5,8,0:0:0:0:
244,126,92947,1,4,0:0:0:0:
237,214,93107,1,4,0:0:0:0:
369,365,93266,5,8,0:0:0:0:
360,276,93426,1,4,0:0:0:0:
351,187,93585,1,4,0:0:0:0:
512,149,93731,5,8,0:0:0:0:
426,131,93884,1,4,0:0:0:0:
103,129,94038,5,8,0:0:0:0:
15,148,94192,2,0,B|33:214|33:214|22:234|22:234|40:344|40:344|157:326,1,262.5,6|0,0:0|0:0,0:0:0:0:
135,328,94504,5,4,0:0:0:0:
190,90,94660,2,0,P|147:49|28:72,1,175,8|4,0:0|0:0,0:0:0:0:
254,20,94989,5,4,0:0:0:0:
114,137,95150,1,4,0:0:0:0:
327,85,95311,2,0,P|340:171|343:258,1,175,8|4,0:0|0:0,0:0:0:0:
243,164,95615,5,4,0:0:0:0:
432,206,95774,1,4,0:0:0:0:
497,363,95934,2,0,P|517:250|521:160,1,175,8|4,0:0|0:0,0:0:0:0:
381,22,96246,5,4,0:0:0:0:
427,193,96405,1,4,0:0:0:0:
298,356,96565,5,8,0:0:0:0:
369,42,96728,1,4,0:0:0:0:
369,42,96810,1,4,0:0:0:0:
369,42,96891,5,8,0:0:0:0:
375,130,97047,1,4,0:0:0:0:
382,218,97203,1,4,0:0:0:0:
247,370,97367,5,8,0:0:0:0:
264,282,97526,1,4,0:0:0:0:
176,266,97686,1,4,0:0:0:0:
300,40,97845,5,8,0:0:0:0:
321,125,98005,1,4,0:0:0:0:
343,211,98167,1,4,0:0:0:0:
242,384,98329,5,8,0:0:0:0:
236,294,98485,1,4,0:0:0:0:
146,302,98641,1,4,0:0:0:0:
260,52,98797,5,8,0:0:0:0:
347,66,98945,1,4,0:0:0:0:
70,113,99094,5,8,0:0:0:0:
121,29,99242,2,0,B|151:55|151:55|170:131|170:131|159:154|159:154|167:203|167:203|132:228|132:228|93:219,1,262.5,6|0,0:0|0:0,0:0:0:0:
75,215,99575,5,4,0:0:0:0:
217,357,99734,2,0,P|214:292|334:233,1,175,8|4,0:0|0:0,0:0:0:0:
512,298,100053,5,4,0:0:0:0:
371,270,100212,1,4,0:0:0:0:
126,384,100372,2,0,P|97:278|95:201,1,175,8|4,0:0|0:0,0:0:0:0:
6,198,100691,5,4,0:0:0:0:
185,252,100853,1,4,0:0:0:0:
305,102,101014,2,0,P|411:84|512:79,1,175,8|4,0:0|0:0,0:0:0:0:
428,174,101339,5,4,0:0:0:0:
388,0,101497,1,4,0:0:0:0:
109,50,101656,2,0,P|122:158|147:253,1,175,8|4,0:0|0:0,0:0:0:0:
17,193,101973,5,8,0:0:0:0:
54,273,102133,1,4,0:0:0:0:
115,337,102293,1,4,0:0:0:0:
205,189,102454,5,8,0:0:0:0:
223,101,102605,1,4,0:0:0:0:
276,29,102757,1,4,0:0:0:0:
296,204,102926,5,8,0:0:0:0:
336,283,103086,1,4,0:0:0:0:
359,368,103246,1,4,0:0:0:0:
386,192,103407,5,8,0:0:0:0:
397,103,103563,1,4,0:0:0:0:
434,22,103719,1,4,0:0:0:0:
178,110,103893,5,8,0:0:0:0:
93,135,104056,1,4,0:0:0:0:
13,97,104219,1,4,0:0:0:0:
216,224,104382,5,8,0:0:0:0:
302,247,104541,1,4,0:0:0:0:
290,334,104701,1,4,0:0:0:0:
181,141,104860,5,8,0:0:0:0:
188,52,105022,1,4,0:0:0:0:
275,71,105184,1,4,0:0:0:0:
235,281,105346,5,8,0:0:0:0:
147,291,105506,1,4,0:0:0:0:
71,336,105668,1,4,0:0:0:0:
321,268,105830,5,8,0:0:0:0:
410,278,105991,1,4,0:0:0:0:
266,107,106152,5,8,0:0:0:0:
255,195,106313,1,4,0:0:0:0:
423,48,106475,5,8,0:0:0:0:
478,209,106636,1,4,0:0:0:0:
478,209,106717,1,4,0:0:0:0:
478,209,106797,5,8,0:0:0:0:
489,121,106950,1,4,0:0:0:0:
291,263,107104,5,8,0:0:0:0:
376,287,107258,1,4,0:0:0:0:
256,75,107430,5,8,0:0:0:0:
219,155,107593,1,4,0:0:0:0:
475,355,107757,1,6,0:0:0:0:
218,15,112247,5,8,0:0:0:0:
241,240,112402,1,4,0:0:0:0:
145,239,112558,1,4,0:0:0:0:
0,140,112714,6,0,P|138:110|346:86,1,315.000012016297,6|0,0:0|0:0,0:0:0:0:
350,85,113028,5,4,0:0:0:0:
359,343,113186,2,0,P|367:233|392:114,1,175,8|0,0:0|0:0,0:0:0:0:
451,303,113502,5,4,0:0:0:0:
287,184,113660,1,6,0:2:0:0:
499,228,113818,5,10,0:2:0:0:
229,255,113976,1,2,0:2:0:0:
250,19,114134,5,6,0:2:0:0:
278,178,114297,1,6,0:2:0:0:
162,356,114461,2,0,P|149:291|32:263,1,175,10|0,0:2|0:0,0:0:0:0:
3,134,114776,2,0,P|105:129|205:155,1,175,6|4,0:2|0:0,0:0:0:0:
334,301,115092,5,10,0:2:0:0:
67,350,115242,2,0,P|91:168|102:11,1,315.000012016297,6|0,0:0|0:0,0:0:0:0:
69,29,115544,5,4,0:0:0:0:
179,211,115712,2,0,P|195:318|201:391,2,175,8|0|4,0:0|0:0|0:0,0:0:0:0:
2,109,116190,5,6,0:2:0:0:
276,202,116350,1,10,0:2:0:0:
320,81,116504,1,2,0:2:0:0:
372,278,116659,5,6,0:2:0:0:
331,70,116813,1,6,0:2:0:0:
9,119,116968,1,10,0:2:0:0:
25,233,117123,1,2,0:2:0:0:
23,114,117277,5,6,0:2:0:0:
102,280,117441,1,6,0:2:0:0:
349,326,117606,1,10,0:2:0:0:
222,380,117763,6,0,P|224:233|282:1,1,315.000012016297,4|0,0:0|0:0,0:0:0:0:
280,28,118079,1,4,0:0:0:0:
480,106,118241,5,8,0:0:0:0:
368,120,118403,1,0,0:0:0:0:
231,363,118565,5,4,0:0:0:0:
121,335,118722,2,0,P|109:223|109:112,2,175,4|8|4,0:0|0:0|0:0,0:0:0:0:
354,201,119196,5,0,0:0:0:0:
30,293,119349,1,4,0:0:0:0:
30,293,119426,1,4,0:0:0:0:
30,293,119503,1,8,0:0:0:0:
77,67,119657,1,4,0:0:0:0:
179,358,119811,5,8,0:0:0:0:
84,61,119961,1,4,0:0:0:0:
185,23,120112,1,4,0:0:0:0:
123,296,120263,6,0,P|96:224|291:130,1,315.000012016297,6|0,0:0|0:0,0:0:0:0:
283,133,120596,1,4,0:0:0:0:
53,21,120763,2,0,P|18:112|12:200,1,175,8|0,0:0|0:0,0:0:0:0:
135,290,121075,5,4,0:0:0:0:
108,122,121231,1,4,0:0:0:0:
329,186,121388,2,0,P|423:260|507:350,1,175,8|0,0:0|0:0,0:0:0:0:
498,7,121700,6,0,P|491:113|477:187,1,175,6|4,0:2|0:0,0:0:0:0:
406,56,122020,5,10,0:2:0:0:
276,275,122181,2,0,P|189:307|96:317,1,175,6|0,0:2|0:0,0:0:0:0:
0,145,122502,5,4,0:0:0:0:
229,198,122662,1,8,0:0:0:0:
440,368,122822,6,0,P|468:240|490:33,1,315.000012016297,6|0,0:0|0:0,0:0:0:0:
488,18,123141,1,4,0:0:0:0:
287,118,123300,2,0,P|330:221|351:310,1,175,8|0,0:0|0:0,0:0:0:0:
394,131,123612,5,4,0:0:0:0:
221,216,123768,1,6,0:2:0:0:
0,164,123925,5,10,0:2:0:0:
233,226,124081,1,2,0:2:0:0:
23,73,124237,5,6,0:2:0:0:
262,131,124397,1,6,0:2:0:0:
85,369,124557,6,0,P|76:272|91:117,1,175,10|0,0:2|0:0,0:0:0:0:
238,0,124878,2,0,P|188:86|152:183,1,175,6|4,0:2|0:0,0:0:0:0:
389,60,125199,5,8,0:0:0:0:
0,138,125352,1,4,0:0:0:0:
0,138,125429,1,4,0:0:0:0:
0,138,125506,5,8,0:0:0:0:
14,225,125664,1,4,0:0:0:0:
232,277,125823,1,8,0:0:0:0:
255,191,125982,1,4,0:0:0:0:
329,370,126140,5,8,0:0:0:0:
319,281,126299,1,4,0:0:0:0:
169,134,126458,1,8,0:0:0:0:
182,46,126614,1,4,0:0:0:0:
498,83,126770,5,10,0:2:0:0:
414,110,126924,1,4,0:0:0:0:
89,81,127079,1,10,0:2:0:0:
0,48,127233,1,4,0:0:0:0:
204,171,127388,5,10,0:2:0:0:
290,190,127540,1,6,0:2:0:0:
239,364,127692,5,10,0:2:0:0:
267,36,127842,2,2,L|267:21,1,14,6|0,0:0|0:0,0:0:0:0:
209,198,128328,2,2,L|208:184,1,14,6|0,0:0|0:0,0:0:0:0:
272,357,128848,2,2,L|275:343,1,14,6|0,0:0|0:0,0:0:0:0:
416,98,129377,6,0,B|376:108|341:127|341:127|327:120|327:120|343:148|343:148|324:137|324:137|290:153|252:175|252:175|236:170|236:170|253:192|253:192|240:186|240:186|207:212|176:237|176:237|160:228|160:228|181:256|181:256|159:250|159:250|133:273|109:304,1,523.320021719825,6|0,0:0|2:0,0:0:0:0:
