osu file format v14

[General]
AudioFilename: audio.mp3
AudioLeadIn: 0
PreviewTime: 102403
Countdown: 0
SampleSet: Soft
StackLeniency: 0.5
Mode: 0
LetterboxInBreaks: 0
WidescreenStoryboard: 1

[Editor]
DistanceSpacing: 0.9
BeatDivisor: 4
GridSize: 8
TimelineZoom: 1

[Metadata]
Title:My Life Is Over And I Couldn't Be Happier
TitleUnicode:My Life Is Over And I Couldn't Be Happier
Artist:PUP
ArtistUnicode:PUP
Creator:Mimari
Version:Normal
Source:osu!
Tags:english rock punk featured artist fa mappers' guild mg couldnt the dream is over pathetic use of potential xiced door weapon
BeatmapID:2454839
BeatmapSetID:1177043

[Difficulty]
HPDrainRate:3.5
CircleSize:3.5
OverallDifficulty:4.5
ApproachRate:5.5
SliderMultiplier:1.02
SliderTickRate:1

[Events]
//Background and Video events
0,0,"road_turn_mountains_139383_1920x1080.jpg",0,0
//Break Periods
2,2119,5354
2,102254,106509
//Storyboard Layer 0 (Background)
//Storyboard Layer 1 (Fail)
//Storyboard Layer 2 (Pass)
//Storyboard Layer 3 (Foreground)
//Storyboard Layer 4 (Overlay)
//Storyboard Sound Samples

[TimingPoints]
190,342.857142857143,4,2,1,70,1,0
1571,348.837209302326,4,2,1,70,1,0
6479,340.909090909092,4,2,1,70,1,0
7160,348.938644954929,4,2,1,70,1,0
23909,-100,4,2,1,60,0,0
35075,-100,4,2,1,65,0,0
46241,-100,4,2,1,60,0,0
49032,-100,4,2,1,65,0,0
51475,-100,4,2,1,70,0,0
62990,-100,4,2,1,65,0,0
74156,348.7358326068,4,2,1,65,1,0
102054,-100,4,2,1,55,0,0
107634,-100,4,2,1,70,0,0
118794,349.040139616056,4,2,1,70,1,0
130661,-100,4,2,1,65,0,0
138514,-100,4,2,1,70,0,0
139910,-100,4,2,1,75,0,0
141132,-100,4,2,1,80,0,0
144972,-100,4,2,1,5,0,0

[Colours]
Combo1 : 230,217,200
Combo2 : 251,219,170

[HitObjects]
217,358,1571,6,0,L|205:256,1,102,14|10,0:0|0:0,0:0:0:0:
323,275,6479,6,0,L|329:219,1,51,8|2,0:0|3:3,0:0:0:0:
354,186,6819,2,0,L|351:131,1,51,8|2,0:0|3:3,0:0:0:0:
309,54,7334,6,0,L|203:64,1,102,14|0,0:0|3:3,0:0:0:0:
167,85,7857,1,10,0:0:0:0:
77,65,8206,2,0,L|55:130,1,51,10|0,0:0|3:3,0:0:0:0:
41,155,8555,5,14,0:0:0:0:
72,241,8904,1,10,0:0:0:0:
40,327,9253,2,0,L|93:346,1,51,8|0,0:0|3:3,0:0:0:0:
132,356,9602,2,0,L|193:348,1,51,12|2,0:0|3:2,0:0:0:0:
252,290,10125,6,0,B|296:296|296:296|306:306|306:306|363:313,1,102,14|0,0:0|3:3,0:0:0:0:
393,323,10649,2,0,L|491:273,1,102,10|10,0:0|0:0,0:0:0:0:
511,239,11172,1,6,3:2:0:0:
455,166,11521,5,10,0:0:0:0:
455,166,11696,2,0,L|463:101,1,51,0|0,3:3|3:3,0:0:0:0:
465,69,12045,1,12,0:0:0:0:
383,26,12394,1,10,0:0:0:0:
293,48,12743,6,0,L|188:68,1,102,6|10,3:2|0:0,0:0:0:0:
106,36,13440,1,2,3:2:0:0:
37,96,13789,2,0,L|28:169,1,51,8|0,0:0|3:3,0:0:0:0:
27,192,14138,1,2,3:2:0:0:
75,269,14487,5,8,0:0:0:0:
42,354,14836,2,0,L|108:372,1,51,2|0,3:2|3:3,0:0:0:0:
136,376,15185,2,0,L|209:369,1,51,8|2,0:0|3:2,0:0:0:0:
249,304,15708,5,6,3:2:0:0:
249,304,15883,2,0,L|262:237,1,51,8|0,0:0|3:3,0:0:0:0:
281,213,16232,2,0,L|270:149,1,51,0|0,3:3|3:3,0:0:0:0:
259,118,16581,1,8,0:0:0:0:
242,27,16929,5,6,3:2:0:0:
331,5,17278,1,12,0:0:0:0:
417,34,17627,2,0,L|476:47,1,51,10|2,0:0|3:3,0:0:0:0:
483,88,17977,2,0,L|491:149,1,51,8|2,0:0|3:3,0:0:0:0:
467,227,18500,5,6,3:2:0:0:
467,227,18674,2,0,L|458:291,1,51,8|0,0:0|3:0,0:0:0:0:
439,318,19023,2,0,L|377:328,1,51,2|0,3:2|3:3,0:0:0:0:
343,336,19372,1,10,0:0:0:0:
261,293,19721,5,6,3:2:0:0:
187,347,20070,1,10,0:0:0:0:
96,330,20419,2,0,L|87:273,1,51,2|2,3:2|3:3,0:0:0:0:
63,240,20768,2,0,L|68:178,1,51,8|6,0:0|3:2,0:0:0:0:
136,128,21292,6,0,B|187:114|187:114|241:144,1,102,14|0,0:0|3:3,0:0:0:0:
256,175,21815,2,0,L|366:190,1,102,14|8,0:0|0:0,0:0:0:0:
401,201,22338,1,6,3:2:0:0:
471,141,22687,6,0,B|494:94|494:94|460:43,1,102,12|0,0:0|3:3,0:0:0:0:
434,19,23211,1,8,0:0:0:0:
345,43,23560,1,10,0:0:0:0:
254,30,23909,6,0,L|143:21,1,102,6|8,3:2|0:0,0:0:0:0:
63,46,24606,2,0,B|28:83|28:83|54:143,1,102,0|8,3:3|0:0,0:0:0:0:
83,214,25304,2,0,L|58:331,2,102,2|10|2,0:1|0:1|3:1,0:0:0:0:
125,196,26177,1,8,0:0:0:0:
125,196,26351,2,0,L|233:188,1,102,10|2,0:1|3:2,0:0:0:0:
292,124,27049,5,8,0:0:0:0:
382,140,27398,2,0,B|427:173|427:173|425:234,1,102,0|8,3:3|0:0,0:0:0:0:
390,304,28096,2,0,L|503:321,2,102,2|10|2,3:1|0:1|3:1,0:0:0:0:
345,315,28968,1,8,0:0:0:0:
345,315,29143,2,0,L|231:336,1,102,8|6,0:0|3:2,0:0:0:0:
155,357,29841,6,0,B|121:315|121:315|133:252,1,102,12|4,0:0|3:2,0:0:0:0:
53,217,30538,2,0,B|87:175|87:175|75:112,1,102,8|0,0:0|0:0,0:0:0:0:
31,48,31236,2,0,L|143:32,1,102,8|0,0:0|3:3,0:0:0:0:
175,50,31760,1,8,0:0:0:0:
175,50,31934,1,8,0:0:0:0:
250,102,32283,6,0,L|370:113,1,102,2|8,3:2|0:0,0:0:0:0:
395,126,32806,2,0,L|504:112,2,102,2|2|2,0:1|3:1|3:1,0:0:0:0:
294,220,34028,6,0,L|283:326,1,102,10|0,0:1|3:3,0:0:0:0:
205,369,34726,2,0,L|144:360,1,51,8|8,0:0|0:0,0:0:0:0:
118,333,35075,6,0,L|0:350,1,102,6|8,3:2|0:0,0:0:0:0:
15,255,35772,2,0,L|34:144,1,102,0|10,3:3|0:1,0:0:0:0:
43,109,36296,1,0,0:3:0:0:
43,109,36470,6,0,L|28:-1,2,102,2|10|2,3:1|0:1|3:1,0:0:0:0:
128,143,37517,2,0,L|189:152,1,51,10|0,0:1|0:0,0:0:0:0:
214,179,37866,6,0,L|224:304,1,102,2|8,3:2|0:0,0:0:0:0:
292,339,38564,2,0,B|337:367|337:367|396:326,1,102,0|8,3:3|0:0,0:0:0:0:
403,250,39262,6,0,L|514:268,2,102,2|10|0,3:1|0:1|3:3,0:0:0:0:
365,223,40134,1,8,0:0:0:0:
365,223,40309,1,8,0:0:0:0:
400,138,40658,6,0,L|522:122,2,102,6|10|6,3:2|0:0|3:2,0:0:0:0:
318,95,41704,2,0,L|252:87,1,51,8|0,0:0|3:3,0:0:0:0:
186,44,42228,5,0,3:3:0:0:
186,44,42402,2,0,B|154:85|154:85|173:136,1,102,8|0,0:0|3:3,0:0:0:0:
192,178,42926,1,8,0:0:0:0:
192,178,43100,1,8,0:0:0:0:
135,250,43449,6,0,L|14:236,2,102,6|10|0,3:2|0:0|3:3,0:0:0:0:
164,292,44321,1,0,3:3:0:0:
164,292,44496,1,8,0:0:0:0:
234,351,44845,6,0,L|340:333,1,102,2|8,3:2|0:0,0:0:0:0:
424,355,45543,2,0,L|478:261,1,102,0|8,3:3|0:0,0:0:0:0:
499,178,46241,6,0,L|485:67,1,102,6|0,3:2|3:0,0:0:0:0:
473,32,46764,2,0,B|436:13|436:13|366:25,1,102,8|0,0:0|3:0,0:0:0:0:
332,36,47287,1,8,0:0:0:0:
256,87,47636,6,0,L|145:104,1,102,10|0,0:0|3:0,0:0:0:0:
110,114,48160,2,0,B|80:159|80:159|98:214,1,102,8|0,0:0|3:0,0:0:0:0:
109,248,48683,1,8,0:0:0:0:
188,294,49032,6,0,L|288:278,1,102,10|0,0:0|1:3,0:0:0:0:
315,240,49556,2,0,L|419:224,1,102,10|0,0:0|1:3,0:0:0:0:
461,218,50079,1,8,0:0:0:0:
498,301,50428,6,0,B|456:363|456:363|355:349,2,153,12|12|4,1:2|1:2|3:3,0:0:0:0:
464,215,51824,6,0,L|461:155,1,51,14|0,0:0|0:0,0:0:0:0:
458,118,52173,1,8,0:0:0:0:
449,26,52522,2,0,L|382:18,1,51,10|0,0:0|3:3,0:0:0:0:
352,13,52871,1,10,0:0:0:0:
266,45,53220,5,10,0:0:0:0:
178,17,53569,2,0,L|121:22,1,51,10|0,0:0|3:3,0:0:0:0:
82,28,53917,1,8,0:0:0:0:
37,108,54266,1,8,0:0:0:0:
37,108,54441,1,6,3:2:0:0:
105,168,54790,6,0,B|122:205|122:205|106:271,1,102,12|0,0:0|3:3,0:0:0:0:
98,309,55313,2,0,L|165:323,1,51,10|0,0:0|3:3,0:0:0:0:
191,335,55662,1,10,0:0:0:0:
281,320,56011,5,14,0:0:0:0:
361,363,56360,2,0,L|418:358,1,51,10|0,0:0|3:3,0:0:0:0:
457,353,56708,1,8,0:0:0:0:
493,268,57057,1,8,0:0:0:0:
493,268,57232,1,2,3:2:0:0:
431,199,57581,6,0,L|318:191,1,102,12|0,0:0|3:3,0:0:0:0:
290,217,58105,2,0,L|225:212,1,51,10|0,0:0|3:3,0:0:0:0:
193,207,58453,1,10,0:0:0:0:
107,239,58802,5,14,0:0:0:0:
32,184,59151,2,0,L|37:131,1,51,10|0,0:0|3:3,0:0:0:0:
45,88,59499,1,8,0:0:0:0:
110,23,59848,1,8,0:0:0:0:
110,23,60023,1,6,3:2:0:0:
194,59,60373,6,0,L|310:48,1,102,12|0,0:0|3:3,0:0:0:0:
341,45,60896,1,10,0:0:0:0:
420,90,61245,1,10,0:0:0:0:
420,90,61419,1,6,3:2:0:0:
476,162,61768,6,0,B|475:209|475:209|467:223|467:223|465:278,1,102,12|0,0:0|3:3,0:0:0:0:
461,307,62292,1,10,0:0:0:0:
385,358,62641,1,10,0:0:0:0:
295,338,62990,6,0,L|223:350,1,51,2|0,0:0|0:0,0:0:0:0:
198,349,63339,2,0,L|87:330,1,102,2|2,0:0|0:0,0:0:0:0:
36,110,64560,6,0,B|88:93|88:93|146:127,1,102,8|0,0:0|3:0,0:0:0:0:
165,144,65083,1,12,0:0:0:0:
143,233,65432,1,12,0:0:0:0:
219,283,65781,6,0,L|332:261,1,102,4|8,3:2|0:0,0:0:0:0:
398,310,66479,2,0,B|422:267|422:267|398:212,1,102,0|8,3:3|0:0,0:0:0:0:
379,177,67002,1,0,3:3:0:0:
379,177,67177,6,0,L|397:56,1,102,2|10,0:1|0:1,0:0:0:0:
319,21,67875,2,0,L|267:33,1,51,2|8,3:1|0:0,0:0:0:0:
224,44,68224,1,10,0:1:0:0:
132,32,68573,6,0,L|20:25,1,102,6|14,3:2|0:0,0:0:0:0:
15,116,69271,2,0,B|27:165|27:165|22:179|22:179|34:231,1,102,6|8,3:2|0:0,0:0:0:0:
118,320,70143,6,0,L|233:332,1,102,0|0,3:0|3:0,0:0:0:0:
261,348,70666,2,0,L|323:338,1,51,0|8,3:3|0:0,0:0:0:0:
356,330,71015,1,10,0:0:0:0:
441,364,71364,6,0,B|466:324|466:324|447:261,1,102,0|8,3:2|0:0,0:0:0:0:
392,199,72062,2,0,B|367:159|367:159|386:96,1,102,0|8,3:3|0:0,0:0:0:0:
395,62,72585,1,0,3:3:0:0:
395,62,72760,6,0,L|287:47,1,102,0|8,3:3|0:0,0:0:0:0:
203,30,73458,2,0,L|213:85,1,51,0|8,3:3|0:0,0:0:0:0:
221,125,73807,1,8,0:0:0:0:
136,160,74156,6,0,L|12:147,1,102,6|8,3:2|0:0,0:0:0:0:
5,236,74853,1,0,3:3:0:0:
64,305,75202,2,0,L|122:291,1,51,8|0,0:0|3:3,0:0:0:0:
156,278,75550,6,0,L|147:394,2,102,2|8|0,0:0|0:0|3:3,0:0:0:0:
184,241,76422,1,8,0:0:0:0:
184,241,76597,1,10,0:0:0:0:
262,288,76945,6,0,L|379:273,1,102,12|10,0:0|0:1,0:0:0:0:
451,301,77643,2,0,L|459:195,1,102,10|12,0:1|0:0,0:0:0:0:
411,120,78340,6,0,B|454:97|454:97|512:107,2,102,2|8|0,0:0|0:0|3:3,0:0:0:0:
375,147,79212,1,8,0:0:0:0:
375,147,79387,1,10,0:0:0:0:
289,114,79735,6,0,L|304:0,1,102,6|14,3:2|0:0,0:0:0:0:
211,32,80433,2,0,L|111:53,1,102,6|8,3:2|0:0,0:0:0:0:
70,73,80956,1,0,3:3:0:0:
66,166,81305,5,0,3:3:0:0:
66,166,81479,2,0,L|175:145,1,102,10|2,0:1|3:1,0:0:0:0:
208,164,82002,1,8,0:0:0:0:
208,164,82176,1,10,0:1:0:0:
285,212,82525,6,0,B|302:256|302:256|272:329,1,102,14|10,0:0|0:0,0:0:0:0:
216,372,83223,1,10,0:0:0:0:
126,353,83571,2,0,L|65:360,1,51,10|0,0:0|3:3,0:0:0:0:
29,358,83920,5,14,0:0:0:0:
2,270,84269,1,10,0:0:0:0:
29,181,84618,1,8,0:0:0:0:
7,91,84966,2,0,L|16:22,1,51,10|0,0:0|3:3,0:0:0:0:
54,19,85315,5,4,3:0:0:0:
141,46,85664,2,0,L|259:35,1,102,12|0,0:0|3:3,0:0:0:0:
286,50,86187,2,0,L|404:39,1,102,8|0,0:0|3:3,0:0:0:0:
433,36,86710,1,0,3:3:0:0:
465,121,87059,6,0,L|445:240,1,102,8|0,0:0|3:3,0:0:0:0:
466,263,87582,1,8,0:0:0:0:
349,337,88105,6,0,L|237:322,1,102,4|8,3:2|0:0,0:0:0:0:
159,347,88802,2,0,L|96:354,1,51,0|8,3:3|0:0,0:0:0:0:
62,351,89151,1,8,0:0:0:0:
31,264,89500,6,0,B|18:213|18:213|51:155,1,102,0|8,3:2|0:0,0:0:0:0:
74,137,90023,1,0,3:3:0:0:
74,137,90197,2,0,L|187:151,1,102,0|8,3:3|0:0,0:0:0:0:
244,209,90895,6,0,L|307:201,1,51,4|4,3:0|3:0,0:0:0:0:
340,197,91244,2,0,L|317:315,1,102,12|0,0:0|3:3,0:0:0:0:
306,341,91767,2,0,L|425:329,1,102,8|0,0:0|3:3,0:0:0:0:
452,323,92290,5,0,3:3:0:0:
495,242,92638,1,12,0:0:0:0:
495,242,92813,2,0,L|480:121,1,102,0|8,0:0|0:0,0:0:0:0:
476,95,93336,1,0,0:0:0:0:
391,58,93685,6,0,B|356:49|356:49|333:51|333:51|281:45,1,102,4|8,3:2|0:0,0:0:0:0:
201,69,94382,2,0,L|143:60,1,51,0|8,3:3|0:0,0:0:0:0:
104,56,94731,1,8,0:0:0:0:
43,124,95080,6,0,L|61:255,1,102,0|8,3:3|0:0,0:0:0:0:
134,273,95777,2,0,L|122:386,2,102,0|8|4,3:3|3:3|3:0,0:0:0:0:
220,241,96823,6,0,B|269:230|269:230|312:257,1,102,12|0,0:0|0:0,0:0:0:0:
348,287,97346,2,0,B|391:314|391:314|440:303,1,102,12|0,0:0|3:3,0:0:0:0:
484,287,97870,1,8,0:0:0:0:
491,195,98218,6,0,L|470:70,1,102,4|0,3:2|0:0,0:0:0:0:
460,49,98741,2,0,L|328:80,1,102,4|0,3:2|0:0,0:0:0:0:
317,66,99264,6,0,L|186:101,1,102,6|8,3:2|0:0,0:0:0:0:
193,180,99962,2,0,B|187:210|187:210|199:253,1,51,0|8,3:3|0:0,0:0:0:0:
206,273,100311,1,8,0:0:0:0:
151,346,100659,6,0,L|22:330,1,102,0|8,3:3|0:0,0:0:0:0:
24,244,101357,2,0,L|31:174,1,51,8|8,0:0|0:0,0:0:0:0:
55,155,101706,2,0,L|62:85,1,51,8|0,0:0|3:3,0:0:0:0:
66,58,102054,5,2,0:0:0:0:
66,58,107634,6,0,L|71:130,1,51,12|0,0:0|3:0,0:0:0:0:
74,154,107983,1,10,0:0:0:0:
35,237,108332,2,0,L|107:258,1,51,10|0,0:0|3:3,0:0:0:0:
119,280,108680,1,10,0:0:0:0:
209,262,109029,5,12,0:0:0:0:
286,303,109378,2,0,L|355:297,1,51,10|0,0:0|3:3,0:0:0:0:
382,296,109727,1,8,0:0:0:0:
473,325,110075,1,8,0:0:0:0:
473,325,110250,1,2,3:2:0:0:
504,238,110598,6,0,B|495:136,1,102,12|0,0:0|3:3,0:0:0:0:
488,90,111121,2,0,L|421:76,1,51,10|0,0:0|3:3,0:0:0:0:
395,63,111470,1,10,0:0:0:0:
305,83,111819,5,12,0:0:0:0:
217,55,112168,2,0,B|190:52|190:52|166:63,1,51,10|0,0:0|3:3,0:0:0:0:
124,79,112516,1,8,0:0:0:0:
141,169,112865,1,8,0:0:0:0:
141,169,113040,1,6,3:2:0:0:
65,221,113388,6,0,B|30:268|30:268|47:322,1,102,12|0,0:0|3:3,0:0:0:0:
71,345,113911,2,0,L|136:350,1,51,10|0,0:0|3:3,0:0:0:0:
167,355,114260,1,10,0:0:0:0:
254,328,114609,5,12,0:0:0:0:
336,368,114958,2,0,L|394:358,1,51,10|0,0:0|3:3,0:0:0:0:
431,356,115306,2,0,L|454:252,1,102,8|8,0:0|0:0,0:0:0:0:
410,125,116178,6,0,L|298:148,1,102,12|0,0:0|3:3,0:0:0:0:
266,159,116701,1,10,0:0:0:0:
215,235,117050,1,10,0:0:0:0:
215,235,117224,1,4,3:2:0:0:
123,224,117573,6,0,B|90:114,1,102,12|0,0:0|3:3,0:0:0:0:
62,92,118096,1,10,0:0:0:0:
122,22,118445,1,8,0:0:0:0:
209,49,118794,6,0,L|277:41,1,51,4|0,3:2|0:3,0:0:0:0:
305,42,119143,1,8,0:0:0:0:
395,29,119492,2,0,L|402:81,1,51,2|0,3:2|3:3,0:0:0:0:
411,124,119841,1,8,0:0:0:0:
468,195,120190,5,2,3:2:0:0:
445,284,120539,2,0,L|394:279,1,51,8|2,0:0|0:0,0:0:0:0:
348,275,120887,1,2,3:2:0:0:
266,317,121236,1,8,0:0:0:0:
266,317,121411,1,2,3:2:0:0:
175,302,121760,6,0,B|147:258|147:258|166:200,1,102,6|0,3:2|3:0,0:0:0:0:
181,169,122283,2,0,L|235:166,1,51,0|0,3:3|3:3,0:0:0:0:
277,161,122632,1,8,0:0:0:0:
313,76,122981,5,2,3:2:0:0:
243,16,123331,2,0,L|192:24,1,51,8|0,0:0|3:2,0:0:0:0:
150,41,123680,1,8,0:0:0:0:
64,22,124029,1,8,0:0:0:0:
64,22,124204,1,2,3:3:0:0:
10,96,124553,6,0,L|24:201,1,102,6|0,3:2|3:0,0:0:0:0:
50,234,125076,2,0,L|38:300,1,51,0|0,3:3|3:3,0:0:0:0:
33,329,125425,1,8,0:0:0:0:
116,368,125774,5,2,3:2:0:0:
197,325,126123,2,0,L|259:315,1,51,8|0,0:0|0:0,0:0:0:0:
288,338,126472,1,0,3:3:0:0:
371,296,126821,5,8,0:0:0:0:
371,296,126996,1,2,3:2:0:0:
337,210,127345,2,0,L|237:186,1,102,12|0,0:0|3:3,0:0:0:0:
194,170,127869,1,8,0:0:0:0:
118,128,128218,1,8,0:0:0:0:
118,128,128392,1,4,3:2:0:0:
159,45,128741,6,0,L|268:55,1,102,8|0,0:0|3:3,0:0:0:0:
304,69,129265,1,8,0:0:0:0:
391,39,129614,1,8,0:0:0:0:
473,80,129963,6,0,L|464:141,1,51,12|0,0:0|3:3,0:0:0:0:
461,176,130312,1,10,0:0:0:0:
498,259,130661,2,0,L|398:275,1,102,10|0,0:0|3:0,0:0:0:0:
361,304,131184,1,8,0:0:0:0:
361,304,131359,5,4,3:2:0:0:
286,357,131708,1,0,3:3:0:0:
196,335,132057,2,0,L|128:329,1,51,8|0,0:0|0:0,0:0:0:0:
103,329,132406,1,8,0:0:0:0:
103,329,132581,1,0,3:3:0:0:
34,267,132930,6,0,L|46:165,1,102,4|0,3:2|0:0,0:0:0:0:
52,120,133453,1,10,0:0:0:0:
17,35,133802,2,0,L|80:26,1,51,2|0,3:2|0:0,0:0:0:0:
113,25,134151,5,2,3:2:0:0:
192,70,134500,1,2,3:2:0:0:
277,36,134849,2,0,L|327:40,1,51,10|0,0:0|3:3,0:0:0:0:
377,49,135198,1,10,0:0:0:0:
377,49,135373,1,2,3:3:0:0:
461,12,135722,6,0,B|479:63|479:63|453:118,1,102,4|0,3:2|0:0,0:0:0:0:
434,145,136246,1,8,0:0:0:0:
471,228,136595,2,0,L|478:302,1,51,2|0,3:2|0:0,0:0:0:0:
483,324,136944,5,2,3:2:0:0:
395,353,137293,1,2,3:2:0:0:
306,327,137642,2,0,L|243:340,1,51,8|0,0:0|3:3,0:0:0:0:
210,346,137991,1,8,0:0:0:0:
210,346,138165,1,2,3:0:0:0:
165,265,138514,6,0,B|168:228|168:228|178:209|178:209|185:148,1,102,14|0,0:0|3:3,0:0:0:0:
192,121,139038,2,0,L|254:111,1,51,10|0,0:0|3:3,0:0:0:0:
288,107,139387,1,10,0:0:0:0:
288,107,139561,1,6,3:2:0:0:
310,17,139910,6,0,L|194:10,1,102,10|0,0:0|3:0,0:0:0:0:
168,34,140434,2,0,L|99:44,1,51,14|0,0:0|3:1,0:0:0:0:
72,49,140783,1,10,0:0:0:0:
44,136,141132,5,12,0:0:0:0:
256,192,141307,12,0,144972,0:0:0:0:
