osu file format v14

[General]
AudioFilename: audio.mp3
AudioLeadIn: 0
PreviewTime: 29201
Countdown: 0
SampleSet: Soft
StackLeniency: 0.4
Mode: 0
LetterboxInBreaks: 0
WidescreenStoryboard: 0

[Editor]
Bookmarks: 565,3837,7655,11747,16110,20474,24837,29201,33565,37928,41201,45565,49928,54292,59747,64110,68474,72564,76654,80744,84835,89199,93563,97926,102290,106654,111017,115381,119744,123016,126289,129562,132834,136134,143591,153074
DistanceSpacing: 0.7
BeatDivisor: 4
GridSize: 32
TimelineZoom: 1.8

[Metadata]
Title:Full Blown Meltdown
TitleUnicode:Full Blown Meltdown
Artist:PUP
ArtistUnicode:PUP
Creator:eiri-
Version:Expert
Source:osu!
Tags:Ayyri Trynna Mimari pishifat English Punk Rock Featured Artist FA Morbid Stuff Pathetic Use of Potential
BeatmapID:2443058
BeatmapSetID:1171188

[Difficulty]
HPDrainRate:5
CircleSize:3
OverallDifficulty:9
ApproachRate:9.5
SliderMultiplier:1.8
SliderTickRate:1

[Events]
//Background and Video events
0,0,"Full Blown Meltdown.jpg",0,0
//Break Periods
//Storyboard Layer 0 (Background)
//Storyboard Layer 1 (Fail)
//Storyboard Layer 2 (Pass)
//Storyboard Layer 3 (Foreground)
//Storyboard Layer 4 (Overlay)
//Storyboard Sound Samples

[TimingPoints]
565,272.727272727273,3,2,1,80,1,0
565,-66.6666666666667,3,2,1,80,0,0
3837,272.727272727273,7,2,1,80,1,0
7655,-100,7,2,1,90,0,0
9564,272.727272727273,3,2,1,90,1,0
11747,272.727272727273,4,2,1,100,1,0
11747,-66.6666666666667,4,2,1,100,0,0
68474,272.727272727273,7,2,1,70,1,0
68474,-133.333333333333,7,2,1,70,0,0
72564,272.727272727273,7,2,1,70,1,0
72564,-133.333333333333,7,2,1,70,0,0
74473,272.727272727273,4,2,1,70,1,0
74473,-133.333333333333,4,2,1,70,0,0
76654,272.727272727273,7,2,1,90,1,0
76654,-133.333333333333,7,2,1,90,0,0
78563,272.727272727273,4,2,1,70,1,0
78563,-133.333333333333,4,2,1,70,0,0
80744,272.727272727273,7,2,1,70,1,0
80744,-133.333333333333,7,2,1,70,0,0
82654,272.727272727273,4,2,1,70,1,0
84835,-125,4,2,1,80,0,0
102290,-66.6666666666667,4,2,1,100,0,0
108835,-66.6666666666667,4,2,1,80,0,0
111017,-66.6666666666667,4,2,1,100,0,0
119744,272.727272727273,3,2,1,100,1,0
119744,-66.6666666666667,3,2,1,100,0,0
135834,300,3,2,1,100,1,0
135834,-66.6666666666667,3,2,1,100,0,0
136134,300,3,2,1,100,1,0
136209,-100,3,2,1,75,0,0
142212,344.827586206897,4,2,1,75,1,0
143677,-100,4,2,1,50,0,0
153074,-100,4,2,1,25,0,0

[Colours]
Combo1 : 242,183,60
Combo2 : 87,143,238
Combo3 : 185,86,243
Combo4 : 240,109,66

[HitObjects]
64,352,292,5,8,0:0:0:0:
64,352,565,5,2,0:0:0:0:
158,339,701,1,2,0:0:0:0:
145,245,837,1,10,0:0:0:0:
51,258,974,2,0,P|126:203|303:202,1,270.000010299683,6|0,0:0|0:0,0:0:0:0:
379,307,1383,5,2,0:0:0:0:
285,294,1519,1,2,0:0:0:0:
298,200,1655,1,10,0:0:0:0:
392,213,1792,2,0,P|317:158|140:157,1,270.000010299683,6|0,0:0|0:0,0:0:0:0:
64,262,2201,5,2,0:0:0:0:
158,249,2337,1,2,0:0:0:0:
145,155,2473,1,10,0:0:0:0:
51,168,2610,2,0,P|126:113|303:112,1,270.000010299683,6|0,0:0|0:0,0:0:0:0:
379,217,3019,5,10,0:0:0:0:
373,200,3155,1,0,0:0:0:0:
466,80,3292,5,10,0:0:0:0:
460,97,3428,1,0,0:0:0:0:
512,302,3565,5,10,0:0:0:0:
506,285,3701,1,0,0:0:0:0:
192,320,3837,5,6,0:0:0:0:
192,320,4246,1,2,0:0:0:0:
192,320,4655,1,2,0:0:0:0:
192,320,5064,1,2,0:0:0:0:
241,255,5200,1,10,0:0:0:0:
192,190,5337,1,2,0:0:0:0:
241,125,5473,1,10,0:0:0:0:
6,161,5746,5,2,0:0:0:0:
6,161,6155,1,2,0:0:0:0:
6,161,6564,1,2,0:0:0:0:
6,161,6973,1,2,0:0:0:0:
78,197,7109,1,10,0:0:0:0:
134,138,7246,1,2,0:0:0:0:
206,175,7382,1,10,0:0:0:0:
480,128,7655,5,10,0:0:0:0:
398,163,7791,2,0,L|300:148,1,90,2|2,0:0|0:0,0:0:0:0:
157,246,8064,1,10,0:0:0:0:
246,293,8200,2,0,L|344:278,1,90,2|2,0:0|0:0,0:0:0:0:
77,320,8473,5,10,0:0:0:0:
30,231,8609,2,0,L|45:133,1,90,2|2,0:0|0:0,0:0:0:0:
229,8,8882,1,10,0:0:0:0:
276,97,9018,2,0,L|261:195,1,90,2|2,0:0|0:0,0:0:0:0:
70,149,9291,2,0,L|85:51,1,90,10|2,0:0|0:0,0:0:0:0:
384,32,9564,5,10,0:0:0:0:
405,61,9632,1,10,0:0:0:0:
383,112,9700,1,2,0:0:0:0:
199,39,9836,1,2,0:0:0:0:
160,256,9973,1,10,0:0:0:0:
133,158,10109,1,2,0:0:0:0:
352,224,10245,1,2,0:0:0:0:
159,336,10382,5,10,0:0:0:0:
138,307,10450,1,10,0:0:0:0:
160,256,10518,1,2,0:0:0:0:
416,320,10654,1,2,0:0:0:0:
74,372,10791,1,10,0:0:0:0:
111,175,10927,1,2,0:0:0:0:
138,307,11064,1,2,0:0:0:0:
2,265,11200,5,2,0:0:0:0:
147,207,11336,1,2,0:0:0:0:
468,344,11473,2,0,L|450:175,1,135,14|0,0:0|0:0,0:0:0:0:
492,83,11747,6,0,P|436:173|261:152,1,270.000010299683,6|8,0:0|0:0,0:0:0:0:
121,61,12156,2,0,P|215:43|389:40,1,270.000010299683,2|0,0:0|0:0,0:0:0:0:
149,267,12565,6,0,P|107:173|130:-7,1,270.000010299683,10|0,0:0|0:0,0:0:0:0:
9,144,12974,1,2,0:0:0:0:
196,104,13110,2,0,L|180:244,1,135.000005149842,10|0,0:0|0:0,0:0:0:0:
167,379,13383,2,0,P|150:284|18:260,1,202.500007724762,2|0,0:0|0:0,0:0:0:0:
46,282,13656,2,0,P|146:259|203:265,1,135.000005149842,10|0,0:0|0:0,0:0:0:0:
448,320,13928,5,2,0:0:0:0:
331,358,14065,2,0,P|395:290|477:241,1,135.000005149842,2|8,0:0|0:0,0:0:0:0:
335,68,14337,2,0,P|352:151|343:253,1,135.000005149842,2|0,0:0|0:0,0:0:0:0:
240,334,14610,1,2,0:0:0:0:
100,150,14747,2,0,P|211:134|223:40,1,202.500007724762,10|0,0:0|0:0,0:0:0:0:
210,20,15019,6,0,P|115:5|37:13,1,135.000005149842,2|0,0:0|0:0,0:0:0:0:
24,231,15292,2,0,P|54:146|96:90,1,135.000005149842,10|0,0:0|0:0,0:0:0:0:
282,339,15565,2,0,P|181:336|84:361,1,202.500007724762,2|0,0:0|0:0,0:0:0:0:
69,350,15837,2,0,P|144:293|222:275,1,135.000005149842,10|0,0:0|0:0,0:0:0:0:
471,333,16110,6,0,P|398:296|397:107,1,270.000010299683,2|8,0:0|0:0,0:0:0:0:
501,74,16519,1,2,0:0:0:0:
327,15,16656,2,0,P|259:48|192:173,1,202.500007724762,2|0,0:0|0:0,0:0:0:0:
188,211,16928,2,0,P|130:140|32:152,1,135.000005149842,10|0,0:0|0:0,0:0:0:0:
31,347,17201,6,0,P|142:316|301:305,1,270.000010299683,2|10,0:0|0:0,0:0:0:0:
487,331,17610,1,2,0:0:0:0:
385,125,17747,2,0,P|409:210|408:290,1,135.000005149842,2|0,0:0|0:0,0:0:0:0:
493,67,18019,2,0,P|404:67|263:119,1,202.500007724762,10|0,0:0|0:0,0:0:0:0:
221,136,18292,6,0,P|268:54|277:-28,1,135.000005149842,2|0,0:0|0:0,0:0:0:0:
315,221,18565,1,10,0:0:0:0:
189,166,18701,2,0,P|93:140|14:146,1,135.000005149842,2|0,0:0|0:0,0:0:0:0:
80,356,18974,1,2,0:0:0:0:
4,245,19110,2,0,P|95:240|210:288,1,202.500007724762,10|0,0:0|0:0,0:0:0:0:
286,334,19383,6,0,P|296:253|323:157,1,135.000005149842,2|0,0:0|0:0,0:0:0:0:
373,60,19656,1,10,0:0:0:0:
422,146,19792,1,2,0:0:0:0:
133,85,19928,2,0,P|158:162|160:250,1,135.000005149842,2|0,0:0|0:0,0:0:0:0:
22,51,20201,2,0,P|134:34|251:30,1,202.500007724762,10|0,0:0|0:0,0:0:0:0:
388,109,20474,6,0,B|300:62|300:62|259:259,1,270.000010299683,6|8,0:0|0:0,0:0:0:0:
224,374,20883,2,0,P|328:338|511:306,1,270.000010299683,2|0,0:0|0:0,0:0:0:0:
129,218,21292,6,0,P|237:238|411:302,1,270.000010299683,10|0,0:0|0:0,0:0:0:0:
110,370,21701,1,2,0:0:0:0:
128,178,21837,2,0,L|103:25,1,135.000005149842,10|0,0:0|0:0,0:0:0:0:
382,59,22110,2,0,P|272:84|231:2,1,202.500007724762,2|0,0:0|0:0,0:0:0:0:
246,35,22383,2,0,P|256:114|228:219,1,135.000005149842,10|0,0:0|0:0,0:0:0:0:
24,255,22656,6,0,P|185:224|313:227,1,270.000010299683,2|10,0:0|0:0,0:0:0:0:
505,312,23065,1,2,0:0:0:0:
505,312,23201,2,0,B|442:281|442:281|469:133,1,202.500007724762,2|0,0:0|0:0,0:0:0:0:
486,93,23474,2,0,P|412:112|353:163,1,135.000005149842,10|0,0:0|0:0,0:0:0:0:
226,32,23747,6,0,P|302:123|309:282,1,270.000010299683,2|8,0:0|0:0,0:0:0:0:
270,350,24156,1,2,0:0:0:0:
36,318,24292,2,0,P|131:304|180:289,1,135.000005149842,2|0,0:0|0:0,0:0:0:0:
2,189,24565,2,0,P|101:198|166:100,1,202.500007724762,10|0,0:0|0:0,0:0:0:0:
155,74,24837,6,0,P|84:68|54:-18,1,135.000005149842,2|0,0:0|0:0,0:0:0:0:
273,11,25110,1,10,0:0:0:0:
273,11,25247,2,0,P|268:102|207:226,1,202.500007724762,2|0,0:0|0:0,0:0:0:0:
147,267,25519,1,2,0:0:0:0:
270,350,25656,2,0,P|336:341|402:324,1,135.000005149842,10|0,0:0|0:0,0:0:0:0:
507,249,25928,6,0,P|430:286|390:131,1,270.000010299683,2|8,0:0|0:0,0:0:0:0:
188,222,26337,2,0,P|256:224|320:246,1,135.000005149842,2|2,0:0|0:0,0:0:0:0:
154,117,26610,2,0,P|203:71|263:41,1,135.000005149842,2|8,0:0|0:0,0:0:0:0:
263,40,26883,1,2,0:0:0:0:
229,355,27019,6,0,L|61:376,1,135.000005149842,14|0,0:0|0:0,0:0:0:0:
292,214,27292,1,10,0:0:0:0:
292,214,27428,2,0,L|460:235,1,135.000005149842,2|8,0:0|0:0,0:0:0:0:
183,116,27701,1,2,0:0:0:0:
183,116,27837,2,0,L|15:137,1,135.000005149842,10|0,0:0|0:0,0:0:0:0:
378,12,28110,6,0,L|546:33,1,135.000005149842,14|0,0:0|0:0,0:0:0:0:
272,271,28383,2,0,L|440:250,1,135.000005149842,10|0,0:0|0:0,0:0:0:0:
68,89,28656,2,0,L|236:110,1,135.000005149842,10|0,0:0|0:0,0:0:0:0:
19,368,28928,1,14,0:0:0:0:
19,368,29201,5,6,0:0:0:0:
116,304,29337,1,2,0:0:0:0:
239,358,29474,2,0,P|173:352|90:335,1,135.000005149842,2|8,0:0|0:0,0:0:0:0:
493,368,29747,5,2,0:0:0:0:
396,304,29883,1,2,0:0:0:0:
273,358,30020,2,0,P|339:352|422:335,1,135.000005149842,10|0,0:0|0:0,0:0:0:0:
192,256,30292,5,10,0:0:0:0:
96,192,30428,1,2,0:0:0:0:
192,64,30565,2,0,L|192:224,1,135.000005149842,2|8,0:0|0:0,0:0:0:0:
320,256,30837,5,2,0:0:0:0:
416,192,30973,1,2,0:0:0:0:
320,64,31110,2,0,L|320:224,1,135.000005149842,10|0,0:0|0:0,0:0:0:0:
148,356,31383,5,6,0:0:0:0:
77,294,31519,1,2,0:0:0:0:
210,259,31656,2,0,P|141:253|39:238,1,135.000005149842,10|0,0:0|0:0,0:0:0:0:
364,356,31928,5,2,0:0:0:0:
435,294,32064,1,2,0:0:0:0:
302,259,32201,2,0,P|371:253|473:238,1,135.000005149842,10|0,0:0|0:0,0:0:0:0:
148,28,32474,5,2,0:0:0:0:
77,90,32610,1,2,0:0:0:0:
210,125,32747,2,0,P|141:131|39:146,1,135.000005149842,10|0,0:0|0:0,0:0:0:0:
364,28,33019,5,2,0:0:0:0:
435,90,33155,1,2,0:0:0:0:
302,125,33292,2,0,P|371:131|473:146,1,135.000005149842,10|0,0:0|0:0,0:0:0:0:
477,322,33565,5,6,0:0:0:0:
366,183,33701,1,2,0:0:0:0:
317,365,33837,2,0,P|349:269|376:228,1,135.000005149842,2|8,0:0|0:0,0:0:0:0:
35,322,34110,5,2,0:0:0:0:
146,183,34246,1,2,0:0:0:0:
195,365,34382,2,0,P|163:269|136:228,1,135.000005149842,14|0,0:0|0:0,0:0:0:0:
18,96,34656,5,14,0:0:0:0:
161,33,34792,1,2,0:0:0:0:
195,219,34928,2,0,P|164:145|170:83,1,135.000005149842,2|8,0:0|0:0,0:0:0:0:
494,96,35201,5,2,0:0:0:0:
351,33,35337,1,2,0:0:0:0:
317,219,35473,2,0,P|348:145|342:83,1,135.000005149842,14|0,0:0|0:0,0:0:0:0:
256,352,35747,5,6,0:0:0:0:
416,257,35883,1,2,0:0:0:0:
512,352,36019,2,0,P|416:320|384:320,1,135.000005149842,10|0,0:0|0:0,0:0:0:0:
256,352,36292,5,2,0:0:0:0:
96,257,36428,1,2,0:0:0:0:
0,352,36564,2,0,P|96:320|128:320,1,135.000005149842,10|0,0:0|0:0,0:0:0:0:
372,372,36837,5,2,0:0:0:0:
448,256,36974,1,2,0:0:0:0:
320,192,37110,2,0,L|320:32,1,135.000005149842,10|0,0:0|0:0,0:0:0:0:
140,372,37383,5,2,0:0:0:0:
64,256,37520,1,2,0:0:0:0:
192,192,37656,2,0,L|192:32,1,135.000005149842,10|0,0:0|0:0,0:0:0:0:
480,109,37928,5,2,0:0:0:0:
448,205,38065,1,2,0:0:0:0:
352,173,38201,1,10,0:0:0:0:
384,77,38337,2,0,P|441:137|487:321,1,270.000010299683,6|0,0:0|0:0,0:0:0:0:
32,109,38747,5,2,0:0:0:0:
64,205,38884,1,2,0:0:0:0:
160,173,39020,1,10,0:0:0:0:
128,77,39156,2,0,P|71:137|25:321,1,270.000010299683,6|0,0:0|0:0,0:0:0:0:
352,32,39565,5,2,0:0:0:0:
352,128,39701,1,2,0:0:0:0:
160,128,39837,1,10,0:0:0:0:
160,32,39974,2,0,P|192:96|192:320,1,270.000010299683,6|0,0:0|0:0,0:0:0:0:
12,373,40383,5,10,0:0:0:0:
17,362,40519,1,0,0:0:0:0:
95,240,40656,5,10,0:0:0:0:
100,251,40792,1,0,0:0:0:0:
275,367,40928,5,10,0:0:0:0:
280,356,41064,1,0,0:0:0:0:
464,282,41201,6,0,P|343:258|192:261,1,270.000010299683,6|8,0:0|0:0,0:0:0:0:
67,367,41610,2,0,B|151:338|151:338|118:128,1,270.000010299683,2|0,0:0|0:0,0:0:0:0:
16,40,42019,6,0,P|137:16|306:16,1,270.000010299683,10|0,0:0|0:0,0:0:0:0:
23,142,42428,1,2,0:0:0:0:
338,159,42565,2,0,P|246:108|161:96,1,135.000005149842,10|0,0:0|0:0,0:0:0:0:
301,379,42837,2,0,P|293:287|325:155,1,202.500007724762,2|0,0:0|0:0,0:0:0:0:
317,193,43110,2,0,P|249:240|146:206,1,135.000005149842,10|0,0:0|0:0,0:0:0:0:
438,19,43383,6,0,L|455:267,1,202.500007724762,2|0,0:0|0:0,0:0:0:0:
455,251,43656,2,0,L|476:85,1,135.000005149842,10|0,0:0|0:0,0:0:0:0:
170,82,43928,2,0,P|236:33|319:33,1,135.000005149842,2|2,0:0|0:0,0:0:0:0:
192,265,44201,1,10,0:0:0:0:
72,216,44337,6,0,P|185:214|222:360,1,270.000010299683,2|2,0:0|0:0,0:0:0:0:
20,293,44747,2,0,L|-2:143,1,135.000005149842,10|0,0:0|0:0,0:0:0:0:
126,12,45019,2,0,P|47:21|13:66,1,135.000005149842,2|0,0:0|0:0,0:0:0:0:
264,135,45292,2,0,P|411:110|484:111,1,202.500007724762,10|0,0:0|0:0,0:0:0:0:
460,123,45565,6,0,P|408:61|312:45,1,135.000005149842,2|0,0:0|0:0,0:0:0:0:
394,321,45837,2,0,P|448:266|515:235,1,135.000005149842,10|0,0:0|0:0,0:0:0:0:
250,298,46110,1,2,0:0:0:0:
306,373,46247,1,2,0:0:0:0:
330,176,46383,2,0,P|227:199|152:189,1,135.000005149842,10|2,0:0|0:0,0:0:0:0:
0,164,46656,6,0,B|54:122|110:140|110:140|47:218|81:316,2,270.000010299683,2|10|2,0:0|0:0|0:0,0:0:0:0:
114,33,47337,1,2,0:0:0:0:
311,137,47474,2,0,P|364:83|503:61,1,202.500007724762,10|0,0:0|0:0,0:0:0:0:
484,70,47747,6,0,P|412:35|330:35,1,135.000005149842,6|0,0:0|0:0,0:0:0:0:
176,163,48019,1,10,0:0:0:0:
176,163,48156,2,0,P|248:128|330:128,1,135.000005149842,6|0,0:0|0:0,0:0:0:0:
484,256,48428,1,2,0:0:0:0:
484,256,48565,2,0,P|412:221|330:221,1,135.000005149842,14|0,0:0|0:0,0:0:0:0:
200,337,48837,5,2,0:0:0:0:
346,248,48974,1,2,0:0:0:0:
79,193,49110,2,0,P|96:280|99:363,1,135.000005149842,10|0,0:0|0:0,0:0:0:0:
0,161,49383,2,0,P|78:170|158:39,1,202.500007724762,2|0,0:0|0:0,0:0:0:0:
174,0,49656,1,14,0:0:0:0:
174,0,49928,6,0,P|262:10|439:79,1,270.000010299683,6|8,0:0|0:0,0:0:0:0:
483,301,50337,2,0,P|403:173|263:122,1,270.000010299683,6|8,0:0|0:0,0:0:0:0:
51,350,50747,2,0,P|200:313|463:323,1,405.000015449525,6|0,0:0|0:0,0:0:0:0:
191,371,51292,5,10,0:0:0:0:
242,273,51428,1,0,0:0:0:0:
443,213,51565,5,10,0:0:0:0:
414,157,51701,1,0,0:0:0:0:
32,256,51837,5,14,0:0:0:0:
32,256,52110,6,0,P|143:229|294:220,1,202.500007724762,6|0,0:0|0:0,0:0:0:0:
285,234,52383,2,0,P|235:174|144:149,1,135.000005149842,10|0,0:0|0:0,0:0:0:0:
32,352,52656,1,2,0:0:0:0:
9,211,52792,1,2,0:0:0:0:
319,336,52928,6,0,L|297:31,1,270.000010299683,10|0,0:0|0:0,0:0:0:0:
464,225,53337,1,2,0:0:0:0:
171,304,53474,1,10,0:0:0:0:
203,79,53610,1,2,0:0:0:0:
215,202,53747,2,0,P|152:119|9:153,1,202.500007724762,2|0,0:0|0:0,0:0:0:0:
60,131,54019,2,0,P|166:108|216:111,1,135.000005149842,10|0,0:0|0:0,0:0:0:0:
463,179,54292,6,0,P|365:191|228:202,1,202.500007724762,2|0,0:0|0:0,0:0:0:0:
244,191,54565,2,0,P|319:163|342:312,1,270.000010299683,10|0,0:0|0:0,0:0:0:0:
81,356,54974,1,2,0:0:0:0:
7,244,55110,2,0,P|48:164|131:140,1,135.000005149842,10|0,0:0|0:0,0:0:0:0:
254,43,55383,6,0,P|200:4|134:4,1,135.000005149842,2|2,0:0|0:0,0:0:0:0:
192,306,55656,2,0,L|167:106,1,202.500007724762,10|0,0:0|0:0,0:0:0:0:
176,121,55928,2,0,L|139:280,1,135.000005149842,2|0,0:0|0:0,0:0:0:0:
385,47,56201,2,0,L|475:174,1,135.000005149842,10|0,0:0|0:0,0:0:0:0:
50,226,56474,5,14,0:0:0:0:
50,226,56610,2,0,L|25:80,1,135.000005149842,2|8,0:0|0:0,0:0:0:0:
177,248,56883,2,0,L|152:394,2,135.000005149842,2|8|0,0:0|0:0|0:0,0:0:0:0:
379,134,57292,2,0,L|354:-12,1,135.000005149842,10|2,0:0|0:0,0:0:0:0:
305,289,57565,6,0,L|451:314,1,135.000005149842,10|0,0:0|0:0,0:0:0:0:
182,97,57837,1,10,0:0:0:0:
182,97,57974,2,0,L|328:72,1,135.000005149842,2|8,0:0|0:0,0:0:0:0:
6,345,58247,2,0,L|152:370,2,135.000005149842,2|8|0,0:0|0:0|0:0,0:0:0:0:
288,256,58656,5,2,0:0:0:0:
202,277,58792,1,2,0:0:0:0:
181,191,58928,1,2,0:0:0:0:
267,170,59065,1,2,0:0:0:0:
192,292,59201,5,2,0:0:0:0:
166,188,59337,1,2,0:0:0:0:
500,239,59474,5,14,0:0:0:0:
500,239,59747,5,6,0:0:0:0:
402,317,59883,1,2,0:0:0:0:
339,176,60019,2,0,L|494:205,1,135.000005149842,2|8,0:0|0:0,0:0:0:0:
153,290,60292,5,2,0:0:0:0:
251,368,60428,1,2,0:0:0:0:
314,227,60564,2,0,L|159:256,1,135.000005149842,10|0,0:0|0:0,0:0:0:0:
8,291,60837,5,10,0:0:0:0:
53,182,60974,1,2,0:0:0:0:
148,372,61110,2,0,L|125:225,1,135.000005149842,2|8,0:0|0:0,0:0:0:0:
106,96,61383,5,2,0:0:0:0:
151,205,61520,1,2,0:0:0:0:
246,15,61656,2,0,L|223:162,1,135.000005149842,10|0,0:0|0:0,0:0:0:0:
300,336,61928,5,6,0:0:0:0:
400,319,62065,1,2,0:0:0:0:
500,302,62201,2,0,P|445:248|388:222,1,135.000005149842,10|0,0:0|0:0,0:0:0:0:
212,336,62474,5,2,0:0:0:0:
112,319,62611,1,2,0:0:0:0:
12,302,62747,2,0,P|67:248|124:222,1,135.000005149842,10|0,0:0|0:0,0:0:0:0:
342,300,63019,5,2,0:0:0:0:
256,192,63156,1,2,0:0:0:0:
416,96,63292,2,0,P|352:64|288:96,1,135.000005149842,10|0,0:0|0:0,0:0:0:0:
170,300,63565,5,2,0:0:0:0:
256,192,63702,1,2,0:0:0:0:
96,96,63838,2,0,P|160:64|224:96,1,135.000005149842,10|0,0:0|0:0,0:0:0:0:
256,352,64110,5,6,0:0:0:0:
96,192,64247,1,2,0:0:0:0:
0,320,64383,2,0,L|171:303,1,135.000005149842,2|8,0:0|0:0,0:0:0:0:
256,352,64656,5,2,0:0:0:0:
416,192,64793,1,2,0:0:0:0:
512,320,64929,2,0,L|341:303,1,135.000005149842,14|0,0:0|0:0,0:0:0:0:
32,352,65201,5,14,0:0:0:0:
121,192,65337,1,2,0:0:0:0:
160,352,65474,2,0,L|160:192,1,135.000005149842,2|8,0:0|0:0,0:0:0:0:
480,352,65747,5,2,0:0:0:0:
391,192,65883,1,2,0:0:0:0:
352,352,66020,2,0,L|352:192,1,135.000005149842,14|0,0:0|0:0,0:0:0:0:
352,32,66292,5,6,0:0:0:0:
480,96,66428,1,2,0:0:0:0:
391,192,66565,2,0,L|256:192,1,135.000005149842,10|0,0:0|0:0,0:0:0:0:
160,32,66837,5,2,0:0:0:0:
32,96,66973,1,2,0:0:0:0:
121,192,67110,2,0,L|256:192,1,135.000005149842,10|0,0:0|0:0,0:0:0:0:
256,32,67383,5,2,0:0:0:0:
160,160,67519,1,2,0:0:0:0:
256,352,67656,2,0,L|256:192,1,135.000005149842,10|0,0:0|0:0,0:0:0:0:
256,32,67928,5,2,0:0:0:0:
352,160,68064,1,2,0:0:0:0:
256,352,68201,2,0,L|256:192,1,135.000005149842,10|0,0:0|0:0,0:0:0:0:
256,32,68474,6,0,P|390:54|489:53,2,202.500007724762,6|2|10,0:0|0:0|0:0,0:0:0:0:
236,66,69701,1,10,0:0:0:0:
253,182,69837,2,0,P|259:136|269:91,1,67.5000025749208,2|0,0:0|0:0,0:0:0:0:
364,199,70110,2,0,P|413:190|474:188,1,101.250003862381,10|0,0:0|0:0,0:0:0:0:
486,217,70383,6,0,P|458:297|331:291,2,202.500007724762,6|2|10,0:0|0:0|0:0,0:0:0:0:
132,277,71610,1,2,0:0:0:0:
132,277,71678,1,2,0:0:0:0:
132,277,71746,2,0,P|150:238|170:214,1,67.5000025749208,2|2,0:0|0:0,0:0:0:0:
205,358,72019,2,0,P|171:328|141:320,1,67.5000025749208,2|2,0:0|0:0,0:0:0:0:
442,289,72292,5,14,0:0:0:0:
442,289,72564,6,0,P|423:156|396:66,2,202.500007724762,6|2|10,0:0|0:0|0:0,0:0:0:0:
426,341,73791,1,10,0:0:0:0:
334,296,73927,2,0,P|284:287|245:287,1,67.5000025749208,2|0,0:0|0:0,0:0:0:0:
98,366,74200,2,0,L|195:345,1,67.5000025749208,10|0,0:0|0:0,0:0:0:0:
20,273,74473,5,6,0:0:0:0:
26,288,74609,1,2,0:0:0:0:
19,324,74745,1,2,0:0:0:0:
311,365,74882,2,0,L|322:278,1,67.5000025749208,10|0,0:0|0:0,0:0:0:0:
235,200,75154,1,2,0:0:0:0:
430,177,75291,2,0,L|419:90,1,67.5000025749208,10|0,0:0|0:0,0:0:0:0:
449,17,75563,5,2,0:0:0:0:
449,17,75700,1,2,0:0:0:0:
449,17,75836,2,0,L|364:6,1,67.5000025749208,10|0,0:0|0:0,0:0:0:0:
106,126,76109,2,0,L|191:115,1,67.5000025749208,10|0,0:0|0:0,0:0:0:0:
119,208,76382,2,0,L|204:197,1,67.5000025749208,10|0,0:0|0:0,0:0:0:0:
384,271,76654,5,6,0:0:0:0:
411,245,76790,1,2,0:0:0:0:
411,186,76926,1,2,0:0:0:0:
271,32,77063,6,0,L|283:123,1,67.5000025749208,10|0,0:0|0:0,0:0:0:0:
279,98,77335,1,2,0:0:0:0:
167,242,77472,2,0,L|155:333,1,67.5000025749208,10|0,0:0|0:0,0:0:0:0:
158,308,77744,1,2,0:0:0:0:
195,71,77881,6,0,L|104:59,1,67.5000025749208,10|0,0:0|0:0,0:0:0:0:
128,62,78153,1,2,0:0:0:0:
404,307,78290,1,14,0:0:0:0:
404,307,78563,6,0,P|402:224|408:98,2,202.500007724762,6|2|10,0:0|0:0|0:0,0:0:0:0:
413,361,79790,1,10,0:0:0:0:
413,361,79926,2,0,P|380:322|337:305,1,67.5000025749208,2|0,0:0|0:0,0:0:0:0:
185,371,80199,2,0,P|226:360|277:354,1,67.5000025749208,10|0,0:0|0:0,0:0:0:0:
293,207,80472,2,0,P|242:184|171:198,1,101.250003862381,10|0,0:0|0:0,0:0:0:0:
130,239,80744,6,0,P|144:144|155:7,2,202.500007724762,6|2|10,0:0|0:0|0:0,0:0:0:0:
112,296,81971,1,10,0:0:0:0:
29,265,82107,2,0,P|58:300|67:333,1,67.5000025749208,2|0,0:0|0:0,0:0:0:0:
230,313,82380,2,0,P|207:352|179:371,1,67.5000025749208,10|0,0:0|0:0,0:0:0:0:
169,207,82654,6,0,P|254:184|398:173,1,225,6|0,0:0|0:0,0:0:0:0:
481,189,83063,2,0,P|411:146|265:123,1,225,14|0,0:0|0:0,0:0:0:0:
273,131,83472,1,6,0:0:0:0:
273,131,84835,5,6,0:0:0:0:
273,131,85108,1,2,0:0:0:0:
256,320,85381,1,10,0:0:0:0:
309,250,85654,2,0,P|241:230|148:213,2,144,6|0|0,0:0|0:0|0:0,0:0:0:0:
490,326,86335,1,0,0:0:0:0:
490,326,86472,2,0,P|482:273|478:162,1,144,10|2,0:0|0:0,0:0:0:0:
483,48,87017,6,0,P|404:58|336:58,1,144,6|0,0:0|0:0,0:0:0:0:
254,30,87426,1,6,0:0:0:0:
275,212,87563,1,10,0:0:0:0:
323,137,87835,2,0,P|208:127|3:102,1,288,6|0,0:0|0:0,0:0:0:0:
124,76,88517,1,2,0:0:0:0:
156,355,88654,1,14,0:0:0:0:
205,274,88926,1,2,0:0:0:0:
10,309,89199,5,6,0:0:0:0:
10,309,89472,1,2,0:0:0:0:
205,274,89744,1,10,0:0:0:0:
156,355,90017,2,0,P|168:277|170:187,2,144,6|0|0,0:0|0:0|0:0,0:0:0:0:
67,184,90699,1,0,0:0:0:0:
67,184,90835,2,0,P|138:168|223:174,1,144,10|2,0:0|0:0,0:0:0:0:
512,224,91381,6,0,B|498:69,1,144,14|0,0:0|0:0,0:0:0:0:
396,335,91790,2,0,B|410:180,1,144,14|0,0:0|0:0,0:0:0:0:
229,6,92199,2,0,B|243:161,1,144,14|2,0:0|0:0,0:0:0:0:
201,261,92608,1,10,0:0:0:0:
177,283,92744,1,10,0:0:0:0:
131,252,92881,1,10,0:0:0:0:
429,225,93017,2,0,L|443:318,1,72,14|0,0:0|0:0,0:0:0:0:
343,165,93290,2,0,L|329:258,1,72,14|0,0:0|0:0,0:0:0:0:
480,32,93563,5,6,0:0:0:0:
480,32,93835,1,2,0:0:0:0:
256,96,94108,1,10,0:0:0:0:
344,78,94381,2,0,P|317:30|219:14,2,144,6|0|0,0:0|0:0|0:0,0:0:0:0:
309,262,95062,1,0,0:0:0:0:
309,262,95199,2,0,P|394:243|476:233,1,144,10|2,0:0|0:0,0:0:0:0:
256,352,95744,6,0,P|184:341|114:325,1,144,6|0,0:0|0:0,0:0:0:0:
0,238,96153,1,6,0:0:0:0:
256,192,96290,1,10,0:0:0:0:
294,312,96563,2,0,P|283:241|271:14,1,288,6|0,0:0|0:0,0:0:0:0:
159,113,97244,1,2,0:0:0:0:
0,46,97381,1,14,0:0:0:0:
80,10,97653,1,2,0:0:0:0:
64,256,97926,5,6,0:0:0:0:
64,256,98199,1,2,0:0:0:0:
320,224,98471,1,10,0:0:0:0:
243,155,98744,2,0,P|239:215|237:312,2,144,6|0|2,0:0|0:0|0:0,0:0:0:0:
262,21,99426,1,0,0:0:0:0:
262,21,99563,2,0,P|346:13|431:11,1,144,10|2,0:0|0:0,0:0:0:0:
487,280,100108,6,0,L|501:116,1,144,14|0,0:0|0:0,0:0:0:0:
349,346,100517,2,0,L|335:182,1,144,14|0,0:0|0:0,0:0:0:0:
160,32,100926,2,0,L|151:133,1,72,14|0,0:0|0:0,0:0:0:0:
138,340,101199,1,10,0:0:0:0:
138,340,101335,1,10,0:0:0:0:
162,362,101471,1,10,0:0:0:0:
208,331,101608,1,10,0:0:0:0:
0,175,101744,2,0,L|9:276,1,72,14|0,0:0|0:0,0:0:0:0:
112,110,102017,2,0,L|103:211,1,72,14|0,0:0|0:0,0:0:0:0:
8,16,102290,5,6,0:0:0:0:
192,64,102426,1,2,0:0:0:0:
64,160,102563,2,0,L|64:0,1,135.000005149842,2|8,0:0|0:0,0:0:0:0:
504,16,102835,5,2,0:0:0:0:
320,64,102971,1,2,0:0:0:0:
448,160,103108,2,0,L|448:0,1,135.000005149842,10|0,0:0|0:0,0:0:0:0:
288,224,103381,5,10,0:0:0:0:
352,352,103517,1,2,0:0:0:0:
464,256,103654,2,0,L|320:320,1,135.000005149842,2|8,0:0|0:0,0:0:0:0:
224,224,103926,5,2,0:0:0:0:
160,352,104062,1,2,0:0:0:0:
48,256,104199,2,0,L|192:320,1,135.000005149842,10|0,0:0|0:0,0:0:0:0:
256,128,104472,5,6,0:0:0:0:
160,32,104608,1,2,0:0:0:0:
0,160,104744,2,0,L|160:160,1,135.000005149842,2|8,0:0|0:0,0:0:0:0:
256,128,105017,5,2,0:0:0:0:
352,32,105153,1,2,0:0:0:0:
512,160,105289,2,0,L|352:160,1,135.000005149842,10|0,0:0|0:0,0:0:0:0:
256,32,105563,5,10,0:0:0:0:
192,224,105699,1,2,0:0:0:0:
32,192,105835,2,0,L|32:352,1,135.000005149842,2|8,0:0|0:0,0:0:0:0:
256,32,106108,5,2,0:0:0:0:
320,224,106244,1,2,0:0:0:0:
480,192,106380,2,0,L|480:352,1,135.000005149842,10|0,0:0|0:0,0:0:0:0:
256,128,106654,5,6,0:0:0:0:
384,64,106790,1,2,0:0:0:0:
384,224,106926,2,0,L|384:416,1,135.000005149842,2|8,0:0|0:0,0:0:0:0:
256,128,107199,5,2,0:0:0:0:
128,64,107335,1,2,0:0:0:0:
128,224,107471,2,0,L|128:416,1,135.000005149842,10|0,0:0|0:0,0:0:0:0:
256,96,107744,5,10,0:0:0:0:
96,192,107881,1,2,0:0:0:0:
0,64,108017,2,0,P|96:32|160:32,1,135.000005149842,2|8,0:0|0:0,0:0:0:0:
256,96,108290,5,2,0:0:0:0:
416,192,108427,1,2,0:0:0:0:
512,64,108563,2,0,P|416:32|352:32,1,135.000005149842,10|0,0:0|0:0,0:0:0:0:
256,192,108835,5,10,0:0:0:0:
256,228,108904,1,10,0:0:0:0:
256,284,108972,1,10,0:0:0:0:
352,352,109108,1,10,0:0:0:0:
448,256,109244,1,2,0:0:0:0:
352,128,109381,2,0,L|352:288,1,135.000005149842,2|8,0:0|0:0,0:0:0:0:
353,307,109585,1,10,0:0:0:0:
352,352,109654,1,10,0:0:0:0:
160,352,109790,1,8,0:0:0:0:
160,128,109926,6,0,L|160:288,1,135.000005149842,6|0,0:0|0:0,0:0:0:0:
160,352,110199,1,10,0:0:0:0:
256,320,110335,1,10,0:0:0:0:
256,284,110404,1,10,0:0:0:0:
256,228,110472,1,10,0:0:0:0:
256,128,110608,1,10,0:0:0:0:
256,92,110677,1,10,0:0:0:0:
256,36,110745,1,10,0:0:0:0:
128,96,110881,1,10,0:0:0:0:
256,192,111017,5,6,0:0:0:0:
358,168,111154,1,2,0:0:0:0:
460,144,111290,2,0,P|430:84|361:28,1,135.000005149842,10|0,0:0|0:0,0:0:0:0:
256,192,111563,5,2,0:0:0:0:
154,168,111700,1,2,0:0:0:0:
52,144,111836,2,0,P|82:84|150:28,1,135.000005149842,10|0,0:0|0:0,0:0:0:0:
256,192,112108,5,2,0:0:0:0:
96,320,112244,1,2,0:0:0:0:
96,160,112381,2,0,L|96:0,1,135.000005149842,10|0,0:0|0:0,0:0:0:0:
256,192,112654,5,2,0:0:0:0:
416,320,112790,1,2,0:0:0:0:
416,160,112927,2,0,L|416:0,1,135.000005149842,10|0,0:0|0:0,0:0:0:0:
256,192,113199,5,6,0:0:0:0:
320,64,113335,1,2,0:0:0:0:
512,160,113472,2,0,P|480:96|416:64,1,135.000005149842,10|0,0:0|0:0,0:0:0:0:
256,192,113744,5,2,0:0:0:0:
192,64,113880,1,2,0:0:0:0:
0,160,114017,2,0,P|32:96|96:64,1,135.000005149842,10|0,0:0|0:0,0:0:0:0:
256,192,114290,5,6,0:0:0:0:
96,320,114426,1,2,0:0:0:0:
0,192,114563,2,0,L|160:192,1,135.000005149842,10|0,0:0|0:0,0:0:0:0:
256,192,114835,5,2,0:0:0:0:
416,320,114971,1,2,0:0:0:0:
512,192,115108,2,0,L|352:192,1,135.000005149842,10|0,0:0|0:0,0:0:0:0:
256,192,115381,5,14,0:0:0:0:
290,17,115517,1,0,0:0:0:0:
149,319,115654,5,10,0:0:0:0:
105,70,115790,1,0,0:0:0:0:
395,354,115926,5,10,0:0:0:0:
412,266,116062,1,0,0:0:0:0:
35,263,116199,5,10,0:0:0:0:
18,175,116335,1,0,0:0:0:0:
213,196,116472,5,10,0:0:0:0:
243,38,116608,1,0,0:0:0:0:
504,335,116744,5,10,0:0:0:0:
474,177,116880,1,0,0:0:0:0:
241,357,117017,5,10,0:0:0:0:
286,119,117153,1,0,0:0:0:0:
189,238,117290,5,10,0:0:0:0:
144,0,117426,1,0,0:0:0:0:
125,338,117563,5,14,0:0:0:0:
125,338,117699,1,10,0:0:0:0:
380,236,117835,2,0,L|238:226,1,135.000005149842,10|0,0:0|0:0,0:0:0:0:
70,251,118108,5,14,0:0:0:0:
70,251,118244,1,10,0:0:0:0:
419,153,118381,2,0,L|277:143,1,135.000005149842,10|0,0:0|0:0,0:0:0:0:
15,164,118654,5,14,0:0:0:0:
15,164,118790,1,10,0:0:0:0:
458,70,118926,2,0,L|316:60,1,135.000005149842,10|0,0:0|0:0,0:0:0:0:
381,371,119199,5,14,0:0:0:0:
381,371,119335,1,10,0:0:0:0:
432,20,119472,1,10,0:0:0:0:
462,190,119608,1,2,0:0:0:0:
110,145,119744,5,2,0:0:0:0:
86,51,119880,1,2,0:0:0:0:
180,27,120016,1,10,0:0:0:0:
204,121,120153,2,0,P|137:102|15:239,1,270.000010299683,6|0,0:0|0:0,0:0:0:0:
402,145,120562,5,2,0:0:0:0:
426,51,120698,1,2,0:0:0:0:
332,27,120834,1,10,0:0:0:0:
308,121,120971,2,0,P|375:102|497:239,1,270.000010299683,6|0,0:0|0:0,0:0:0:0:
110,239,121380,5,2,0:0:0:0:
86,333,121516,1,2,0:0:0:0:
180,357,121652,1,10,0:0:0:0:
204,263,121789,1,6,0:0:0:0:
204,263,122062,1,0,0:0:0:0:
402,239,122198,5,2,0:0:0:0:
426,333,122334,1,2,0:0:0:0:
332,357,122470,1,10,0:0:0:0:
308,263,122607,1,6,0:0:0:0:
308,263,123016,5,14,0:0:0:0:
333,138,123153,1,2,0:0:0:0:
248,174,123289,1,2,0:0:0:0:
49,127,123425,1,10,0:0:0:0:
68,212,123562,1,2,0:0:0:0:
52,274,123698,1,2,0:0:0:0:
6,44,123834,6,0,P|82:24|190:25,1,135.000005149842,14|2,0:0|0:0,0:0:0:0:
256,37,124107,1,2,0:0:0:0:
220,265,124244,1,10,0:0:0:0:
202,151,124380,1,2,0:0:0:0:
334,175,124516,1,2,0:0:0:0:
308,370,124653,6,0,P|330:285|355:240,1,135.000005149842,14|2,0:0|0:0,0:0:0:0:
403,335,124925,1,2,0:0:0:0:
93,372,125062,1,10,0:0:0:0:
133,296,125198,1,2,0:0:0:0:
101,243,125334,1,2,0:0:0:0:
366,82,125471,6,0,P|284:65|203:69,1,135.000005149842,14|2,0:0|0:0,0:0:0:0:
116,91,125744,1,2,0:0:0:0:
420,192,125880,1,10,0:0:0:0:
370,260,126016,1,2,0:0:0:0:
401,301,126153,1,2,0:0:0:0:
491,52,126289,6,0,P|501:146|503:224,1,135.000005149842,14|2,0:0|0:0,0:0:0:0:
489,271,126562,1,2,0:0:0:0:
240,176,126698,1,10,0:0:0:0:
255,271,126834,1,2,0:0:0:0:
272,130,126971,1,10,0:0:0:0:
287,380,127107,6,0,P|301:296|319:228,1,135.000005149842,14|2,0:0|0:0,0:0:0:0:
374,168,127380,1,2,0:0:0:0:
64,224,127516,1,10,0:0:0:0:
39,318,127653,1,2,0:0:0:0:
16,134,127789,1,10,0:0:0:0:
5,365,127925,6,0,P|81:336|172:323,1,135.000005149842,14|2,0:0|0:0,0:0:0:0:
267,333,128198,1,2,0:0:0:0:
289,59,128334,1,10,0:0:0:0:
237,205,128471,1,2,0:0:0:0:
205,0,128607,1,10,0:0:0:0:
138,277,128744,6,0,P|124:184|121:120,1,135.000005149842,14|2,0:0|0:0,0:0:0:0:
133,44,129016,1,2,0:0:0:0:
425,78,129153,1,10,0:0:0:0:
358,21,129289,1,2,0:0:0:0:
333,237,129425,1,10,0:0:0:0:
314,0,129562,6,0,P|330:93|334:192,1,135.000005149842,14|2,0:0|0:0,0:0:0:0:
311,263,129834,1,2,0:0:0:0:
32,192,129971,1,10,0:0:0:0:
158,144,130107,1,2,0:0:0:0:
0,93,130244,1,10,0:0:0:0:
32,362,130380,6,0,P|47:269|46:214,1,135.000005149842,14|2,0:0|0:0,0:0:0:0:
26,121,130653,1,2,0:0:0:0:
338,48,130789,1,10,0:0:0:0:
328,156,130925,1,2,0:0:0:0:
315,0,131062,1,10,0:0:0:0:
176,170,131198,6,0,P|254:145|357:137,1,135.000005149842,14|2,0:0|0:0,0:0:0:0:
440,156,131471,1,2,0:0:0:0:
361,375,131607,1,10,0:0:0:0:
261,344,131744,1,2,0:0:0:0:
498,305,131880,1,10,0:0:0:0:
168,279,132016,6,0,P|143:201|135:98,1,135.000005149842,14|2,0:0|0:0,0:0:0:0:
154,15,132289,1,2,0:0:0:0:
448,64,132425,1,10,0:0:0:0:
327,103,132562,1,2,0:0:0:0:
512,135,132698,1,10,0:0:0:0:
256,52,132834,6,0,P|281:130|289:233,1,135.000005149842,14|2,0:0|0:0,0:0:0:0:
270,316,133107,1,2,0:0:0:0:
8,258,133244,1,10,0:0:0:0:
123,204,133380,1,2,0:0:0:0:
70,376,133516,1,10,0:0:0:0:
18,58,133653,6,0,P|94:35|194:42,1,135.000005149842,14|2,0:0|0:0,0:0:0:0:
256,52,133925,1,2,0:0:0:0:
212,303,134062,1,10,0:0:0:0:
294,198,134198,1,2,0:0:0:0:
323,374,134334,1,10,0:0:0:0:
12,334,134471,5,14,0:0:0:0:
34,309,134539,1,10,0:0:0:0:
80,278,134607,2,0,P|163:266|257:273,1,135.000005149842,10|2,0:0|0:0,0:0:0:0:
448,320,134880,1,2,0:0:0:0:
454,332,134948,1,2,0:0:0:0:
441,361,135016,1,2,0:0:0:0:
417,169,135153,1,10,0:0:0:0:
0,192,135289,6,0,P|87:144|169:125,1,135.000005149842,14|0,0:0|0:0,0:0:0:0:
512,192,135562,2,0,P|425:144|343:125,1,135.000005149842,14|0,0:0|0:0,0:0:0:0:
256,224,135834,2,0,L|256:384,1,135.000005149842,14|0,0:0|0:0,0:0:0:0:
256,32,136134,5,14,0:0:0:0:
256,192,136209,12,2,143591,0:0:0:0:
256,192,143677,12,0,153074,0:0:0:0:
