osu file format v14

[General]
AudioFilename: audio.mp3
AudioLeadIn: 0
PreviewTime: 29201
Countdown: 0
SampleSet: Soft
StackLeniency: 0.4
Mode: 0
LetterboxInBreaks: 0
WidescreenStoryboard: 0

[Editor]
Bookmarks: 565,3837,7655,11747,16110,20474,24837,29201,33565,37928,41201,45565,49928,54292,59747,64110,68474,72564,76654,80744,84835,89199,93563,97926,102290,106654,111017,115381,119744,123016,126289,129562,132834,136134,143591,153074
DistanceSpacing: 1.2
BeatDivisor: 4
GridSize: 32
TimelineZoom: 1.8

[Metadata]
Title:Full Blown Meltdown
TitleUnicode:Full Blown Meltdown
Artist:PUP
ArtistUnicode:PUP
Creator:eiri-
Version:Easy
Source:osu!
Tags:Ayyri Trynna Mimari pishifat English Punk Rock Featured Artist FA Morbid Stuff Pathetic Use of Potential
BeatmapID:2491561
BeatmapSetID:1171188

[Difficulty]
HPDrainRate:3
CircleSize:2
OverallDifficulty:4
ApproachRate:5
SliderMultiplier:0.8
SliderTickRate:0.5

[Events]
//Background and Video events
0,0,"Full Blown Meltdown.jpg",0,0
//Break Periods
//Storyboard Layer 0 (Background)
//Storyboard Layer 1 (Fail)
//Storyboard Layer 2 (Pass)
//Storyboard Layer 3 (Foreground)
//Storyboard Layer 4 (Overlay)
//Storyboard Sound Samples

[TimingPoints]
565,272.727272727273,3,2,1,80,1,0
3837,272.727272727273,7,2,1,80,1,0
7655,-100,7,2,1,90,0,0
9564,272.727272727273,3,2,1,90,1,0
11747,272.727272727273,4,2,1,100,1,0
68474,272.727272727273,7,2,1,70,1,0
72564,272.727272727273,7,2,1,70,1,0
74473,272.727272727273,4,2,1,70,1,0
76654,272.727272727273,7,2,1,90,1,0
78563,272.727272727273,4,2,1,70,1,0
80744,272.727272727273,7,2,1,70,1,0
82654,272.727272727273,4,2,1,70,1,0
84835,-100,4,2,1,80,0,0
102290,-100,4,2,1,100,0,0
108835,-100,4,2,1,80,0,0
111017,-100,4,2,1,100,0,0
119744,272.727272727273,3,2,1,80,1,0
119744,-100,3,2,1,100,0,0
135834,300,3,2,1,100,1,0
135834,-100,3,2,1,100,0,0
136134,300,3,2,1,100,1,0
136209,-100,3,2,1,75,0,0
142212,344.827586206897,4,2,1,75,1,0
143677,-100,4,2,1,50,0,0
153074,-100,4,2,1,25,0,0

[Colours]
Combo1 : 242,183,60
Combo2 : 87,143,238
Combo3 : 185,86,243
Combo4 : 240,109,66

[HitObjects]
32,352,292,5,8,0:0:0:0:
106,291,565,6,0,L|88:158,1,120,2|6,0:0|0:0,0:0:0:0:
183,62,1383,2,0,L|201:195,1,120,2|6,0:0|0:0,0:0:0:0:
316,263,2201,2,0,L|298:129,1,120,2|6,0:0|0:0,0:0:0:0:
393,34,3019,1,10,0:0:0:0:
477,308,3837,5,6,0:0:0:0:
477,308,5746,5,2,0:0:0:0:
477,308,7655,6,0,L|346:293,1,120,10|10,0:0|0:0,0:0:0:0:
219,333,8473,2,0,L|88:348,1,120,10|10,0:0|0:0,0:0:0:0:
3,239,9291,1,10,0:0:0:0:
63,164,9564,6,0,P|115:170|158:236,1,120,10|10,0:0|0:0,0:0:0:0:
281,289,10382,2,0,P|333:283|376:217,1,120,10|10,0:0|0:0,0:0:0:0:
324,97,11200,1,2,0:0:0:0:
404,44,11473,1,14,0:0:0:0:
490,87,11747,6,0,P|477:187|476:221,2,120,6|2|10,0:0|0:0|0:0,0:0:0:0:
305,35,13110,1,10,0:0:0:0:
229,94,13383,2,0,P|189:82|144:78,1,79.9999999999999,2|10,0:0|0:0,0:0:0:0:
59,105,13928,6,0,P|89:160|104:225,1,120,2|2,0:0|0:0,0:0:0:0:
54,351,14747,1,10,0:0:0:0:
148,332,15019,2,0,P|185:347|241:358,1,79.9999999999999,2|10,0:0|0:0,0:0:0:0:
316,327,15565,1,2,0:0:0:0:
339,136,16110,6,0,P|390:109|464:94,2,120,2|2|10,0:0|0:0|0:0,0:0:0:0:
246,108,17201,1,2,0:0:0:0:
81,207,17747,1,2,0:0:0:0:
14,27,18292,6,0,P|65:52|132:60,1,120,2|2,0:0|0:0,0:0:0:0:
261,9,19110,2,0,L|249:106,1,79.9999999999999,10|2,0:0|0:0,0:0:0:0:
419,180,19928,2,0,L|511:191,1,79.9999999999999,2|10,0:0|0:0,0:0:0:0:
492,285,20474,6,0,P|474:324|398:324,2,120,6|2|10,0:0|0:0|0:0,0:0:0:0:
467,94,21837,1,10,0:0:0:0:
370,92,22110,2,0,P|332:68|291:57,1,79.9999999999999,2|10,0:0|0:0,0:0:0:0:
221,115,22656,6,0,L|236:248,1,120,2|2,0:0|0:0,0:0:0:0:
103,293,23474,2,0,P|58:278|9:272,1,79.9999999999999,10|2,0:0|0:0,0:0:0:0:
38,368,24019,1,8,0:0:0:0:
198,261,24565,1,10,0:0:0:0:
269,324,24837,6,0,L|406:313,1,120,2|2,0:0|0:0,0:0:0:0:
463,254,25519,1,2,0:0:0:0:
422,115,25928,2,0,L|285:104,1,120,2|2,0:0|0:0,0:0:0:0:
228,45,26610,1,2,0:0:0:0:
84,36,27019,6,0,P|57:77|61:116,1,79.9999999999999,14|10,0:0|0:0,0:0:0:0:
130,169,27565,2,0,P|157:210|153:249,1,79.9999999999999,8|10,0:0|0:0,0:0:0:0:
86,305,28110,1,14,0:0:0:0:
166,357,28383,2,0,L|327:341,1,160,10|14,0:0|0:0,0:0:0:0:
417,367,29201,6,0,P|435:336|437:281,1,79.9999999999999,6|2,0:0|0:0,0:0:0:0:
371,223,29747,2,0,P|353:192|351:137,1,79.9999999999999,2|10,0:0|0:0,0:0:0:0:
383,59,30292,1,10,0:0:0:0:
195,18,30837,1,2,0:0:0:0:
89,178,31383,6,0,P|50:188|11:204,1,79.9999999999999,6|10,0:0|0:0,0:0:0:0:
45,293,31928,2,0,P|84:283|123:267,1,79.9999999999999,2|10,0:0|0:0,0:0:0:0:
184,195,32474,1,2,0:0:0:0:
288,355,33019,1,2,0:0:0:0:
466,283,33565,6,0,P|476:238|478:199,1,79.9999999999999,6|2,0:0|0:0,0:0:0:0:
460,109,34110,2,0,P|435:70|409:41,1,79.9999999999999,2|14,0:0|0:0,0:0:0:0:
320,16,34656,1,14,0:0:0:0:
322,207,35201,1,2,0:0:0:0:
129,198,35747,6,0,P|91:179|41:168,1,79.9999999999999,6|10,0:0|0:0,0:0:0:0:
54,73,36292,2,0,P|92:54|142:43,1,79.9999999999999,2|10,0:0|0:0,0:0:0:0:
185,121,36837,1,2,0:0:0:0:
375,95,37383,1,2,0:0:0:0:
234,225,37928,6,0,L|242:353,1,120,2|6,0:0|0:0,0:0:0:0:
335,234,38747,2,0,L|327:106,1,120,2|6,0:0|0:0,0:0:0:0:
420,3,39565,2,0,L|427:131,1,120,2|6,0:0|0:0,0:0:0:0:
437,266,40383,1,10,0:0:0:0:
168,162,41201,6,0,L|181:26,2,120,6|2|10,0:0|0:0|0:0,0:0:0:0:
145,352,42565,1,10,0:0:0:0:
234,316,42837,2,0,P|290:328|325:330,1,79.9999999999999,2|10,0:0|0:0,0:0:0:0:
392,275,43383,6,0,L|379:193,1,79.9999999999999,2|10,0:0|0:0,0:0:0:0:
414,106,43928,1,2,0:0:0:0:
299,18,44337,1,2,0:0:0:0:
173,93,44747,2,0,L|81:102,2,79.9999999999999,10|2|10,0:0|0:0|0:0,0:0:0:0:
225,173,45565,6,0,L|212:307,1,120,2|2,0:0|0:0,0:0:0:0:
340,359,46383,1,10,0:0:0:0:
487,236,46928,1,10,0:0:0:0:
413,175,47201,2,0,L|327:181,1,79.9999999999999,2|10,0:0|0:0,0:0:0:0:
257,120,47747,5,6,0:0:0:0:
146,212,48156,1,6,0:0:0:0:
33,122,48565,1,14,0:0:0:0:
17,313,49110,2,0,L|103:307,1,79.9999999999999,10|2,0:0|0:0,0:0:0:0:
175,251,49656,1,14,0:0:0:0:
238,322,49928,6,0,P|312:294|369:289,2,120,6|6|6,0:0|0:0|0:0,0:0:0:0:
48,352,51292,1,10,0:0:0:0:
21,259,51565,2,0,L|28:168,1,79.9999999999999,10|14,0:0|0:0,0:0:0:0:
2,86,52110,5,6,0:0:0:0:
79,28,52383,1,10,0:0:0:0:
155,85,52656,2,0,L|246:72,1,79.9999999999999,2|10,0:0|0:0,0:0:0:0:
418,19,53474,2,0,P|442:56|448:99,1,79.9999999999999,10|2,0:0|0:0,0:0:0:0:
420,182,54019,1,10,0:0:0:0:
323,186,54292,6,0,L|338:56,2,120,2|2|10,0:0|0:0|0:0,0:0:0:0:
480,295,55656,1,10,0:0:0:0:
417,367,55928,1,2,0:0:0:0:
230,321,56474,6,0,L|138:310,1,79.9999999999999,14|8,0:0|0:0,0:0:0:0:
98,230,57019,2,0,L|6:219,2,79.9999999999999,8|10|10,0:0|0:0|0:0,0:0:0:0:
185,190,57837,1,10,0:0:0:0:
136,107,58110,2,0,L|149:9,1,79.9999999999999,8|8,0:0|0:0,0:0:0:0:
240,6,58656,5,2,0:0:0:0:
306,286,59474,1,14,0:0:0:0:
394,248,59747,6,0,P|412:217|414:162,1,79.9999999999999,6|2,0:0|0:0,0:0:0:0:
394,79,60293,2,0,L|303:68,1,80,2|10,0:0|0:0,0:0:0:0:
226,108,60838,1,10,0:0:0:0:
56,17,61383,1,2,0:0:0:0:
16,204,61928,6,0,L|24:294,1,79.9999999999999,6|10,0:0|0:0,0:0:0:0:
115,309,62474,2,0,L|107:219,1,79.9999999999999,2|10,0:0|0:0,0:0:0:0:
171,157,63019,1,2,0:0:0:0:
324,273,63565,1,2,0:0:0:0:
404,101,64110,6,0,P|433:92|483:90,1,79.9999999999999,6|2,0:0|0:0,0:0:0:0:
494,185,64656,2,0,P|465:194|415:196,1,79.9999999999999,2|14,0:0|0:0,0:0:0:0:
325,163,65201,1,14,0:0:0:0:
239,335,65747,1,2,0:0:0:0:
51,295,66292,6,0,L|58:201,1,79.9999999999999,6|10,0:0|0:0,0:0:0:0:
138,163,66837,2,0,L|131:69,1,79.9999999999999,2|10,0:0|0:0,0:0:0:0:
56,23,67383,1,2,0:0:0:0:
247,14,67928,1,2,0:0:0:0:
360,169,68474,6,0,P|419:142|418:86,2,120,6|2|10,0:0|0:0|0:0,0:0:0:0:
237,94,69701,1,10,0:0:0:0:
209,235,70110,1,10,0:0:0:0:
132,177,70383,6,0,L|6:189,2,120,6|2|10,0:0|0:0|0:0,0:0:0:0:
225,67,71610,1,2,0:0:0:0:
366,95,72019,1,2,0:0:0:0:
456,62,72292,1,14,0:0:0:0:
501,146,72564,6,0,L|491:275,2,120,6|2|10,0:0|0:0|0:0,0:0:0:0:
428,21,73791,1,10,0:0:0:0:
311,105,74200,1,10,0:0:0:0:
241,38,74473,6,0,P|207:29|116:24,1,120,6|10,0:0|0:0,0:0:0:0:
10,113,75291,1,10,0:0:0:0:
71,186,75563,6,0,L|63:278,1,79.9999999999999,2|10,0:0|0:0,0:0:0:0:
125,340,76109,1,10,0:0:0:0:
202,283,76382,1,10,0:0:0:0:
286,328,76654,6,0,L|421:317,2,120,6|10|10,0:0|0:0|0:0,0:0:0:0:
155,267,77881,1,10,0:0:0:0:
274,187,78290,1,14,0:0:0:0:
199,126,78563,6,0,L|210:-1,1,120,6|2,0:0|0:0,0:0:0:0:
351,25,79381,2,0,L|340:152,1,120,10|10,0:0|0:0,0:0:0:0:
400,275,80199,1,10,0:0:0:0:
320,328,80472,1,10,0:0:0:0:
241,273,80744,6,0,P|195:292|114:305,2,120,6|2|10,0:0|0:0|0:0,0:0:0:0:
349,177,81971,1,10,0:0:0:0:
241,81,82380,1,10,0:0:0:0:
158,131,82654,6,0,L|26:123,2,120,6|14|6,0:0|0:0|0:0,0:0:0:0:
480,352,84835,5,6,0:0:0:0:
449,260,85108,1,2,0:0:0:0:
283,358,85654,2,0,L|112:347,1,160,6|0,0:0|0:0,0:0:0:0:
47,288,86472,1,10,0:0:0:0:
228,226,87017,6,0,L|208:63,1,160,6|10,0:0|0:0,0:0:0:0:
287,13,87835,1,6,0:0:0:0:
471,66,88381,1,0,0:0:0:0:
397,127,88654,2,0,L|388:223,1,79.9999999999999,14|2,0:0|0:0,0:0:0:0:
347,292,89199,5,6,0:0:0:0:
413,361,89472,1,2,0:0:0:0:
221,350,90018,2,0,L|50:361,1,160,6|0,0:0|0:0,0:0:0:0:
14,276,90836,1,10,0:0:0:0:
178,176,91381,6,0,L|303:184,2,120,14|14|14,0:0|0:0|0:0,0:0:0:0:
79,71,92608,1,10,0:0:0:0:
212,18,93017,2,0,P|235:33|281:75,1,79.9999999999999,14|14,0:0|0:0,0:0:0:0:
338,140,93563,5,6,0:0:0:0:
424,98,93835,1,2,0:0:0:0:
424,290,94381,2,0,P|353:253|269:253,1,160,6|0,0:0|0:0,0:0:0:0:
183,282,95199,1,10,0:0:0:0:
22,177,95744,6,0,B|75:163|75:163|55:50,1,160,6|10,0:0|0:0,0:0:0:0:
141,14,96563,1,6,0:0:0:0:
305,112,97108,1,0,0:0:0:0:
362,34,97381,2,0,L|450:27,1,79.9999999999999,14|2,0:0|0:0,0:0:0:0:
507,97,97926,5,6,0:0:0:0:
486,190,98199,1,2,0:0:0:0:
305,112,98744,2,0,P|317:172|327:278,1,160,6|2,0:0|0:0,0:0:0:0:
307,364,99563,1,10,0:0:0:0:
130,288,100108,6,0,L|7:299,2,120,14|14|14,0:0|0:0|0:0,0:0:0:0:
214,241,101199,1,10,0:0:0:0:
175,53,101744,1,14,0:0:0:0:
362,96,102290,6,0,L|459:81,1,79.9999999999999,6|2,0:0|0:0,0:0:0:0:
424,178,102835,2,0,L|327:193,1,79.9999999999999,2|10,0:0|0:0,0:0:0:0:
255,154,103381,1,10,0:0:0:0:
221,342,103926,1,2,0:0:0:0:
38,282,104472,6,0,L|22:189,1,79.9999999999999,6|2,0:0|0:0,0:0:0:0:
120,193,105017,2,0,L|136:100,1,79.9999999999999,2|10,0:0|0:0,0:0:0:0:
81,33,105563,1,10,0:0:0:0:
271,9,106108,1,2,0:0:0:0:
406,144,106654,6,0,L|493:136,1,79.9999999999999,6|2,0:0|0:0,0:0:0:0:
468,231,107199,2,0,L|381:239,1,79.9999999999999,2|10,0:0|0:0,0:0:0:0:
321,307,107744,1,10,0:0:0:0:
208,151,108290,1,2,0:0:0:0:
19,255,108835,6,0,L|32:118,2,120,10|2|10,0:0|0:0|0:0,0:0:0:0:
75,332,109926,1,6,0:0:0:0:
239,232,110472,1,10,0:0:0:0:
315,289,110744,1,10,0:0:0:0:
385,223,111017,6,0,L|478:213,1,79.9999999999999,6|10,0:0|0:0,0:0:0:0:
491,121,111563,2,0,L|398:131,1,79.9999999999999,2|10,0:0|0:0,0:0:0:0:
337,68,112108,1,2,0:0:0:0:
239,232,112654,1,2,0:0:0:0:
51,190,113199,6,0,L|41:106,1,79.9999999999999,6|10,0:0|0:0,0:0:0:0:
128,68,113744,2,0,L|138:152,1,79.9999999999999,2|10,0:0|0:0,0:0:0:0:
214,206,114290,1,6,0:0:0:0:
290,30,114835,1,2,0:0:0:0:
359,96,115108,1,10,0:0:0:0:
433,35,115381,6,0,L|518:25,2,79.9999999999999,14|10|10,0:0|0:0|0:0,0:0:0:0:
377,113,116199,1,10,0:0:0:0:
442,183,116472,2,0,L|450:273,1,79.9999999999999,10|10,0:0|0:0,0:0:0:0:
381,331,117017,2,0,P|355:315|301:301,1,79.9999999999999,10|10,0:0|0:0,0:0:0:0:
217,334,117563,5,14,0:0:0:0:
39,260,118108,1,14,0:0:0:0:
113,82,118654,1,14,0:0:0:0:
291,156,119199,1,14,0:0:0:0:
217,334,119744,6,0,L|83:350,1,120,2|6,0:0|0:0,0:0:0:0:
168,222,120562,2,0,L|287:207,1,120,2|6,0:0|0:0,0:0:0:0:
357,80,121380,2,0,L|238:95,1,120,2|6,0:0|0:0,0:0:0:0:
113,23,122198,1,2,0:0:0:0:
49,151,122607,1,6,0:0:0:0:
112,276,123016,6,0,P|180:239|228:231,1,120,14|10,0:0|0:0,0:0:0:0:
362,259,123834,1,14,0:0:0:0:
443,140,124244,1,10,0:0:0:0:
318,69,124653,6,0,L|198:64,1,120,14|10,0:0|0:0,0:0:0:0:
54,59,125471,1,14,0:0:0:0:
114,189,125880,1,10,0:0:0:0:
24,301,126289,6,0,L|13:179,1,120,14|10,0:0|0:0,0:0:0:0:
57,44,127107,1,14,0:0:0:0:
193,90,127516,1,10,0:0:0:0:
314,12,127925,6,0,L|443:23,1,120,14|10,0:0|0:0,0:0:0:0:
353,141,128744,1,14,0:0:0:0:
467,228,129153,1,10,0:0:0:0:
403,357,129562,6,0,P|345:339|341:276,1,120,14|10,0:0|0:0,0:0:0:0:
373,147,130380,1,14,0:0:0:0:
235,191,130789,1,10,0:0:0:0:
107,124,131198,6,0,L|121:-2,1,120,14|10,0:0|0:0,0:0:0:0:
249,68,132016,1,14,0:0:0:0:
384,19,132425,1,10,0:0:0:0:
404,161,132834,6,0,L|418:287,1,120,14|10,0:0|0:0,0:0:0:0:
289,347,133653,1,14,0:0:0:0:
192,240,134062,1,10,0:0:0:0:
121,365,134471,6,0,P|71:354|2:334,1,120,14|2,0:0|0:0,0:0:0:0:
72,207,135289,2,0,L|54:110,2,79.9999999999999,14|14|14,0:0|0:0|0:0,0:0:0:0:
160,245,136134,5,14,0:0:0:0:
256,192,136209,12,2,143591,0:0:0:0:
256,192,143677,12,0,153074,0:0:0:0:
