osu file format v14

[General]
AudioFilename: audio.mp3
AudioLeadIn: 0
PreviewTime: 111503
Countdown: 0
SampleSet: Soft
StackLeniency: 0.8
Mode: 0
LetterboxInBreaks: 0
WidescreenStoryboard: 1

[Editor]
DistanceSpacing: 1
BeatDivisor: 4
GridSize: 32
TimelineZoom: 1.9

[Metadata]
Title:Free At Last
TitleUnicode:Free At Last
Artist:PUP
ArtistUnicode:PUP
Creator:attendant
Version:Normal
Source:
Tags:english indie punk rock morbid stuff pathetic use of potential featured artist fa
BeatmapID:3330983
BeatmapSetID:1630118

[Difficulty]
HPDrainRate:3
CircleSize:3.5
OverallDifficulty:4.5
ApproachRate:6
SliderMultiplier:1.2
SliderTickRate:0.5

[Events]
//Background and Video events
0,0,"GPPAjJicemU.jpg",0,0
//Break Periods
//Storyboard Layer 0 (Background)
//Storyboard Layer 1 (Fail)
//Storyboard Layer 2 (Pass)
//Storyboard Layer 3 (Foreground)
//Storyboard Layer 4 (Overlay)
//Storyboard Sound Samples

[TimingPoints]
240,335.195530726257,4,2,1,50,1,0
240,-125,4,2,1,50,0,0
1580,-125,4,2,1,70,0,0
2251,-125,4,2,1,30,0,0
3759,-125,4,2,1,50,0,0
4094,-125,4,2,1,70,0,0
4262,-100,4,2,1,70,0,0
4597,-100,4,2,1,90,0,0
4932,-100,4,2,1,70,0,0
12307,-83.3333333333333,4,2,1,70,0,0
14988,-100,4,2,1,70,0,0
23033,-83.3333333333333,4,2,1,70,0,0
25714,-100,4,2,1,70,0,0
41804,-100,4,2,1,80,0,0
42139,-100,4,2,1,70,0,0
49848,-83.3333333333333,4,2,1,70,0,0
52529,-100,4,2,1,70,0,0
60575,-83.3333333333333,4,2,1,70,0,0
63256,-100,4,2,1,70,0,0
76664,-83.3333333333333,4,2,1,70,0,0
79345,-100,4,2,1,70,0,0
90072,-100,4,2,1,70,0,0
92753,-83.3333333333333,4,2,1,70,0,0
95434,-100,4,2,1,70,0,0
98117,-83.3333333333333,4,2,1,70,0,0
100798,-100,4,2,1,70,0,0
108843,-83.3333333333333,4,2,1,70,0,0
111524,-100,4,2,1,60,0,1
126943,-100,4,2,1,80,0,1
127614,-83.3333333333333,4,2,1,100,0,0
128284,-83.3333333333333,4,2,1,70,0,0
132977,-83.3333333333333,4,2,1,100,0,0
133647,-83.3333333333333,4,2,1,80,0,0
138005,-83.3333333333333,4,2,1,70,0,0
138340,-100,4,2,1,100,0,0
138843,-100,4,2,1,70,0,0
143703,-100,4,2,1,80,0,0
145295,-100,4,2,11,5,0,0
145379,-100,4,2,1,80,0,0
146385,-83.3333333333333,4,2,1,80,0,0
147726,-83.3333333333333,4,2,1,90,0,0
148983,-83.3333333333333,4,2,11,5,0,0
149066,-100,4,2,1,70,0,0
151748,-166.666666666667,4,2,1,90,0,0
151769,-166.666666666667,4,2,2,15,0,0
153424,-166.666666666667,4,2,1,30,0,0
153508,-166.666666666667,4,2,2,40,0,0
153591,-166.666666666667,4,2,1,50,0,0
153927,-166.666666666667,4,2,2,40,0,0
154597,-166.666666666667,4,2,1,25,0,0

[Colours]
Combo1 : 182,173,201
Combo2 : 202,128,145
Combo3 : 243,152,139
Combo4 : 220,124,141

[HitObjects]
18,191,240,6,0,P|81:187|132:190,3,96,4|4|4|4,0:0|0:0|0:0|0:0,0:0:0:0:
195,198,1413,1,8,3:0:0:0:
195,198,1580,2,0,P|319:197|391:201,1,192,8|2,1:0|0:1,0:0:0:0:
386,200,2921,1,2,0:1:0:0:
386,200,3591,1,2,0:1:0:0:
445,272,3759,1,2,1:3:0:0:
445,272,3927,1,8,1:2:0:0:
391,329,4094,1,8,3:0:0:0:
391,329,4262,5,12,1:0:0:0:
237,358,4597,2,2,P|195:357|110:370,1,120,14|2,1:2|1:2,0:1:0:0:
44,384,5100,1,2,3:2:0:0:
44,384,5267,1,14,1:2:0:0:
7,256,5603,2,0,P|1:206|3:181,1,60,4|0,1:2|3:0,0:0:0:0:
58,139,5938,2,0,P|63:89|62:64,1,60,12|0,1:2|0:0,0:0:0:0:
146,84,6273,1,6,1:2:0:0:
146,84,6441,2,0,P|142:142|147:216,1,120,14|2,1:2|0:0,0:0:0:0:
166,281,6943,5,4,1:2:0:0:
291,321,7279,2,0,P|329:321|360:327,1,60,14|2,1:2|3:2,0:0:0:0:
422,362,7614,2,0,P|451:357|481:358,1,60,2|0,1:0|0:0,0:0:0:0:
512,284,7949,1,14,1:2:0:0:
512,284,8117,1,2,3:2:0:0:
439,237,8284,2,0,P|437:194|449:116,1,120,2|14,1:2|1:2,0:0:0:0:
350,27,8955,1,10,1:0:0:0:
285,74,9122,1,12,1:2:0:0:
285,74,9290,2,0,P|252:76|208:85,1,60,14|8,1:2|3:0,0:0:0:0:
160,31,9625,5,12,1:0:0:0:
85,150,9960,1,12,1:2:0:0:
85,150,10128,1,2,3:2:0:0:
85,150,10295,2,0,P|155:190|196:227,1,120,10|10,1:0|1:2,0:0:0:0:
229,282,10798,2,0,P|299:241|340:205,1,120,14|0,1:0|0:0,0:0:0:0:
370,146,11301,1,10,1:2:0:0:
459,243,11636,1,0,1:2:0:0:
413,311,11804,1,14,1:2:0:0:
413,311,11971,1,0,3:0:0:0:
295,353,12307,6,0,P|266:355|201:380,1,71.9999978027344,14|4,1:2|3:0,0:0:0:0:
150,384,12642,2,0,P|122:373|53:368,1,71.9999978027344,14|4,1:2|3:0,0:0:0:0:
26,315,12977,2,0,P|40:244|42:169,2,143.999995605469,14|12|14,1:2|1:2|1:2,0:0:0:0:
147,261,13983,2,0,P|185:253|221:249,1,71.9999978027344,14|4,1:2|3:0,0:0:0:0:
293,269,14318,1,10,1:0:0:0:
365,237,14485,1,12,1:2:0:0:
365,237,14653,2,0,P|410:242|451:254,1,71.9999978027344,12|2,1:2|0:0,0:0:0:0:
502,209,14988,5,12,1:0:0:0:
409,122,15323,2,0,P|402:90|401:54,1,60,14|0,1:2|0:0,0:0:0:0:
325,29,15658,2,0,P|323:58|316:88,1,60,2|0,1:0|0:0,0:0:0:0:
278,157,15994,1,10,1:2:0:0:
278,157,16161,1,2,3:2:0:0:
205,120,16329,1,2,1:0:0:0:
88,126,16664,1,14,1:2:0:0:
88,126,16832,1,2,3:1:0:0:
121,247,17167,1,12,1:2:0:0:
121,247,17334,2,0,P|181:248|203:252,1,60,10|0,1:0|0:0,0:0:0:0:
253,274,17670,5,8,1:0:0:0:
367,338,18005,2,0,P|405:337|442:340,1,60,10|0,1:2|0:0,0:0:0:0:
493,297,18340,1,2,1:0:0:0:
493,297,18508,1,0,3:0:0:0:
432,245,18675,1,10,1:2:0:0:
474,124,19010,1,2,1:0:0:0:
474,124,19178,1,4,3:0:0:0:
410,75,19346,1,14,1:2:0:0:
287,136,19681,1,10,1:0:0:0:
239,75,19848,1,12,1:2:0:0:
239,75,20016,1,12,1:2:0:0:
135,156,20351,6,0,P|141:216|140:287,1,120,14|12,1:0|1:2,0:0:0:0:
190,342,20854,1,8,3:0:0:0:
190,342,21022,2,0,P|167:350|128:368,1,60,14|2,1:0|3:2,0:0:0:0:
60,338,21357,1,12,1:2:0:0:
60,338,21524,2,0,P|48:279|51:145,1,180,14|14,1:0|1:2,0:0:0:0:
92,36,22362,1,8,1:0:0:0:
160,86,22530,1,14,1:2:0:0:
160,86,22698,1,10,1:0:0:0:
274,32,23033,6,0,P|322:36|414:105,2,143.999995605469,12|12|12,1:2|1:2|1:2,0:0:0:0:
239,103,23871,1,4,3:0:0:0:
239,103,24038,2,0,P|237:152|241:201,1,71.9999978027344,12|4,1:2|3:0,0:0:0:0:
280,240,24374,1,14,1:2:0:0:
231,370,24709,1,12,1:2:0:0:
372,364,25044,1,10,1:0:0:0:
451,376,25212,1,10,1:2:0:0:
451,376,25379,1,14,1:2:0:0:
493,258,25714,6,0,P|492:209|481:120,2,120,14|14|10,1:0|1:2|1:0,0:0:0:0:
422,288,26552,1,12,1:2:0:0:
422,288,26720,2,0,P|386:287|349:290,1,60,14|8,1:2|1:0,0:0:0:0:
292,255,27055,1,10,1:0:0:0:
183,316,27390,1,14,1:2:0:0:
76,262,27726,1,10,1:0:0:0:
0,282,27893,1,14,1:2:0:0:
0,282,28061,2,0,P|-1:213|12:135,1,120,14|10,1:2|1:2,0:0:0:0:
14,40,28731,6,0,L|106:12,1,60,8|4,3:0|3:0,0:0:0:0:
141,61,29066,1,14,1:2:0:0:
141,61,29234,1,14,1:0:0:0:
195,242,29737,6,0,L|287:270,1,60,8|8,1:2|3:3,0:0:0:0:
323,232,30072,2,0,L|415:260,1,60,8|8,1:0|1:0,0:0:0:0:
442,303,30407,1,14,1:2:0:0:
442,303,30575,1,14,1:0:0:0:
500,99,31077,6,0,P|499:63|489:21,1,60,14|2,1:0|0:0,0:0:0:0:
421,16,31413,2,0,P|415:45|415:75,1,60,14|2,1:2|0:0,0:0:0:0:
353,123,31748,1,2,1:2:0:0:
353,123,31915,1,2,1:2:0:0:
293,67,32083,1,14,1:2:0:0:
214,189,32418,6,0,P|207:229|205:272,1,60,10|2,1:0|1:0,0:0:0:0:
265,295,32753,2,0,P|272:335|274:378,1,60,14|2,1:2|1:0,0:0:0:0:
348,382,33089,1,10,1:0:0:0:
407,332,33256,1,14,1:2:0:0:
407,332,33424,1,14,1:2:0:0:
511,196,33759,6,0,L|441:221,1,60,14|0,1:2|0:0,0:0:0:0:
387,181,34094,2,0,L|317:206,1,60,8|4,3:0|3:0,0:0:0:0:
290,268,34429,1,14,1:2:0:0:
290,268,34597,1,14,1:0:0:0:
251,51,35100,6,0,L|321:76,1,60,14|0,1:2|0:0,0:0:0:0:
375,36,35435,2,0,L|445:61,1,60,8|8,1:0|1:0,0:0:0:0:
481,122,35770,1,14,1:2:0:0:
481,122,35938,1,14,1:0:0:0:
399,312,36441,6,0,P|391:354|386:401,1,60,14|2,1:0|0:0,0:0:0:0:
314,373,36776,2,0,P|285:374|243:380,1,60,14|0,1:2|0:0,0:0:0:0:
192,334,37111,1,2,1:2:0:0:
192,334,37279,1,2,1:2:0:0:
135,384,37446,1,14,1:2:0:0:
17,301,37781,2,0,P|26:273|34:239,1,60,6|2,1:2|0:0,0:0:0:0:
89,193,38117,2,0,P|80:165|72:131,1,60,14|2,1:2|0:0,0:0:0:0:
25,73,38452,1,10,1:0:0:0:
84,26,38619,1,14,1:2:0:0:
146,69,38787,1,14,1:2:0:0:
273,50,39122,6,0,P|359:50|477:43,4,180,14|14|14|14|10,1:0|1:2|1:0|1:2|1:2,0:0:0:0:
226,113,41301,1,12,3:0:0:0:
285,165,41469,1,14,1:2:0:0:
260,293,41804,6,0,P|301:293|336:296,1,60,12|0,1:0|0:0,0:0:0:0:
383,349,42139,1,14,1:2:0:0:
383,349,42307,1,2,0:0:0:0:
439,295,42474,1,2,1:0:0:0:
393,184,42809,2,0,P|384:158|386:119,1,60,14|2,1:2|0:0,0:0:0:0:
443,75,43145,1,10,1:0:0:0:
333,17,43480,1,14,1:2:0:0:
333,17,43647,2,0,P|286:21|205:54,1,120,2|12,0:0|1:2,0:0:0:0:
157,97,44150,1,8,1:0:0:0:
157,97,44318,1,8,3:0:0:0:
111,27,44485,5,8,1:0:0:0:
29,121,44821,2,0,P|35:154|39:189,1,60,14|0,1:2|0:0,0:0:0:0:
86,240,45156,2,0,P|79:273|71:371,2,120,2|14|10,1:0|1:2|1:0,0:0:0:0:
159,208,45994,1,2,0:0:0:0:
227,243,46161,1,14,1:2:0:0:
354,272,46496,1,8,1:0:0:0:
416,226,46664,1,14,1:2:0:0:
416,226,46832,1,14,1:2:0:0:
486,121,47167,6,0,P|492:85|491:47,1,60,8|2,1:0|0:0,0:0:0:0:
433,14,47502,1,14,1:2:0:0:
433,14,47670,1,2,0:0:0:0:
374,66,47837,1,2,1:0:0:0:
254,34,48172,1,14,1:2:0:0:
254,34,48340,2,0,P|232:80|215:155,1,120,14|0,1:0|3:0,0:0:0:0:
216,222,48843,1,14,1:2:0:0:
295,334,49178,1,8,1:0:0:0:
229,375,49346,1,14,1:2:0:0:
229,375,49513,1,4,3:0:0:0:
100,343,49848,6,0,P|67:350|26:351,1,71.9999978027344,14|4,1:2|3:0,0:0:0:0:
1,278,50184,2,0,P|0:245|4:196,1,71.9999978027344,12|4,1:2|3:0,0:0:0:0:
76,179,50519,2,0,P|142:207|191:275,2,143.999995605469,12|14|14,1:2|1:2|1:2,0:0:0:0:
10,60,51524,2,0,P|47:49|79:32,1,71.9999978027344,12|4,1:2|3:0,0:0:0:0:
147,1,51860,1,10,1:0:0:0:
214,51,52027,1,14,1:2:0:0:
214,51,52195,1,14,1:2:0:0:
284,157,52530,6,0,P|322:153|361:154,1,60,14|2,1:0|3:2,0:0:0:0:
424,171,52865,1,14,1:2:0:0:
424,171,53033,1,2,0:0:0:0:
498,151,53200,2,0,P|508:183|511:212,1,60,2|2,1:0|3:2,0:0:0:0:
510,284,53536,1,14,1:2:0:0:
397,341,53871,1,10,1:0:0:0:
397,341,54038,1,2,1:2:0:0:
327,304,54206,1,14,1:2:0:0:
262,345,54374,2,0,P|195:348|95:318,1,120,2|14,3:1|1:2,0:0:0:0:
87,284,54876,1,4,1:3:0:0:
184,202,55212,6,0,P|188:172|185:143,1,60,8|2,1:0|3:1,0:0:0:0:
139,77,55547,1,14,1:2:0:0:
139,77,55714,1,2,3:2:0:0:
213,47,55882,1,10,1:0:0:0:
343,86,56217,2,0,L|411:65,1,60,14|0,1:2|0:0,0:0:0:0:
476,88,56552,2,0,P|490:143|483:230,2,120,6|14|6,1:2|1:2|1:2,0:0:0:0:
457,13,57390,1,8,1:2:0:0:
457,13,57558,1,14,1:2:0:0:
343,86,57893,6,0,L|329:180,1,60,8|4,1:0|3:0,0:0:0:0:
323,223,58228,1,8,1:2:0:0:
323,223,58396,2,0,P|273:256|243:320,2,120,2|2|2,1:0|1:0|1:0,0:0:0:0:
415,257,59402,2,0,P|465:290|495:354,1,120,2|4,1:0|3:0,0:0:0:0:
426,378,59904,1,8,1:0:0:0:
358,348,60072,1,14,1:2:0:0:
358,348,60240,1,4,3:0:0:0:
246,308,60575,6,0,L|147:327,1,71.9999978027344,14|4,1:2|3:0,0:0:0:0:
111,361,60910,2,0,L|12:380,1,71.9999978027344,14|4,1:2|3:0,0:0:0:0:
1,306,61245,2,0,P|-3:248|6:157,1,143.999995605469,14|14,1:2|1:2,0:0:0:0:
37,94,61748,1,4,3:0:0:0:
37,94,61915,1,14,1:2:0:0:
181,124,62251,1,14,1:2:0:0:
284,38,62586,1,10,1:0:0:0:
358,71,62753,1,8,1:2:0:0:
358,71,62921,1,12,1:2:0:0:
487,41,63256,6,0,P|499:81|508:123,1,60,14|2,1:0|0:0,0:0:0:0:
463,162,63591,2,0,P|450:202|442:244,1,60,14|0,1:2|0:0,0:0:0:0:
487,283,63927,1,10,1:0:0:0:
426,328,64094,1,14,1:2:0:0:
426,328,64262,1,14,1:2:0:0:
334,240,64597,2,0,P|279:253|227:312,2,120,8|14|10,1:0|1:2|1:0,0:0:0:0:
379,176,65435,1,14,1:2:0:0:
322,125,65603,1,14,1:2:0:0:
211,188,65938,6,0,P|165:193|102:181,1,60,10|2,1:2|0:0,0:0:0:0:
85,157,66273,1,8,3:0:0:0:
85,157,66441,1,4,3:0:0:0:
26,210,66608,1,14,1:2:0:0:
67,279,66776,1,14,1:0:0:0:
278,263,67279,6,0,P|324:268|387:256,1,60,10|4,1:2|3:0,0:0:0:0:
414,236,67614,1,8,1:0:0:0:
414,236,67782,1,8,1:0:0:0:
470,294,67949,1,14,1:2:0:0:
421,358,68117,1,14,1:0:0:0:
296,183,68619,6,0,P|294:149|302:93,1,60,14|2,1:0|0:0,0:0:0:0:
357,76,68955,2,0,P|359:42|351:-14,1,60,14|2,1:2|0:0,0:0:0:0:
280,3,69290,1,2,1:2:0:0:
280,3,69457,1,2,1:2:0:0:
234,70,69625,1,14,1:2:0:0:
115,32,69960,2,0,P|88:34|47:45,1,60,10|2,1:0|1:0,0:0:0:0:
0,112,70295,2,0,P|27:114|68:125,1,60,14|2,1:2|1:0,0:0:0:0:
102,187,70631,1,10,1:0:0:0:
42,237,70798,1,14,1:2:0:0:
42,237,70966,1,10,1:2:0:0:
180,309,71301,6,0,P|238:319|281:340,1,60,10|0,1:2|0:0,0:0:0:0:
309,365,71636,1,4,3:0:0:0:
309,365,71804,1,8,3:0:0:0:
372,317,71971,1,14,1:2:0:0:
348,246,72139,1,14,1:0:0:0:
197,70,72642,6,0,P|138:80|96:101,1,60,10|0,1:2|0:0,0:0:0:0:
72,123,72977,1,4,3:0:0:0:
72,123,73145,1,8,3:0:0:0:
4,80,73312,1,14,1:2:0:0:
34,8,73480,1,14,1:0:0:0:
267,25,73983,6,0,P|307:22|356:28,1,60,14|2,1:0|3:2,0:0:0:0:
399,60,74318,1,14,1:2:0:0:
399,60,74485,1,2,3:2:0:0:
473,32,74653,2,0,P|479:62|479:112,1,60,2|2,1:0|3:2,0:0:0:0:
477,167,74988,1,14,1:2:0:0:
501,289,75323,2,0,P|469:297|436:317,1,60,2|2,1:0|1:0,0:0:0:0:
385,358,75658,1,14,1:2:0:0:
385,358,75826,1,8,1:0:0:0:
322,309,75994,2,2,P|324:263|302:168,1,120,8|8,3:0|3:0,0:2:0:0:
220,60,76664,6,0,P|191:80|153:120,1,71.9999978027344,14|4,1:2|3:0,0:0:0:0:
86,119,76999,2,0,P|57:139|19:179,1,71.9999978027344,14|4,1:2|3:0,0:0:0:0:
0,239,77334,1,14,1:2:0:0:
0,239,77502,2,0,P|71:274|123:335,1,143.999995605469,14|4,1:0|3:0,0:0:0:0:
160,384,78005,1,14,1:2:0:0:
264,313,78340,1,14,1:2:0:0:
382,355,78675,1,14,1:2:0:0:
382,355,78843,2,0,P|426:334|460:240,1,143.999995605469,14|2,1:0|0:2,0:0:0:0:
405,199,79346,5,14,1:0:0:0:
277,177,79681,2,0,L|186:194,1,60,14|0,1:2|0:0,0:0:0:0:
158,237,80016,1,2,1:2:0:0:
158,237,80184,1,2,1:2:0:0:
96,185,80351,1,14,1:2:0:0:
125,46,80686,6,0,P|157:52|186:63,1,60,2|2,1:0|1:0,0:0:0:0:
220,131,81022,2,0,P|252:125|281:114,1,60,14|2,1:2|0:0,0:0:0:0:
305,41,81357,1,10,1:0:0:0:
378,80,81524,1,14,1:2:0:0:
378,80,81692,1,14,1:2:0:0:
510,96,82027,6,0,P|495:137|488:183,1,60,10|0,1:2|0:0,0:0:0:0:
508,232,82362,1,8,3:0:0:0:
508,232,82530,1,4,3:0:0:0:
438,269,82698,1,14,1:2:0:0:
381,215,82865,1,14,1:0:0:0:
207,219,83368,6,0,P|192:178|185:132,1,60,10|0,1:2|0:0,0:0:0:0:
204,87,83703,1,8,3:0:0:0:
204,87,83871,1,4,3:0:0:0:
135,46,84039,1,14,1:2:0:0:
77,98,84206,1,14,1:0:0:0:
13,306,84709,6,0,P|51:303|82:305,1,60,14|0,1:0|0:0,0:0:0:0:
138,345,85044,2,0,P|177:348|212:349,1,60,14|0,1:2|0:0,0:0:0:0:
266,313,85379,1,2,1:2:0:0:
266,313,85547,1,2,1:2:0:0:
333,350,85714,1,14,1:2:0:0:
438,279,86050,6,0,P|449:248|453:185,1,60,10|2,1:0|1:0,0:0:0:0:
506,167,86385,2,0,P|495:136|491:73,1,60,14|2,1:2|1:0,0:0:0:0:
437,53,86720,1,10,1:0:0:0:
378,105,86888,1,14,1:2:0:0:
378,105,87055,1,14,1:2:0:0:
256,138,87390,6,0,P|163:137|58:147,4,180,14|14|14|14|10,1:0|1:2|1:0|1:2|1:2,0:0:0:0:
310,196,89569,1,12,3:0:0:0:
251,246,89737,1,14,1:2:0:0:
331,349,90072,6,0,P|420:351|495:361,1,120,14|14,1:0|1:2,0:0:0:0:
511,238,90742,1,8,1:0:0:0:
455,185,90910,1,14,1:2:0:0:
455,185,91077,2,0,P|456:150|461:109,1,60,14|8,1:2|1:0,0:0:0:0:
432,51,91413,2,0,P|392:44|301:12,2,120,10|14|10,1:0|1:2|1:0,0:0:0:0:
501,9,92251,1,14,1:2:0:0:
501,9,92418,1,14,1:2:0:0:
458,125,92753,6,0,P|453:168|453:214,1,71.9999978027344,14|4,1:2|3:0,0:0:0:0:
499,258,93089,2,0,P|494:301|494:347,1,71.9999978027344,14|4,1:2|3:0,0:0:0:0:
422,365,93424,2,0,P|356:361|269:374,2,143.999995605469,14|14|14,1:2|1:2|1:2,0:0:0:0:
355,253,94429,1,14,1:2:0:0:
237,307,94765,1,10,1:0:0:0:
186,250,94932,1,14,1:2:0:0:
186,250,95100,1,14,1:2:0:0:
57,271,95435,6,0,P|19:236|36:167,1,120,14|14,1:0|1:2,0:0:0:0:
99,140,95938,1,2,3:2:0:0:
173,167,96105,1,10,1:0:0:0:
248,135,96273,1,14,1:2:0:0:
248,135,96441,1,14,1:2:0:0:
371,166,96776,2,0,P|455:162|525:168,2,120,14|14|10,1:0|1:2|1:0,0:0:0:0:
305,210,97614,1,14,1:2:0:0:
371,253,97781,1,14,1:2:0:0:
391,375,98117,6,0,P|363:375|307:386,1,71.9999978027344,14|4,1:2|3:0,0:0:0:0:
249,358,98452,2,0,P|221:358|165:369,1,71.9999978027344,14|4,1:2|3:0,0:0:0:0:
107,333,98787,2,0,P|110:265|150:192,1,143.999995605469,14|14,1:2|1:2,0:0:0:0:
213,162,99290,1,4,3:0:0:0:
213,162,99457,1,14,1:2:0:0:
111,78,99793,1,14,1:2:0:0:
22,170,100128,1,8,3:0:0:0:
22,170,100295,1,10,1:2:0:0:
22,170,100463,2,0,P|15:208|12:254,1,71.9999978027344,8|10,1:0|1:2,0:0:0:0:
61,300,100798,5,14,1:0:0:0:
117,357,100966,1,2,1:0:0:0:
184,317,101133,1,14,1:2:0:0:
288,242,101469,1,2,1:0:0:0:
355,202,101636,1,2,1:0:0:0:
411,259,101804,1,14,1:2:0:0:
507,165,102139,2,0,P|508:134|500:86,1,60,2|2,1:0|1:0,0:0:0:0:
467,40,102474,1,14,1:2:0:0:
335,16,102809,2,0,P|331:45|332:75,1,60,10|2,1:0|1:0,0:0:0:0:
287,136,103144,1,14,1:2:0:0:
221,95,103312,6,0,P|171:124|140:229,1,120,2|2,1:0|3:2,0:0:0:0:
188,237,103815,2,0,L|250:246,1,60,14|0,1:2|1:0,0:0:0:0:
304,302,104150,1,2,1:2:0:0:
304,302,104318,1,2,1:0:0:0:
235,340,104485,1,14,1:2:0:0:
114,359,104821,2,0,P|81:356|44:358,1,60,14|2,1:0|1:0,0:0:0:0:
9,296,105156,2,0,P|13:265|16:214,1,60,14|2,1:2|3:2,0:0:0:0:
7,160,105491,1,10,1:0:0:0:
82,134,105658,1,14,1:2:0:0:
82,134,105826,6,0,P|149:150|245:155,2,120,14|14|14,1:2|1:0|1:2,0:0:0:0:
166,29,106832,2,0,L|260:20,1,60,2|2,1:2|1:2,0:0:0:0:
288,71,107167,2,0,L|368:83,1,60,14|8,1:2|1:0,0:0:0:0:
414,37,107502,2,0,P|444:88|438:157,1,120,14|14,1:0|1:2,0:0:0:0:
387,203,108005,1,0,1:0:0:0:
387,203,108172,2,0,L|400:292,1,60,10|10,1:0|1:0,0:0:0:0:
412,337,108508,1,14,1:2:0:0:
286,349,108843,6,0,P|261:347|206:348,1,71.9999978027344,14|4,1:2|3:0,0:0:0:0:
146,306,109178,2,0,P|121:304|66:305,1,71.9999978027344,14|4,1:2|3:0,0:0:0:0:
72,227,109513,2,0,P|48:163|40:83,1,143.999995605469,14|14,1:2|1:2,0:0:0:0:
167,26,110184,1,14,1:2:0:0:
261,99,110519,1,14,1:2:0:0:
187,187,110854,1,14,1:2:0:0:
116,111,111189,1,12,1:3:0:0:
261,99,111524,6,0,P|332:95|414:102,1,120,14|14,1:0|1:2,0:0:0:0:
443,197,112195,2,0,P|372:193|290:200,1,120,8|10,3:0|1:2,0:0:0:0:
262,247,112698,1,4,3:0:0:0:
262,247,112865,2,0,L|250:327,1,60,10|4,1:0|3:0,0:0:0:0:
180,324,113200,2,0,L|168:404,1,60,14|4,1:2|3:0,0:0:0:0:
95,384,113536,1,2,1:0:0:0:
27,273,113871,1,10,1:2:0:0:
113,185,114206,6,0,P|122:124|82:53,1,120,14|14,1:0|1:2,0:0:0:0:
158,21,114709,1,4,3:0:0:0:
158,21,114876,2,0,P|216:53|286:44,1,120,8|10,3:0|1:2,0:0:0:0:
392,13,115547,2,0,L|459:23,1,60,10|4,1:0|3:0,0:0:0:0:
500,82,115882,2,0,L|481:160,1,60,10|4,1:2|3:0,0:0:0:0:
420,181,116217,1,10,1:0:0:0:
497,283,116552,1,10,1:2:0:0:
382,342,116888,6,0,P|328:344|252:376,2,120,14|14|8,1:0|1:2|3:0,0:0:0:0:
299,235,117893,1,10,1:2:0:0:
177,277,118228,2,0,P|131:268|98:188,1,120,14|14,1:0|1:2,0:0:0:0:
111,133,118731,1,2,3:2:0:0:
111,133,118899,2,0,L|218:165,1,60,10|4,1:0|3:0,0:0:0:0:
245,167,119234,2,0,L|352:135,1,60,10|4,1:2|3:0,0:0:0:0:
375,121,119569,5,14,1:0:0:0:
487,180,119904,1,10,1:2:0:0:
379,244,120240,1,8,1:0:0:0:
263,185,120575,1,10,1:2:0:0:
143,248,120910,2,0,P|80:253|19:276,1,120,8|10,3:0|1:2,0:0:0:0:
2,199,121413,1,0,1:2:0:0:
2,199,121580,2,0,P|17:142|22:69,1,120,8|10,3:0|1:2,0:0:0:0:
86,37,122083,1,8,3:0:0:0:
86,37,122251,6,0,P|128:37|214:53,1,120,14|14,1:0|1:2,0:0:0:0:
318,109,122921,2,0,P|360:109|446:93,1,120,8|10,3:0|1:2,0:0:0:0:
509,131,123424,1,8,3:0:0:0:
509,131,123591,2,0,L|500:219,1,60,14|0,1:0|0:0,0:0:0:0:
440,236,123927,2,0,L|431:324,1,60,10|4,1:2|3:0,0:0:0:0:
491,353,124262,1,10,1:0:0:0:
357,378,124597,1,10,1:2:0:0:
241,327,124932,6,0,P|189:325|85:352,2,120,10|10|8,1:0|1:2|3:0,0:0:0:0:
301,278,125770,1,4,3:0:0:0:
301,278,125938,2,0,L|315:182,1,60,10|8,1:2|3:0,0:0:0:0:
262,160,126273,2,0,L|276:64,1,60,10|8,1:0|1:0,0:0:0:0:
335,57,126608,1,10,1:2:0:0:
200,24,126943,5,8,1:2:0:0:
129,57,127111,1,8,1:2:0:0:
117,131,127279,1,8,1:2:0:0:
184,179,127446,1,8,1:2:0:0:
184,179,127614,6,0,P|187:241|181:330,1,143.999995605469,12|12,1:0|1:0,0:0:0:0:
307,367,128284,2,0,L|381:359,1,71.9999978027344,14|0,1:2|1:2,0:0:0:0:
425,298,128619,2,0,L|499:290,1,71.9999978027344,12|0,1:2|1:2,0:0:0:0:
433,218,128955,2,0,P|419:170|435:70,2,143.999995605469,14|12|14,1:2|1:2|1:2,0:0:0:0:
323,284,129960,1,12,1:2:0:0:
323,284,130128,1,2,1:2:0:0:
258,235,130295,6,0,L|132:263,1,71.9999978027344,12|2,1:2|1:2,0:0:0:0:
141,315,130631,2,0,L|15:343,1,71.9999978027344,14|0,1:2|1:2,0:0:0:0:
18,272,130966,2,0,P|10:211|38:117,1,143.999995605469,12|12,1:2|1:2,0:0:0:0:
92,13,131636,5,14,1:2:0:0:
92,13,131804,1,2,1:2:0:0:
162,58,131971,1,14,1:2:0:0:
162,58,132139,1,2,1:2:0:0:
226,10,132307,2,0,P|263:23|316:81,1,71.9999978027344,14|2,1:2|1:2,0:0:0:0:
345,97,132642,2,0,P|382:83|435:25,1,71.9999978027344,14|2,1:2|1:2,0:0:0:0:
480,35,132977,6,0,P|516:105|511:188,1,143.999995605469,12|12,1:0|1:0,0:0:0:0:
379,202,133647,2,0,P|362:233|358:270,1,71.9999978027344,14|0,1:2|1:2,0:0:0:0:
429,307,133983,2,0,P|446:338|450:375,1,71.9999978027344,12|0,1:2|1:2,0:0:0:0:
371,384,134318,1,14,1:2:0:0:
371,384,134485,1,0,1:2:0:0:
298,344,134653,2,0,P|226:339|162:369,1,143.999995605469,12|14,1:2|1:2,0:0:0:0:
51,319,135323,1,12,1:2:0:0:
51,319,135491,1,2,1:2:0:0:
118,279,135658,6,0,P|130:243|136:184,1,71.9999978027344,12|2,1:2|1:2,0:0:0:0:
67,170,135994,2,0,P|55:134|49:75,1,71.9999978027344,14|0,1:2|1:2,0:0:0:0:
111,53,136329,2,0,P|191:64|281:57,1,143.999995605469,12|12,1:2|1:2,0:0:0:0:
381,17,136999,1,14,1:2:0:0:
381,17,137167,1,0,1:2:0:0:
445,69,137334,1,4,1:2:0:0:
445,69,137502,1,8,1:2:0:0:
392,127,137670,2,0,P|387:177|391:221,1,71.9999978027344,4|8,1:2|1:2,0:0:0:0:
424,266,138005,1,14,1:2:0:0:
313,339,138340,6,0,P|248:333|168:337,1,120,12|12,1:0|1:0,0:0:0:0:
124,297,138843,1,0,1:2:0:0:
124,297,139010,2,0,L|144:210,1,60,12|12,1:2|1:2,0:0:0:0:
197,190,139346,1,12,1:2:0:0:
118,89,139681,2,0,P|69:103|45:179,2,120,14|14|12,1:0|1:2|1:2,0:0:0:0:
177,37,140519,1,12,1:2:0:0:
177,37,140686,1,12,1:2:0:0:
298,74,141022,6,0,L|365:94,1,60,14|0,1:0|0:0,0:0:0:0:
424,61,141357,2,0,L|491:81,1,60,12|0,1:2|1:2,0:0:0:0:
511,148,141692,2,0,P|516:181|499:240,1,60,12|12,1:2|1:2,0:0:0:0:
471,275,142027,1,12,1:2:0:0:
353,322,142362,2,0,P|323:320|242:355,1,120,14|14,1:0|1:2,0:0:0:0:
171,325,142865,1,2,3:2:0:0:
171,325,143033,1,6,1:2:0:0:
200,251,143200,1,14,1:2:0:0:
200,251,143368,1,14,1:2:0:0:
97,188,143703,5,14,1:0:0:0:
136,76,144038,2,0,P|151:53|157:-10,1,60,12|0,1:2|1:2,0:0:0:0:
234,1,144374,1,12,1:2:0:0:
290,61,144541,1,12,1:2:0:0:
290,61,144709,1,12,1:2:0:0:
359,29,144876,1,8,1:0:0:0:
402,93,145044,2,0,P|468:125|516:159,2,120,14|12|12,1:0|1:2|1:2,0:0:0:0:
302,171,146050,1,8,1:2:0:0:
302,171,146217,1,8,1:0:0:0:
377,194,146385,6,0,P|395:232|388:286,1,71.9999978027344,12|0,1:2|1:2,0:0:0:0:
321,267,146720,2,0,P|303:305|310:359,1,71.9999978027344,12|0,1:2|1:2,0:0:0:0:
364,378,147055,2,0,P|288:373|206:378,1,143.999995605469,12|12,1:2|1:2,0:0:0:0:
77,349,147726,5,14,1:2:0:0:
77,349,147893,1,0,1:2:0:0:
5,384,148061,1,12,1:2:0:0:
5,384,148228,1,0,1:2:0:0:
55,324,148396,2,0,P|57:285|51:221,1,71.9999978027344,12|0,1:2|1:2,0:0:0:0:
10,191,148731,2,0,P|8:152|14:88,1,71.9999978027344,14|0,1:2|0:0,0:0:0:0:
68,68,149066,6,0,P|172:63|271:68,3,180,14|14|14|14,1:0|1:2|1:0|1:2,0:0:0:0:
426,27,151077,1,14,1:0:0:0:
426,27,151245,1,4,3:0:0:0:
479,85,151413,1,14,1:2:0:0:
407,123,151580,1,8,1:3:0:0:
407,123,151748,1,8,1:0:0:0:
256,192,151915,12,2,154597,0:1:0:0:
