osu file format v14

[General]
AudioFilename: audio.mp3
AudioLeadIn: 0
PreviewTime: 28200
Countdown: 0
SampleSet: Soft
StackLeniency: 0.7
Mode: 0
LetterboxInBreaks: 0
WidescreenStoryboard: 1

[Editor]
Bookmarks: 4066,12111,14792,22837,25519,28200,30882,33563,36245,38926,41608,49653,52334,60379,63060,65742,68424,71105,73787,76468,79150,81831,84513,87195,89876,99597,111329,122055,127418,138144,146189,148871,151552
DistanceSpacing: 1
BeatDivisor: 4
GridSize: 16
TimelineZoom: 2

[Metadata]
Title:Free At Last
TitleUnicode:Free At Last
Artist:PUP
ArtistUnicode:PUP
Creator:Icekalt
Version:Hard
Source:
Tags:punk indie rock english Dave Schiffman morbid stuff
BeatmapID:2385220
BeatmapSetID:1133317

[Difficulty]
HPDrainRate:4.5
CircleSize:3.5
OverallDifficulty:7
ApproachRate:8
SliderMultiplier:1.4
SliderTickRate:1

[Events]
//Background and Video events
0,0,"abstract-1846847_1920.jpg",0,0
//Break Periods
2,112669,121312
//Storyboard Layer 0 (Background)
//Storyboard Layer 1 (Fail)
//Storyboard Layer 2 (Pass)
//Storyboard Layer 3 (Foreground)
//Storyboard Layer 4 (Overlay)
//Storyboard Sound Samples

[TimingPoints]
1392,335.195530726257,4,2,1,40,1,0
1392,-181.818181818181,4,2,1,40,0,0
2062,-399.999999999997,4,2,1,40,0,0
3570,-399.999999999997,4,2,1,60,0,0
4073,-83.3333333333333,4,2,1,60,0,0
12118,-83.3333333333333,4,2,1,70,0,0
14799,-83.3333333333333,4,2,1,60,0,0
22844,-83.3333333333333,4,2,1,70,0,0
25526,-83.3333333333333,4,2,1,60,0,0
28207,-83.3333333333333,4,2,1,70,0,0
29045,-83.3333333333333,4,2,1,60,0,0
30889,-71.4285714285714,4,2,1,60,0,0
37593,-71.4285714285714,4,2,1,70,0,0
38933,-66.6666666666667,4,2,1,70,0,0
41615,-83.3333333333333,4,2,1,60,0,0
49660,-83.3333333333333,4,2,1,70,0,0
52341,-83.3333333333333,4,2,1,60,0,0
60386,-83.3333333333333,4,2,1,70,0,0
63067,-83.3333333333333,4,2,1,65,0,0
65749,-83.3333333333333,4,2,1,70,0,0
68431,-71.4285714285714,4,2,1,70,0,0
76475,-71.4285714285714,4,2,1,75,0,0
79157,-71.4285714285714,4,2,1,60,0,0
87202,-66.6666666666667,4,2,1,60,0,0
89883,-76.9230769230769,4,2,1,60,0,0
90218,-76.9230769230769,4,2,1,65,0,0
122062,-100,4,2,1,50,0,0
127425,-71.4285714285714,4,2,1,75,0,0
138151,-71.4285714285714,4,2,1,70,0,0
146196,-71.4285714285714,4,2,1,75,0,0
148878,-66.6666666666667,4,2,1,60,0,0
151559,-666.666666666658,4,2,1,60,0,0

[Colours]
Combo1 : 255,108,108
Combo2 : 166,83,83

[HitObjects]
73,79,1224,5,0,3:0:0:0:
73,79,1392,2,0,P|122:124|164:106,1,115.50000352478,8|0,3:0|0:0,0:0:0:0:
232,164,2062,2,0,B|219:209|219:209|205:185,2,70,2|2|2,0:0|0:0|0:0,0:0:0:0:
298,108,3570,1,2,0:0:0:0:
298,108,3654,1,8,0:3:0:0:
298,108,3738,1,8,0:3:0:0:
403,216,4073,6,0,L|388:314,1,83.9999974365235,4|0,0:0|0:0,0:0:0:0:
324,351,4408,1,8,0:0:0:0:
274,283,4576,1,0,0:0:0:0:
184,351,4743,1,8,0:3:0:0:
184,351,4911,1,2,0:0:0:0:
105,271,5079,2,0,B|93:237|137:191|201:229,1,125.999996154785,8|0,0:0|0:0,0:0:0:0:
214,211,5414,6,0,L|228:119,1,83.9999974365235,8|0,0:3|0:0,0:0:0:0:
286,277,5749,2,0,L|329:188,1,83.9999974365235,8|0,0:0|0:0,0:0:0:0:
345,360,6084,1,2,0:0:0:0:
440,325,6252,2,0,B|482:263|482:263|443:108,1,209.999993591309,12|0,0:0|0:0,0:0:0:0:
434,121,6755,1,4,0:0:0:0:
372,33,6922,5,2,0:0:0:0:
327,104,7090,1,8,0:0:0:0:
244,118,7257,1,2,0:0:0:0:
198,188,7425,2,0,B|164:163|164:163|75:188,1,125.999996154785,8|0,0:3|0:0,0:0:0:0:
76,203,7760,2,0,P|97:252|87:315,1,83.9999974365235,8|2,0:0|0:0,0:0:0:0:
189,349,8095,6,0,B|243:336|243:336|256:352|256:352|314:343,1,125.999996154785,8|0,0:3|0:0,0:0:0:0:
315,329,8431,2,0,P|327:282|369:270,1,83.9999974365235,12|0,0:0|0:0,0:0:0:0:
292,201,8766,1,8,0:3:0:0:
378,170,8933,1,8,0:0:0:0:
332,89,9101,1,8,0:0:0:0:
157,219,9436,6,0,P|123:189|107:120,1,83.9999974365235,4|0,0:0|0:0,0:0:0:0:
158,80,9771,1,8,0:0:0:0:
158,80,9939,2,0,B|93:93|93:93|83:127|83:127|0:146,1,167.999994873047,2|0,0:0|0:0,0:0:0:0:
66,235,10442,1,8,0:0:0:0:
66,235,10610,2,0,B|131:248|131:248|141:282|141:282|224:301,1,167.999994873047,2|0,0:0|0:0,0:0:0:0:
239,213,11112,1,8,0:0:0:0:
239,213,11280,2,0,L|258:384,1,167.999994873047,0|12,0:0|0:0,0:0:0:0:
434,184,12118,6,0,L|452:95,1,83.9999974365235,8|8,0:0|0:3,0:0:0:0:
339,228,12453,2,0,L|323:135,1,83.9999974365235,8|8,0:0|0:3,0:0:0:0:
267,302,12788,2,0,L|223:224,1,83.9999974365235,8|8,0:0|0:3,0:0:0:0:
174,360,13123,1,8,0:0:0:0:
174,360,13291,1,8,0:3:0:0:
55,289,13459,6,0,P|85:257|130:248,1,83.9999974365235,8|8,0:0|0:3,0:0:0:0:
52,138,13794,2,0,P|95:132|135:154,1,83.9999974365235,8|8,0:0|0:3,0:0:0:0:
202,108,14129,1,8,0:3:0:0:
248,187,14297,1,8,0:0:0:0:
334,155,14464,1,8,0:0:0:0:
479,337,14799,6,0,P|467:294|384:289,1,125.999996154785,4|0,0:0|0:0,0:0:0:0:
379,297,15135,1,8,0:0:0:0:
287,280,15302,1,0,0:0:0:0:
227,360,15470,2,0,L|127:375,1,83.9999974365235,8|0,0:3|0:0,0:0:0:0:
199,260,15805,2,0,L|93:237,1,83.9999974365235,8|2,0:0|0:0,0:0:0:0:
72,119,16140,6,0,B|67:96|85:65|140:61|178:101,1,125.999996154785,8|0,0:3|0:0,0:0:0:0:
174,110,16475,1,8,0:0:0:0:
241,42,16643,2,0,B|267:12|322:16|340:47|335:70,1,125.999996154785,2|0,0:0|0:0,0:0:0:0:
329,88,16978,1,12,0:0:0:0:
399,164,17146,1,2,0:0:0:0:
274,347,17481,6,0,P|288:309|348:286,1,83.9999974365235,8|2,0:3|0:0,0:0:0:0:
224,237,17816,2,0,L|96:226,1,125.999996154785,8|0,0:0|0:0,0:0:0:0:
81,237,18151,2,0,P|49:206|41:154,1,83.9999974365235,8|2,0:3|0:0,0:0:0:0:
137,126,18486,2,0,L|157:30,1,83.9999974365235,8|0,0:0|0:0,0:0:0:0:
234,151,18822,6,0,B|249:188|249:188|371:205,1,125.999996154785,8|0,0:3|0:0,0:0:0:0:
344,187,19157,1,12,0:0:0:0:
408,354,19492,1,8,0:3:0:0:
326,309,19660,1,8,0:0:0:0:
251,362,19827,2,0,P|206:361|170:330,1,83.9999974365235,8|0,0:0|0:0,0:0:0:0:
235,256,20162,1,4,0:0:0:0:
44,136,20498,5,8,0:0:0:0:
87,215,20665,2,0,B|155:203|155:203|171:172|171:172|246:160,1,167.999994873047,2|0,0:0|0:0,0:0:0:0:
380,305,21336,2,0,B|312:293|312:293|296:262|296:262|221:250,1,167.999994873047,2|0,0:0|0:0,0:0:0:0:
153,306,21838,1,8,0:0:0:0:
153,306,22006,2,0,P|85:301|76:206,1,167.999994873047,2|12,0:0|0:0,0:0:0:0:
21,134,22509,1,2,0:0:0:0:
196,72,22844,6,0,L|209:177,1,83.9999974365235,8|8,0:0|0:3,0:0:0:0:
314,26,23179,2,0,L|290:129,1,83.9999974365235,8|8,0:0|0:3,0:0:0:0:
440,23,23514,2,0,L|382:111,1,83.9999974365235,8|8,0:0|0:3,0:0:0:0:
430,181,23850,1,8,0:0:0:0:
430,181,24017,1,8,0:3:0:0:
390,297,24185,6,0,P|419:275|482:274,1,83.9999974365235,8|8,0:0|0:3,0:0:0:0:
305,348,24520,2,0,P|276:326|213:325,1,83.9999974365235,8|8,0:0|0:3,0:0:0:0:
176,255,24855,1,8,0:3:0:0:
121,330,25023,1,8,0:0:0:0:
37,291,25190,1,8,0:0:0:0:
90,125,25526,6,0,P|158:97|236:105,1,125.999996154785,4|0,0:0|0:0,0:0:0:0:
223,118,25861,2,0,B|268:129|268:129|309:110,1,83.9999974365235,8|0,0:0|0:0,0:0:0:0:
369,49,26196,1,8,0:3:0:0:
457,74,26364,1,8,0:0:0:0:
414,155,26531,1,8,0:0:0:0:
505,332,26866,5,8,0:3:0:0:
420,380,27034,2,0,P|349:332|360:258,1,167.999994873047,2|0,0:0|0:0,0:0:0:0:
300,199,27537,1,8,0:3:0:0:
212,227,27704,1,8,0:0:0:0:
150,158,27872,1,8,0:0:0:0:
298,41,28207,6,0,B|342:37|342:37|388:73,1,83.9999974365235,4|2,0:0|0:0,0:0:0:0:
273,127,28542,2,0,B|304:151|304:151|348:147,1,83.9999974365235,8|8,0:3|0:3,0:0:0:0:
452,137,28878,1,8,0:0:0:0:
452,137,29045,2,0,B|371:166|371:166|397:256,1,167.999994873047,4|0,0:0|0:0,0:0:0:0:
276,326,29548,6,0,L|288:232,1,83.9999974365235,4|8,0:0|0:3,0:0:0:0:
188,315,29883,2,0,L|200:221,1,83.9999974365235,8|8,0:0|0:3,0:0:0:0:
153,136,30218,1,8,0:0:0:0:
153,136,30386,2,0,B|190:99|190:99|316:123,1,167.999994873047,4|2,0:0|0:0,0:0:0:0:
406,67,30889,6,0,P|454:92|451:197,1,146.999995513916,4|0,0:0|0:0,0:0:0:0:
450,188,31224,2,0,B|425:224|425:224|436:279,1,97.9999970092774,8|0,0:0|0:0,0:0:0:0:
373,356,31559,1,8,0:3:0:0:
373,356,31727,1,8,0:3:0:0:
309,280,31894,2,0,P|267:271|234:318,1,97.9999970092774,8|2,0:0|0:0,0:0:0:0:
162,235,32229,5,8,0:3:0:0:
179,153,32397,1,2,0:0:0:0:
63,206,32565,2,0,L|45:102,1,97.9999970092774,8|2,0:0|0:0,0:0:0:0:
79,27,32900,1,8,0:3:0:0:
164,67,33067,1,8,0:0:0:0:
230,1,33235,1,8,0:0:0:0:
187,227,33570,6,0,P|228:259|277:259,1,97.9999970092774,4|2,0:0|0:0,0:0:0:0:
213,144,33905,2,0,P|263:130|308:149,1,97.9999970092774,8|8,0:3|0:3,0:0:0:0:
382,232,34241,1,8,0:0:0:0:
382,232,34408,2,0,B|296:274|296:274|311:378,1,195.999994018555,4|0,0:0|0:0,0:0:0:0:
187,296,34911,6,0,B|126:310|126:310|102:349,1,97.9999970092774,4|8,0:0|0:3,0:0:0:0:
132,222,35246,2,0,B|71:236|71:236|47:275,1,97.9999970092774,8|8,0:0|0:3,0:0:0:0:
205,154,35581,1,8,0:0:0:0:
205,154,35749,2,0,B|326:169|326:169|357:244,1,195.999994018555,4|2,0:0|0:0,0:0:0:0:
450,156,36252,6,0,P|465:115|380:45,1,146.999995513916,4|0,0:0|0:0,0:0:0:0:
391,59,36587,2,0,B|344:74|344:74|302:45,1,97.9999970092774,8|0,0:0|0:0,0:0:0:0:
215,15,36922,1,8,0:3:0:0:
215,15,37090,1,8,0:3:0:0:
177,103,37257,2,0,P|135:112|102:65,1,97.9999970092774,8|2,0:0|0:0,0:0:0:0:
45,172,37592,5,8,0:3:0:0:
28,254,37760,1,2,0:0:0:0:
144,201,37928,2,0,L|162:305,1,97.9999970092774,8|2,0:0|0:0,0:0:0:0:
247,355,38263,2,0,B|242:314|277:271|345:283|376:321,1,146.999995513916,8|0,0:3|0:0,0:0:0:0:
362,319,38598,1,8,0:0:0:0:
460,200,38933,6,0,B|441:157|441:157|361:156|361:156|349:182|349:182|299:181|299:181|288:167|288:167|224:167,1,262.500010013581,8|0,0:3|0:0,0:0:0:0:
234,156,39436,2,0,B|200:197|200:197|200:282|200:282|224:310|224:310|188:344|188:344|212:373,1,262.500010013581,6|0,0:0|0:0,0:0:0:0:
228,356,39939,2,0,B|209:313|209:313|129:312|129:312|117:338|117:338|67:337|67:337|56:323|56:323|16:323,1,262.500010013581,8|0,0:3|0:0,0:0:0:0:
0,311,40442,2,0,B|33:269|33:269|33:184|33:184|9:156|9:156|45:122|45:122|21:93,1,262.500010013581,6|0,0:0|0:0,0:0:0:0:
11,79,40945,2,0,L|6:21,4,52.5000020027161,8|0|0|0|8,3:3|3:0|3:0|3:0|0:0,0:0:0:0:
164,12,41615,1,4,0:0:0:0:
232,167,41950,5,8,0:0:0:0:
304,124,42118,1,0,0:0:0:0:
359,186,42285,2,0,B|377:238|331:282|297:270,1,125.999996154785,8|0,0:3|0:0,0:0:0:0:
283,284,42621,2,0,P|244:276|186:304,1,83.9999974365235,8|0,0:0|0:0,0:0:0:0:
98,281,42956,6,0,L|120:190,1,83.9999974365235,8|0,0:3|0:0,0:0:0:0:
4,123,43291,2,0,L|26:214,1,83.9999974365235,8|0,0:0|0:0,0:0:0:0:
118,91,43626,1,2,0:0:0:0:
118,91,43794,2,0,B|208:26|208:26|309:72,1,209.999993591309,12|0,0:0|0:0,0:0:0:0:
308,84,44297,1,4,0:0:0:0:
419,163,44632,5,8,0:0:0:0:
335,178,44799,1,2,0:0:0:0:
296,259,44967,2,0,P|246:276|221:216,1,125.999996154785,8|0,0:3|0:0,0:0:0:0:
211,203,45302,2,0,B|180:177|180:177|112:187,1,83.9999974365235,8|2,0:0|0:0,0:0:0:0:
48,109,45637,2,0,B|69:67|69:67|153:61,1,125.999996154785,8|0,0:3|0:0,0:0:0:0:
160,47,45973,2,0,P|199:23|262:37,1,83.9999974365235,12|0,0:0|0:0,0:0:0:0:
304,78,46308,1,8,0:3:0:0:
370,14,46475,1,8,0:0:0:0:
454,52,46643,1,8,0:0:0:0:
386,207,46978,6,0,P|342:211|305:245,1,83.9999974365235,4|0,0:0|0:0,0:0:0:0:
246,304,47313,1,8,0:0:0:0:
246,304,47481,1,2,0:0:0:0:
165,255,47648,2,0,B|163:222|163:222|214:169,1,83.9999974365235,8|0,0:3|0:0,0:0:0:0:
262,114,47984,1,8,0:0:0:0:
262,114,48152,2,0,B|170:121|215:57|99:69,1,167.999994873047,2|0,0:0|0:0,0:0:0:0:
52,140,48654,1,8,0:0:0:0:
256,27,48989,1,2,0:0:0:0:
338,60,49157,1,12,0:0:0:0:
345,148,49324,2,0,B|325:178|325:178|343:287,1,125.999996154785,0|0,0:0|0:0,0:0:0:0:
332,287,49660,6,0,L|238:303,1,83.9999974365235,8|8,0:0|0:3,0:0:0:0:
151,193,49995,2,0,L|245:209,1,83.9999974365235,8|8,0:0|0:3,0:0:0:0:
147,291,50330,2,0,L|53:307,1,83.9999974365235,8|8,0:0|0:3,0:0:0:0:
5,233,50665,1,8,0:0:0:0:
5,233,50833,1,8,0:3:0:0:
78,145,51000,6,0,B|85:101|85:101|125:61,1,83.9999974365235,8|8,0:0|0:3,0:0:0:0:
165,196,51336,2,0,B|198:166|198:166|254:161,1,83.9999974365235,8|8,0:0|0:3,0:0:0:0:
303,110,51671,1,8,0:3:0:0:
349,189,51839,1,8,0:0:0:0:
435,157,52006,1,8,0:0:0:0:
470,354,52341,6,0,B|485:319|432:277|380:313,1,125.999996154785,4|0,0:0|0:0,0:0:0:0:
381,327,52676,1,8,0:0:0:0:
293,363,52844,1,2,0:0:0:0:
280,274,53011,1,8,0:3:0:0:
280,274,53179,1,0,0:0:0:0:
174,354,53347,2,0,B|140:366|94:322|132:258,1,125.999996154785,8|0,0:0|0:0,0:0:0:0:
139,252,53682,6,0,P|137:207|93:156,1,83.9999974365235,8|0,0:3|0:0,0:0:0:0:
78,74,54017,1,8,0:0:0:0:
78,74,54185,2,0,P|131:86|189:76,1,83.9999974365235,2|2,0:0|0:0,0:0:0:0:
263,181,54520,2,0,B|231:153|231:153|261:32|261:32|313:26,1,209.999993591309,12|0,0:0|0:0,0:0:0:0:
317,41,55023,6,0,B|336:62|336:62|410:67,1,83.9999974365235,8|2,0:3|0:0,0:0:0:0:
455,133,55358,1,8,0:0:0:0:
455,133,55525,1,2,0:0:0:0:
387,191,55693,2,0,B|362:225|362:225|387:314,1,125.999996154785,8|0,0:3|0:0,0:0:0:0:
377,324,56028,2,0,P|333:304|293:310,1,83.9999974365235,8|0,0:0|0:0,0:0:0:0:
203,232,56364,2,0,P|151:255|108:329,1,125.999996154785,8|0,0:3|0:0,0:0:0:0:
100,325,56699,2,0,B|82:302|82:302|18:318,1,83.9999974365235,12|0,0:0|0:0,0:0:0:0:
0,233,57034,1,8,0:3:0:0:
86,202,57201,1,8,0:0:0:0:
40,121,57369,1,8,0:0:0:0:
212,16,57704,6,0,P|237:49|241:94,1,83.9999974365235,4|0,0:0|0:0,0:0:0:0:
179,175,58040,1,8,0:0:0:0:
179,175,58207,2,0,B|265:197|265:197|335:148,3,167.999994873047,2|2|2|2,0:0|0:0|0:0|0:0,0:0:0:0:
384,224,59380,2,0,B|414:255|414:255|460:245,1,83.9999974365235,8|2,0:0|0:0,0:0:0:0:
455,159,59716,1,8,0:3:0:0:
455,159,59883,2,0,B|415:206|415:206|442:361,1,209.999993591309,12|0,0:0|0:0,0:0:0:0:
429,369,60386,6,0,L|346:349,1,83.9999974365235,8|8,0:0|0:3,0:0:0:0:
202,293,60721,2,0,L|285:273,1,83.9999974365235,8|8,0:0|0:3,0:0:0:0:
429,217,61056,2,0,L|346:197,1,83.9999974365235,8|8,0:0|0:3,0:0:0:0:
289,119,61391,1,8,0:0:0:0:
289,119,61559,1,8,0:3:0:0:
212,184,61727,6,0,P|173:198|132:190,1,83.9999974365235,8|8,0:0|0:3,0:0:0:0:
216,52,62062,2,0,P|178:34|137:40,1,83.9999974365235,8|8,0:0|0:3,0:0:0:0:
85,104,62397,1,8,0:3:0:0:
118,182,62565,1,8,0:0:0:0:
48,234,62732,1,8,0:0:0:0:
225,358,63067,6,0,P|210:316|293:311,1,125.999996154785,4|0,0:0|0:0,0:0:0:0:
289,274,63403,2,0,L|280:166,1,83.9999974365235,8|0,0:0|0:0,0:0:0:0:
383,307,63738,1,8,0:3:0:0:
408,219,63905,1,8,0:0:0:0:
474,373,64073,2,0,L|525:271,1,83.9999974365235,8|0,0:0|0:0,0:0:0:0:
478,166,64408,6,0,B|483:143|465:112|410:108|372:148,1,125.999996154785,8|0,0:3|0:0,0:0:0:0:
368,127,64743,2,0,P|338:101|284:97,1,83.9999974365235,8|0,0:0|0:0,0:0:0:0:
234,153,65079,1,8,0:3:0:0:
152,174,65246,1,8,0:0:0:0:
124,94,65414,1,8,0:0:0:0:
139,280,65749,6,0,B|183:284|183:284|229:248,1,83.9999974365235,4|2,0:0|0:0,0:0:0:0:
319,371,66084,2,0,B|275:375|275:375|229:339,1,83.9999974365235,8|8,0:3|0:3,0:0:0:0:
349,229,66420,1,8,0:0:0:0:
349,229,66587,2,0,B|430:258|430:258|404:348,1,167.999994873047,4|0,0:0|0:0,0:0:0:0:
239,239,67090,6,0,L|251:145,1,83.9999974365235,4|8,0:0|0:3,0:0:0:0:
361,42,67425,2,0,L|350:125,1,83.9999974365235,8|8,0:0|0:3,0:0:0:0:
259,34,67760,1,8,0:0:0:0:
259,34,67928,2,0,B|148:54|148:54|136:129,1,167.999994873047,4|2,0:0|0:0,0:0:0:0:
71,196,68431,6,0,P|92:239|188:228,1,146.999995513916,4|0,0:0|0:0,0:0:0:0:
197,246,68766,2,0,B|222:282|222:282|211:337,1,97.9999970092774,8|0,0:0|0:0,0:0:0:0:
305,384,69101,1,8,0:3:0:0:
305,384,69269,1,8,0:3:0:0:
353,286,69436,2,0,P|395:277|428:324,1,97.9999970092774,8|2,0:0|0:0,0:0:0:0:
481,231,69771,5,8,0:3:0:0:
449,150,69939,1,2,0:0:0:0:
512,59,70107,2,0,L|414:50,1,97.9999970092774,8|2,0:0|0:0,0:0:0:0:
358,118,70442,1,8,0:3:0:0:
273,78,70609,1,8,0:0:0:0:
207,144,70777,1,8,0:0:0:0:
88,351,71112,6,0,P|129:319|178:319,1,97.9999970092774,4|2,0:0|0:0,0:0:0:0:
13,225,71447,2,0,P|63:211|108:230,1,97.9999970092774,8|8,0:3|0:3,0:0:0:0:
245,223,71783,1,8,0:0:0:0:
245,223,71950,2,0,B|146:194|185:44,1,195.999994018555,4|0,0:0|0:0,0:0:0:0:
300,19,72453,6,0,B|361:33|361:33|385:72,1,97.9999970092774,4|8,0:0|0:3,0:0:0:0:
499,114,72788,2,0,B|438:128|438:128|414:167,1,97.9999970092774,8|8,0:0|0:3,0:0:0:0:
344,235,73123,1,8,0:0:0:0:
344,235,73291,2,0,B|465:250|465:250|496:325,1,195.999994018555,4|2,0:0|0:0,0:0:0:0:
418,384,73794,6,0,P|390:350|287:361,1,146.999995513916,4|0,0:0|0:0,0:0:0:0:
281,369,74129,2,0,B|240:337|240:337|192:355,1,97.9999970092774,8|0,0:0|0:0,0:0:0:0:
136,274,74464,1,8,0:3:0:0:
136,274,74632,1,8,0:3:0:0:
207,207,74799,2,0,P|178:170|132:177,1,97.9999970092774,8|2,0:0|0:0,0:0:0:0:
91,84,75134,5,8,0:3:0:0:
0,128,75302,1,2,0:0:0:0:
63,0,75470,2,0,L|81:104,1,97.9999970092774,8|2,0:0|0:0,0:0:0:0:
186,106,75805,1,8,0:3:0:0:
189,91,75889,1,2,3:2:0:0:
192,76,75973,2,0,L|182:-5,4,48.9999985046387,2|2|2|2|2,3:2|3:2|3:2|3:2|3:2,0:0:0:0:
286,143,76475,6,0,B|329:139|329:139|369:91,1,97.9999970092774,8|8,0:0|0:3,0:0:0:0:
227,225,76810,2,0,B|262:249|262:249|316:239,1,97.9999970092774,8|8,0:0|0:3,0:0:0:0:
132,248,77146,2,0,B|143:289|143:289|190:316,2,97.9999970092774,8|4|8,0:0|0:0|0:0,0:0:0:0:
62,178,77648,1,8,0:3:0:0:
152,67,77816,6,0,L|252:45,1,97.9999970092774,8|8,0:0|0:3,0:0:0:0:
341,167,78151,2,0,L|241:145,1,97.9999970092774,8|8,0:0|0:3,0:0:0:0:
345,25,78486,1,8,0:0:0:0:
345,25,78654,1,4,0:0:0:0:
407,96,78822,2,0,B|455:107|455:107|499:64,1,97.9999970092774,8|2,0:0|0:0,0:0:0:0:
480,188,79157,6,0,P|446:255|383:229,1,146.999995513916,4|0,0:0|0:0,0:0:0:0:
375,247,79492,2,0,B|342:269|342:269|355:335,1,97.9999970092774,8|0,0:0|0:0,0:0:0:0:
267,382,79827,1,8,0:3:0:0:
267,382,79995,1,8,0:3:0:0:
209,297,80162,2,0,P|185:243|139:250,1,97.9999970092774,8|2,0:0|0:0,0:0:0:0:
193,150,80497,5,8,0:3:0:0:
281,177,80665,1,2,0:0:0:0:
354,81,80833,2,0,L|462:59,1,97.9999970092774,8|2,0:0|0:0,0:0:0:0:
506,127,81168,1,8,0:3:0:0:
448,194,81336,1,8,0:0:0:0:
487,272,81503,1,8,0:0:0:0:
274,255,81838,6,0,P|233:223|184:223,1,97.9999970092774,4|2,0:0|0:0,0:0:0:0:
114,346,82174,2,0,P|155:314|204:314,1,97.9999970092774,8|8,0:3|0:3,0:0:0:0:
96,236,82509,1,8,0:0:0:0:
96,236,82676,2,0,B|74:133|248:110,1,195.999994018555,4|0,0:0|0:0,0:0:0:0:
306,177,83179,6,0,B|354:196|354:196|407:157,1,97.9999970092774,4|8,0:0|0:3,0:0:0:0:
293,71,83514,2,0,B|330:43|330:43|378:62,1,97.9999970092774,8|8,0:0|0:3,0:0:0:0:
482,108,83849,1,8,0:0:0:0:
482,108,84017,2,0,B|427:138|427:138|417:286,1,195.999994018555,4|2,0:0|0:0,0:0:0:0:
365,384,84520,6,0,P|344:338|258:349,1,146.999995513916,4|0,0:0|0:0,0:0:0:0:
245,337,84855,2,0,B|219:304|219:304|232:246,1,97.9999970092774,8|0,0:0|0:0,0:0:0:0:
170,176,85190,1,8,0:3:0:0:
170,176,85358,1,8,0:3:0:0:
241,110,85525,2,0,P|212:73|166:80,1,97.9999970092774,8|2,0:0|0:0,0:0:0:0:
69,33,85860,5,8,0:3:0:0:
43,132,86028,1,2,0:0:0:0:
151,179,86196,2,0,L|163:287,1,97.9999970092774,8|2,0:0|0:0,0:0:0:0:
247,355,86531,2,0,B|242:314|277:271|345:283|376:321,1,146.999995513916,8|0,0:3|0:0,0:0:0:0:
363,320,86866,1,8,0:0:0:0:
500,139,87202,6,0,B|485:96|485:96|409:93|409:93|384:118|384:118|361:55|361:55|310:52,1,262.500010013581,8|0,0:3|0:0,0:0:0:0:
311,70,87704,2,0,B|283:96|283:96|225:98|225:98|205:77|205:77|171:77|171:77|165:83|165:83|158:77|158:77|126:77|126:77|98:93|98:93|96:126,1,262.500010013581,6|0,0:0|0:0,0:0:0:0:
88,131,88207,2,0,B|45:146|45:146|42:222|42:222|67:247|67:247|4:270|4:270|1:321,1,262.500010013581,8|0,0:3|0:0,0:0:0:0:
12,326,88710,2,0,B|40:352|40:352|98:354|98:354|118:333|118:333|152:333|152:333|158:339|158:339|165:333|165:333|197:333|197:333|225:349|225:349|227:382,1,262.500010013581,6|0,0:0|0:0,0:0:0:0:
241,378,89213,2,0,B|258:369|258:369|264:330,4,52.5000020027161,8|0|0|0|8,3:3|3:0|3:0|3:0|0:0,0:0:0:0:
183,148,89883,6,0,P|222:177|214:221,1,90.9999958343508,4|0,0:0|0:0,0:0:0:0:
92,159,90218,2,0,B|120:34|120:34|199:87,1,181.999991668702,8|8,0:0|0:3,0:0:0:0:
239,11,90721,1,8,0:0:0:0:
291,85,90889,1,8,0:0:0:0:
438,247,91224,6,0,P|402:226|339:227,1,90.9999958343508,4|0,0:0|0:0,0:0:0:0:
448,328,91559,2,0,P|382:359|271:299,1,181.999991668702,8|8,0:0|0:3,0:0:0:0:
229,249,92061,1,8,0:0:0:0:
156,304,92229,1,8,0:0:0:0:
57,125,92565,6,0,L|47:33,1,90.9999958343508,8|8,0:0|0:3,0:0:0:0:
164,174,92900,2,0,L|174:82,1,90.9999958343508,8|8,0:0|0:3,0:0:0:0:
287,130,93235,2,0,L|277:38,1,90.9999958343508,8|8,0:0|0:3,0:0:0:0:
394,179,93570,2,0,L|404:87,1,90.9999958343508,8|8,0:0|0:3,0:0:0:0:
472,247,93905,5,8,0:0:0:0:
472,247,94073,1,8,0:3:0:0:
388,317,94241,2,0,L|274:334,1,90.9999958343508,8|2,0:0|0:0,0:0:0:0:
249,253,94576,1,8,0:3:0:0:
158,262,94743,1,8,0:0:0:0:
204,340,94911,1,8,0:0:0:0:
231,171,95246,6,0,B|266:202|266:202|333:186,1,90.9999958343508,4|0,0:0|0:0,0:0:0:0:
214,82,95581,2,0,B|303:57|303:57|392:140,1,181.999991668702,8|8,0:0|0:3,0:0:0:0:
428,49,96084,1,8,0:0:0:0:
505,97,96252,1,8,0:0:0:0:
438,247,96586,6,0,P|371:244|311:332,1,181.999991668702,4|8,0:0|0:0,0:0:0:0:
234,379,97090,1,0,0:0:0:0:
234,379,97257,1,8,0:3:0:0:
214,290,97424,1,8,0:0:0:0:
130,325,97592,1,8,0:0:0:0:
93,150,97928,6,0,L|185:160,1,90.9999958343508,8|8,0:0|0:3,0:0:0:0:
44,43,98263,2,0,L|136:33,1,90.9999958343508,8|8,0:0|0:3,0:0:0:0:
318,90,98598,2,0,L|226:80,1,90.9999958343508,8|8,0:0|0:3,0:0:0:0:
367,197,98933,2,0,L|275:207,1,90.9999958343508,8|8,0:0|0:3,0:0:0:0:
216,301,99268,5,8,0:0:0:0:
216,301,99436,1,8,0:3:0:0:
136,230,99604,2,0,B|127:185|127:185|175:120,1,90.9999958343508,8|2,0:0|0:0,0:0:0:0:
98,56,99939,2,0,L|47:69,4,45.4999979171754,8|2|10|10|8,0:3|3:0|0:0|0:0|0:0,0:0:0:0:
221,64,100442,5,8,0:0:0:0:
221,64,100526,1,8,0:0:0:0:
221,64,100609,2,0,P|271:70|312:92,2,90.9999958343508,4|2|8,0:0|0:0|0:0,0:0:0:0:
179,152,101112,1,2,0:0:0:0:
179,152,101280,2,0,P|129:158|88:180,2,90.9999958343508,8|2|8,0:3|0:0|0:0,0:0:0:0:
263,213,101783,1,8,0:3:0:0:
263,213,101950,2,0,L|244:309,1,90.9999958343508,4|2,0:0|0:0,0:0:0:0:
372,370,102285,2,0,L|354:280,1,90.9999958343508,8|2,0:0|0:0,0:0:0:0:
408,206,102621,5,8,0:3:0:0:
498,216,102788,1,2,0:0:0:0:
415,120,102956,1,8,0:0:0:0:
505,130,103123,2,0,P|526:202|500:311,1,181.999991668702,2|0,0:0|0:0,0:0:0:0:
403,213,103626,5,8,0:0:0:0:
493,223,103793,1,2,0:0:0:0:
410,127,103961,1,8,0:3:0:0:
500,137,104129,2,0,P|533:96|439:44,1,181.999991668702,2|0,0:0|0:0,0:0:0:0:
398,112,104632,6,0,L|346:104,3,45.4999979171754,8|0|0|0,0:3|0:0|0:0|0:0,0:0:0:0:
295,48,104967,2,0,L|243:56,3,45.4999979171754,8|0|0|0,0:0|0:0|0:0|0:0,0:0:0:0:
177,14,105302,1,8,0:3:0:0:
141,98,105470,1,8,0:0:0:0:
64,49,105637,1,8,0:0:0:0:
5,256,105973,6,0,B|-7:217|29:185|98:202|118:230,1,136.499993751526,4|0,0:0|0:0,0:0:0:0:
110,233,106308,2,0,B|144:261|144:261|195:247,1,90.9999958343508,8|2,0:0|0:0,0:0:0:0:
205,241,106559,1,8,0:0:0:0:
222,237,106643,2,0,P|273:246|316:360,1,181.999991668702,8|8,0:3|0:0,0:0:0:0:
435,351,107146,1,2,0:0:0:0:
435,351,107313,6,0,B|461:259|461:259|397:182,1,181.999991668702,4|8,0:0|0:0,0:0:0:0:
480,138,107816,1,2,0:0:0:0:
480,138,107900,1,8,0:0:0:0:
480,138,107984,1,8,0:3:0:0:
400,84,108151,1,2,0:0:0:0:
327,136,108319,1,8,0:0:0:0:
87,23,108654,6,0,L|76:140,1,90.9999958343508,8|8,0:0|0:3,0:0:0:0:
157,208,108989,2,0,L|168:325,1,90.9999958343508,8|8,0:0|0:3,0:0:0:0:
49,359,109324,2,0,L|40:241,1,90.9999958343508,8|8,0:0|0:3,0:0:0:0:
90,123,109659,2,0,L|101:6,1,90.9999958343508,8|8,0:0|0:3,0:0:0:0:
216,120,109995,5,8,0:0:0:0:
216,120,110162,1,8,0:3:0:0:
276,51,110330,2,0,B|241:19|241:19|192:33,1,90.9999958343508,8|8,0:0|0:3,0:0:0:0:
309,138,110665,1,8,0:0:0:0:
388,94,110833,1,8,0:3:0:0:
420,178,111000,1,8,0:3:0:0:
306,312,111336,1,4,0:0:0:0:
55,317,122062,6,0,P|108:274|193:274,1,140,4|8,0:0|0:0,0:0:0:0:
255,343,122565,1,0,0:0:0:0:
255,343,122648,1,0,0:0:0:0:
255,343,122732,2,0,B|290:274|290:274|252:191,1,140,8|8,0:3|0:0,0:0:0:0:
137,115,123403,6,0,B|48:125|48:125|24:180,1,140,8|8,0:3|0:0,0:0:0:0:
112,23,123905,1,0,0:0:0:0:
112,23,124073,2,0,B|201:33|201:33|225:88,1,140,8|8,0:3|0:0,0:0:0:0:
353,212,124743,6,0,P|399:215|410:129,1,140,8|8,0:3|0:0,0:0:0:0:
320,107,125246,1,0,0:0:0:0:
398,52,125414,2,0,P|381:28|333:13,1,70,8|2,0:3|0:0,0:0:0:0:
326,125,125749,2,0,P|302:142|252:142,1,70,8|0,0:0|0:0,0:0:0:0:
177,80,126084,5,8,0:3:0:0:
46,306,126419,1,8,0:0:0:0:
273,236,126755,1,10,0:0:0:0:
294,319,126922,1,10,0:0:0:0:
354,204,127090,1,10,0:0:0:0:
375,287,127257,1,10,0:0:0:0:
436,172,127425,6,0,L|448:60,1,97.9999970092774,10|8,0:0|0:3,0:0:0:0:
326,14,127760,2,0,L|336:111,1,97.9999970092774,8|8,0:0|0:3,0:0:0:0:
262,206,128095,1,8,0:0:0:0:
262,206,128263,1,8,0:3:0:0:
156,149,128431,2,0,B|164:110|164:110|227:91,1,97.9999970092774,8|8,0:0|0:3,0:0:0:0:
164,243,128766,6,0,L|59:269,1,97.9999970092774,10|8,0:0|0:3,0:0:0:0:
232,327,129101,2,0,L|337:353,1,97.9999970092774,8|8,0:0|0:3,0:0:0:0:
403,288,129436,1,8,0:0:0:0:
403,288,129604,1,8,0:3:0:0:
273,217,129771,2,0,L|378:191,1,97.9999970092774,8|8,0:0|0:3,0:0:0:0:
455,129,130107,5,10,0:0:0:0:
468,46,130274,1,8,0:3:0:0:
367,100,130442,1,8,0:0:0:0:
354,17,130609,1,8,0:3:0:0:
274,106,130777,2,0,B|229:121|229:121|177:84,1,97.9999970092774,8|8,0:0|0:3,0:0:0:0:
129,218,131112,2,0,B|174:233|174:233|226:196,1,97.9999970092774,8|8,0:0|0:3,0:0:0:0:
289,268,131447,5,10,0:0:0:0:
289,268,131615,1,10,0:3:0:0:
372,216,131783,1,10,0:0:0:0:
372,216,131950,1,10,0:3:0:0:
425,298,132118,2,0,B|475:304|475:304|510:262,2,97.9999970092774,10|10|10,0:0|0:3|0:0,0:0:0:0:
348,359,132621,1,10,0:3:0:0:
275,294,132788,6,0,B|226:307|226:307|203:360,1,97.9999970092774,10|8,0:0|0:3,0:0:0:0:
234,205,133123,2,0,B|185:189|185:189|137:221,1,97.9999970092774,8|8,0:0|0:3,0:0:0:0:
336,212,133459,1,8,0:0:0:0:
336,212,133626,1,8,0:3:0:0:
284,119,133794,2,0,L|298:13,1,97.9999970092774,8|8,0:0|0:3,0:0:0:0:
389,138,134129,6,0,P|421:170|425:224,1,97.9999970092774,10|8,0:0|0:3,0:0:0:0:
469,348,134464,2,0,P|505:316|512:268,1,97.9999970092774,8|8,0:0|0:3,0:0:0:0:
368,306,134799,1,8,0:0:0:0:
368,306,134967,1,8,0:3:0:0:
297,373,135135,2,0,B|267:341|267:341|280:267,1,97.9999970092774,8|8,0:0|0:3,0:0:0:0:
200,229,135470,5,10,0:0:0:0:
179,143,135637,1,8,0:3:0:0:
303,90,135805,1,8,0:0:0:0:
282,176,135972,1,0,0:0:0:0:
419,154,136140,2,0,L|356:249,1,97.9999970092774,8|8,0:0|0:3,0:0:0:0:
512,236,136475,2,0,L|490:348,1,97.9999970092774,8|8,0:0|0:3,0:0:0:0:
400,384,136810,5,4,0:0:0:0:
400,384,136978,1,8,0:3:0:0:
330,322,137146,1,8,0:3:0:0:
330,322,137314,1,2,0:0:0:0:
247,374,137481,2,0,P|202:344|197:252,1,146.999995513916,8|0,0:3|0:0,0:0:0:0:
182,244,137816,2,0,B|154:215|154:215|165:151,1,97.9999970092774,8|0,0:0|0:0,0:0:0:0:
265,91,138151,6,0,P|320:112|430:97,1,146.999995513916,4|0,0:0|0:0,0:0:0:0:
417,96,138486,2,0,B|454:64|454:64|520:91,1,97.9999970092774,8|2,0:0|0:0,0:0:0:0:
507,95,138738,1,8,0:0:0:0:
509,109,138822,1,8,0:3:0:0:
441,184,138989,1,8,0:0:0:0:
504,261,139157,2,0,P|502:315|474:364,1,97.9999970092774,8|0,0:0|0:0,0:0:0:0:
357,305,139492,6,0,L|192:330,1,146.999995513916,4|0,0:0|0:0,0:0:0:0:
197,319,139827,2,0,P|163:280|171:231,1,97.9999970092774,8|2,0:0|0:0,0:0:0:0:
181,231,140079,1,8,0:0:0:0:
194,226,140162,1,8,0:3:0:0:
100,172,140330,1,8,0:0:0:0:
186,87,140498,2,0,L|303:107,1,97.9999970092774,8|2,0:0|0:0,0:0:0:0:
371,3,140833,6,0,B|401:221,1,195.999994018555,4|8,0:0|0:0,0:0:0:0:
341,278,141336,1,2,0:0:0:0:
341,278,141419,1,8,0:0:0:0:
341,278,141503,1,8,0:3:0:0:
249,220,141671,1,2,0:0:0:0:
158,262,141838,2,0,B|143:207|143:207|170:157,1,97.9999970092774,8|2,0:0|0:0,0:0:0:0:
87,96,142174,5,8,0:3:0:0:
194,57,142341,1,2,0:0:0:0:
282,128,142509,2,0,L|309:25,1,97.9999970092774,8|2,0:0|0:0,0:0:0:0:
370,170,142844,1,8,0:3:0:0:
370,170,143012,1,8,0:0:0:0:
450,112,143179,2,0,B|472:151|472:151|458:221,1,97.9999970092774,8|0,0:0|0:0,0:0:0:0:
440,317,143514,6,0,P|394:279|284:294,1,146.999995513916,4|0,0:0|0:0,0:0:0:0:
301,290,143849,2,0,B|265:250|265:250|275:190,1,97.9999970092774,8|2,0:0|0:0,0:0:0:0:
269,191,144101,1,8,0:0:0:0:
265,176,144185,1,8,0:3:0:0:
331,95,144352,1,8,0:0:0:0:
249,26,144520,2,0,P|199:48|171:97,1,97.9999970092774,8|0,0:0|0:0,0:0:0:0:
31,153,144855,6,0,L|196:178,1,146.999995513916,4|0,0:0|0:0,0:0:0:0:
183,188,145190,2,0,B|168:245|168:245|193:284,1,97.9999970092774,8|2,0:0|0:0,0:0:0:0:
203,281,145442,1,8,0:0:0:0:
217,285,145526,1,8,0:3:0:0:
290,355,145693,1,8,0:0:0:0:
366,271,145861,2,0,L|351:171,1,97.9999970092774,8|0,0:0|0:0,0:0:0:0:
441,99,146196,6,0,L|339:78,1,97.9999970092774,8|8,0:0|0:3,0:0:0:0:
222,19,146531,2,0,L|324:-2,1,97.9999970092774,8|8,0:0|0:3,0:0:0:0:
213,113,146866,1,8,0:0:0:0:
213,113,147034,1,8,0:3:0:0:
112,98,147202,2,0,B|97:61|97:61|129:11,1,97.9999970092774,8|8,0:0|0:3,0:0:0:0:
34,140,147537,1,10,0:0:0:0:
34,140,147704,1,10,0:3:0:0:
105,211,147872,1,10,0:0:0:0:
105,211,148039,1,10,0:3:0:0:
19,283,148207,6,0,B|21:332|58:366|142:346,1,146.999995513916,10|0,0:0|0:0,0:0:0:0:
144,359,148542,2,0,P|168:307|221:314,1,97.9999970092774,10|0,0:0|0:0,0:0:0:0:
314,344,148878,6,0,B|336:300|336:300|377:292|377:292|362:256|362:256|385:205|385:205|363:173|363:173|385:125,1,262.500010013581,8|0,0:3|0:0,0:0:0:0:
369,119,149380,2,0,B|303:102|303:102|272:120|272:120|270:49|270:49|258:63|258:63|255:16|255:16|217:5,1,262.500010013581,6|0,0:0|0:0,0:0:0:0:
213,16,149883,2,0,B|191:60|191:60|150:68|150:68|165:104|165:104|142:155|142:155|164:187|164:187|148:221,1,262.500010013581,8|0,0:3|0:0,0:0:0:0:
158,239,150386,2,0,B|224:256|224:256|255:238|255:238|257:309|257:309|269:295|269:295|272:342|272:342|310:353,1,262.500010013581,6|0,0:0|0:0,0:0:0:0:
314,344,150889,6,0,B|338:310|338:310|419:298,1,105.000004005432,8|0,3:3|3:0,0:0:0:0:
483,202,151224,2,0,B|459:168|459:168|378:156,1,105.000004005432,8|0,0:0|0:0,0:0:0:0:
277,62,151559,6,0,B|165:82|165:82|145:71|145:71|134:88|134:88|156:99,1,178.499994552612,10|0,0:3|0:0,0:0:0:0:
