osu file format v14

[General]
AudioFilename: audio.mp3
AudioLeadIn: 0
PreviewTime: 28200
Countdown: 0
SampleSet: Soft
StackLeniency: 0.7
Mode: 0
LetterboxInBreaks: 0
WidescreenStoryboard: 1

[Editor]
Bookmarks: 4066,12111,14792,22837,25519,28200,30882,33563,36245,38926,41608,49653,52334,60379,63060,65742,68424,71105,73787,76468,79150,81831,84513,87195,89876,99597,111329,122055,127418,138144,146189,148871,151552
DistanceSpacing: 1.3
BeatDivisor: 2
GridSize: 16
TimelineZoom: 2

[Metadata]
Title:Free At Last
TitleUnicode:Free At Last
Artist:PUP
ArtistUnicode:PUP
Creator:Icekalt
Version:Easy
Source:
Tags:punk indie rock english Dave Schiffman morbid stuff
BeatmapID:2385271
BeatmapSetID:1133317

[Difficulty]
HPDrainRate:2
CircleSize:2.5
OverallDifficulty:2
ApproachRate:4
SliderMultiplier:0.699999999999999
SliderTickRate:1

[Events]
//Background and Video events
0,0,"abstract-1846847_1920.jpg",0,0
//Break Periods
2,112669,120742
//Storyboard Layer 0 (Background)
//Storyboard Layer 1 (Fail)
//Storyboard Layer 2 (Pass)
//Storyboard Layer 3 (Foreground)
//Storyboard Layer 4 (Overlay)
//Storyboard Sound Samples

[TimingPoints]
1392,335.195530726257,4,2,1,40,1,0
3570,-100,4,2,1,60,0,0
12118,-100,4,2,1,70,0,0
14799,-100,4,2,1,60,0,0
22844,-100,4,2,1,70,0,0
25526,-100,4,2,1,60,0,0
28207,-100,4,2,1,70,0,0
29045,-100,4,2,1,60,0,0
37593,-100,4,2,1,70,0,0
41615,-100,4,2,1,60,0,0
49660,-100,4,2,1,70,0,0
52341,-100,4,2,1,60,0,0
60386,-100,4,2,1,70,0,0
63067,-100,4,2,1,65,0,0
65749,-100,4,2,1,70,0,0
76475,-100,4,2,1,75,0,0
79157,-100,4,2,1,60,0,0
90218,-100,4,2,1,65,0,0
122062,-100,4,2,1,50,0,0
127425,-100,4,2,1,75,0,0
138151,-100,4,2,1,70,0,0
146196,-100,4,2,1,75,0,0
148878,-100,4,2,1,60,0,0

[Colours]
Combo1 : 255,108,108
Combo2 : 166,83,83

[HitObjects]
367,119,2062,6,0,P|420:98|448:179,2,140,2|2|2,0:0|0:0|0:0,0:0:0:0:
285,282,4073,6,0,L|127:303,1,140,4|8,0:0|0:3,0:0:0:0:
80,236,5079,1,8,0:0:0:0:
130,160,5414,2,0,L|138:64,1,69.9999999999999,8|8,0:3|0:0,0:0:0:0:
221,60,6084,2,0,L|235:120,1,35,2|12,0:0|0:0,0:0:0:0:
355,147,6755,6,0,P|408:201|397:290,1,140,4|8,0:0|0:3,0:0:0:0:
352,332,7760,1,8,0:0:0:0:
266,301,8095,2,0,L|180:321,1,69.9999999999999,8|12,0:3|0:0,0:0:0:0:
114,280,8766,2,0,L|65:294,2,35,8|8|8,0:3|0:0|0:0,0:0:0:0:
146,194,9436,1,4,0:0:0:0:
80,130,9771,6,0,P|80:82|102:42,1,69.9999999999999,8|8,0:0|0:3,0:0:0:0:
164,10,10442,2,0,L|254:19,1,69.9999999999999,8|8,0:0|0:3,0:0:0:0:
323,31,11112,1,8,0:0:0:0:
373,106,11447,2,0,L|440:115,1,35,2|12,0:0|0:0,0:0:0:0:
417,247,12118,6,0,L|333:261,1,69.9999999999999,8|8,0:0|0:0,0:0:0:0:
264,221,12788,2,0,L|179:210,1,69.9999999999999,8|8,0:0|0:0,0:0:0:0:
110,246,13459,1,8,0:0:0:0:
31,200,13794,1,8,0:0:0:0:
41,109,14129,2,0,L|29:67,2,35,8|8|8,0:3|0:0|0:0,0:0:0:0:
129,130,14799,6,0,L|287:151,1,140,4|8,0:0|0:3,0:0:0:0:
346,102,15805,1,8,0:0:0:0:
410,166,16140,2,0,P|413:197|404:235,1,69.9999999999999,8|8,0:3|0:0,0:0:0:0:
360,313,16810,2,0,L|374:373,2,35,2|12|2,0:0|0:0|0:0,0:0:0:0:
276,277,17481,6,0,P|203:262|132:214,1,140,8|8,0:3|0:3,0:0:0:0:
69,275,18486,1,8,0:0:0:0:
9,206,18821,2,0,L|-3:123,1,69.9999999999999,8|12,0:3|0:0,0:0:0:0:
33,52,19492,2,0,L|-17:43,2,35,8|8|8,0:3|0:0|0:0,0:0:0:0:
105,107,20162,1,4,0:0:0:0:
219,33,20665,6,0,P|255:13|298:11,2,69.9999999999999,2|0|2,0:0|0:0|0:0,0:0:0:0:
298,151,21838,1,8,0:0:0:0:
382,116,22174,2,0,L|392:57,2,35,2|12|2,0:0|0:0|0:0,0:0:0:0:
433,190,22844,6,0,L|448:285,1,69.9999999999999,8|8,0:0|0:0,0:0:0:0:
378,322,23514,2,0,L|296:293,1,69.9999999999999,8|8,0:0|0:0,0:0:0:0:
254,227,24185,1,8,0:0:0:0:
166,251,24520,1,8,0:0:0:0:
79,278,24855,2,0,L|87:319,2,35,8|8|8,0:3|0:0|0:0,0:0:0:0:
21,206,25526,6,0,B|44:152|44:152|152:131,1,140,4|8,0:0|0:3,0:0:0:0:
186,69,26532,1,8,0:0:0:0:
265,112,26867,2,0,P|270:146|255:177,1,69.9999999999999,8|8,0:3|0:0,0:0:0:0:
216,259,27537,2,0,L|176:269,2,35,8|8|8,0:3|0:0|0:0,0:0:0:0:
287,315,28207,5,4,0:0:0:0:
376,329,28542,1,8,0:3:0:0:
455,284,28878,2,0,B|463:223|435:229|445:160,1,105,8|0,0:0|0:0,0:0:0:0:
474,148,29548,1,4,0:0:0:0:
428,69,29883,1,8,0:0:0:0:
337,59,30218,2,0,P|273:79|228:119,1,105,8|2,0:0|0:0,0:0:0:0:
216,138,30889,5,4,0:0:0:0:
146,79,31224,2,0,P|73:93|65:164,1,140,8|8,0:0|0:0,0:0:0:0:
13,227,32229,1,8,0:3:0:0:
76,292,32565,1,8,0:0:0:0:
36,373,32900,2,0,L|-18:387,2,35,8|8|8,0:3|0:0|0:0,0:0:0:0:
126,380,33570,5,4,0:0:0:0:
211,349,33905,1,8,0:3:0:0:
267,277,34241,2,0,B|279:210|253:226|266:158,1,105,8|0,0:0|0:0,0:0:0:0:
294,139,34911,1,4,0:0:0:0:
370,187,35246,1,8,0:0:0:0:
456,159,35581,2,0,B|486:135|490:101|452:51,1,105,8|2,0:0|0:0,0:0:0:0:
424,39,36252,5,4,0:0:0:0:
343,81,36587,2,0,B|274:100|274:100|215:58,1,140,8|8,0:0|0:0,0:0:0:0:
172,139,37593,1,8,0:3:0:0:
83,159,37928,1,8,0:0:0:0:
45,242,38263,2,0,L|8:254,2,35,8|8|8,0:3|0:0|0:0,0:0:0:0:
120,294,38933,6,0,B|163:305|163:305|168:313|168:313|216:324|216:324|220:267|251:223|251:223|285:261|285:261|294:259|294:259|327:287|327:287|354:231|410:230|410:230|392:195|404:153,1,489.999999999999,8|8,0:3|3:3,0:0:0:0:
453,89,41615,1,4,0:0:0:0:
386,27,41950,6,0,L|314:51,1,69.9999999999999,8|8,0:0|0:3,0:0:0:0:
232,21,42621,1,8,0:0:0:0:
166,84,42956,2,0,P|160:167|207:231,1,140,8|2,0:3|0:0,0:0:0:0:
228,234,43794,1,12,0:0:0:0:
320,334,44297,6,0,L|484:316,1,140,4|8,0:0|0:3,0:0:0:0:
503,239,45302,1,8,0:0:0:0:
434,179,45637,2,0,L|350:183,1,69.9999999999999,8|12,0:3|0:0,0:0:0:0:
305,112,46308,2,0,L|323:69,2,35,8|8|8,0:3|0:0|0:0,0:0:0:0:
227,159,46978,5,4,0:0:0:0:
159,98,47313,2,0,P|78:107|48:170,1,140,8|8,0:0|0:0,0:0:0:0:
99,228,48319,1,8,0:3:0:0:
50,304,48654,1,8,0:0:0:0:
108,373,48989,2,0,L|175:382,1,35,2|12,0:0|0:0,0:0:0:0:
233,275,49660,6,0,L|317:261,1,69.9999999999999,8|8,0:0|0:0,0:0:0:0:
277,175,50330,2,0,L|192:164,1,69.9999999999999,8|8,0:0|0:0,0:0:0:0:
161,87,51001,1,8,0:0:0:0:
70,98,51336,1,8,0:0:0:0:
39,183,51671,2,0,L|-17:202,2,35,8|8|8,0:3|0:0|0:0,0:0:0:0:
91,257,52341,6,0,P|151:264|232:332,1,140,4|8,0:0|0:3,0:0:0:0:
285,367,53347,1,8,0:0:0:0:
361,317,53682,2,0,B|393:297|393:297|406:252,1,69.9999999999999,8|8,0:3|0:0,0:0:0:0:
468,203,54352,2,0,L|520:215,1,35,2|12,0:0|0:0,0:0:0:0:
425,97,55023,6,0,P|350:92|274:54,1,140,8|8,0:3|0:3,0:0:0:0:
228,132,56028,1,8,0:0:0:0:
140,107,56363,2,0,P|101:130|88:162,1,69.9999999999999,8|8,0:3|0:0,0:0:0:0:
41,228,57034,2,0,L|-7:241,2,35,8|12|8,0:3|0:0|0:0,0:0:0:0:
114,281,57704,1,4,0:0:0:0:
238,224,58207,6,0,L|253:148,2,69.9999999999999,2|2|2,0:0|0:0|0:0,0:0:0:0:
288,299,59213,1,2,0:0:0:0:
409,236,59716,2,0,L|460:245,1,35,8|12,0:3|0:0,0:0:0:0:
483,111,60386,6,0,L|395:93,1,69.9999999999999,8|8,0:0|0:0,0:0:0:0:
343,39,61056,2,0,L|255:57,1,69.9999999999999,8|8,0:0|0:0,0:0:0:0:
225,129,61727,1,8,0:0:0:0:
139,158,62062,1,8,0:0:0:0:
52,186,62397,2,0,L|39:150,2,35,8|8|8,0:3|0:0|0:0,0:0:0:0:
19,271,63067,6,0,B|42:325|42:325|150:346,1,140,4|8,0:0|0:3,0:0:0:0:
197,290,64073,1,8,0:0:0:0:
259,356,64408,2,0,L|350:372,1,69.9999999999999,8|8,0:3|0:0,0:0:0:0:
402,316,65078,2,0,L|430:345,2,35,8|8|8,0:3|0:0|0:0,0:0:0:0:
334,255,65748,5,4,0:0:0:0:
384,179,66083,1,8,0:3:0:0:
366,89,66419,2,0,P|328:60|265:89,1,105,8|0,0:0|0:0,0:0:0:0:
245,107,67089,1,4,0:0:0:0:
156,129,67424,1,8,0:0:0:0:
66,145,67760,2,0,B|37:179|37:179|56:246,1,105,8|2,0:0|0:0,0:0:0:0:
34,278,68430,5,4,0:0:0:0:
95,345,68765,2,0,P|168:331|176:260,1,140,8|8,0:0|0:0,0:0:0:0:
242,206,69770,1,8,0:3:0:0:
321,251,70106,1,8,0:0:0:0:
380,182,70441,2,0,L|434:196,2,35,8|8|8,0:3|0:0|0:0,0:0:0:0:
387,91,71111,5,4,0:0:0:0:
318,31,71446,1,8,0:3:0:0:
230,56,71782,2,0,B|163:68|179:42|111:55,1,105,8|0,0:0|0:0,0:0:0:0:
92,83,72452,1,4,0:0:0:0:
138,161,72787,1,8,0:0:0:0:
79,231,73123,2,0,B|67:284|100:315|142:309,1,105,8|2,0:0|0:0,0:0:0:0:
167,292,73793,5,4,0:0:0:0:
227,360,74128,2,0,B|296:379|296:379|355:337,1,140,8|8,0:0|0:0,0:0:0:0:
401,262,75134,1,8,0:3:0:0:
339,195,75469,1,8,0:0:0:0:
388,118,75805,2,0,L|430:104,2,35,8|2|2,0:3|3:2|3:2,0:0:0:0:
304,80,76475,6,0,L|286:-2,1,69.9999999999999,8|8,0:0|0:0,0:0:0:0:
200,33,77146,2,0,L|131:48,1,69.9999999999999,8|8,0:0|0:0,0:0:0:0:
145,137,77816,1,8,0:0:0:0:
167,225,78151,1,8,0:0:0:0:
144,312,78486,2,0,B|177:330|177:330|232:318,1,69.9999999999999,8|8,0:0|0:0,0:0:0:0:
279,266,79157,5,4,0:0:0:0:
337,335,79492,2,0,P|410:321|418:250,1,140,8|8,0:0|0:0,0:0:0:0:
372,189,80497,1,8,0:3:0:0:
442,131,80833,1,8,0:0:0:0:
399,50,81168,2,0,L|430:-3,2,35,8|8|8,0:3|0:0|0:0,0:0:0:0:
311,73,81838,5,4,0:0:0:0:
221,90,82173,1,8,0:3:0:0:
153,29,82509,2,0,B|96:7|98:49|34:30,1,105,8|0,0:0|0:0,0:0:0:0:
21,68,83179,1,4,0:0:0:0:
74,141,83514,1,8,0:0:0:0:
18,213,83850,2,0,B|3:268|3:268|36:319,1,105,8|2,0:0|0:0,0:0:0:0:
66,334,84520,5,4,0:0:0:0:
137,277,84855,2,0,B|215:258|272:322,1,140,8|8,0:0|0:0,0:0:0:0:
351,342,85861,1,8,0:3:0:0:
434,306,86196,1,8,0:0:0:0:
450,216,86531,2,0,L|492:202,2,35,8|8|8,0:3|0:0|0:0,0:0:0:0:
371,169,87202,6,0,B|357:135|357:135|359:124|359:124|335:72|335:72|286:104|224:83|224:83|240:126|240:126|236:137|236:137|250:171|250:171|206:216|225:266|225:266|183:255|142:283,1,489.999999999999,8|8,0:3|3:3,0:0:0:0:
96,341,89883,5,4,0:0:0:0:
36,272,90218,2,0,L|71:140,1,105,8|8,0:0|0:0,0:0:0:0:
58,124,90889,1,8,0:0:0:0:
134,75,91224,1,4,0:0:0:0:
210,123,91559,2,0,B|261:135|261:135|321:97,1,105,8|8,0:0|0:0,0:0:0:0:
315,62,92229,1,8,0:0:0:0:
395,19,92565,6,0,L|480:31,1,69.9999999999999,8|8,0:0|0:0,0:0:0:0:
497,113,93235,2,0,L|412:125,1,69.9999999999999,8|8,0:0|0:0,0:0:0:0:
360,184,93905,1,8,0:0:0:0:
275,150,94241,2,0,L|147:168,1,105,8|8,0:0|0:0,0:0:0:0:
142,200,94911,1,8,0:0:0:0:
92,275,95246,5,4,0:0:0:0:
151,343,95581,2,0,P|217:322|246:269,1,105,8|8,0:0|0:0,0:0:0:0:
277,317,96252,1,8,0:0:0:0:
344,255,96587,1,4,0:0:0:0:
395,179,96922,2,0,B|446:167|446:167|506:205,1,105,8|8,0:0|0:0,0:0:0:0:
503,238,97592,1,8,0:0:0:0:
456,316,97928,6,0,P|412:340|383:344,1,69.9999999999999,8|8,0:0|0:0,0:0:0:0:
325,281,98598,2,0,P|281:257|252:253,1,69.9999999999999,8|8,0:0|0:0,0:0:0:0:
179,291,99269,1,8,0:0:0:0:
92,261,99604,1,8,0:0:0:0:
57,176,99939,2,0,L|1:165,2,35,8|10|8,0:3|0:0|0:0,0:0:0:0:
123,114,100609,6,0,L|218:95,1,69.9999999999999,4|8,0:0|0:0,0:0:0:0:
282,109,101280,2,0,L|296:55,2,35,8|2|8,0:3|0:0|0:0,0:0:0:0:
320,191,101950,2,0,L|415:210,1,69.9999999999999,4|8,0:0|0:0,0:0:0:0:
479,196,102621,2,0,L|493:250,2,35,8|2|8,0:3|0:0|0:0,0:0:0:0:
494,106,103291,1,8,0:3:0:0:
424,47,103626,6,0,L|433:0,2,35,8|2|8,0:0|0:0|0:3,0:0:0:0:
339,80,104297,1,8,0:0:0:0:
255,43,104632,2,0,B|191:39|171:125|230:227,1,210,8|8,0:3|0:0,0:0:0:0:
186,296,105973,6,0,B|239:343|239:343|335:322,1,140,4|8,0:0|0:3,0:0:0:0:
368,261,106978,1,8,0:0:0:0:
456,280,107313,2,0,L|463:127,1,140,4|8,0:0|0:3,0:0:0:0:
409,65,108319,1,8,0:0:0:0:
331,111,108654,6,0,B|286:111|286:111|264:89,1,69.9999999999999,8|8,0:0|0:0,0:0:0:0:
192,43,109324,2,0,B|147:43|147:43|125:65,1,69.9999999999999,8|8,0:0|0:0,0:0:0:0:
90,143,109995,1,8,0:0:0:0:
140,218,110330,1,8,0:0:0:0:
98,299,110665,2,0,L|14:320,2,69.9999999999999,8|8|4,0:0|0:3|0:0,0:0:0:0:
44,157,122062,6,0,L|203:173,1,140,4|8,0:0|0:3,0:0:0:0:
240,241,123067,1,8,0:0:0:0:
327,215,123403,2,0,P|360:165|320:77,2,140,8|8|8,0:3|0:3|0:3,0:0:0:0:
355,301,125079,1,8,0:0:0:0:
443,321,125414,2,0,P|480:288|485:249,1,69.9999999999999,8|8,0:3|0:0,0:0:0:0:
468,180,126084,1,8,0:3:0:0:
311,86,126755,6,0,L|269:49,2,35,10|10|10,0:0|0:0|0:0,0:0:0:0:
271,167,127425,2,0,L|188:178,1,69.9999999999999,10|8,0:0|0:0,0:0:0:0:
182,265,128095,2,0,L|270:315,1,69.9999999999999,8|8,0:0|0:0,0:0:0:0:
307,363,128766,1,10,0:0:0:0:
397,374,129101,1,8,0:0:0:0:
477,330,129436,1,8,0:0:0:0:
497,241,129771,1,8,0:0:0:0:
433,176,130107,6,0,L|353:174,1,69.9999999999999,10|8,0:0|0:0,0:0:0:0:
303,105,130777,2,0,L|223:103,1,69.9999999999999,8|8,0:0|0:0,0:0:0:0:
164,162,131447,1,10,0:0:0:0:
207,242,131783,1,10,0:0:0:0:
136,299,132118,2,0,L|95:294,2,35,10|10|10,0:0|0:3|0:0,0:0:0:0:
199,364,132788,6,0,L|297:346,1,69.9999999999999,10|8,0:0|0:0,0:0:0:0:
327,282,133459,2,0,L|395:294,1,69.9999999999999,8|8,0:0|0:0,0:0:0:0:
471,244,134129,1,10,0:0:0:0:
428,163,134464,1,8,0:0:0:0:
487,94,134799,1,8,0:0:0:0:
444,13,135134,1,0,0:0:0:0:
352,11,135470,6,0,P|315:26|289:57,1,69.9999999999999,10|8,0:0|0:0,0:0:0:0:
250,126,136140,2,0,P|287:141|313:172,1,69.9999999999999,8|8,0:0|0:0,0:0:0:0:
287,251,136810,1,4,0:0:0:0:
203,287,137146,1,8,0:3:0:0:
123,242,137481,2,0,P|124:214|134:182,2,35,8|2|8,0:3|0:0|0:0,0:0:0:0:
49,295,138151,6,0,P|19:268|5:215,1,69.9999999999999,4|8,0:0|0:0,0:0:0:0:
31,153,138822,2,0,P|14:138|-10:133,2,35,8|8|8,0:3|0:0|0:0,0:0:0:0:
112,112,139492,2,0,P|127:80|153:58,1,69.9999999999999,4|8,0:0|0:0,0:0:0:0:
244,68,140162,2,0,P|257:50|261:28,2,35,8|8|8,0:3|0:0|0:0,0:0:0:0:
292,145,140833,6,0,P|323:184|324:225,1,69.9999999999999,4|8,0:0|0:0,0:0:0:0:
282,282,141503,1,8,0:3:0:0:
325,362,141838,1,8,0:0:0:0:
402,314,142174,2,0,P|454:311|488:331,1,69.9999999999999,8|8,0:3|0:0,0:0:0:0:
508,235,142844,2,0,P|514:213|507:194,2,35,8|8|8,0:3|0:0|0:0,0:0:0:0:
419,215,143514,6,0,L|334:206,1,69.9999999999999,4|8,0:0|0:0,0:0:0:0:
301,130,144185,2,0,P|284:115|260:110,2,35,8|8|8,0:3|0:0|0:0,0:0:0:0:
244,201,144855,2,0,P|226:230|220:275,1,69.9999999999999,4|8,0:0|0:0,0:0:0:0:
149,323,145525,2,0,P|127:316|111:297,2,35,8|8|8,0:3|0:0|0:0,0:0:0:0:
232,359,146196,6,0,P|288:348|309:324,1,69.9999999999999,8|8,0:0|0:0,0:0:0:0:
386,327,146866,2,0,P|410:296|413:255,1,69.9999999999999,8|8,0:0|0:0,0:0:0:0:
349,202,147537,1,10,0:0:0:0:
393,122,147872,1,10,0:0:0:0:
355,39,148207,1,10,0:0:0:0:
265,21,148542,1,10,0:0:0:0:
200,85,148878,6,0,B|140:81|140:81|135:74|135:74|100:69|100:69|61:106|80:167|80:167|27:177|17:239|17:239|61:260|61:260|64:271|64:271|125:300,1,419.999999999999,8|8,0:3|3:3,0:0:0:0:
190,252,151224,1,8,0:0:0:0:
264,304,151559,6,0,B|311:313|422:287|488:160|415:33|415:33|369:67|369:67|346:12|346:12|305:46|305:46|283:0,1,594.999999999999,10|0,0:3|0:0,0:0:0:0:
