osu file format v14

[General]
AudioFilename: audio.mp3
AudioLeadIn: 0
PreviewTime: 104608
Countdown: 0
SampleSet: Normal
StackLeniency: 0.3
Mode: 0
LetterboxInBreaks: 0
WidescreenStoryboard: 1

[Editor]
Bookmarks: 12266,35321,52597,63640,72296,86697,103966,135646,147148,158702,170221,181707,198271,201167,209201,221648,232733,243814,265957,267111
DistanceSpacing: 1.3
BeatDivisor: 4
GridSize: 32
TimelineZoom: 2.4

[Metadata]
Title:Factories
TitleUnicode:Factories
Artist:PUP
ArtistUnicode:PUP
Creator:Melwoine
Version:Insane
Source:osu!
Tags:Featured Artist FA PUP Rock English Mappers Mappers' Guild
BeatmapID:2462293
BeatmapSetID:1171055

[Difficulty]
HPDrainRate:4.5
CircleSize:2.8
OverallDifficulty:7.9
ApproachRate:9
SliderMultiplier:1.6
SliderTickRate:1

[Events]
//Background and Video events
0,0,"57695600_p0_master1200.jpg",0,0
//Break Periods
2,12466,13141
2,63840,71696
2,135846,146548
2,158887,169621
2,205241,208601
//Storyboard Layer 0 (Background)
//Storyboard Layer 1 (Fail)
//Storyboard Layer 2 (Pass)
//Storyboard Layer 3 (Foreground)
//Storyboard Layer 4 (Overlay)
//Storyboard Sound Samples

[TimingPoints]
35,238.095238095238,5,1,1,75,1,0
35,-125,5,1,1,75,0,0
1225,240,6,1,1,75,1,0
3866,240,6,1,1,75,1,0
9386,240,6,1,1,75,1,0
12266,245.901639344263,6,1,1,75,1,0
13741,238.095238095238,6,1,1,60,1,0
14455,-166.666666666667,6,1,1,60,0,0
15169,240,6,1,1,60,1,0
15169,-166.666666666667,6,1,1,60,0,0
16609,238.095238095238,6,1,1,60,1,0
17323,-166.666666666667,6,1,1,60,0,0
18037,240,6,1,1,60,1,0
19117,-166.666666666667,6,1,1,60,0,0
19477,240.480961923848,6,1,1,60,1,0
20198,-133.333333333333,6,1,1,60,0,0
20919,240,6,1,1,60,1,0
21879,229.885057471264,6,1,1,60,1,0
21993,-125,6,1,1,60,0,0
22339,238.568588469185,6,1,1,60,1,0
22339,-133.333333333333,6,1,1,60,0,0
23054,245.398773006135,6,1,1,70,1,0
23054,-100,6,1,1,70,0,0
23790,240.963855421687,6,1,1,75,1,0
26681,237.154150197628,6,1,1,75,1,0
28103,240.963855421687,6,1,1,75,1,0
28825,247.93388429752,6,1,1,75,1,0
29568,239.043824701195,6,1,1,75,1,0
31002,-71.4285714285714,6,1,1,75,0,0
32436,240,6,1,1,75,1,0
32436,-66.6666666666667,6,1,1,75,0,0
33876,240.963855421687,6,1,1,75,1,0
34116,-66.6666666666667,6,1,1,75,0,0
35321,239.76023976024,6,1,1,55,1,0
35321,-181.818181818181,6,1,1,55,0,0
39636,240.963855421687,6,1,1,70,1,0
41081,-133.333333333333,6,1,1,55,0,0
44696,235.294117647059,6,1,1,55,1,0
44931,-100,6,1,1,75,0,0
45401,237.154150197629,6,1,1,75,1,0
46112,240.000000000001,6,1,1,75,1,0
46592,243.902439024391,6,1,1,75,1,0
46835,240.000000000001,6,1,1,75,1,0
49715,242.914979757086,6,1,1,75,1,0
50443,240.000000000001,6,1,1,75,1,0
51163,239.043824701196,6,1,1,75,1,0
52597,247.933884297521,6,1,1,75,1,0
52968,240.000000000001,6,1,1,75,1,0
54048,238.568588469186,6,1,1,75,1,0
55240,239.043824701196,6,1,1,75,1,0
58108,238.095238095239,6,1,1,75,1,0
59536,244.897959183674,6,1,1,75,1,0
60760,240.000000000001,6,1,1,75,1,0
63640,-100,6,1,1,50,0,0
65080,238.095238095239,6,1,1,50,1,0
65794,240.000000000001,6,1,1,50,1,0
66514,239.043824701196,6,1,1,50,1,0
67948,241.610738579343,6,1,1,50,1,0
72296,237.154150197628,6,1,1,75,1,0
72296,-133.333333333333,6,1,1,75,0,0
73007,240,6,1,1,75,1,0
73007,-133.333333333333,6,1,1,75,0,0
73727,240,6,1,1,75,1,0
75167,238.568588469184,6,1,1,75,1,0
78029,239.999999999999,6,1,1,75,1,0
79469,242.424242424242,6,1,1,75,1,0
80923,240,6,1,1,75,1,0
83803,236.686390532545,6,1,1,80,1,0
83803,-66.6666666666667,6,1,1,80,0,0
84513,238.095238095239,6,1,1,80,1,0
84513,-66.6666666666667,6,1,1,80,0,0
85227,245.148110316651,6,1,1,80,1,0
85472,-66.6666666666667,6,1,1,80,0,0
85962,-100,6,1,1,80,0,0
86697,238.095238095239,6,1,1,55,1,0
86697,-181.818181818181,6,1,1,55,0,0
88125,240.000000000001,6,1,1,55,1,0
88125,-133.333333333333,6,1,1,75,0,0
91005,-100,6,1,1,70,0,0
92445,241.935483870969,6,1,1,55,1,0
92445,-133.333333333333,6,1,1,55,0,0
93170,240.000000000001,6,1,1,55,1,0
93890,239.520958083833,6,1,1,55,1,0
93890,-133.333333333333,6,1,1,55,0,0
95327,238.095238095239,6,1,1,55,1,0
95327,-133.333333333333,6,1,1,55,0,0
96279,-133.333333333333,6,1,1,65,0,0
96755,240.000000000001,6,1,1,75,1,0
99635,239.043824701196,6,1,1,75,1,0
101069,241.448692152918,6,1,1,75,1,0
103966,231.660231660233,6,1,1,75,1,0
104197,235.29411764706,6,1,1,75,1,0
104667,247.933884297521,6,1,1,75,1,0
105410,240,6,1,1,80,1,0
106829,240,6,1,1,80,1,0
112109,241.935483870968,6,1,1,80,1,0
112229,-76.9230769230769,6,1,1,75,0,0
112592,240,6,1,1,75,1,0
112592,-76.9230769230769,6,1,1,75,0,0
113312,241.935483870968,6,1,1,75,1,0
113312,-76.9230769230769,6,1,1,75,0,0
113553,-100,6,1,1,75,0,0
114037,241.448692152918,6,1,1,75,1,0
115485,240,6,1,1,75,1,0
115485,-66.6666666666667,6,1,1,75,0,0
116205,-100,6,1,1,75,0,0
121245,241.935483870968,6,1,1,75,1,0
121245,-76.9230769230769,6,1,1,75,0,0
122696,240,6,1,1,75,1,0
123416,238.095238095238,6,1,1,75,1,0
124130,240,6,1,1,75,1,0
124130,-76.9230769230769,6,1,1,75,0,0
125570,236.220472440945,6,1,1,75,1,0
126278,237.154150197628,6,1,1,75,1,0
126989,238.568588469184,6,1,1,75,1,0
127704,240,6,1,1,75,1,0
128424,242.914979757085,6,1,1,75,1,0
128666,-76.9230769230769,6,1,1,75,0,0
129881,239.520958083832,6,1,1,75,1,0
132036,243.40770791075,6,1,1,75,1,0
132036,-83.3333333333333,6,1,1,75,0,0
132766,-100,6,1,1,75,0,0
133496,240.963855421686,6,1,1,75,1,0
134941,235.294117647058,6,1,1,75,1,0
135646,241.935483870968,6,1,1,75,1,0
136371,-100,6,1,1,60,0,0
138549,236.220472440945,6,1,1,60,1,0
139966,240,6,1,1,60,1,0
144286,238.095238095238,6,1,1,60,1,0
145238,-100,6,1,1,75,0,0
145714,239.043824701195,6,1,1,75,1,0
147865,-66.6666666666667,6,1,1,80,0,0
150016,248.96265560166,6,1,1,80,1,0
150513,240,6,1,1,80,1,0
150753,-83.3333333333333,6,1,1,80,0,0
151473,240,6,1,1,80,1,0
151473,-66.6666666666667,6,1,1,80,0,0
152553,-100,6,1,1,80,0,0
152913,242.914979757085,6,1,1,80,1,0
153641,241.448692152918,6,1,1,80,1,0
153641,-66.6666666666667,6,1,1,80,0,0
154365,240,6,1,1,80,1,0
154365,-83.3333333333333,6,1,1,80,0,0
155805,239.043824701195,6,1,1,80,1,0
156761,-76.9230769230769,6,1,1,80,0,0
157239,243.90243902439,6,1,1,80,1,0
157239,-66.6666666666667,6,1,1,80,0,0
158687,240.240240240239,6,1,1,75,1,0
161570,236.220472440944,6,1,1,75,1,0
162278,244.897959183672,6,1,1,75,1,0
162522,239.999999999999,6,1,1,75,1,0
163002,239.999999999999,6,1,1,75,1,0
164442,239.043824701194,6,1,1,75,1,0
165876,239.999999999999,6,1,1,75,1,0
168036,-100,6,1,1,55,0,0
168996,-100,6,1,1,75,0,0
170221,235.294117647058,6,1,1,75,1,0
170926,233.690360272638,6,1,1,75,1,0
171628,239.043824701194,6,1,1,75,1,0
172106,254.237288135592,6,1,1,75,1,0
172360,239.999999999999,6,1,1,75,1,0
173080,231.884057971013,6,1,1,75,1,0
173777,239.043824701194,6,1,1,75,1,0
174494,258.620689655171,6,1,1,75,1,0
174753,239.043824701194,6,1,1,75,1,0
175231,239.043824701194,6,1,1,75,1,0
175948,239.999999999999,6,1,1,75,1,0
178828,-181.818181818181,6,1,1,55,0,0
180267,-100,6,1,1,65,0,0
181107,-100,6,1,1,75,0,0
181707,260.86956521739,6,1,1,75,1,0
181707,-76.9230769230769,6,1,1,75,0,0
182098,235.294117647058,6,1,1,75,1,0
182450,239.999999999999,6,1,1,75,1,0
183170,255.319148936169,6,1,1,75,1,0
183552,237.154150197628,6,1,1,75,1,0
183907,234.374999999999,6,1,1,75,1,0
184377,227.272727272727,6,1,1,75,1,0
184604,256.95931477516,6,1,1,75,1,0
184861,237.154150197628,6,1,1,75,1,0
185098,239.999999999999,6,1,1,75,1,0
185818,237.154150197628,6,1,1,75,1,0
187003,220.588235294117,6,1,1,75,1,0
187224,250.521920668057,6,1,1,75,1,0
187224,-76.9230769230769,6,1,1,75,0,0
187599,236.686390532543,6,1,1,75,1,0
187599,-100,6,1,1,75,0,0
187954,238.095238095237,6,1,1,75,1,0
188668,241.935483870967,6,1,1,75,1,0
189877,239.043824701194,6,1,1,75,1,0
192745,-76.9230769230769,6,1,1,75,0,0
193104,-100,6,1,1,75,0,0
194179,244.897959183672,6,1,1,75,1,0
195403,239.043824701194,6,1,1,75,1,0
197554,235.756385068761,6,1,1,75,1,0
198261,241.935483870967,6,1,1,75,1,0
199712,240.963855421686,6,1,1,75,1,0
201157,252.100840336132,6,1,1,75,1,0
201409,271.49321266968,6,1,1,75,1,0
201679,288.461538461534,6,1,1,70,1,0
201967,298.507462686563,6,1,1,70,1,0
202265,287.081339712915,6,1,1,70,1,0
202552,301.507537688438,6,1,1,70,1,0
202853,309.278350515459,6,1,1,65,1,0
203162,327.868852459011,6,1,1,65,1,0
203489,333.333333333328,6,1,1,60,1,0
203822,352.941176470582,6,1,1,60,1,0
204174,387.096774193541,6,1,1,55,1,0
204561,479.999999999989,6,1,1,55,1,0
209201,233.463035019452,6,1,1,75,1,0
210601,234.374999999997,6,1,1,75,1,0
212710,230.769230769228,6,1,1,75,1,0
214786,229.007633587783,6,1,1,75,1,0
216160,230.769230769227,6,1,1,75,1,0
219468,229.007633587783,6,1,1,75,1,0
220269,230.769230769227,6,1,1,75,1,0
220961,229.007633587783,6,1,1,75,1,0
221648,230.769230769227,6,1,1,75,1,0
224417,232.55813953488,6,1,1,75,1,0
225812,230.769230769227,6,1,1,75,1,0
227196,231.660231660228,6,1,1,75,1,0
228585,229.885057471261,6,1,1,75,1,0
229964,227.272727272724,6,1,1,75,1,0
231327,230.769230769227,6,1,1,75,1,0
232019,238.095238095234,6,1,1,75,1,0
232733,237.154150197625,6,1,1,75,1,0
232733,-83.3333333333333,6,1,1,75,0,0
233444,230.769230769227,6,1,1,75,1,0
233444,-83.3333333333333,6,1,1,75,0,0
234136,230.769230769227,6,1,1,75,1,0
234136,-83.3333333333333,6,1,1,75,0,0
238982,226.415094339619,6,1,1,75,1,0
238982,-83.3333333333333,6,1,1,75,0,0
239661,230.769230769227,6,1,1,75,1,0
240353,-83.3333333333333,6,1,1,75,0,0
241391,223.880597014922,6,1,1,75,1,0
241727,234.374999999996,6,1,1,75,1,0
242430,230.769230769227,6,1,1,75,1,0
243122,206.896551724135,6,1,1,75,1,0
243328,242.914979757081,6,1,1,75,1,0
243814,230.769230769227,6,1,1,75,1,0
243814,-76.9230769230769,6,1,1,75,0,0
244507,228.136882129274,6,1,1,75,1,0
244507,-76.9230769230769,6,1,1,75,0,0
245191,230.769230769227,6,1,1,75,1,0
245191,-76.9230769230769,6,1,1,75,0,0
246575,232.55813953488,6,1,1,75,1,0
246575,-76.9230769230769,6,1,1,75,0,0
249365,219.780219780217,6,1,1,75,1,0
249365,-76.9230769230769,6,1,1,75,0,0
249584,230.769230769227,6,1,1,75,1,0
249699,-76.9230769230769,6,1,1,75,0,0
250276,227.272727272724,6,1,1,75,1,0
250730,235.294117647055,6,1,1,75,1,0
250730,-76.9230769230769,6,1,1,75,0,0
251906,226.415094339619,6,1,1,75,1,0
252132,231.660231660228,6,1,1,75,1,0
252363,-76.9230769230769,6,1,1,75,0,0
253521,235.294117647054,6,1,1,75,1,0
253521,-76.9230769230769,6,1,1,75,0,0
254226,223.880597014921,6,1,1,75,1,0
254673,208.333333333329,6,1,1,75,1,0
254882,243.902439024385,6,1,1,80,1,0
254882,-71.4285714285714,6,1,1,80,0,0
255126,229.007633587782,6,1,1,80,1,0
255240,-71.4285714285714,6,1,1,80,0,0
256271,229.007633587782,6,1,1,80,1,0
256271,-71.4285714285714,6,1,1,80,0,0
257645,233.463035019451,6,1,1,80,1,0
257645,-71.4285714285714,6,1,1,80,0,0
259045,230.769230769227,6,1,1,80,1,0
259045,-71.4285714285714,6,1,1,80,0,0
261814,229.007633587783,6,1,1,80,1,0
261814,-71.4285714285714,6,1,1,80,0,0
263188,230.769230769227,6,1,1,80,1,0
263188,-71.4285714285714,6,1,1,80,0,0

[Colours]
Combo1 : 79,125,72
Combo2 : 46,103,137
Combo3 : 165,102,56

[HitObjects]
34,114,35,5,8,0:0:0:0:
124,88,154,2,0,P|137:116|147:163,2,64,0|4|4,0:0|0:3|0:3,0:0:0:0:
184,9,511,2,0,P|218:12|247:23,1,64,8|0,0:0|0:0,0:0:0:0:
295,128,749,1,8,0:0:0:0:
377,152,868,2,0,P|409:144|440:126,2,64,0|4|4,0:0|0:3|0:3,0:0:0:0:
320,230,1225,6,0,P|238:236|200:313,1,160,12|0,0:2|0:0,0:0:0:0:
70,275,1585,2,0,P|99:347|171:378,1,160,4|0,0:2|0:0,0:0:0:0:
266,367,1945,1,10,0:0:0:0:
233,133,2185,1,8,0:0:0:0:
0,200,2425,1,2,0:0:0:0:
274,165,2665,6,0,P|281:98|309:54,1,80,12|0,0:2|0:0,0:0:0:0:
381,23,2905,1,0,0:0:0:0:
381,23,3025,2,0,P|394:65|404:189,1,160,4|4,0:2|0:3,0:0:0:0:
428,302,3385,1,2,0:0:0:0:
308,375,3625,1,2,0:0:0:0:
158,192,3865,6,0,L|-3:233,2,160,8|8|8,0:0|0:2|0:2,0:0:0:0:
306,67,4586,1,8,0:0:0:0:
392,230,4826,1,8,0:2:0:0:
432,152,4946,2,0,P|440:116|326:3,1,160,8|8,0:2|0:2,0:0:0:0:
219,84,5306,6,0,P|187:92|130:97,1,80,10|0,0:0|0:0,0:0:0:0:
61,51,5545,1,2,0:0:0:0:
249,174,5785,1,0,0:0:0:0:
129,341,6025,6,0,P|120:313|107:250,1,80,2|0,0:0|0:0,0:0:0:0:
0,125,6265,1,8,0:2:0:0:
37,200,6386,2,0,P|154:232|251:283,1,160,8|8,0:2|0:2,0:0:0:0:
325,220,6745,6,0,P|296:329|300:388,1,160,12|0,0:2|0:0,0:0:0:0:
410,329,7105,2,0,P|428:222|367:114,1,160,4|0,0:2|0:0,0:0:0:0:
453,88,7465,6,0,L|468:-4,1,80,10|0,0:0|0:0,0:0:0:0:
340,115,7705,1,8,0:0:0:0:
512,220,7945,1,2,0:0:0:0:
301,21,8185,6,0,B|218:47|235:90|151:106,1,160,12|0,0:2|0:0,0:0:0:0:
80,157,8546,2,0,P|31:61|75:7,1,160,4|8,0:2|0:2,0:0:0:0:
143,11,8905,1,10,0:0:0:0:
176,119,9145,1,2,0:0:0:0:
345,202,9386,6,0,P|279:247|201:263,2,160,8|8|8,0:0|0:2|0:2,0:0:0:0:
444,265,10106,1,8,0:0:0:0:
473,13,10346,1,8,0:2:0:0:
436,94,10466,2,0,P|458:174|414:262,1,160,8|8,0:2|0:2,0:0:0:0:
295,334,10826,6,0,P|332:353|399:354,1,80,6|0,0:2|0:0,0:0:0:0:
332,239,11066,5,0,0:0:0:0:
257,209,11186,1,0,0:0:0:0:
219,147,11306,1,0,0:0:0:0:
228,87,11426,1,8,0:2:0:0:
265,40,11546,1,8,0:2:0:0:
309,31,11666,5,8,0:2:0:0:
277,65,11786,1,4,0:3:0:0:
274,96,11906,1,4,0:3:0:0:
279,116,12026,1,4,0:3:0:0:
289,131,12146,1,4,0:3:0:0:
298,135,12266,1,4,0:2:0:0:
178,357,13741,5,2,0:2:0:0:
267,326,13979,1,2,0:2:0:0:
356,292,14217,1,2,0:2:0:0:
94,336,14455,2,0,L|0:319,2,95.9999970703126,4|2|2,0:3|0:2|0:2,0:0:0:0:
272,192,15169,6,0,P|262:103|179:18,1,191.999994140625,2|0,0:0|0:0,0:0:0:0:
124,96,15889,1,4,0:3:0:0:
337,22,16129,1,2,0:2:0:0:
337,22,16249,2,0,P|362:62|380:125,1,95.9999970703126
437,207,16609,6,0,P|489:125|478:16,1,160,2|0,0:0|0:0,0:0:0:0:
488,289,17085,1,8,0:2:0:0:
237,312,17323,2,0,P|296:308|361:300,1,95.9999970703126,10|0,0:0|0:0,0:0:0:0:
127,347,17799,1,8,0:2:0:0:
127,347,17918,1,8,0:2:0:0:
127,347,18037,5,2,0:0:0:0:
238,155,18397,1,2,0:0:0:0:
0,378,18757,1,2,0:0:0:0:
206,62,19117,2,0,P|130:88|77:98,1,95.9999970703126,2|0,0:0|0:0,0:0:0:0:
19,93,19477,5,6,0:2:0:0:
212,272,19717,1,0,0:0:0:0:
212,272,19837,2,0,P|271:248|331:135,1,160
416,91,20198,2,0,P|433:66|457:48,1,60.0000022888184,6|0,0:3|0:0,0:0:0:0:
323,102,20438,2,0,P|331:137|370:179,1,60.0000022888184,2|0,0:2|0:0,0:0:0:0:
374,257,20679,1,2,0:2:0:0:
161,88,20919,6,0,B|346:33|296:213|495:170,1,320,2|0,0:0|0:0,0:0:0:0:
176,377,21639,1,0,0:0:0:0:
176,377,21759,2,0,P|174:330|162:283,1,80
207,210,21993,2,0,P|281:246|307:299,1,128
316,332,22339,6,0,L|441:319,1,120.000004577637,2|0,0:0|0:0,0:0:0:0:
496,229,22696,1,8,0:2:0:0:
496,229,22816,2,0,L|426:236,1,60.0000022888184,10|0,0:2|0:0,0:0:0:0:
313,163,23054,6,0,P|307:203|293:239,1,80,14|0,0:2|0:0,0:0:0:0:
73,242,23299,2,0,P|110:229|155:219,1,80,2|0,0:2|0:0,0:0:0:0:
218,294,23544,2,0,P|206:334|200:374,1,80,2|0,0:0|0:0,0:0:0:0:
142,114,23790,5,12,0:2:0:0:
358,66,24030,1,0,0:0:0:0:
358,66,24151,1,10,0:2:0:0:
35,17,24392,1,10,0:2:0:0:
35,17,24512,6,0,P|148:18|221:95,1,160,4|0,0:2|0:0,0:0:0:0:
240,133,24874,2,0,P|297:195|424:186,1,160,8|8,0:2|0:2,0:0:0:0:
470,263,25235,6,0,P|465:237|470:160,1,80,2|0,0:0|0:0,0:0:0:0:
372,24,25476,1,8,0:2:0:0:
372,24,25597,2,0,P|373:63|382:113,1,80,10|0,0:2|0:0,0:0:0:0:
389,314,25838,1,0,0:0:0:0:
389,314,25958,1,10,0:0:0:0:
95,152,26199,1,10,0:2:0:0:
235,374,26440,1,8,0:3:0:0:
235,374,26561,1,4,0:3:0:0:
235,374,26681,6,0,P|242:277|218:102,2,240,4|4|4,0:2|0:3|0:2,0:0:0:0:
8,179,27629,2,0,P|42:179|121:175,1,80,2|0,0:0|0:0,0:0:0:0:
159,7,27866,2,0,P|154:58|158:112,1,80,2|0,0:0|0:0,0:0:0:0:
232,182,28103,5,12,0:2:0:0:
399,62,28343,1,10,0:2:0:0:
399,62,28464,2,0,P|386:102|381:152,1,80,0|10,0:0|0:2,0:0:0:0:
440,242,28705,1,0,0:0:0:0:
503,182,28825,2,0,P|503:155|490:84,1,80,2|0,0:0|0:0,0:0:0:0:
307,17,29072,1,8,0:2:0:0:
307,17,29196,1,4,0:3:0:0:
145,368,29568,6,0,P|178:347|318:355,1,160,10|0,0:0|0:0,0:0:0:0:
245,187,29926,2,0,P|365:292|376:352,1,160,2|0,0:0|0:0,0:0:0:0:
468,204,30285,2,0,P|462:241|441:311,1,80,14|0,0:2|0:0,0:0:0:0:
276,374,30524,2,0,P|265:335|259:295,1,80,8|8,0:2|0:2,0:0:0:0:
244,175,30763,1,0,0:0:0:0:
244,175,30882,1,8,0:2:0:0:
244,175,31002,6,0,P|183:142|88:143,1,111.999996582031,14|0,0:2|0:0,0:0:0:0:
0,169,31241,2,0,P|55:70|207:57,1,223.999993164063,10|10,0:2|0:2,0:0:0:0:
316,15,31599,1,0,0:0:0:0:
316,15,31719,2,0,P|344:147|356:248,1,223.999993164063,6|0,0:2|0:0,0:0:0:0:
363,371,32077,2,0,P|374:314|380:227,1,111.999996582031,4|4,0:3|0:3,0:0:0:0:
466,180,32317,1,0,0:0:0:0:
466,180,32436,6,0,P|469:227|463:330,1,120.000004577637,12|0,0:0|0:0,0:0:0:0:
482,93,32676,1,8,0:2:0:0:
242,296,32916,6,0,P|238:248|247:143,1,120.000004577637,8|0,0:0|0:0,0:0:0:0:
226,383,33156,1,12,0:0:0:0:
16,95,33396,6,0,P|12:142|23:248,1,120.000004577637,8|2,0:0|0:0,0:0:0:0:
0,8,33636,1,8,0:0:0:0:
279,158,33876,6,0,P|239:156|199:151,1,80,10|0,0:2|0:0,0:0:0:0:
201,3,34116,2,0,P|245:15|306:119,1,120.000004577637,14|0,0:2|0:0,0:0:0:0:
403,135,34357,2,0,P|408:96|358:2,1,120.000004577637,10|0,0:0|0:0,0:0:0:0:
188,22,34598,1,4,0:2:0:0:
174,39,34839,1,0,0:0:0:0:
161,54,35080,1,4,0:3:0:0:
238,216,35321,6,0,L|535:241,1,264.000008056641,4|2,0:2|0:0,0:0:0:0:
52,367,36519,1,2,0:2:0:0:
161,153,36759,5,0,0:0:0:0:
70,254,36999,2,0,P|38:181|75:119,1,132.00000402832,2|0,0:0|0:0,0:0:0:0:
89,108,37478,2,0,P|113:58|90:-6,1,88.000002685547,2|2,0:2|0:2,0:0:0:0:
19,44,37958,1,0,0:0:0:0:
224,224,38198,6,0,P|308:171|335:82,1,176.000005371094,2|4,0:0|0:3,0:0:0:0:
288,77,38917,2,0,L|328:231,1,132.00000402832,10|0,0:2|0:0,0:0:0:0:
423,224,39396,1,0,0:0:0:0:
197,332,39636,6,0,B|373:274|353:391|557:361,1,320,6|10,0:2|0:2,0:0:0:0:
204,124,40358,1,8,0:2:0:0:
422,233,40599,1,0,0:2:0:0:
387,126,40840,1,2,0:2:0:0:
205,363,41081,6,0,P|233:290|249:210,2,120.000004577637,2|0|0,0:0|0:0|0:0,0:0:0:0:
79,124,41804,2,0,P|198:119|300:183,1,240.000009155274,10|2,0:0|0:2,0:0:0:0:
116,13,42527,6,0,P|193:11|253:-6,1,120.000004577637,0|2,0:0|0:2,0:0:0:0:
341,60,43009,1,2,0:2:0:0:
156,208,43250,2,0,P|117:157|36:118,1,120.000004577637,8|2,0:0|0:2,0:0:0:0:
88,270,43732,1,8,0:2:0:0:
331,333,43973,6,0,P|419:255|396:90,1,240.000009155274,2|0,0:0|0:0,0:0:0:0:
486,364,44696,1,8,0:0:0:0:
307,155,44931,1,2,0:0:0:0:
458,205,45166,6,0,P|425:158|370:119,1,80,2|0,0:0|0:0,0:0:0:0:
236,5,45401,2,0,P|254:46|250:135,1,80,14|0,0:0|0:0,0:0:0:0:
176,218,45638,1,2,0:2:0:0:
176,218,45756,1,2,0:0:0:0:
166,229,46112,6,0,P|157:186|150:121,1,80,10|0,0:0|0:0,0:0:0:0:
2,342,46352,2,0,P|6:304|10:221,1,80,10|0,0:2|0:0,0:0:0:0:
58,99,46592,2,0,P|61:159|54:225,1,80,8|0,0:2|0:0,0:0:0:0:
209,311,46835,5,6,0:2:0:0:
402,154,47075,1,2,0:2:0:0:
271,42,47315,1,2,0:2:0:0:
348,238,47555,6,0,P|340:274|336:328,1,80,8|0,0:2|0:0,0:0:0:0:
433,288,47795,1,2,0:2:0:0:
185,126,48035,1,2,0:2:0:0:
427,22,48275,6,0,P|437:54|445:125,1,80
339,91,48515,2,0,P|328:125|307:164,1,80
351,256,48755,1,0,0:0:0:0:
156,14,48995,6,0,L|-26:51,2,160,8|2|2,0:0|0:2|0:2,0:0:0:0:
271,22,49715,6,0,P|244:59|240:103,1,80,4|0,0:2|0:0,0:0:0:0:
131,205,49957,2,0,P|164:241|189:305,1,80,4|0,0:2|0:0,0:0:0:0:
161,357,50200,1,8,0:2:0:0:
126,118,50443,6,0,P|19:174|12:265,1,160,8|0,0:0|0:0,0:0:0:0:
59,312,50803,1,4,0:3:0:0:
142,287,50923,1,4,0:3:0:0:
162,242,51043,1,4,0:3:0:0:
151,205,51163,1,8,0:3:0:0:
126,208,51282,2,0,L|236:224,1,80,8|2,0:3|0:2,0:0:0:0:
313,274,51521,2,0,L|411:211,1,80,0|2,0:0|0:0,0:0:0:0:
504,240,51760,1,0,0:0:0:0:
504,240,51880,5,8,0:0:0:0:
504,240,52597,6,0,P|490:158|399:120,1,160,12|0,0:2|0:0,0:0:0:0:
306,180,52968,2,0,P|302:260|287:339,1,160,4|0,0:2|0:0,0:0:0:0:
180,351,53328,1,10,0:0:0:0:
251,105,53568,1,8,0:0:0:0:
31,48,53808,1,0,0:0:0:0:
39,132,53928,1,0,0:0:0:0:
120,152,54048,6,0,P|156:67|131:-2,1,160,12|0,0:2|0:0,0:0:0:0:
251,81,54405,2,0,L|405:46,1,80,4|0,0:2|0:2,0:2:0:0:
437,41,54644,1,0,0:0:0:0:
437,41,54763,1,10,0:0:0:0:
434,170,55002,1,2,0:0:0:0:
236,219,55240,6,0,P|222:331|243:405,2,160,8|8|8,0:0|0:2|0:2,0:0:0:0:
318,43,55957,1,8,0:0:0:0:
148,36,56196,1,8,0:2:0:0:
148,36,56315,1,8,0:2:0:0:
359,235,56554,1,8,0:2:0:0:
359,235,56674,6,0,P|475:172|502:108,2,160,10|2|2,0:0|0:0|0:2,0:0:0:0:
180,127,57391,2,0,P|70:149|50:171,1,80,8|0,0:0|0:0,0:0:0:0:
22,207,57630,1,8,0:2:0:0:
22,207,57749,2,0,P|39:285|33:372,1,160,8|0,0:2|0:0,0:0:0:0:
152,325,58108,6,0,P|183:304|224:134,1,160,12|0,0:2|0:0,0:0:0:0:
51,61,58465,2,0,P|135:181|161:192,1,160,4|0,0:2|0:0,0:0:0:0:
331,182,58822,2,0,P|318:149|298:70,1,80,10|0,0:0|0:0,0:0:0:0:
331,6,59060,1,8,0:0:0:0:
399,53,59179,1,0,0:0:0:0:
472,10,59298,1,2,0:0:0:0:
302,314,59536,6,0,P|431:354|466:426,1,160,12|0,0:2|0:0,0:0:0:0:
512,237,59903,2,0,P|472:247|385:238,1,80,4|0,0:2|0:0,0:0:0:0:
311,211,60148,1,0,0:0:0:0:
311,211,60270,1,2,0:0:0:0:
430,138,60515,1,2,0:0:0:0:
207,372,60760,6,0,P|195:283|184:141,2,160,8|8|8,0:0|0:2|0:2,0:0:0:0:
243,57,61480,1,8,0:0:0:0:
95,161,61720,1,8,0:2:0:0:
95,161,61840,1,8,0:2:0:0:
332,75,62080,1,8,0:2:0:0:
332,75,62200,2,0,P|356:126|360:194,1,80,10|0,0:0|0:0,0:0:0:0:
422,224,62440,2,0,P|453:221|510:194,1,80,2|0,0:0|0:0,0:0:0:0:
502,109,62680,1,2,0:2:0:0:
337,338,62920,6,0,L|207:320,1,80,8|0,0:0|0:0,0:0:0:0:
122,253,63160,1,8,0:0:0:0:
207,242,63280,2,0,P|188:144|113:43,1,160,8|0,0:2|0:0,0:0:0:0:
218,25,63640,5,2,0:0:0:0:
241,368,72296,6,0,P|223:346|203:225,1,120.000004577637,12|0,0:2|0:0,0:0:0:0:
257,198,72651,1,8,0:2:0:0:
0,101,73007,6,0,P|75:106|138:86,1,120.000004577637,12|0,0:2|0:0,0:0:0:0:
152,16,73367,1,8,0:2:0:0:
324,123,73607,1,0,0:0:0:0:
324,123,73727,6,0,P|366:127|409:128,1,80,14|0,0:2|0:0,0:0:0:0:
464,62,73967,1,8,0:0:0:0:
464,62,74087,1,8,0:0:0:0:
428,374,74447,6,0,P|432:343|440:267,1,80,14|0,0:2|0:0,0:0:0:0:
376,234,74687,1,8,0:0:0:0:
376,234,74807,1,8,0:0:0:0:
14,274,75167,6,0,P|116:254|203:292,1,160,10|0,0:0|0:0,0:0:0:0:
162,76,75644,1,10,0:2:0:0:
261,312,75882,2,0,P|217:305|131:281,1,80,10|0,0:0|0:0,0:0:0:0:
178,161,76121,2,0,P|217:169|257:175,1,80,10|0,0:2|0:0,0:0:0:0:
329,108,76359,1,2,0:2:0:0:
387,372,76598,6,0,P|404:332|395:256,1,80,10|0,0:0|0:0,0:0:0:0:
435,176,76836,2,0,P|457:222|521:266,1,80,10|0,0:2|0:0,0:0:0:0:
305,307,77075,1,2,0:2:0:0:
452,65,77314,6,0,P|302:41|238:107,1,240,10|2,0:0|0:0,0:0:0:0:
0,195,77910,1,0,0:0:0:0:
0,195,78029,2,0,P|6:152|116:107,1,160,10|8,0:0|0:2,0:0:0:0:
77,251,78389,1,2,0:0:0:0:
77,251,78509,2,0,L|113:375,1,80,0|8,0:0|0:2,0:0:0:0:
249,363,78749,2,0,P|277:329|439:326,1,160,10|10,0:0|0:2,0:0:0:0:
493,350,79109,1,0,0:0:0:0:
493,350,79229,1,2,0:2:0:0:
409,31,79469,6,0,P|358:34|306:73,1,80,10|0,0:0|0:0,0:0:0:0:
352,151,79711,2,0,P|403:148|455:109,1,80,10|0,0:2|0:0,0:0:0:0:
503,70,79953,1,2,0:2:0:0:
156,234,80196,2,0,P|81:153|102:68,1,160,10|0,0:0|0:0,0:0:0:0:
102,69,80559,1,2,0:0:0:0:
102,69,80681,1,0,0:0:0:0:
27,361,80923,6,0,L|141:325,1,80,12|0,0:2|0:0,0:0:0:0:
254,346,81163,1,0,0:0:0:0:
224,255,81283,2,0,L|144:244,1,80,8|0,0:0|0:0,0:0:0:0:
308,183,81523,1,10,0:2:0:0:
308,183,81643,2,0,L|301:67,1,80,10|0,0:0|0:0,0:0:0:0:
379,262,81883,2,0,L|359:365,1,80,2|8,0:0|0:0,0:0:0:0:
196,154,82123,2,0,L|116:143,1,80,2|0,0:0|0:0,0:0:0:0:
415,140,82363,6,0,P|404:104|395:32,1,80,10|0,0:0|0:0,0:0:0:0:
161,7,82603,1,2,0:0:0:0:
161,7,82723,2,0,L|300:22,1,80,8|2,0:0|0:0,0:0:0:0:
489,45,82963,1,0,0:0:0:0:
489,45,83083,1,10,0:0:0:0:
286,277,83323,2,0,P|258:241|233:159,1,80,2|8,0:0|0:2,0:0:0:0:
320,147,83563,2,0,L|399:136,1,80,2|0,0:0|0:0,0:0:0:0:
217,358,83803,6,0,P|185:353|105:252,1,120.000004577637,14|0,0:0|0:0,0:0:0:0:
29,279,84039,2,0,P|17:248|64:129,1,120.000004577637,10|0,0:0|0:0,0:0:0:0:
197,90,84276,2,0,P|155:47|98:31,1,120.000004577637,10|0,0:0|0:0,0:0:0:0:
6,163,84513,2,0,B|117:124|153:211|267:213,1,240.000009155274,10|8,0:0|0:0,0:0:0:0:
351,269,84870,1,2,0:0:0:0:
434,238,84989,2,0,P|449:155|424:93,1,120.000004577637,8|0,0:0|0:0,0:0:0:0:
329,305,85227,2,0,L|362:460,1,80,8|0,0:0|0:0,0:0:0:0:
220,194,85472,2,0,P|272:186|355:165,1,120.000004577637,10|0,0:0|0:0,0:0:0:0:
419,1,85717,2,0,P|360:15|301:24,1,120.000004577637,10|0,0:0|0:0,0:0:0:0:
123,166,85962,6,0,P|158:108|109:-22,2,160,12|2|2,0:0|0:0|0:2,0:0:0:0:
37,289,86697,6,0,L|166:303,1,88.000002685547,4|0,0:2|0:0,0:0:0:0:
211,308,87173,1,0,0:0:0:0:
341,68,87411,2,0,P|291:151|310:251,1,176.000005371094,8|2,0:2|0:0,0:2:0:0:
510,306,88125,6,0,P|449:210|399:194,1,120.000004577637,0|2,0:2|0:0,0:0:0:0:
430,111,88605,1,8,0:2:0:0:
314,379,88845,2,0,P|377:344|407:297,1,120.000004577637,10|0,0:0|0:0,0:0:0:0:
489,331,89325,1,4,0:2:0:0:
250,151,89565,6,0,P|200:258|69:302,1,240.000009155274,2|0,0:2|0:0,0:0:0:0:
114,84,90285,2,0,P|127:146|133:203,1,120.000004577637,10|0,0:0|0:0,0:0:0:0:
207,69,90765,1,0,0:0:0:0:
386,293,91005,6,0,B|422:210|361:109|437:18,1,240,6|0,0:2|0:0,0:0:0:0:
495,36,91485,1,2,0:2:0:0:
283,59,91725,2,0,L|117:36,1,160,10|8,0:2|0:2,0:0:0:0:
22,70,92205,1,8,0:2:0:0:
267,204,92445,6,0,P|246:275|252:377,2,120.000004577637,4|2|0,0:2|0:0|0:0,0:0:0:0:
203,138,93170,1,8,0:0:0:0:
136,209,93410,1,0,0:0:0:0:
347,142,93650,1,2,0:2:0:0:
136,300,93890,6,0,P|72:295|-10:275,1,120.000004577637,2|0,0:2|0:0,0:0:0:0:
190,370,94369,1,2,0:2:0:0:
192,145,94608,2,0,P|171:56|116:-10,1,120.000004577637,8|2,0:0|0:2,0:0:0:0:
76,113,95087,1,2,0:0:0:0:
276,236,95327,6,0,B|378:192|375:71|508:124,1,240.000009155274,2|0,0:2|0:0,0:0:0:0:
429,228,96041,2,0,P|417:169|496:115,1,120.000004577637,8|2,0:0|0:0,0:0:0:0:
312,23,96517,1,2,0:0:0:0:
486,319,96755,6,0,P|459:350|358:381,1,80,14|0,0:0|0:0,0:0:0:0:
298,334,96995,1,2,0:2:0:0:
298,334,97115,1,2,0:0:0:0:
17,56,97475,6,0,P|52:77|133:87,1,80,4|0,0:2|0:0,0:0:0:0:
189,158,97715,2,0,P|222:151|280:116,1,80,10|0,0:0|0:0,0:0:0:0:
275,41,97955,1,8,0:2:0:0:
88,215,98195,6,0,P|79:294|80:391,1,160,4|10,0:2|0:2,0:0:0:0:
21,159,98675,1,2,0:2:0:0:
193,283,98915,2,0,P|227:292|312:273,1,80,8|0,0:0|0:0,0:0:0:0:
357,316,99155,1,10,0:2:0:0:
251,51,99395,2,0,P|256:100|264:137,1,80,2|0,0:2|0:0,0:0:0:0:
405,179,99635,2,0,P|361:191|285:199,1,80
170,158,99874,1,0,0:0:0:0:
389,78,100113,1,0,0:0:0:0:
437,296,100352,6,0,P|431:335|418:373,1,80,10|0,0:0|0:0,0:0:0:0:
495,201,100591,2,0,P|455:205|416:202,1,80,2|0,0:0|0:0,0:0:0:0:
372,80,100830,2,0,P|363:46|368:-8,1,80,2|0,0:0|0:0,0:0:0:0:
490,34,101069,5,6,0:0:0:0:
233,190,101310,1,0,0:0:0:0:
60,8,101551,1,0,0:0:0:0:
227,206,101793,6,0,L|217:313,1,80,8|0,0:0|0:0,0:0:0:0:
37,150,102034,2,0,L|139:139,1,80,2|0,0:0|0:0,0:0:0:0:
241,295,102276,2,0,L|345:317,1,80,2|0,0:0|0:0,0:0:0:0:
98,218,102517,6,2,P|130:290|136:370,1,160,2|0,0:0|0:0,0:0:0:0:
194,94,103000,1,2,0:2:0:0:
34,291,103242,6,0,P|29:334|17:382,1,80,10|0,0:0|0:0,0:0:0:0:
0,216,103483,1,2,0:0:0:0:
152,182,103724,1,2,0:2:0:0:
319,306,103966,5,6,0:2:0:0:
377,34,104197,1,6,0:0:0:0:
357,20,104667,6,0,P|346:58|344:98,1,80,14|0,0:2|0:0,0:0:0:0:
451,247,104914,1,8,0:0:0:0:
463,262,105410,6,0,P|419:273|328:266,1,80,12|0,0:2|0:0,0:0:0:0:
225,135,105650,1,8,0:0:0:0:
225,124,106130,6,0,P|252:168|270:229,1,80,12|0,0:2|0:0,0:0:0:0:
203,349,106370,1,8,0:0:0:0:
216,336,106829,6,0,P|265:344|320:373,1,80,14|0,0:2|0:0,0:0:0:0:
488,310,107069,1,8,0:0:0:0:
473,295,107549,6,0,P|440:318|404:336,1,80,12|0,0:2|0:0,0:0:0:0:
121,247,107789,1,8,0:0:0:0:
123,264,108269,6,0,P|161:255|197:237,1,80,12|0,0:2|0:0,0:0:0:0:
323,53,108509,1,8,0:0:0:0:
335,68,108989,6,0,L|332:147,1,80,12|0,0:2|0:0,0:0:0:0:
382,228,109229,1,10,0:2:0:0:
242,25,109469,1,10,0:0:0:0:
179,203,109709,6,0,P|128:202|43:166,1,80,12|0,0:2|0:0,0:0:0:0:
6,272,109949,1,0,0:0:0:0:
77,318,110069,1,8,0:0:0:0:
161,333,110189,1,8,0:0:0:0:
243,321,110309,1,8,0:0:0:0:
321,271,110429,6,0,P|382:340|458:380,1,160,4|8,0:2|0:2,0:0:0:0:
512,305,110789,1,8,0:2:0:0:
512,215,110909,1,8,0:0:0:0:
440,156,111029,1,8,0:0:0:0:
502,89,111149,6,0,P|504:66|509:-31,1,80,14|0,0:2|0:0,0:0:0:0:
300,89,111389,2,0,P|331:81|401:52,1,80,8|8,0:2|0:0,0:0:0:0:
149,11,111629,2,0,P|177:18|263:28,1,80,0|10,0:0|0:0,0:0:0:0:
289,119,111869,1,0,0:0:0:0:
289,119,111989,2,0,P|288:159|277:221,1,80,8|0,0:0|0:0,0:0:0:0:
97,232,112229,6,0,P|98:195|135:107,1,103.999995239258,10|0,0:0|0:0,0:0:0:0:
196,208,112471,1,2,0:0:0:0:
206,307,112592,2,0,L|-22:335,2,207.999990478516,8|10|0,0:0|0:2|0:0,0:0:0:0:
360,323,113192,1,8,0:2:0:0:
360,323,113312,2,0,P|408:328|497:315,1,103.999995239258,10|0,0:0|0:0,0:0:0:0:
474,166,113553,6,0,P|337:211|293:274,1,160,4|0,0:2|0:0,0:0:0:0:
205,379,113916,1,8,0:2:0:0:
205,379,114037,2,0,P|132:310|110:238,1,160,6|4,0:0|0:3,0:0:0:0:
127,146,114399,1,12,0:3:0:0:
127,146,114519,1,0,0:0:0:0:
6,345,114761,2,0,P|68:258|158:220,1,160,14|0,0:2|0:0,0:0:0:0:
224,150,115123,1,8,0:2:0:0:
144,51,115244,2,0,P|136:97|121:158,1,80,8|0,0:0|0:0,0:0:0:0:
292,85,115485,6,0,L|463:66,1,120.000004577637,6|0,0:2|0:0,0:0:0:0:
512,213,115725,2,0,L|273:239,1,240.000009155274,4|0,0:2|0:0,0:0:0:0:
218,358,116085,1,8,0:2:0:0:
218,358,116205,2,0,P|270:361|366:324,1,80,2|0,0:0|0:0,0:0:0:0:
254,216,116445,6,0,P|163:267|72:289,1,160,6|0,0:0|0:0,0:0:0:0:
27,235,116805,1,10,0:0:0:0:
27,235,116925,2,0,L|36:128,1,80,6|0,0:0|0:0,0:0:0:0:
102,35,117165,2,0,L|111:142,1,80,2|0,0:0|0:0,0:0:0:0:
339,120,117405,2,0,L|488:88,1,80,2|0,0:0|0:0,0:0:0:0:
322,0,117645,6,0,P|265:1|222:86,1,160,6|0,0:0|0:0,0:0:0:0:
255,179,118005,1,8,0:0:0:0:
335,221,118125,1,8,0:0:0:0:
292,302,118245,1,8,0:2:0:0:
336,379,118365,6,0,P|368:354|397:282,1,80,4|0,0:2|0:0,0:0:0:0:
488,231,118605,2,0,P|453:159|440:80,1,160,12|8,0:2|0:2,0:0:0:0:
509,16,118965,1,8,0:2:0:0:
509,16,119085,5,10,0:0:0:0:
261,105,119325,6,0,P|250:184|230:262,1,160,6|0,0:0|0:0,0:0:0:0:
136,285,119685,1,8,0:0:0:0:
136,285,119805,2,0,P|102:323|103:366,1,80,10|0,0:0|0:0,0:0:0:0:
32,199,120045,1,8,0:2:0:0:
118,196,120165,2,0,P|147:165|154:104,1,80,8|0,0:0|0:0,0:0:0:0:
28,0,120405,1,8,0:2:0:0:
13,3,120525,6,0,P|24:63|35:164,1,160,6|0,0:0|0:0,0:0:0:0:
35,295,120885,2,0,P|16:330|1:406,2,80,8|8|0,0:0|0:0|0:0,0:0:0:0:
230,228,121245,6,0,P|273:257|341:279,1,103.999995239258,6|0,0:0|0:0,0:0:0:0:
388,90,121486,2,0,P|371:144|374:199,1,103.999995239258,0|4,0:0|0:3,0:0:0:0:
442,372,121728,2,0,P|442:320|426:271,1,103.999995239258,2|0,0:0|0:0,0:0:0:0:
366,103,121970,2,0,L|470:118,1,103.999995239258,2|0,0:0|0:0,0:0:0:0:
291,5,122212,1,10,0:0:0:0:
202,20,122333,2,0,L|48:39,1,103.999995239258,8|10,0:0|0:0,0:0:0:0:
3,116,122575,5,0,0:0:0:0:
32,111,122696,1,6,0:2:0:0:
65,113,122816,1,0,0:0:0:0:
105,128,122936,1,0,0:0:0:0:
147,164,123056,1,10,0:0:0:0:
182,226,123176,1,10,0:0:0:0:
171,307,123296,1,8,0:0:0:0:
109,374,123416,5,10,0:0:0:0:
106,338,123535,1,10,0:0:0:0:
120,311,123654,2,0,L|261:339,1,80,8|10,0:0|0:0,0:0:0:0:
312,367,123892,2,0,L|390:351,1,80,2|0,0:0|0:0,0:0:0:0:
475,191,124130,6,0,B|359:201|388:287|217:251,1,207.999990478516,6|8,0:0|0:0,0:0:0:0:
266,112,124490,2,2,P|316:122|368:128,1,103.999995239258,2|0,0:0|0:0,0:0:0:0:
493,307,124730,1,0,0:0:0:0:
493,307,124850,2,0,P|488:261|494:176,1,103.999995239258,10|0,0:0|0:0,0:0:0:0:
484,0,125090,1,2,0:0:0:0:
470,86,125210,2,0,P|411:105|246:109,1,207.999990478516,2|0,0:0|0:0,0:0:0:0:
170,80,125570,6,0,L|175:0,1,80,8|0,0:0|0:0,0:0:0:0:
62,157,125806,2,0,L|67:236,1,80,8|0,0:2|0:0,0:0:0:0:
0,73,126042,2,0,L|111:61,1,80,8|0,0:2|0:0,0:0:0:0:
212,246,126278,2,0,P|129:337|39:345,1,160,10|0,0:0|0:0,0:0:0:0:
356,260,126633,2,0,P|248:227|149:238,1,160,8|2,0:0|0:0,0:0:0:0:
254,123,126989,6,0,L|265:35,1,80,2|0,0:0|0:0,0:0:0:0:
368,0,127227,2,0,L|377:79,1,80,10|10,0:0|0:0,0:0:0:0:
477,180,127466,2,0,L|486:259,1,80,2|10,0:0|0:0,0:0:0:0:
339,355,127704,1,10,0:0:0:0:
387,287,127824,1,2,0:0:0:0:
366,207,127944,1,0,0:0:0:0:
293,168,128064,1,2,0:0:0:0:
215,193,128184,1,2,0:0:0:0:
133,183,128304,1,2,0:0:0:0:
73,127,128424,6,0,P|67:92|115:-8,1,80,14|0,0:0|0:0,0:0:0:0:
163,261,128666,2,0,P|153:307|104:375,1,103.999995239258,6|0,0:0|0:0,0:0:0:0:
199,99,128909,2,0,P|259:118|316:162,1,103.999995239258,2|0,0:0|3:0,3:0:0:0:
412,276,129152,6,2,P|485:107|427:43,1,207.999990478516,10|0,0:0|0:0,0:0:0:0:
351,29,129517,2,0,P|378:76|400:166,2,103.999995239258,8|8|0,0:2|0:2|0:0,0:0:0:0:
191,108,129881,6,2,P|155:121|-6:163,1,160,10|0,0:0|0:0,0:0:0:0:
9,284,130240,2,0,P|45:271|206:229,1,160,2|0,0:0|0:0,0:0:0:0:
371,322,130599,6,0,P|362:284|349:244,1,80,10|0,0:0|0:0,0:0:0:0:
287,184,130839,1,2,0:0:0:0:
168,345,131078,1,2,0:0:0:0:
466,258,131318,6,0,P|441:107|402:82,1,160,14|0,0:2|0:0,0:0:0:0:
327,9,131677,1,2,0:0:0:0:
321,75,131797,1,0,0:0:0:0:
278,129,131916,1,8,0:2:0:0:
212,146,132036,6,0,P|128:134|57:32,1,191.999994140625,8|0,0:0|0:0,0:0:0:0:
0,259,132401,2,0,P|47:254|90:233,1,95.9999970703126,8|0,0:0|0:0,0:0:0:0:
252,248,132644,1,2,0:0:0:0:
252,248,132766,6,0,L|247:355,2,80,2|0|2,0:0|0:0|0:0,0:0:0:0:
370,182,133131,2,0,L|383:260,1,80,8|0,0:0|0:0,0:0:0:0:
453,362,133374,1,0,0:0:0:0:
453,362,133496,2,0,P|487:331|505:268,2,80,10|0|2,0:0|0:0|0:0,0:0:0:0:
280,347,133857,1,2,0:0:0:0:
413,88,134098,1,8,0:2:0:0:
413,88,134218,6,0,L|305:75,1,80,10|0,0:0|0:0,0:0:0:0:
113,87,134459,1,2,0:0:0:0:
180,143,134580,1,8,0:0:0:0:
250,193,134700,2,0,L|334:203,1,80,2|0,0:0|0:0,0:0:0:0:
200,62,134941,5,2,0:0:0:0:
63,170,135176,1,2,0:0:0:0:
75,288,135411,1,8,0:2:0:0:
140,342,135646,5,4,0:2:0:0:
27,303,147148,6,0,P|136:302|239:267,1,160,12|0,0:2|0:0,0:0:0:0:
101,135,147506,2,0,P|209:199|298:225,1,160,4|0,0:2|0:0,0:0:0:0:
430,377,147865,6,0,P|422:320|420:252,1,120.000004577637,14|0,0:2|0:0,0:0:0:0:
499,77,148104,2,0,P|442:95|383:107,1,120.000004577637,12|0,0:2|0:0,0:0:0:0:
217,49,148343,1,12,0:2:0:0:
448,283,148582,6,0,P|325:283|257:411,2,240.000009155274,10|8|8,0:0|0:2|0:2,0:0:0:0:
217,49,149299,2,0,L|238:233,1,120.000004577637,12|0,0:2|0:0,0:0:0:0:
149,305,149538,2,0,L|1:415,1,120.000004577637,6|0,0:2|0:0,0:0:0:0:
38,168,149777,2,0,L|188:224,1,120.000004577637,6|0,0:2|0:0,0:0:0:0:
378,382,150016,6,0,P|342:294|350:162,1,160,10|0,0:0|0:0,0:0:0:0:
477,53,150389,1,8,0:0:0:0:
419,118,150513,1,8,0:2:0:0:
331,133,150633,1,0,0:0:0:0:
241,123,150753,6,0,P|224:72|220:-1,1,95.9999970703126,2|0,0:0|0:0,0:0:0:0:
214,278,150993,2,0,P|265:261|338:257,1,95.9999970703126,10|8,0:2|0:0,0:0:0:0:
437,247,151233,2,0,P|453:292|460:340,1,95.9999970703126,2|0,0:0|0:0,0:0:0:0:
304,269,151473,6,0,P|249:265|138:228,1,120.000004577637,14|0,0:2|0:0,0:0:0:0:
35,259,151713,2,0,P|51:316|77:371,1,120.000004577637,12|0,0:2|0:0,0:0:0:0:
96,141,151953,2,0,P|103:81|124:25,1,120.000004577637,12|0,0:2|0:0,0:0:0:0:
336,61,152193,6,2,B|202:34|220:127|60:156,1,240.000009155274,10|0,0:0|0:0,0:0:0:0:
293,169,152553,2,0,P|380:208|459:316,1,160,8|8,0:2|0:2,0:0:0:0:
331,377,152913,2,0,P|321:339|306:302,1,80,8|0,0:0|0:0,0:0:0:0:
216,265,153155,5,8,0:2:0:0:
459,108,153398,1,0,0:0:0:0:
457,76,153641,6,0,P|394:69|327:36,1,120.000004577637,14|0,0:2|0:0,0:0:0:0:
202,116,153882,2,0,P|176:57|171:-16,1,120.000004577637,12|0,0:2|0:0,0:0:0:0:
332,162,154123,2,0,P|324:223|299:312,1,120.000004577637,12|0,0:2|0:0,0:0:0:0:
201,331,154365,6,2,P|301:318|435:335,1,191.999994140625,10|0,0:0|0:0,0:0:0:0:
474,374,154725,1,8,0:0:0:0:
131,173,154965,1,0,0:0:0:0:
131,173,155085,2,0,P|131:231|121:326,1,95.9999970703126,2|0,0:0|0:0,0:0:0:0:
58,88,155325,1,8,0:2:0:0:
58,88,155445,2,0,P|185:69|317:112,1,191.999994140625,8|0,0:0|0:0,0:0:0:0:
343,73,155805,6,0,L|350:200,1,80,10|4,0:0|0:3,0:0:0:0:
454,189,156044,2,0,L|449:109,1,80,0|4,0:0|0:3,0:0:0:0:
441,8,156283,1,0,0:0:0:0:
332,286,156522,2,0,P|285:304|210:323,1,80,12|0,0:3|0:0,0:0:0:0:
123,268,156761,6,0,P|121:338|130:377,1,103.999995239258,14|0,0:2|0:0,0:0:0:0:
24,165,157000,2,0,P|71:174|175:179,1,103.999995239258,12|0,0:2|0:0,0:0:0:0:
240,35,157239,6,0,B|148:-9|102:72|10:79,2,240.000009155274,12|2|2,0:2|0:0|0:0,0:0:0:0:
396,369,157970,2,0,P|383:320|401:212,1,120.000004577637,10|0,0:0|0:0,0:0:0:0:
432,84,158214,1,2,0:0:0:0:
474,165,158336,1,0,0:0:0:0:
405,225,158458,2,0,P|285:206|226:176,1,120.000004577637,2|0,0:0|0:0,0:0:0:0:
230,14,158687,5,6,0:0:0:0:
278,364,170221,6,0,P|281:329|280:262,1,80,12|0,0:2|0:0,0:0:0:0:
379,252,170456,2,0,P|382:217|381:150,1,80,8|0,0:2|0:0,0:0:0:0:
324,100,170691,1,2,0:2:0:0:
97,244,170926,6,0,P|144:238|201:220,1,80,8|0,0:0|0:0,0:0:0:0:
189,145,171159,1,10,0:2:0:0:
151,362,171393,1,2,0:2:0:0:
0,82,171628,6,0,P|42:91|91:92,1,80
169,56,171867,1,0,0:0:0:0:
14,198,172106,1,0,0:0:0:0:
267,19,172360,6,0,P|276:69|317:142,1,80,10|0,0:0|0:0,0:0:0:0:
472,130,172600,2,0,P|432:125|394:113,1,80,10|0,0:2|0:0,0:0:0:0:
346,199,172840,2,0,P|383:215|454:213,1,80,2|0,0:2|0:0,0:0:0:0:
491,330,173080,5,10,0:0:0:0:
236,167,173311,1,2,0:0:0:0:
26,345,173543,1,2,0:0:0:0:
237,272,173777,2,0,P|201:179|176:86,1,160,10|0,0:0|0:0,0:0:0:0:
133,0,174135,1,8,0:2:0:0:
111,69,174255,1,8,0:2:0:0:
65,122,174374,1,0,0:0:0:0:
0,129,174494,1,4,0:3:0:0:
24,84,174623,1,4,0:3:0:0:
68,68,174753,1,6,0:3:0:0:
94,81,174872,1,4,0:3:0:0:
107,99,174992,6,0,L|89:215,1,80,6|0,0:3|0:0,0:0:0:0:
203,284,175231,2,0,P|332:264|421:243,1,160,10|0,0:0|0:0,0:0:0:0:
491,304,175589,1,4,0:3:0:0:
491,304,175709,2,0,L|455:419,1,80,6|0,0:3|0:0,0:0:0:0:
372,165,175948,6,0,L|490:184,1,80,8|0,0:0|0:0,0:0:0:0:
399,67,176188,2,0,L|293:98,1,80,10|0,0:2|0:0,0:0:0:0:
227,119,176428,1,2,0:2:0:0:
252,364,176668,6,0,P|259:330|277:229,1,80
255,200,176908,1,0,0:0:0:0:
54,174,177148,1,0,0:0:0:0:
229,96,177388,6,0,P|232:65|246:5,1,80,8|0,0:0|0:0,0:0:0:0:
340,0,177628,1,10,0:2:0:0:
130,106,177868,1,2,0:2:0:0:
346,282,178108,6,0,P|417:257|538:222,2,160,10|2|2,0:0|0:0|0:0,0:0:0:0:
236,369,178828,6,0,P|228:300|245:178,1,176.000005371094,4|0,0:0|0:0,0:0:0:0:
362,166,179547,2,0,P|329:126|292:-14,1,176.000005371094,8|2,0:0|0:2,0:0:0:0:
319,0,180267,5,8,0:2:0:0:
118,156,180507,1,2,0:2:0:0:
118,156,180627,1,10,0:2:0:0:
502,368,180987,5,8,0:0:0:0:
502,368,181107,2,2,P|491:248|276:140,1,320,2|0,0:0|0:0,0:0:0:0:
246,111,181707,6,0,P|258:189|232:315,1,207.999990478516,12|0,0:2|0:0,0:0:0:0:
158,264,182098,2,0,L|-15:287,1,160,4|0,0:2|0:0,0:0:0:0:
148,120,182450,2,0,L|267:142,1,80,10|0,0:0|0:0,0:0:0:0:
81,23,182690,2,0,L|2:37,1,80,8|0,0:0|0:0,0:0:0:0:
58,163,182930,1,2,0:0:0:0:
336,28,183170,6,0,P|421:92|437:197,1,160,12|0,0:2|0:0,0:0:0:0:
390,226,183552,2,0,P|391:308|408:333,1,80,4|0,0:2|0:0,0:0:0:0:
459,370,183789,1,8,0:2:0:0:
459,370,183907,1,2,0:0:0:0:
304,341,184141,1,2,0:0:0:0:
71,373,184377,5,8,0:0:0:0:
227,282,184604,1,8,0:2:0:0:
121,285,184860,1,8,0:2:0:0:
310,182,185098,5,8,0:0:0:0:
71,61,185338,1,8,0:2:0:0:
71,61,185458,2,0,P|42:140|51:236,1,160,8|8,0:2|0:2,0:0:0:0:
135,194,185818,6,0,P|174:188|266:163,1,80,10|0,0:0|0:0,0:0:0:0:
289,92,186055,1,2,0:0:0:0:
406,302,186292,1,8,0:2:0:0:
456,29,186529,6,0,P|425:115|343:159,1,160,2|8,0:0|0:2,0:0:0:0:
269,95,186885,1,8,0:0:0:0:
269,95,187003,1,2,0:2:0:0:
474,368,187224,6,0,P|368:301|257:294,1,207.999990478516,12|0,0:2|0:0,0:0:0:0:
203,357,187599,2,0,P|59:349|11:337,1,160,4|0,0:2|0:0,0:0:0:0:
108,190,187954,2,0,P|107:236|115:288,1,80,10|0,0:0|0:0,0:0:0:0:
241,120,188192,2,0,P|219:82|190:43,1,80,8|0,0:0|0:0,0:0:0:0:
45,5,188430,1,2,0:0:0:0:
323,216,188668,6,0,P|383:111|353:28,1,160,12|0,0:2|0:0,0:0:0:0:
506,133,189030,2,0,P|475:40|378:-10,1,160,4|0,0:2|0:0,0:0:0:0:
352,68,189393,2,0,P|369:110|365:179,1,80,2|0,0:0|0:0,0:0:0:0:
452,216,189635,1,2,0:0:0:0:
229,363,189877,5,8,0:0:0:0:
379,299,190116,1,8,0:2:0:0:
504,377,190355,1,8,0:2:0:0:
202,265,190594,5,8,0:0:0:0:
313,49,190833,1,8,0:2:0:0:
313,49,190952,2,0,P|305:146|284:227,1,160,8|8,0:2|0:2,0:0:0:0:
155,175,191311,6,0,P|28:245|17:295,1,160,10|8,0:0|0:2,0:0:0:0:
68,332,191669,1,0,0:0:0:0:
92,342,191789,1,0,0:0:0:0:
151,348,191908,1,8,0:2:0:0:
227,337,192028,1,8,0:0:0:0:
300,292,192147,1,8,0:0:0:0:
233,281,192267,1,4,0:3:0:0:
184,297,192386,1,4,0:3:0:0:
161,326,192506,1,4,0:3:0:0:
160,349,192626,1,4,0:3:0:0:
167,368,192745,6,0,P|199:250|264:142,1,207.999990478516,12|0,0:2|0:0,0:0:0:0:
335,17,193104,2,0,P|236:43|150:47,1,160,4|0,0:2|0:0,0:0:0:0:
250,190,193462,2,0,P|295:198|365:231,1,80,10|0,0:0|0:0,0:0:0:0:
512,251,193701,2,0,P|485:222|452:201,1,80,8|0,0:0|0:0,0:0:0:0:
441,109,193940,1,2,0:0:0:0:
308,382,194179,6,0,P|351:304|314:200,1,160,12|0,0:2|0:0,0:0:0:0:
250,190,194546,2,0,L|69:240,1,160,4|0,0:2|0:0,0:0:0:0:
0,214,194913,1,10,0:0:0:0:
211,320,195158,1,2,0:0:0:0:
271,67,195403,6,0,P|358:95|475:113,1,160,14|0,0:2|0:0,0:0:0:0:
335,227,195761,2,0,P|443:221|536:194,1,160,12|0,0:2|0:0,0:0:0:0:
446,317,196120,2,0,P|406:336|378:390,1,80,8|0,0:0|0:0,0:0:0:0:
294,374,196359,1,8,0:3:0:0:
25,157,196598,2,0,P|64:164|104:168,1,80,8|0,0:0|0:0,0:0:0:0:
209,183,196837,6,0,P|210:103|151:45,1,160,12|0,0:2|0:0,0:0:0:0:
118,158,197195,2,0,P|126:237|112:346,1,160,12|0,0:2|0:0,0:0:0:0:
23,349,197554,6,0,L|139:333,1,80,10|0,0:0|0:0,0:0:0:0:
216,273,197789,2,0,L|332:289,1,80,10|0,0:2|0:0,0:0:0:0:
417,299,198025,1,8,0:2:0:0:
366,37,198261,5,4,0:2:0:0:
348,209,198502,1,8,0:2:0:0:
499,134,198744,1,8,0:2:0:0:
331,372,198986,1,8,0:0:0:0:
417,299,199228,1,8,0:2:0:0:
374,197,199470,1,8,0:2:0:0:
155,21,199712,5,8,0:0:0:0:
132,171,199952,1,8,0:2:0:0:
273,252,200193,1,8,0:2:0:0:
315,19,200434,5,8,0:0:0:0:
238,159,200675,2,0,L|122:170,1,80,2|0,0:0|0:0,0:0:0:0:
12,105,200916,2,0,L|91:97,1,80,2|0,0:0|0:0,0:0:0:0:
175,269,201157,5,6,0:2:0:0:
4,374,201409,1,8,0:2:0:0:
258,309,201680,5,4,0:2:0:0:
439,373,201967,1,8,0:2:0:0:
434,266,202265,5,2,0:2:0:0:
350,319,202552,1,8,0:2:0:0:
405,64,202853,5,4,0:0:0:0:
496,193,203162,1,8,0:2:0:0:
268,277,203489,5,4,0:0:0:0:
338,183,203822,1,8,0:2:0:0:
239,77,204174,5,10,0:2:0:0:
231,175,204561,1,8,0:2:0:0:
320,14,205041,5,6,0:2:0:0:
254,191,209201,5,4,0:2:0:0:
259,212,209434,1,4,0:2:0:0:
264,233,209667,1,4,0:2:0:0:
269,254,209901,1,4,0:2:0:0:
274,275,210134,1,4,0:2:0:0:
279,296,210368,1,4,0:2:0:0:
265,89,210601,6,0,P|176:96|135:193,1,160,10|0,0:0|0:0,0:0:0:0:
84,219,210952,2,0,P|130:304|137:386,1,160,8|0,0:0|0:0,0:0:0:0:
0,367,211304,2,0,P|14:331|30:273,1,80,2|0,0:0|0:0,0:0:0:0:
42,129,211538,1,2,0:0:0:0:
301,208,211772,1,8,0:3:0:0:
152,13,212007,6,0,P|200:91|276:99,1,160,10|0,0:0|0:0,0:0:0:0:
348,67,212358,2,0,P|395:83|441:148,1,80,10|0,0:0|0:0,0:0:0:0:
437,189,212593,1,2,0:0:0:0:
437,189,212710,1,2,0:0:0:0:
485,3,212940,1,2,0:0:0:0:
416,215,213171,2,0,L|433:322,1,80,10|0,0:2|0:0,0:0:0:0:
485,366,213402,6,0,P|398:333|310:336,1,160,10|0,0:0|0:0,0:0:0:0:
202,290,213748,1,8,0:0:0:0:
341,98,213979,1,0,0:0:0:0:
341,98,214094,6,0,P|306:142|259:161,1,80,2|0,0:0|0:0,0:0:0:0:
204,75,214325,2,0,P|187:38|177:1,1,80,8|4,0:3|0:3,0:0:0:0:
294,4,214556,1,10,0:2:0:0:
159,184,214786,6,0,P|66:194|-19:258,1,160,10|0,0:0|0:0,0:0:0:0:
29,312,215129,2,0,P|61:316|114:343,1,80,10|0,0:0|0:0,0:0:0:0:
194,381,215358,1,0,0:0:0:0:
204,365,215473,1,10,0:0:0:0:
206,346,215587,1,4,0:3:0:0:
199,324,215702,2,0,L|295:310,1,80,10|0,0:3|0:0,0:0:0:0:
387,341,215931,2,0,P|394:304|380:234,1,80,10|0,0:2|0:0,0:0:0:0:
358,89,216160,6,0,P|297:181|331:258,1,160,10|0,0:0|0:0,0:0:0:0:
405,245,216506,2,0,L|495:243,1,80,10|0,0:0|0:0,0:0:0:0:
512,158,216736,1,2,0:0:0:0:
512,158,216852,1,10,0:0:0:0:
347,57,217083,1,10,0:0:0:0:
191,170,217313,1,2,0:0:0:0:
167,171,217429,1,0,0:0:0:0:
143,167,217544,6,0,P|141:83|200:18,1,160,10|0,0:0|0:0,0:0:0:0:
300,15,217890,1,0,0:0:0:0:
318,40,218006,1,8,0:2:0:0:
331,67,218121,1,0,0:0:0:0:
329,93,218236,2,0,P|333:138|346:201,1,80,10|0,0:0|0:0,0:0:0:0:
203,266,218467,2,0,P|152:277|75:274,1,80,10|0,0:0|0:0,0:0:0:0:
49,222,218698,1,2,0:0:0:0:
324,190,218929,6,0,P|399:222|419:297,1,160,10|0,0:0|0:0,0:0:0:0:
298,380,219275,1,8,0:0:0:0:
500,196,219468,1,4,0:3:0:0:
500,196,219582,2,0,P|482:149|474:63,1,80,8|0,0:0|0:0,0:0:0:0:
386,62,219811,2,0,P|414:28|447:-16,1,80,8|0,0:0|0:0,0:0:0:0:
512,41,220040,1,8,0:0:0:0:
180,127,220269,6,2,P|249:151|292:288,1,160,10|0,0:0|0:0,0:0:0:0:
234,43,220615,2,2,P|156:32|88:71,1,160,10|0,0:0|0:0,0:0:0:0:
52,228,220961,5,2,0:0:0:0:
189,266,221190,1,10,0:2:0:0:
0,104,221419,1,8,0:0:0:0:
125,360,221648,6,0,P|219:353|314:254,1,160,14|0,0:2|0:0,0:0:0:0:
423,305,221994,2,0,P|440:181|402:117,1,160,8|8,0:0|0:2,0:0:0:0:
398,68,222340,2,0,L|288:103,1,80,10|0,0:0|0:0,0:0:0:0:
211,203,222571,2,0,L|343:167,1,80,2|0,0:0|0:0,0:0:0:0:
184,23,222801,2,0,L|222:129,1,80,4|4,0:3|0:3,0:0:0:0:
125,280,223032,6,0,P|33:248|-6:138,1,160,10|0,0:0|0:0,0:0:0:0:
91,166,223378,2,0,P|95:72|91:-7,1,160,10|0,0:0|0:0,0:0:0:0:
0,15,223724,1,2,0:0:0:0:
186,125,223955,1,6,0:3:0:0:
376,59,224186,1,2,0:0:0:0:
236,229,224417,6,0,B|329:227|307:305|434:299,1,160,8|0,0:0|0:0,0:0:0:0:
489,243,224765,1,8,0:0:0:0:
453,200,224882,1,0,0:0:0:0:
392,194,224998,1,4,0:3:0:0:
347,155,225114,2,0,P|347:126|350:51,1,80,10|0,0:0|0:0,0:0:0:0:
182,153,225347,2,0,P|149:179|82:208,1,80,2|0,0:0|0:0,0:0:0:0:
76,303,225579,2,0,P|31:291|-18:273,1,80,2|0,0:0|0:0,0:0:0:0:
99,67,225812,6,0,P|64:148|104:238,2,160,2|2|2,0:0|0:0|0:0,0:0:0:0:
219,15,226388,1,4,0:3:0:0:
219,15,226504,2,0,P|248:122|248:163,1,80,10|0,0:0|0:0,0:0:0:0:
243,220,226735,1,8,0:0:0:0:
431,53,226965,1,8,0:0:0:0:
320,369,227196,6,0,P|365:282|339:174,1,160,12|0,0:2|0:0,0:0:0:0:
328,118,227543,2,0,P|423:147|514:152,1,160,8|0,0:0|0:0,0:0:0:0:
466,72,227890,2,0,P|440:45|414:-8,1,80,10|0,0:0|0:0,0:0:0:0:
309,116,228122,2,0,P|297:151|295:210,1,80,2|0,0:0|0:0,0:0:0:0:
189,274,228354,2,0,P|148:273|64:255,1,80,2|0,0:0|0:0,0:0:0:0:
110,51,228585,6,0,P|92:159|-16:194,1,160,10|0,0:0|0:0,0:0:0:0:
10,113,228929,1,8,0:0:0:0:
169,372,229159,1,0,0:0:0:0:
169,372,229274,2,0,P|185:325|197:246,1,80,8|8,0:0|0:2,0:0:0:0:
282,203,229504,2,0,P|295:243|314:281,1,80,10|0,0:0|0:0,0:0:0:0:
410,312,229734,1,10,0:0:0:0:
471,295,229849,1,0,0:0:0:0:
500,233,229964,6,0,P|476:97|377:2,1,240,6|0,0:3|0:0,0:0:0:0:
286,82,230418,1,4,0:3:0:0:
287,130,230532,1,4,0:3:0:0:
314,177,230645,2,0,P|395:108|421:5,1,160,10|0,0:0|0:0,0:0:0:0:
245,0,230986,2,0,P|210:8|141:5,1,80,4|0,0:3|0:0,0:0:0:0:
93,119,231213,1,8,0:2:0:0:
130,111,231327,5,10,0:0:0:0:
174,160,231442,1,0,0:0:0:0:
175,218,231557,1,4,0:3:0:0:
146,225,231673,1,4,0:3:0:0:
124,238,231788,1,4,0:3:0:0:
107,260,231903,1,4,0:3:0:0:
99,282,232019,5,8,0:0:0:0:
99,282,232733,6,0,B|207:283|199:343|332:317,1,191.999994140625,4|2,0:0|0:0,0:0:0:0:
398,352,233088,2,0,P|415:310|431:233,1,95.9999970703126,2|0,0:0|0:0,0:0:0:0:
366,66,233325,1,0,0:0:0:0:
320,142,233444,2,0,P|325:193|342:263,1,95.9999970703126,10|0,0:0|0:0,0:0:0:0:
512,154,233674,2,0,L|385:168,1,95.9999970703126,2|0,0:0|0:0,0:0:0:0:
299,11,233905,1,10,0:0:0:0:
221,230,234136,6,0,P|226:142|205:75,1,95.9999970703126,4|0,0:0|0:0,0:0:0:0:
145,54,234366,1,10,0:0:0:0:
56,46,234482,2,0,P|76:162|178:191,1,191.999994140625,2|0,0:0|0:0,0:0:0:0:
257,313,234828,2,0,P|227:352|121:394,1,95.9999970703126,10|0,0:0|0:0,0:0:0:0:
97,339,235059,1,2,0:0:0:0:
367,351,235289,2,0,P|364:303|358:256,1,95.9999970703126,10|0,0:0|0:0,0:0:0:0:
466,276,235520,6,0,P|431:154|331:123,1,191.999994140625,4|10,0:0|0:0,0:0:0:0:
289,18,235866,2,0,P|290:70|290:159,1,95.9999970703126,2|0,0:0|0:0,0:0:0:0:
219,186,236097,1,0,0:0:0:0:
219,186,236212,1,10,0:0:0:0:
423,23,236443,1,2,0:0:0:0:
201,209,236674,2,0,P|161:205|96:192,1,95.9999970703126,10|0,0:0|0:0,0:0:0:0:
38,113,236905,6,0,P|96:98|242:9,2,191.999994140625,2|2|2,0:2|0:2|0:2,0:0:0:0:
288,372,237597,6,2,P|221:242|222:140,1,191.999994140625,2|0,0:0|0:0,0:0:0:0:
357,122,237943,1,0,0:0:0:0:
357,122,238059,2,0,P|351:180|355:285,1,95.9999970703126,8|0,0:2|0:0,0:0:0:0:
473,324,238289,6,0,B|362:291|371:362|210:369,1,191.999994140625,4|10,0:0|0:0,0:0:0:0:
477,229,238635,1,2,0:0:0:0:
230,108,238866,1,0,0:0:0:0:
230,108,238982,2,0,P|257:66|277:17,1,95.9999970703126,10|0,0:0|0:0,0:0:0:0:
448,91,239208,2,0,P|399:109|306:132,1,95.9999970703126,2|0,0:0|0:0,0:0:0:0:
122,154,239434,2,0,P|123:118|117:11,1,95.9999970703126,10|0,0:0|0:0,0:0:0:0:
21,38,239661,5,4,0:0:0:0:
2,123,239776,1,4,0:3:0:0:
12,209,239891,1,10,0:0:0:0:
62,280,240007,6,0,L|246:245,1,160,2|0,0:0|0:0,0:0:0:0:
352,326,240353,1,10,0:0:0:0:
352,326,240468,2,0,P|336:277|331:200,1,95.9999970703126,0|2,0:0|0:0,0:0:0:0:
397,105,240699,1,0,0:0:0:0:
397,105,240814,2,0,L|498:127,1,95.9999970703126,10|0,0:0|0:0,0:0:0:0:
257,150,241045,6,0,P|350:205|465:195,1,191.999994140625,4|10,0:0|0:0,0:0:0:0:
301,38,241391,2,0,P|206:59|167:115,1,160,2|0,0:0|0:0,0:0:0:0:
191,267,241727,2,0,L|219:368,1,80,10|0,0:0|0:0,0:0:0:0:
25,261,241961,2,0,L|136:231,1,80,2|0,0:0|0:0,0:0:0:0:
267,190,242195,1,10,0:0:0:0:
411,372,242430,6,0,P|418:333|412:268,1,80,6|8,0:0|0:0,0:0:0:0:
355,148,242660,1,10,0:2:0:0:
425,193,242776,1,8,0:0:0:0:
506,177,242891,2,0,P|499:134|476:77,1,80,10|8,0:2|0:0,0:0:0:0:
310,65,243122,2,0,P|273:89|208:99,1,80,6|0,0:0|0:0,0:0:0:0:
122,94,243328,5,0,0:0:0:0:
99,92,243408,1,0,0:0:0:0:
72,83,243489,1,0,0:0:0:0:
57,73,243570,2,0,P|45:52|36:20,2,53.3333333333333,8|8|8,0:2|0:2|0:0,0:0:0:0:
61,166,243814,6,0,P|37:214|30:290,1,103.999995239258,2|0,0:0|0:0,0:0:0:0:
107,353,244044,1,8,0:0:0:0:
107,353,244160,2,0,P|160:346|351:361,1,207.999990478516,10|0,0:2|0:0,0:0:0:0:
383,231,244507,2,0,P|332:252|270:262,1,103.999995239258,14|0,0:2|0:0,0:0:0:0:
213,202,244734,1,0,0:0:0:0:
179,124,244848,1,8,0:2:0:0:
240,62,244963,2,0,L|351:80,1,103.999995239258,8|0,0:0|0:0,0:0:0:0:
494,173,245191,6,0,P|472:52|385:6,1,207.999990478516,12|8,0:2|0:0,0:0:0:0:
353,96,245537,2,0,P|370:141|376:202,1,103.999995239258,10|0,0:2|0:0,0:0:0:0:
238,299,245767,1,0,0:0:0:0:
238,299,245883,2,0,L|80:313,1,103.999995239258,10|0,0:0|0:0,0:0:0:0:
131,199,246114,2,0,L|-27:213,1,103.999995239258,2|0,0:0|0:0,0:0:0:0:
45,21,246344,2,0,P|90:67|123:145,1,103.999995239258,8|0,0:0|0:0,0:0:0:0:
157,215,246575,5,12,0:2:0:0:
237,189,246691,1,8,0:2:0:0:
271,110,246807,2,0,P|259:58|236:-11,2,103.999995239258,8|2|0,0:0|0:0|0:0,0:0:0:0:
329,209,247156,1,8,0:2:0:0:
329,209,247272,2,0,P|319:264|299:338,1,103.999995239258,10|0,0:0|0:0,0:0:0:0:
393,52,247505,2,0,P|420:100|452:170,1,103.999995239258,2|0,0:0|0:0,0:0:0:0:
512,293,247737,2,0,L|370:268,1,103.999995239258,10|0,0:0|0:0,0:0:0:0:
211,203,247970,6,2,P|179:98|235:-18,2,207.999990478516,10|10|0,0:0|0:0|0:0,0:0:0:0:
160,309,248551,1,8,0:2:0:0:
160,309,248668,2,0,P|106:326|4:346,1,103.999995239258,6|0,0:2|0:0,0:0:0:0:
266,351,248900,2,0,P|307:360|413:373,1,103.999995239258,0|8,0:0|0:2,0:0:0:0:
464,331,249133,1,8,0:0:0:0:
328,34,249365,6,0,P|333:105|320:169,1,103.999995239258,12|0,0:2|0:0,0:0:0:0:
115,227,249584,1,8,0:2:0:0:
132,146,249699,2,0,P|237:179|279:279,1,207.999990478516,2|8,0:0|0:2,0:0:0:0:
379,226,250045,2,0,P|417:188|428:135,1,103.999995239258,10|0,0:0|0:0,0:0:0:0:
404,0,250276,1,8,0:2:0:0:
487,25,250389,1,8,0:2:0:0:
510,107,250503,1,8,0:0:0:0:
249,41,250730,6,0,P|196:63|123:72,1,103.999995239258,6|0,0:2|0:0,0:0:0:0:
45,184,250965,1,8,0:0:0:0:
0,107,251082,2,0,P|5:64|43:-8,1,103.999995239258,8|2,0:2|0:2,0:0:0:0:
139,214,251318,1,8,0:2:0:0:
139,214,251435,2,0,P|129:268|94:355,1,103.999995239258,10|0,0:0|0:0,0:0:0:0:
232,276,251671,2,0,P|222:330|187:417,1,103.999995239258,0|8,0:0|0:2,0:0:0:0:
43,366,251906,1,8,0:0:0:0:
221,147,252132,5,12,0:2:0:0:
301,173,252247,1,0,0:0:0:0:
350,247,252363,2,0,P|399:256|483:265,2,103.999995239258,8|10|0,0:0|0:2|0:0,0:0:0:0:
370,114,252711,1,0,0:0:0:0:
370,114,252826,2,0,P|377:66|384:-13,1,103.999995239258,10|0,0:0|0:0,0:0:0:0:
173,33,253058,2,0,P|216:54|304:56,1,103.999995239258,8|0,0:2|0:0,0:0:0:0:
445,171,253290,1,8,0:0:0:0:
176,168,253521,6,2,P|184:276|182:394,2,207.999990478516,10|2|0,0:0|0:0|0:0,0:0:0:0:
23,90,254109,1,10,0:2:0:0:
23,90,254226,2,0,P|71:106|154:123,1,80,14|0,0:2|0:0,0:0:0:0:
333,177,254449,5,8,0:0:0:0:
249,143,254561,1,8,0:2:0:0:
169,177,254673,1,8,0:0:0:0:
132,258,254777,1,8,0:2:0:0:
43,277,254882,6,0,P|16:235|23:142,1,111.999996582031,10|0,0:0|0:0,0:0:0:0:
121,26,255126,1,10,0:0:0:0:
211,78,255240,2,0,P|258:76|336:70,1,111.999996582031,2|0,0:0|0:0,0:0:0:0:
446,146,255469,1,0,0:0:0:0:
446,146,255584,2,0,P|441:276|391:361,1,223.999993164063,10|2,0:0|0:0,0:0:0:0:
214,296,255927,1,0,0:0:0:0:
315,299,256042,2,0,P|366:289|425:243,1,111.999996582031,10|0,0:0|0:0,0:0:0:0:
398,22,256271,6,0,P|352:71|351:152,1,111.999996582031,4|0,0:0|0:0,0:0:0:0:
258,212,256500,1,8,0:0:0:0:
258,212,256614,2,0,P|215:175|157:82,1,111.999996582031,2|0,0:0|0:0,0:0:0:0:
230,8,256843,1,0,0:0:0:0:
230,8,256958,2,0,P|177:40|94:66,1,111.999996582031,10|0,0:0|0:0,0:0:0:0:
6,32,257187,2,0,L|18:215,1,111.999996582031,2|0,0:0|0:0,0:0:0:0:
0,284,257416,1,10,0:0:0:0:
219,221,257645,6,0,P|271:233|339:290,1,111.999996582031,4|0,0:0|0:0,0:0:0:0:
373,350,257878,1,8,0:0:0:0:
373,350,257995,2,0,P|460:345|506:212,1,223.999993164063,2|2,0:0|0:0,0:0:0:0:
512,111,258345,2,0,P|469:127|378:137,1,111.999996582031,10|0,0:0|0:0,0:0:0:0:
174,23,258578,2,0,B|288:-14|287:73|405:52,1,223.999993164063,2|2,0:0|0:0,0:0:0:0:
198,333,259045,6,0,P|205:277|203:184,1,111.999996582031,12|0,0:2|0:0,0:0:0:0:
0,186,259275,2,0,P|47:208|126:233,1,111.999996582031,12|0,0:2|0:0,0:0:0:0:
263,104,259506,2,0,P|195:132|110:139,1,111.999996582031,12|0,0:2|0:0,0:0:0:0:
72,60,259737,6,0,B|241:25|209:183|395:185,1,335.999989746094,12|8,0:0|0:2,0:0:0:0:
404,271,260198,2,0,P|417:343|374:416,1,111.999996582031,8|0,0:0|0:0,0:0:0:0:
488,168,260429,6,0,P|451:51|347:17,1,223.999993164063,4|8,0:0|0:0,0:0:0:0:
263,104,260775,2,0,P|274:172|274:254,1,111.999996582031,2|8,0:0|0:2,0:0:0:0:
210,316,261006,1,0,0:0:0:0:
210,316,261121,2,0,P|144:329|68:330,1,111.999996582031,10|0,0:0|0:0,0:0:0:0:
15,230,261352,2,0,P|62:237|133:239,1,111.999996582031,2|0,0:0|0:0,0:0:0:0:
153,140,261583,1,10,0:0:0:0:
315,381,261814,6,0,P|309:235|272:138,1,223.999993164063,4|8,0:0|0:0,0:0:0:0:
159,29,262157,2,0,P|106:61|47:88,1,111.999996582031,2|0,0:0|0:0,0:0:0:0:
258,71,262386,1,8,0:2:0:0:
258,71,262501,2,0,P|321:82|408:157,1,111.999996582031,10|0,0:0|0:0,0:0:0:0:
512,145,262730,2,0,P|490:93|453:51,1,111.999996582031,2|0,0:0|0:0,0:0:0:0:
355,0,262959,1,10,0:0:0:0:
167,279,263188,6,0,P|183:136|113:19,1,223.999993164063,4|8,0:0|0:0,0:0:0:0:
60,225,263534,2,0,P|55:297|63:357,1,111.999996582031,2|0,0:0|0:0,0:0:0:0:
252,329,263764,1,0,0:0:0:0:
252,329,263880,2,0,L|376:349,1,111.999996582031,10|0,0:0|0:0,0:0:0:0:
412,162,264111,2,0,P|353:214|347:313,1,111.999996582031,2|0,0:0|0:0,0:0:0:0:
455,384,264341,1,10,0:0:0:0:
431,61,264572,6,0,P|359:78|243:79,1,111.999996582031,4|0,0:2|0:0,0:0:0:0:
219,154,264803,2,0,P|147:137|31:136,1,111.999996582031,4|0,0:2|0:0,0:0:0:0:
248,30,265034,6,0,P|176:13|60:12,1,111.999996582031,4|0,0:2|0:0,0:0:0:0:
111,230,265265,2,0,P|39:247|-77:248,1,111.999996582031,12|0,0:0|0:0,0:0:0:0:
185,346,265495,5,8,0:2:0:0:
227,346,265572,1,8,0:2:0:0:
265,333,265649,1,8,0:2:0:0:
294,304,265726,2,8,L|316:212,3,74.6666643880209,8|8|8|14,0:0|0:0|0:0|0:0,0:0:0:0:
