osu file format v14

[General]
AudioFilename: audio.mp3
AudioLeadIn: 0
PreviewTime: 104608
Countdown: 0
SampleSet: Normal
StackLeniency: 0.2
Mode: 0
LetterboxInBreaks: 0
WidescreenStoryboard: 0

[Editor]
Bookmarks: 12266,13741,23790,35321,45401,46835,52597,63640,72296,75167,83803,85962,86697,96755,103966,109709,112350,135646,147148,158702,168036,168996,170221,178828,180987,181707,198271,201167,205041,209201,210601,232019,232733,243814,254897,265957
DistanceSpacing: 1.3
BeatDivisor: 4
GridSize: 32
TimelineZoom: 2.1

[Metadata]
Title:Factories
TitleUnicode:Factories
Artist:PUP
ArtistUnicode:PUP
Creator:Melwoine
Version:Broken Glass
Source:osu!
Tags:Featured Artist FA PUP Rock English Mappers Mappers' Guild
BeatmapID:2442834
BeatmapSetID:1171055

[Difficulty]
HPDrainRate:5
CircleSize:3
OverallDifficulty:8.7
ApproachRate:9.5
SliderMultiplier:2
SliderTickRate:1

[Events]
//Background and Video events
0,0,"57695600_p0_master1200.jpg",0,0
//Break Periods
2,159607,167511
//Storyboard Layer 0 (Background)
//Storyboard Layer 1 (Fail)
//Storyboard Layer 2 (Pass)
//Storyboard Layer 3 (Foreground)
//Storyboard Layer 4 (Overlay)
//Storyboard Sound Samples

[TimingPoints]
35,238.095238095238,5,1,1,75,1,0
1225,240,6,1,1,75,1,0
1225,-76.9230769230769,6,1,1,75,0,0
1585,-100,6,1,1,75,0,0
3385,-125,6,1,1,75,0,0
3866,240,6,1,1,75,1,0
6746,-76.9230769230769,6,1,1,75,0,0
7106,-100,6,1,1,75,0,0
8906,-125,6,1,1,75,0,0
9386,240,6,1,1,75,1,0
11786,-142.857142857143,6,1,1,75,0,0
12266,245.901639344263,6,1,1,75,1,0
12266,-142.857142857143,6,1,1,75,0,0
13741,238.095238095238,6,1,1,60,1,0
15169,240,6,1,1,60,1,0
15169,-142.857142857143,6,1,1,60,0,0
16609,238.095238095238,6,1,1,60,1,0
16609,-125,6,1,1,60,0,0
18037,240,6,1,1,60,1,0
18037,-125,6,1,1,60,0,0
19477,240.480961923848,6,1,1,60,1,0
20919,240,6,1,1,60,1,0
20919,-125,6,1,1,60,0,0
21879,229.885057471264,6,1,1,60,1,0
22339,238.568588469185,6,1,1,60,1,0
23054,245.398773006135,6,1,1,70,1,0
23054,-83.3333333333333,6,1,1,70,0,0
23790,240.963855421687,6,1,1,75,1,0
26681,237.154150197628,6,1,1,75,1,0
28103,240.963855421687,6,1,1,75,1,0
28825,247.93388429752,6,1,1,75,1,0
29568,239.043824701195,6,1,1,75,1,0
32436,240,6,1,1,75,1,0
32436,-83.3333333333333,6,1,1,75,0,0
33636,-100,6,1,1,75,0,0
33876,240.963855421687,6,1,1,75,1,0
34116,-83.3333333333333,6,1,1,75,0,0
34960,-125,6,1,1,75,0,0
35321,239.76023976024,6,1,1,55,1,0
36040,-125,6,1,1,55,0,0
39636,240.963855421687,6,1,1,70,1,0
41081,-125,6,1,1,55,0,0
44696,235.294117647059,6,1,1,55,1,0
44931,-100,6,1,1,75,0,0
45401,237.154150197629,6,1,1,75,1,0
45401,-76.9230769230769,6,1,1,75,0,0
46112,240.000000000001,6,1,1,75,1,0
46112,-76.9230769230769,6,1,1,75,0,0
46352,-100,6,1,1,75,0,0
46592,243.902439024391,6,1,1,75,1,0
46835,240.000000000001,6,1,1,75,1,0
49715,242.914979757086,6,1,1,75,1,0
50443,240.000000000001,6,1,1,75,1,0
51163,239.043824701196,6,1,1,75,1,0
52597,247.933884297521,6,1,1,75,1,0
52597,-76.9230769230769,6,1,1,75,0,0
52968,240.000000000001,6,1,1,75,1,0
54048,238.568588469186,6,1,1,75,1,0
55240,239.043824701196,6,1,1,75,1,0
58108,238.095238095239,6,1,1,75,1,0
58108,-76.9230769230769,6,1,1,75,0,0
58465,-100,6,1,1,75,0,0
59536,244.897959183674,6,1,1,75,1,0
60270,-125,6,1,1,75,0,0
60760,240.000000000001,6,1,1,75,1,0
63640,-100,6,1,1,50,0,0
65080,238.095238095239,6,1,1,50,1,0
65794,240.000000000001,6,1,1,50,1,0
66514,239.043824701196,6,1,1,50,1,0
67948,241.610738579343,6,1,1,50,1,0
72296,237.154150197628,6,1,1,75,1,0
72651,-142.857142857143,6,1,1,75,0,0
73007,240,6,1,1,75,1,0
73367,-142.857142857143,6,1,1,75,0,0
73727,240,6,1,1,75,1,0
75167,238.568588469184,6,1,1,75,1,0
75644,-100,6,1,1,75,0,0
78029,239.999999999999,6,1,1,75,1,0
79469,242.424242424242,6,1,1,75,1,0
80923,240,6,1,1,75,1,0
83803,236.686390532545,6,1,1,80,1,0
84513,238.095238095239,6,1,1,80,1,0
85227,245.148110316651,6,1,1,80,1,0
86697,238.095238095239,6,1,1,55,1,0
87411,-125,6,1,1,55,0,0
88125,240.000000000001,6,1,1,55,1,0
88125,-125,6,1,1,75,0,0
91005,-100,6,1,1,70,0,0
92445,241.935483870969,6,1,1,55,1,0
93170,240.000000000001,6,1,1,55,1,0
93890,239.520958083833,6,1,1,55,1,0
93890,-125,6,1,1,55,0,0
95327,238.095238095239,6,1,1,55,1,0
95327,-125,6,1,1,55,0,0
96279,-125,6,1,1,65,0,0
96517,-100,6,1,1,65,0,0
96755,240.000000000001,6,1,1,75,1,0
99635,239.043824701196,6,1,1,75,1,0
101069,241.448692152918,6,1,1,75,1,0
103966,231.660231660233,6,1,1,75,1,0
103966,-83.3333333333333,6,1,1,75,0,0
104197,235.29411764706,6,1,1,75,1,0
104197,-125,6,1,1,75,0,0
104667,247.933884297521,6,1,1,75,1,0
104667,-83.3333333333333,6,1,1,80,0,0
104914,-125,6,1,1,80,0,0
105410,240,6,1,1,80,1,0
105410,-83.3333333333333,6,1,1,80,0,0
105650,-125,6,1,1,80,0,0
106130,-83.3333333333333,6,1,1,80,0,0
106370,-125,6,1,1,80,0,0
106829,240,6,1,1,80,1,0
106829,-83.3333333333333,6,1,1,80,0,0
107069,-125,6,1,1,80,0,0
107549,-83.3333333333333,6,1,1,80,0,0
107789,-125,6,1,1,80,0,0
108269,-83.3333333333333,6,1,1,80,0,0
108509,-125,6,1,1,80,0,0
108989,-83.3333333333333,6,1,1,80,0,0
109229,-100,6,1,1,80,0,0
109709,-76.9230769230769,6,1,1,80,0,0
110429,-100,6,1,1,80,0,0
112109,241.935483870968,6,1,1,80,1,0
112229,-100,6,1,1,75,0,0
112592,240,6,1,1,75,1,0
113312,241.935483870968,6,1,1,75,1,0
113553,-83.3333333333333,6,1,1,75,0,0
114037,241.448692152918,6,1,1,75,1,0
115485,240,6,1,1,75,1,0
115485,-83.3333333333333,6,1,1,75,0,0
116445,-83.3333333333333,6,1,1,75,0,0
116925,-100,6,1,1,75,0,0
118365,-83.3333333333333,6,1,1,75,0,0
119085,-100,6,1,1,75,0,0
119325,-83.3333333333333,6,1,1,75,0,0
119805,-100,6,1,1,75,0,0
120525,-83.3333333333333,6,1,1,75,0,0
121005,-100,6,1,1,75,0,0
121245,241.935483870968,6,1,1,75,1,0
122696,240,6,1,1,75,1,0
122696,-71.4285714285714,6,1,1,75,0,0
123416,238.095238095238,6,1,1,75,1,0
123892,-90.9090909090909,6,1,1,75,0,0
124130,240,6,1,1,75,1,0
124130,-71.4285714285714,6,1,1,75,0,0
124490,-100,6,1,1,75,0,0
124850,-83.3333333333333,6,1,1,75,0,0
125210,-100,6,1,1,75,0,0
125570,236.220472440945,6,1,1,75,1,0
126278,237.154150197628,6,1,1,75,1,0
126989,238.568588469184,6,1,1,75,1,0
127704,240,6,1,1,75,1,0
128424,242.914979757085,6,1,1,75,1,0
129881,239.520958083832,6,1,1,75,1,0
132036,243.40770791075,6,1,1,75,1,0
133496,240.963855421686,6,1,1,75,1,0
134941,235.294117647058,6,1,1,75,1,0
135646,241.935483870968,6,1,1,75,1,0
135646,-166.666666666667,6,1,1,75,0,0
136371,-166.666666666667,6,1,1,60,0,0
138549,236.220472440945,6,1,1,60,1,0
139966,240,6,1,1,60,1,0
144166,-142.857142857143,6,1,1,60,0,0
144286,238.095238095238,6,1,1,60,1,0
144881,-142.857142857143,6,1,1,60,0,0
145238,-90.9090909090909,6,1,1,75,0,0
145714,239.043824701195,6,1,1,75,1,0
147148,-83.3333333333333,6,1,1,75,0,0
147865,-71.4285714285714,6,1,1,80,0,0
150016,248.96265560166,6,1,1,80,1,0
150513,240,6,1,1,80,1,0
150753,-71.4285714285714,6,1,1,80,0,0
151473,240,6,1,1,80,1,0
151473,-71.4285714285714,6,1,1,80,0,0
152913,242.914979757085,6,1,1,80,1,0
153641,241.448692152918,6,1,1,80,1,0
153641,-71.4285714285714,6,1,1,80,0,0
154365,240,6,1,1,80,1,0
154365,-71.4285714285714,6,1,1,80,0,0
155085,-83.3333333333333,6,1,1,80,0,0
155805,239.043824701195,6,1,1,80,1,0
155924,-125,6,1,1,80,0,0
156522,-90.9090909090909,6,1,1,80,0,0
156761,-71.4285714285714,6,1,1,80,0,0
157239,243.90243902439,6,1,1,80,1,0
157239,-71.4285714285714,6,1,1,80,0,0
158687,240.240240240239,6,1,1,75,1,0
158687,-500,6,1,1,55,0,0
161570,236.220472440944,6,1,1,75,1,0
162278,244.897959183672,6,1,1,75,1,0
162522,239.999999999999,6,1,1,75,1,0
163002,239.999999999999,6,1,1,75,1,0
164442,239.043824701194,6,1,1,75,1,0
165876,239.999999999999,6,1,1,75,1,0
168036,-500,6,1,1,55,0,0
168996,-83.3333333333333,6,1,1,75,0,0
169236,-100,6,1,1,75,0,0
169475,-125,6,1,1,75,0,0
169955,-166.666666666667,6,1,1,75,0,0
170221,235.294117647058,6,1,1,75,1,0
170926,233.690360272638,6,1,1,75,1,0
171628,239.043824701194,6,1,1,75,1,0
172106,254.237288135592,6,1,1,75,1,0
172360,239.999999999999,6,1,1,75,1,0
173080,231.884057971013,6,1,1,75,1,0
173777,239.043824701194,6,1,1,75,1,0
174494,258.620689655171,6,1,1,75,1,0
174753,239.043824701194,6,1,1,75,1,0
175231,239.043824701194,6,1,1,75,1,0
175948,239.999999999999,6,1,1,75,1,0
178828,-166.666666666667,6,1,1,55,0,0
180267,-166.666666666667,6,1,1,65,0,0
181107,-83.3333333333333,6,1,1,75,0,0
181707,260.86956521739,6,1,1,75,1,0
181707,-83.3333333333333,6,1,1,75,0,0
182098,235.294117647058,6,1,1,75,1,0
182450,239.999999999999,6,1,1,75,1,0
183170,255.319148936169,6,1,1,75,1,0
183170,-83.3333333333333,6,1,1,75,0,0
183552,237.154150197628,6,1,1,75,1,0
183907,234.374999999999,6,1,1,75,1,0
183907,-142.857142857143,6,1,1,75,0,0
184377,227.272727272727,6,1,1,75,1,0
184604,256.95931477516,6,1,1,75,1,0
184861,237.154150197628,6,1,1,75,1,0
185098,239.999999999999,6,1,1,75,1,0
185818,237.154150197628,6,1,1,75,1,0
187003,220.588235294117,6,1,1,75,1,0
187224,250.521920668057,6,1,1,75,1,0
187224,-83.3333333333333,6,1,1,75,0,0
187599,236.686390532543,6,1,1,75,1,0
187599,-100,6,1,1,75,0,0
187954,238.095238095237,6,1,1,75,1,0
188668,241.935483870967,6,1,1,75,1,0
188668,-83.3333333333333,6,1,1,75,0,0
189030,-100,6,1,1,75,0,0
189393,-125,6,1,1,75,0,0
189877,239.043824701194,6,1,1,75,1,0
191311,-83.3333333333333,6,1,1,75,0,0
192267,-100,6,1,1,75,0,0
192745,-83.3333333333333,6,1,1,75,0,0
193104,-100,6,1,1,75,0,0
194179,244.897959183672,6,1,1,75,1,0
195403,239.043824701194,6,1,1,75,1,0
196837,-83.3333333333333,6,1,1,75,0,0
197195,-100,6,1,1,75,0,0
197554,235.756385068761,6,1,1,75,1,0
198261,241.935483870967,6,1,1,75,1,0
199712,240.963855421686,6,1,1,75,1,0
201157,252.100840336132,6,1,1,75,1,0
201409,271.49321266968,6,1,1,75,1,0
201679,288.461538461534,6,1,1,70,1,0
201967,298.507462686563,6,1,1,70,1,0
202265,287.081339712915,6,1,1,70,1,0
202552,301.507537688438,6,1,1,70,1,0
202853,309.278350515459,6,1,1,65,1,0
203162,327.868852459011,6,1,1,65,1,0
203489,333.333333333328,6,1,1,60,1,0
203822,352.941176470582,6,1,1,60,1,0
204174,387.096774193541,6,1,1,55,1,0
204561,479.999999999989,6,1,1,55,1,0
204561,-100,6,1,1,65,0,0
209060,-100,6,1,1,5,0,0
209201,233.463035019452,6,1,1,75,1,0
210601,234.374999999997,6,1,1,75,1,0
212710,230.769230769228,6,1,1,75,1,0
214786,229.007633587783,6,1,1,75,1,0
216160,230.769230769227,6,1,1,75,1,0
219468,229.007633587783,6,1,1,75,1,0
220269,230.769230769227,6,1,1,75,1,0
220961,229.007633587783,6,1,1,75,1,0
221648,230.769230769227,6,1,1,75,1,0
221648,-76.9230769230769,6,1,1,75,0,0
221994,-100,6,1,1,75,0,0
224417,232.55813953488,6,1,1,75,1,0
225812,230.769230769227,6,1,1,75,1,0
225812,-83.3333333333333,6,1,1,75,0,0
226504,-100,6,1,1,75,0,0
227196,231.660231660228,6,1,1,75,1,0
227196,-83.3333333333333,6,1,1,75,0,0
227890,-100,6,1,1,75,0,0
228585,229.885057471261,6,1,1,75,1,0
229964,227.272727272724,6,1,1,75,1,0
231327,230.769230769227,6,1,1,75,1,0
232019,238.095238095234,6,1,1,75,1,0
232019,-333.333333333333,6,1,1,75,0,0
232733,237.154150197625,6,1,1,75,1,0
232733,-76.9230769230769,6,1,1,75,0,0
233444,230.769230769227,6,1,1,75,1,0
234136,230.769230769227,6,1,1,75,1,0
234136,-76.9230769230769,6,1,1,75,0,0
234828,-100,6,1,1,75,0,0
235520,-76.9230769230769,6,1,1,75,0,0
236212,-100,6,1,1,75,0,0
236905,-76.9230769230769,6,1,1,75,0,0
237597,-100,6,1,1,75,0,0
238289,-76.9230769230769,6,1,1,75,0,0
238982,226.415094339619,6,1,1,75,1,0
239661,230.769230769227,6,1,1,75,1,0
239661,-76.9230769230769,6,1,1,75,0,0
240353,-100,6,1,1,75,0,0
241045,-76.9230769230769,6,1,1,75,0,0
241391,223.880597014922,6,1,1,75,1,0
241391,-76.9230769230769,6,1,1,75,0,0
241727,234.374999999996,6,1,1,75,1,0
241727,-100,6,1,1,75,0,0
242430,230.769230769227,6,1,1,75,1,0
243122,206.896551724135,6,1,1,75,1,0
243328,242.914979757081,6,1,1,75,1,0
243814,230.769230769227,6,1,1,75,1,0
243814,-76.9230769230769,6,1,1,75,0,0
244507,228.136882129274,6,1,1,75,1,0
244507,-83.3333333333333,6,1,1,75,0,0
245191,230.769230769227,6,1,1,75,1,0
245537,-83.3333333333333,6,1,1,75,0,0
246575,232.55813953488,6,1,1,75,1,0
246807,-83.3333333333333,6,1,1,75,0,0
247970,-76.9230769230769,6,1,1,75,0,0
248668,-83.3333333333333,6,1,1,75,0,0
249365,219.780219780217,6,1,1,75,1,0
249584,230.769230769227,6,1,1,75,1,0
249699,-83.3333333333333,6,1,1,75,0,0
250276,227.272727272724,6,1,1,75,1,0
250730,235.294117647055,6,1,1,75,1,0
250730,-83.3333333333333,6,1,1,75,0,0
251906,226.415094339619,6,1,1,75,1,0
251906,-83.3333333333333,6,1,1,75,0,0
252132,231.660231660228,6,1,1,75,1,0
252479,-83.3333333333333,6,1,1,75,0,0
253521,235.294117647054,6,1,1,75,1,0
253521,-83.3333333333333,6,1,1,75,0,0
254226,223.880597014921,6,1,1,75,1,0
254673,208.333333333329,6,1,1,75,1,0
254882,243.902439024385,6,1,1,80,1,0
254882,-76.9230769230769,6,1,1,80,0,0
254897,-76.9230769230769,6,1,1,80,0,0
255126,229.007633587782,6,1,1,80,1,0
255240,-76.9230769230769,6,1,1,80,0,0
256271,229.007633587782,6,1,1,80,1,0
256271,-76.9230769230769,6,1,1,80,0,0
257645,233.463035019451,6,1,1,80,1,0
257645,-83.3333333333333,6,1,1,80,0,0
259045,230.769230769227,6,1,1,80,1,0
259045,-76.9230769230769,6,1,1,80,0,0
259737,-100,6,1,1,80,0,0
260429,-83.3333333333333,6,1,1,80,0,0
261814,229.007633587783,6,1,1,80,1,0
261814,-76.9230769230769,6,1,1,80,0,0
263188,230.769230769227,6,1,1,80,1,0
263534,-83.3333333333333,6,1,1,80,0,0
264572,-100,6,1,1,80,0,0

[Colours]
Combo1 : 79,125,72
Combo2 : 46,103,137
Combo3 : 165,102,56

[HitObjects]
145,327,35,6,0,P|97:342|47:348,1,100,8|0,0:0|0:0,0:0:0:0:
215,181,273,1,4,0:3:0:0:
251,281,392,1,4,0:3:0:0:
321,202,511,2,0,L|330:102,1,100,8|0,0:0|0:0,0:0:0:0:
447,280,749,2,0,L|458:378,1,100,8|0,0:0|0:0,0:0:0:0:
407,169,987,1,4,0:3:0:0:
507,115,1106,1,4,0:3:0:0:
273,9,1225,6,0,P|190:41|136:202,1,259.999988098145,12|0,0:2|0:0,0:0:0:0:
64,296,1585,2,0,P|-5:185|29:91,1,200,4|0,0:2|0:0,0:0:0:0:
208,288,1945,2,0,L|236:394,1,100,10|0,0:0|0:0,0:0:0:0:
456,303,2185,2,0,L|337:282,1,100,8|0,0:0|0:0,0:0:0:0:
232,130,2425,2,0,L|351:109,1,100,2|2,0:0|0:3,0:0:0:0:
474,5,2665,6,0,P|509:95|508:224,1,200,12|0,0:2|0:0,0:0:0:0:
396,51,3025,2,0,P|415:98|424:148,1,100,4|0,0:2|0:0,0:0:0:0:
157,188,3265,1,4,0:3:0:0:
357,285,3385,2,0,P|352:243|334:183,1,80,2|0,0:0|0:0,0:0:0:0:
154,297,3625,2,0,P|144:335|139:375,1,80,2|0,0:0|0:0,0:0:0:0:
228,356,3866,5,8,0:0:0:0:
330,112,4106,1,8,0:2:0:0:
56,20,4346,1,8,0:2:0:0:
361,244,4586,5,8,0:0:0:0:
183,76,4826,1,8,0:2:0:0:
96,150,4946,2,0,L|-19:116,2,100,8|8|8,0:2|0:2|0:2,0:0:0:0:
177,227,5306,6,0,P|239:204|312:204,1,100,10|0,0:0|0:0,0:0:0:0:
252,46,5546,2,0,P|305:71|341:115,1,100,2|0,0:0|0:0,0:0:0:0:
420,373,5786,2,0,P|414:314|437:266,1,100
511,0,6026,6,0,P|475:77|425:108,1,100,2|0,0:0|0:0,0:0:0:0:
224,135,6266,1,8,0:2:0:0:
316,310,6386,2,0,P|299:263|293:192,2,100,8|8|8,0:2|0:2|0:2,0:0:0:0:
264,382,6746,6,0,P|187:334|131:174,1,259.999988098145,12|0,0:2|0:0,0:0:0:0:
26,231,7106,2,0,P|28:141|113:32,1,200,4|0,0:2|0:0,0:0:0:0:
329,0,7466,2,0,P|292:34|249:59,1,100,10|0,0:0|0:0,0:0:0:0:
430,174,7706,2,0,P|404:130|370:94,1,100,8|0,0:0|0:0,0:0:0:0:
108,25,7946,2,0,P|133:68|167:104,1,100,2|0,0:0|0:0,0:0:0:0:
206,371,8186,6,0,P|251:241|337:202,1,200,12|0,0:2|0:0,0:0:0:0:
366,384,8546,2,0,P|335:344|315:271,1,100,4|0,0:2|0:0,0:0:0:0:
94,202,8786,1,8,0:2:0:0:
46,369,8906,2,0,P|93:354|125:328,1,80,10|0,0:0|0:0,0:0:0:0:
227,178,9146,2,0,P|274:192|306:219,1,80,2|0,0:0|0:0,0:0:0:0:
318,297,9386,5,8,0:0:0:0:
281,7,9626,1,8,0:2:0:0:
512,120,9866,1,8,0:2:0:0:
191,268,10106,5,8,0:0:0:0:
371,104,10346,1,8,0:2:0:0:
284,25,10466,2,0,L|168:55,2,100,8|8|8,0:2|0:2|0:2,0:0:0:0:
505,147,10826,6,0,P|491:99|464:57,1,100,6|0,0:2|0:0,0:0:0:0:
338,247,11066,2,0,P|315:292|281:328,2,100
348,101,11426,1,8,0:2:0:0:
443,270,11546,1,8,0:2:0:0:
280,160,11666,1,8,0:2:0:0:
430,173,11786,2,0,L|499:181,1,69.9999978637696,4|4,0:3|0:3,0:0:0:0:
425,20,12026,2,0,L|355:11,1,69.9999978637696,4|4,0:3|0:3,0:0:0:0:
149,219,12266,6,0,B|216:156|354:203|308:353|437:364,1,349.999989318848,4|0,0:2|0:0,0:0:0:0:
512,280,13003,1,4,0:3:0:0:
512,280,13372,1,4,0:3:0:0:
459,188,13741,5,2,0:2:0:0:
326,47,13979,1,2,0:2:0:0:
195,125,14217,1,2,0:2:0:0:
219,380,14455,1,4,0:3:0:0:
0,272,14693,1,2,0:2:0:0:
196,228,14931,1,2,0:2:0:0:
98,384,15169,6,0,P|113:311|63:116,1,279.999991455078,2|0,0:0|0:0,0:0:0:0:
109,29,15889,1,4,0:3:0:0:
266,199,16129,1,2,0:2:0:0:
359,162,16369,1,2,0:2:0:0:
429,384,16609,6,0,P|473:342|474:222,1,160,2|0,0:0|0:0,0:0:0:0:
445,126,16966,1,8,0:2:0:0:
476,115,17085,1,8,0:2:0:0:
210,62,17323,2,0,P|254:104|255:224,1,160,10|0,0:0|0:0,0:0:0:0:
154,252,17680,2,0,L|170:332,1,80,8|8,0:2|0:2,0:0:0:0:
241,377,17918,1,8,0:2:0:0:
171,232,18037,6,0,P|88:193|15:211,1,160,2|0,0:0|0:0,0:0:0:0:
170,83,18397,2,0,P|236:124|265:197,1,160,2|0,0:0|0:0,0:0:0:0:
348,250,18757,2,0,P|385:180|373:102,1,160,2|0,0:0|0:0,0:0:0:0:
472,251,19117,2,0,P|430:318|357:347,1,160,2|0,0:0|0:0,0:0:0:0:
246,201,19477,6,0,L|267:74,1,100,6|0,0:2|0:0,0:0:0:0:
81,106,19717,1,2,0:2:0:0:
314,18,19957,1,2,0:2:0:0:
122,307,20198,1,6,0:3:0:0:
269,375,20438,1,2,0:2:0:0:
293,285,20679,1,2,0:2:0:0:
36,376,20919,6,0,P|15:309|71:203,1,160,2|0,0:0|0:0,0:0:0:0:
120,152,21279,1,4,0:3:0:0:
24,81,21399,2,0,P|5:130|0:183,1,80
149,61,21639,2,0,P|197:53|264:34,1,80,4|0,0:3|0:0,0:0:0:0:
78,0,21879,1,2,0:2:0:0:
209,172,22108,1,0,0:2:0:0:
502,30,22339,6,0,P|432:78|296:93,1,200,2|0,0:0|0:0,0:0:0:0:
306,236,22696,1,8,0:2:0:0:
396,178,22816,2,0,P|449:181|517:210,1,100,10|0,0:2|0:0,0:0:0:0:
356,372,23054,6,0,B|344:345|344:345|229:313,1,119.999996337891,14|0,0:2|0:0,0:0:0:0:
163,178,23299,2,0,B|133:174|133:174|48:258,1,119.999996337891,2|0,0:2|0:0,0:0:0:0:
236,34,23544,2,0,B|218:57|218:57|248:173,1,119.999996337891,2|0,0:0|0:0,0:0:0:0:
177,368,23790,6,0,P|180:260|185:253,1,100,12|0,0:2|0:0,0:0:0:0:
48,384,24030,1,0,0:0:0:0:
1,303,24151,2,0,P|85:235|94:235,1,100,10|0,0:2|0:0,0:0:0:0:
163,178,24392,1,10,0:2:0:0:
1,77,24512,6,0,P|106:98|155:177,1,200,4|0,0:2|0:0,0:0:0:0:
191,291,24874,2,0,P|237:315|326:298,1,100,8|0,0:2|0:0,0:0:0:0:
254,220,25115,1,8,0:2:0:0:
473,384,25235,6,0,P|514:315|515:250,1,100,2|0,0:0|0:0,0:0:0:0:
436,103,25476,1,8,0:2:0:0:
344,210,25597,2,0,P|401:214|447:198,1,100,10|0,0:2|0:0,0:0:0:0:
241,131,25838,1,0,0:0:0:0:
230,7,25958,6,0,P|275:29|303:70,1,100,10|0,0:0|0:0,0:0:0:0:
156,154,26199,2,0,P|144:209|81:263,1,100,10|0,0:2|0:0,0:0:0:0:
5,311,26440,1,8,0:3:0:0:
34,211,26561,1,4,0:3:0:0:
112,379,26681,6,0,P|188:352|252:211,1,200,4|0,0:2|0:0,0:0:0:0:
307,98,27036,1,4,0:3:0:0:
332,287,27155,2,0,P|338:330|358:406,1,100,4|4,0:3|0:3,0:0:0:0:
512,250,27392,2,0,L|420:288,1,100,4|0,0:2|0:0,0:0:0:0:
407,198,27629,6,0,P|409:148|429:65,1,100,2|0,0:0|0:0,0:0:0:0:
512,5,27866,2,0,P|502:54|500:104,1,100,2|0,0:0|0:0,0:0:0:0:
317,205,28103,6,0,P|263:206|208:148,1,100,12|0,0:2|0:0,0:0:0:0:
5,98,28343,2,0,P|3:147|30:188,1,100,10|0,0:2|0:0,0:0:0:0:
209,11,28584,2,0,P|165:34|143:78,1,100,10|0,0:2|0:0,0:0:0:0:
99,281,28825,6,0,L|120:164,1,100,2|0,0:0|0:0,0:0:0:0:
240,250,29072,1,8,0:2:0:0:
196,384,29196,1,4,0:3:0:0:
347,349,29320,2,0,L|329:250,1,100,8|0,0:2|0:0,0:0:0:0:
210,147,29568,6,0,P|323:90|345:-3,1,200,10|0,0:0|0:0,0:0:0:0:
440,156,29926,2,0,P|494:237|477:334,1,200,2|0,0:0|0:0,0:0:0:0:
80,278,30285,6,0,B|104:298|104:298|203:290,1,100,14|0,0:2|0:0,0:0:0:0:
352,179,30524,1,8,0:2:0:0:
324,382,30643,2,0,B|329:351|329:351|272:269,1,100,8|0,0:2|0:0,0:0:0:0:
133,208,30882,1,8,0:2:0:0:
239,66,31002,2,0,B|249:94|249:94|226:182,1,100,14|0,0:2|0:0,0:0:0:0:
34,20,31241,2,0,L|159:6,1,100,10|0,0:2|0:0,0:0:0:0:
396,102,31480,2,0,L|382:-18,1,100,10|0,0:2|0:0,0:0:0:0:
417,289,31719,6,0,P|494:239|501:108,1,200,6|0,0:2|0:0,0:0:0:0:
495,10,32077,1,4,0:3:0:0:
370,205,32197,2,0,P|384:167|383:98,1,100,4|0,0:3|0:0,0:0:0:0:
154,21,32436,6,0,L|249:142,1,119.999996337891,12|0,0:0|0:0,0:0:0:0:
283,292,32676,1,8,0:2:0:0:
114,116,32796,1,10,0:0:0:0:
74,231,32916,2,0,L|226:209,1,119.999996337891,8|0,0:0|0:0,0:0:0:0:
44,41,33156,2,0,L|-13:183,1,119.999996337891,12|0,0:0|0:0,0:0:0:0:
82,353,33396,5,8,0:0:0:0:
184,191,33516,1,2,0:0:0:0:
197,361,33636,2,0,P|210:314|258:290,1,100,8|0,0:0|0:0,0:0:0:0:
418,129,33876,2,0,P|397:182|341:197,1,100,10|0,0:2|0:0,0:0:0:0:
284,0,34116,6,0,B|277:34|277:34|307:112,1,119.999996337891,14|0,0:2|0:0,0:0:0:0:
459,326,34357,2,0,B|432:302|432:302|349:290,1,119.999996337891,10|0,0:0|0:0,0:0:0:0:
0,206,34598,2,0,B|34:237|34:237|230:201,1,239.999992675781,4|0,0:2|0:0,0:0:0:0:
431,109,34960,2,0,L|438:-4,2,80,2|4|2,0:0|0:3|0:2,0:0:0:0:
459,201,35321,6,0,P|387:184|285:-13,1,300,4|0,0:2|0:0,0:0:0:0:
419,15,35800,1,0,0:0:0:0:
248,369,36040,2,0,P|334:347|411:289,1,160,2|0,0:0|0:0,0:0:0:0:
159,342,36519,1,2,0:2:0:0:
213,196,36759,6,0,P|220:235|224:275,1,80
55,357,36999,2,0,P|93:244|115:108,1,240,2|0,0:0|0:0,0:0:0:0:
40,31,37478,1,2,0:2:0:0:
234,188,37718,1,2,0:2:0:0:
175,37,37958,2,0,L|293:24,1,80,0|0,0:0|0:0,0:0:0:0:
480,137,38198,6,0,L|301:112,1,160,2|0,0:0|0:0,0:0:0:0:
512,0,38677,1,4,0:3:0:0:
380,230,38917,2,0,P|392:308|369:384,1,160,10|0,0:2|0:0,0:0:0:0:
494,316,39396,1,0,0:0:0:0:
0,40,39636,6,0,P|81:12|220:173,1,300,6|0,0:2|0:0,0:0:0:0:
380,230,40117,2,0,P|446:224|479:165,1,100,10|0,0:2|0:0,0:0:0:0:
442,103,40358,2,0,P|376:109|343:168,1,100,8|0,0:2|0:0,0:0:0:0:
258,266,40599,1,0,0:2:0:0:
302,0,40840,1,2,0:2:0:0:
137,383,41081,6,0,P|126:280|106:196,2,160,2|0|0,0:0|0:0|0:0,0:0:0:0:
4,148,41804,2,0,P|25:225|38:307,1,160,10|0,0:0|0:0,0:0:0:0:
214,124,42286,1,2,0:2:0:0:
324,348,42527,6,0,L|226:334,1,80
409,361,42768,1,2,0:2:0:0:
310,72,43009,1,2,0:2:0:0:
483,285,43250,2,0,L|458:177,1,80,8|0,0:0|0:0,0:0:0:0:
381,277,43491,1,2,0:2:0:0:
480,122,43732,1,8,0:2:0:0:
261,240,43973,6,0,B|130:244|156:35|-20:114,1,320,2|0,0:0|0:0,0:0:0:0:
275,0,44696,1,8,0:0:0:0:
144,343,44931,6,0,B|163:365|163:365|263:356,1,100,2|0,0:0|0:0,0:0:0:0:
69,248,45166,2,0,B|40:253|40:253|-2:344,1,100,2|0,0:0|0:0,0:0:0:0:
175,151,45401,2,0,B|189:118|189:118|162:9,1,129.999994049073,14|0,0:0|0:0,0:0:0:0:
97,104,45638,1,2,0:2:0:0:
267,262,45756,2,0,B|286:211|286:211|495:158,1,259.999988098145,2|0,0:0|0:0,0:0:0:0:
374,0,46112,6,0,B|342:26|342:26|325:130,1,129.999994049073,10|0,0:0|0:0,0:0:0:0:
512,331,46352,2,0,B|486:315|486:315|413:315,1,100,10|0,0:2|0:0,0:0:0:0:
334,318,46592,1,8,0:2:0:0:
512,36,46835,6,0,P|472:70|405:65,1,100,6|0,0:2|0:0,0:0:0:0:
241,9,47075,2,0,P|192:13|155:46,1,100,2|0,0:2|0:0,0:0:0:0:
111,167,47315,2,0,P|159:162|196:129,1,100,2|0,0:2|0:0,0:0:0:0:
377,219,47555,6,0,L|246:203,1,100,8|0,0:2|0:0,0:0:0:0:
181,287,47795,2,0,L|214:415,1,100,2|0,0:2|0:0,0:0:0:0:
86,263,48035,2,0,L|110:166,1,100,2|0,0:2|0:0,0:0:0:0:
32,32,48275,5,0,0:0:0:0:
256,192,48515,1,0,0:0:0:0:
480,352,48755,1,0,0:0:0:0:
337,25,48995,6,0,P|321:66|359:145,1,100,8|0,0:0|0:0,0:0:0:0:
473,156,49235,2,0,P|489:203|477:251,1,100,2|0,0:2|0:0,0:0:0:0:
503,29,49475,2,0,P|454:38|419:72,1,100,2|0,0:2|0:0,0:0:0:0:
232,316,49715,6,0,P|280:306|317:268,1,100,4|0,0:2|0:0,0:0:0:0:
219,114,49957,2,0,L|237:244,1,100,4|0,0:2|0:0,0:0:0:0:
401,283,50200,2,0,L|419:413,1,100,8|0,0:2|0:0,0:0:0:0:
145,198,50443,2,0,L|113:-31,1,200,8|0,0:0|0:0,0:0:0:0:
232,213,50803,2,0,P|291:220|340:211,1,100,4|4,0:3|0:3,0:3:0:0:
511,63,51043,1,4,0:3:0:0:
384,103,51163,1,8,0:3:0:0:
444,173,51282,1,8,0:3:0:0:
453,0,51402,6,0,L|329:23,1,100,2|0,0:2|0:0,0:0:0:0:
265,296,51641,2,0,L|249:198,1,100,2|0,0:0|0:0,0:0:0:0:
220,0,51880,1,8,0:0:0:0:
461,379,52597,6,0,P|400:348|376:237,1,129.999994049073,12|0,0:2|0:0,0:0:0:0:
363,83,52844,1,0,0:0:0:0:
206,208,52968,2,0,P|294:225|398:139,1,200,4|0,0:2|0:0,0:0:0:0:
174,121,53328,2,0,P|133:149|110:230,1,100,10|0,0:0|0:0,0:0:0:0:
51,384,53568,2,0,P|23:342|20:293,1,100,8|0,0:0|0:0,0:0:0:0:
99,155,53808,1,0,0:0:0:0:
0,192,53928,1,0,0:0:0:0:
116,316,54048,6,0,P|229:334|322:340,1,200,12|0,0:2|0:0,0:0:0:0:
354,140,54405,2,0,P|282:70|255:38,1,100,4|0,0:2|0:2,0:2:0:0:
458,137,54644,1,0,0:0:0:0:
297,224,54763,2,0,P|301:274|308:324,1,100,10|0,0:0|0:0,0:0:0:0:
407,379,55002,2,0,P|400:329|397:280,1,100,2|0,0:0|0:0,0:0:0:0:
477,156,55240,5,8,0:0:0:0:
217,132,55479,1,8,0:2:0:0:
209,377,55718,1,8,0:2:0:0:
185,0,55957,5,8,0:0:0:0:
51,199,56196,1,8,0:2:0:0:
151,246,56315,2,0,L|271:203,2,100,8|8|8,0:2|0:2|0:2,0:0:0:0:
43,288,56674,6,0,P|28:246|16:161,1,100,10|0,0:0|0:0,0:0:0:0:
77,6,56913,2,0,P|92:48|104:133,1,100,2|0,0:0|0:0,0:0:0:0:
252,130,57152,2,0,P|261:79|260:22,1,100,2|0,0:2|0:0,0:0:0:0:
296,244,57391,2,0,P|342:253|432:259,1,100,8|0,0:0|0:0,0:0:0:0:
352,372,57630,1,8,0:2:0:0:
451,179,57749,1,8,0:2:0:0:
488,284,57869,2,0,P|495:333|508:381,1,100,2|0,0:0|0:0,0:0:0:0:
512,98,58108,6,0,P|401:34|274:45,1,259.999988098145,12|0,0:2|0:0,0:0:0:0:
371,292,58465,2,0,P|353:239|349:178,1,100,4|0,0:2|0:0,0:0:0:0:
373,117,58703,1,0,0:0:0:0:
208,291,58822,2,0,P|160:277|118:250,1,100,10|0,0:0|0:0,0:0:0:0:
139,33,59060,2,0,P|111:75|95:122,1,100,8|0,0:0|0:0,0:0:0:0:
240,284,59298,2,0,P|249:333|253:382,1,100,2|2,0:0|0:3,0:0:0:0:
398,155,59536,6,0,P|418:75|524:12,1,200,12|0,0:2|0:0,0:0:0:0:
283,153,59903,2,0,P|341:251|331:356,1,200,4|0,0:2|0:0,0:0:0:0:
158,303,60270,2,0,P|118:300|79:288,1,80,2|0,0:0|0:0,0:0:0:0:
192,156,60515,2,0,P|165:184|129:202,1,80,2|0,0:0|0:0,0:0:0:0:
260,368,60760,5,8,0:0:0:0:
512,209,61000,1,8,0:2:0:0:
428,384,61240,1,8,0:2:0:0:
248,25,61480,5,8,0:0:0:0:
419,203,61720,1,8,0:2:0:0:
491,98,61840,2,0,L|463:-10,2,100,8|8|8,0:2|0:2|0:2,0:0:0:0:
293,261,62200,6,0,P|294:176|322:143,1,100,10|0,0:0|0:0,0:0:0:0:
372,4,62440,2,0,P|371:89|343:122,1,100,2|0,0:0|0:0,0:0:0:0:
190,125,62680,1,2,0:2:0:0:
261,177,62800,1,8,0:2:0:0:
274,27,62920,2,0,L|145:45,1,100,8|0,0:0|0:0,0:0:0:0:
0,122,63160,5,8,0:0:0:0:
96,16,63280,1,8,0:2:0:0:
99,205,63400,2,0,P|84:252|76:302,1,100,8|0,0:2|0:0,0:0:0:0:
186,376,63640,5,2,0:0:0:0:
208,372,64360,1,8,0:0:0:0:
456,329,64600,1,2,0:2:0:0:
512,134,64840,1,2,0:2:0:0:
344,61,65080,5,2,0:0:0:0:
366,335,65318,1,2,0:2:0:0:
180,233,65556,1,2,0:2:0:0:
351,32,65794,1,8,0:0:0:0:
282,206,66514,5,2,0:0:0:0:
303,218,67231,1,8,0:0:0:0:
111,364,67948,5,2,0:0:0:0:
0,154,68672,5,2,0:0:0:0:
226,34,69397,5,2,0:0:0:0:
144,216,69880,1,2,0:2:0:0:
201,57,70122,1,8,0:0:0:0:
459,128,70364,1,2,0:2:0:0:
294,133,70605,1,2,0:2:0:0:
278,286,70847,5,2,0:0:0:0:
511,298,71088,1,2,0:2:0:0:
412,352,71330,1,2,0:2:0:0:
309,299,71572,1,8,0:0:0:0:
337,19,72296,6,0,P|361:124|431:211,1,200,12|0,0:2|0:0,0:0:0:0:
309,274,72651,2,0,P|377:295|450:283,1,139.999995727539,8|0,0:2|0:0,0:0:0:0:
219,373,73007,6,0,P|195:268|126:182,1,200,12|0,0:2|0:0,0:0:0:0:
247,118,73367,2,0,P|178:96|83:117,1,139.999995727539,8|0,0:2|0:0,0:0:0:0:
62,233,73727,6,0,L|49:343,1,100,14|0,0:2|0:0,0:0:0:0:
0,153,73967,1,8,0:0:0:0:
149,0,74087,2,0,P|225:41|274:160,1,200,8|0,0:0|0:0,0:0:0:0:
375,234,74447,2,0,L|363:134,1,100,14|0,0:2|0:0,0:0:0:0:
328,326,74687,1,8,0:0:0:0:
491,185,74807,2,0,P|451:95|367:45,1,200,8|0,0:0|0:0,0:0:0:0:
148,0,75167,6,0,P|178:94|170:194,1,200,10|0,0:0|0:0,0:0:0:0:
113,373,75524,1,2,0:0:0:0:
0,272,75644,2,0,P|41:253|111:303,1,100,10|0,0:2|0:0,0:0:0:0:
387,384,75882,2,0,P|364:329|349:261,1,100,10|0,0:0|0:0,0:0:0:0:
220,107,76121,2,0,P|192:148|170:193,1,100,10|0,0:2|0:0,0:0:0:0:
256,331,76359,2,0,P|258:271|273:203,1,100,2|0,0:2|0:0,0:0:0:0:
471,37,76598,6,0,B|453:62|453:62|346:82,1,100,10|0,0:0|0:0,0:0:0:0:
47,46,76836,2,0,B|65:71|65:71|172:91,1,100,10|0,0:2|0:0,0:0:0:0:
353,290,77075,2,0,B|359:269|359:269|343:190,1,100,2|0,0:2|0:0,0:0:0:0:
293,0,77314,2,0,B|248:21|248:21|186:186,1,200,10|0,0:0|0:0,0:0:0:0:
122,282,77671,2,0,L|22:295,1,100,2|0,0:0|0:0,0:0:0:0:
58,198,77910,1,0,0:0:0:0:
163,371,78029,6,0,P|224:325|242:260,1,100,10|0,0:0|0:0,0:0:0:0:
329,299,78269,1,8,0:2:0:0:
216,67,78389,2,0,P|194:111|194:161,1,100,2|0,0:0|0:0,0:0:0:0:
262,217,78629,1,8,0:2:0:0:
389,48,78749,2,0,P|361:46|293:25,1,100,10|0,0:0|0:0,0:0:0:0:
413,214,78989,2,0,P|421:263|428:326,1,100,10|0,0:2|0:0,0:0:0:0:
320,321,79229,1,2,0:2:0:0:
361,148,79349,1,8,0:2:0:0:
489,384,79469,6,0,P|511:339|512:290,1,100,10|0,0:0|0:0,0:0:0:0:
446,118,79711,2,0,P|423:73|422:24,1,100,10|0,0:2|0:0,0:0:0:0:
512,49,79953,1,2,0:2:0:0:
413,214,80075,1,8,0:2:0:0:
337,0,80196,2,0,P|271:26|226:173,1,200,10|0,0:0|0:0,0:0:0:0:
141,207,80559,2,0,P|94:221|44:227,1,100,2|0,0:0|0:0,0:0:0:0:
127,111,80802,1,0,0:0:0:0:
178,384,80923,6,0,P|233:312|275:205,1,200,12|0,0:2|0:0,0:0:0:0:
345,286,81283,2,0,P|356:338|359:402,1,100,8|0,0:0|0:0,0:0:0:0:
375,196,81523,1,10,0:2:0:0:
509,384,81643,2,0,P|480:343|439:302,1,100,10|0,0:0|0:0,0:0:0:0:
300,121,81883,2,0,P|329:80|370:39,1,100,2|8,0:0|0:0,0:0:0:0:
484,218,82123,2,0,P|469:168|457:114,1,100,2|0,0:0|0:0,0:0:0:0:
228,45,82363,6,0,L|111:60,1,100,10|0,0:0|0:0,0:0:0:0:
40,108,82603,1,2,0:0:0:0:
161,241,82723,1,8,0:0:0:0:
123,31,82843,2,0,L|9:17,1,100,2|0,0:0|0:0,0:0:0:0:
177,161,83083,2,0,L|189:260,1,100,10|0,0:0|0:0,0:0:0:0:
386,167,83323,2,0,L|252:190,1,100,2|8,0:0|0:2,0:0:0:0:
98,352,83563,2,0,L|-36:329,1,100,2|0,0:0|0:0,0:0:0:0:
201,68,83803,6,0,P|177:110|183:178,1,100,14|0,0:0|0:0,0:0:0:0:
325,286,84039,2,0,P|324:236|300:193,1,100,10|0,0:0|0:0,0:0:0:0:
306,14,84276,6,0,P|330:56|324:124,1,100,10|0,0:0|0:0,0:0:0:0:
205,350,84513,2,0,P|205:300|231:257,1,100,10|0,0:0|0:0,0:0:0:0:
488,188,84751,6,0,P|446:164|378:170,1,100,8|2,0:0|0:0,0:0:0:0:
38,283,84989,2,0,P|87:282|134:258,1,100,8|0,0:0|0:0,0:0:0:0:
417,261,85227,6,0,P|375:285|307:279,1,100,8|0,0:0|0:0,0:0:0:0:
28,49,85472,2,0,P|77:49|125:75,1,100,10|0,0:0|0:0,0:0:0:0:
254,349,85717,2,0,P|229:306|228:256,1,100,10|0,0:0|0:0,0:0:0:0:
207,10,85962,6,0,P|231:52|156:177,2,200,12|2|2,0:0|0:0|0:2,0:0:0:0:
512,285,86697,6,0,P|407:239|380:65,1,300,4|0,0:2|0:0,0:0:0:0:
458,40,87173,1,0,0:0:0:0:
311,384,87411,2,0,P|297:339|298:206,1,160,8|0,0:2|0:2,0:2:0:0:
476,164,87887,1,2,0:0:0:0:
181,292,88125,6,0,P|98:268|40:184,1,160,0|2,0:2|0:0,0:0:0:0:
0,152,88605,1,8,0:2:0:0:
308,38,88845,2,0,P|293:122|211:170,1,160,10|0,0:0|0:0,0:0:0:0:
187,55,89325,1,4,0:2:0:0:
311,230,89565,6,0,B|373:268|458:197|385:102|435:12|545:45,1,320,2|0,0:2|0:0,0:0:0:0:
423,308,90285,2,0,P|333:327|260:300,1,160,10|0,0:0|0:0,0:0:0:0:
502,227,90765,1,0,0:0:0:0:
18,363,91005,6,0,P|70:203|194:160,1,300,6|0,0:2|0:0,0:0:0:0:
317,147,91485,2,0,P|329:94|316:29,1,100,2|0,0:2|0:0,0:0:0:0:
411,53,91725,2,0,P|416:102|404:150,1,100,10|0,0:2|0:0,0:0:0:0:
244,269,91965,1,8,0:2:0:0:
252,0,92205,1,8,0:2:0:0:
0,109,92445,6,0,L|216:152,2,200,4|2|0,0:2|0:0|0:0,0:0:0:0:
411,53,93170,2,0,P|416:195|429:296,1,200,8|0,0:0|0:0,0:0:0:0:
512,186,93650,1,2,0:2:0:0:
271,41,93890,2,0,P|302:120|325:218,1,160,2|0,0:2|0:0,0:0:0:0:
185,363,94369,1,2,0:2:0:0:
207,186,94608,2,0,P|230:242|233:283,1,80,8|0,0:0|0:0,0:0:0:0:
135,256,94848,1,2,0:2:0:0:
338,373,95087,1,2,0:0:0:0:
9,313,95327,6,0,P|35:207|83:147,1,160,2|0,0:2|0:0,0:0:0:0:
311,124,95803,1,0,0:0:0:0:
80,63,96041,2,0,P|149:105|168:130,1,80,8|0,0:0|0:0,0:0:0:0:
283,134,96279,2,0,P|275:94|257:59,1,80,2|0,0:0|0:0,0:0:0:0:
184,282,96517,2,0,B|196:301|196:301|299:312,1,100,2|0,0:0|0:0,0:0:0:0:
508,384,96755,6,0,B|513:350|513:350|469:247,1,100,14|0,0:0|0:0,0:0:0:0:
311,124,96995,1,2,0:2:0:0:
388,314,97115,2,0,B|374:271|374:271|449:118,1,200,2|0,0:0|0:0,0:0:0:0:
268,47,97475,2,0,B|295:22|295:22|393:15,1,100,4|0,0:2|0:0,0:0:0:0:
418,116,97715,2,0,L|439:213,1,100,10|0,0:0|0:0,0:0:0:0:
234,182,97955,2,0,L|134:186,1,100,8|0,0:2|0:0,0:0:0:0:
173,0,98195,6,0,P|154:49|160:99,1,100,4|0,0:2|0:0,0:0:0:0:
117,284,98435,2,0,P|72:263|42:224,1,100,10|0,0:2|0:0,0:0:0:0:
273,345,98675,2,0,P|232:373|183:380,1,100,2|0,0:2|0:0,0:0:0:0:
11,212,98915,6,0,L|30:88,1,100,8|0,0:0|0:0,0:0:0:0:
244,273,99155,2,0,L|259:371,1,100,10|0,0:2|0:0,0:0:0:0:
317,141,99395,2,0,L|301:42,1,100,2|0,0:2|0:0,0:0:0:0:
105,75,99635,5,0,0:0:0:0:
332,248,99874,1,0,0:0:0:0:
453,0,100113,1,0,0:0:0:0:
398,378,100352,6,0,P|445:359|528:334,1,100,10|0,0:0|0:0,0:0:0:0:
438,258,100591,2,0,P|392:240|345:225,1,100,2|0,0:0|0:0,0:0:0:0:
459,111,100830,2,0,P|485:153|524:231,1,100,2|0,0:0|0:0,0:0:0:0:
301,41,101069,6,0,P|214:83|195:178,2,200,6|0|0,0:0|0:0|0:0,0:0:0:0:
261,299,101793,1,8,0:0:0:0:
109,89,102034,6,0,P|65:112|-3:118,1,100,2|0,0:0|0:0,0:0:0:0:
300,146,102276,2,0,P|344:169|412:175,1,100,2|0,0:0|0:0,0:0:0:0:
105,224,102517,2,2,P|43:270|45:389,1,200,2|0,0:0|0:0,0:0:0:0:
205,15,103000,6,0,P|206:67|220:149,1,100,2|0,0:2|0:0,0:0:0:0:
175,340,103242,2,0,P|224:331|271:314,1,100,10|0,0:0|0:0,0:0:0:0:
472,342,103483,2,0,P|426:360|377:369,1,100,2|0,0:0|0:0,0:0:0:0:
54,263,103724,2,0,P|104:253|150:235,1,100,2|0,0:2|0:0,0:0:0:0:
354,276,103966,5,6,0:2:0:0:
389,16,104197,2,0,P|483:64|478:200,1,240,6|0,0:0|0:0,0:0:0:0:
250,150,104667,6,0,L|233:27,1,119.999996337891,14|0,0:2|0:0,0:0:0:0:
73,384,104914,2,0,P|72:269|176:198,1,240,8|0,0:0|0:0,0:0:0:0:
382,191,105410,6,0,L|502:204,1,119.999996337891,12|0,0:2|0:0,0:0:0:0:
143,212,105650,2,0,P|50:131|73:20,1,240,8|0,0:0|0:0,0:0:0:0:
269,118,106130,6,0,L|251:-13,1,119.999996337891,12|0,0:2|0:0,0:0:0:0:
222,352,106370,2,0,P|296:345|370:202,1,240,8|0,0:0|0:0,0:0:0:0:
453,266,106829,6,0,L|483:404,1,119.999996337891,14|0,0:2|0:0,0:0:0:0:
365,0,107069,2,0,P|254:37|247:165,1,240,8|0,0:0|0:0,0:0:0:0:
389,130,107549,6,0,L|520:106,1,119.999996337891,12|0,0:2|0:0,0:0:0:0:
93,139,107789,2,0,P|97:254|194:318,1,240,8|0,0:0|0:0,0:0:0:0:
307,268,108269,6,0,L|346:403,1,119.999996337891,12|0,0:2|0:0,0:0:0:0:
404,19,108509,2,0,P|499:77|507:210,1,240,8|0,0:0|0:0,0:0:0:0:
237,130,108989,6,0,L|355:151,1,119.999996337891,12|0,0:2|0:0,0:0:0:0:
401,37,109229,2,0,L|302:19,1,100,10|0,0:2|0:0,0:0:0:0:
447,284,109469,2,0,L|463:382,1,100,10|0,0:0|0:0,0:0:0:0:
254,368,109709,6,0,P|247:238|358:168,1,259.999988098145,12|0,0:2|0:0,0:0:0:0:
446,174,110069,1,8,0:0:0:0:
259,102,110189,1,8,0:0:0:0:
349,17,110309,1,8,0:0:0:0:
352,286,110429,6,0,P|329:241|320:192,1,100,4|0,0:2|0:0,0:0:0:0:
175,79,110669,1,8,0:2:0:0:
100,258,110789,1,8,0:2:0:0:
167,169,110909,1,8,0:0:0:0:
4,116,111029,1,8,0:0:0:0:
119,347,111149,6,0,P|126:295|122:218,1,100,14|0,0:2|0:0,0:0:0:0:
94,114,111389,1,8,0:2:0:0:
211,330,111509,2,0,P|253:346|309:362,1,100,8|0,0:0|0:0,0:0:0:0:
348,97,111749,2,0,P|334:145|324:194,1,100,10|0,0:0|0:0,0:0:0:0:
237,242,111989,1,8,0:0:0:0:
420,197,112109,1,8,0:2:0:0:
415,376,112229,6,0,P|401:310|382:243,1,100,10|0,0:0|0:0,0:0:0:0:
278,35,112471,1,2,0:0:0:0:
512,189,112592,2,0,P|463:186|407:175,1,100,8|0,0:0|0:0,0:0:0:0:
139,269,112832,2,0,P|158:184|264:144,1,200,10|0,0:2|0:0,0:0:0:0:
377,262,113192,1,8,0:2:0:0:
231,384,113312,2,0,P|221:337|228:237,1,100,10|0,0:0|0:0,0:0:0:0:
296,51,113553,6,0,P|228:25|83:101,1,239.999992675781,4|0,0:2|0:0,0:0:0:0:
0,131,113916,1,8,0:2:0:0:
131,286,114037,2,0,P|141:338|142:393,1,100,6|0,0:0|0:0,0:0:0:0:
34,339,114278,1,4,0:3:0:0:
154,164,114399,2,0,P|210:213|344:245,1,200,12|0,0:3|0:0,0:0:0:0:
492,351,114761,6,0,P|484:295|414:141,1,200,14|0,0:2|0:0,0:0:0:0:
443,14,115123,1,8,0:2:0:0:
216,93,115244,2,0,P|270:94|341:82,1,100,8|0,0:0|0:0,0:0:0:0:
420,282,115485,6,0,P|427:229|428:152,1,119.999996337891,6|0,0:2|0:0,0:0:0:0:
204,0,115725,2,0,P|283:28|341:170,1,239.999992675781,4|0,0:2|0:0,0:0:0:0:
311,252,116085,1,8,0:2:0:0:
146,162,116205,2,0,L|15:186,1,119.999996337891,2|0,0:0|0:0,0:0:0:0:
152,384,116445,6,0,P|185:272|299:236,1,239.999992675781,6|0,0:0|0:0,0:0:0:0:
345,335,116805,1,10,0:0:0:0:
253,144,116925,6,0,L|271:37,1,100,6|0,0:0|0:0,0:0:0:0:
512,98,117165,2,0,L|494:-9,1,100,2|0,0:0|0:0,0:0:0:0:
382,149,117405,6,0,L|398:247,1,100,2|0,0:0|0:0,0:0:0:0:
91,66,117645,2,0,L|58:264,1,200,6|0,0:0|0:0,0:0:0:0:
196,363,118005,1,8,0:0:0:0:
193,199,118125,1,8,0:0:0:0:
140,294,118245,1,8,0:2:0:0:
414,342,118365,6,0,P|346:361|297:361,1,119.999996337891,4|0,0:2|0:0,0:0:0:0:
268,136,118605,2,0,P|279:191|281:286,1,119.999996337891,12|0,0:2|0:0,0:0:0:0:
222,68,118845,1,8,0:2:0:0:
377,205,118965,1,8,0:2:0:0:
432,111,119085,6,0,P|383:98|336:83,1,100,10|0,0:0|0:0,0:0:0:0:
491,240,119325,2,0,P|522:169|466:20,1,239.999992675781,6|0,0:0|0:0,0:0:0:0:
374,2,119685,1,8,0:0:0:0:
377,205,119805,6,0,P|333:224|268:235,1,100,10|0,0:0|0:0,0:0:0:0:
268,136,120045,1,8,0:2:0:0:
116,273,120165,2,0,P|148:311|187:343,1,100,8|0,0:0|0:0,0:0:0:0:
271,335,120405,1,8,0:2:0:0:
44,370,120525,6,0,P|10:243|77:166,1,239.999992675781,6|0,0:0|0:0,0:0:0:0:
177,153,120885,1,8,0:0:0:0:
0,0,121005,2,0,P|18:47|28:95,1,100,8|0,0:0|0:0,0:0:0:0:
172,178,121245,6,0,P|230:106|183:-3,1,200,6|0,0:0|0:0,0:0:0:0:
122,39,121607,1,4,0:3:0:0:
249,355,121728,2,0,B|269:333|269:333|282:229,1,100,2|0,0:0|0:0,0:0:0:0:
381,92,121970,2,0,B|394:114|394:114|507:151,1,100,2|0,0:0|0:0,0:0:0:0:
463,36,122212,1,10,0:0:0:0:
406,250,122333,1,8,0:0:0:0:
268,136,122454,2,0,B|260:116|260:116|275:14,1,100,10|0,0:0|0:0,0:0:0:0:
424,347,122696,6,0,P|494:299|464:104,1,279.999991455078,6|0,0:2|0:0,0:0:0:0:
375,64,123056,1,10,0:0:0:0:
397,239,123176,1,10,0:0:0:0:
251,171,123296,1,8,0:0:0:0:
187,290,123416,1,10,0:0:0:0:
112,255,123535,1,10,0:0:0:0:
272,262,123654,1,8,0:0:0:0:
256,351,123773,1,10,0:0:0:0:
157,179,123892,2,0,P|153:120|142:44,1,110.000003356934,2|0,0:0|0:0,0:0:0:0:
44,365,124130,6,0,P|22:292|11:213,1,139.999995727539,6|0,0:0|0:0,0:0:0:0:
104,0,124370,1,8,0:0:0:0:
268,136,124490,2,2,P|366:160|490:173,1,200,2|0,0:0|0:0,0:0:0:0:
409,355,124850,2,0,P|365:317|354:220,1,119.999996337891,10|0,0:0|0:0,0:0:0:0:
449,263,125090,1,2,0:0:0:0:
176,306,125210,2,0,P|172:246|279:151,1,200,2|0,0:0|0:0,0:0:0:0:
353,70,125570,5,8,0:0:0:0:
47,156,125806,1,8,0:2:0:0:
232,383,126042,1,8,0:2:0:0:
173,94,126278,2,0,P|152:272|163:323,1,200,10|0,0:0|0:0,0:0:0:0:
0,384,126633,2,0,P|7:351|38:284,1,100,8|0,0:0|0:0,0:0:0:0:
243,233,126870,1,2,0:0:0:0:
157,77,126989,6,0,L|57:57,1,100,2|0,0:0|0:0,0:0:0:0:
248,144,127227,1,10,0:0:0:0:
303,78,127346,1,10,0:0:0:0:
266,4,127466,1,2,0:0:0:0:
331,181,127585,1,10,0:0:0:0:
499,117,127704,2,0,P|509:68|512:18,1,100,10|2,0:0|0:0,0:0:0:0:
346,384,127944,2,0,P|356:335|359:285,1,100,0|2,0:0|0:0,0:0:0:0:
346,161,128184,1,2,0:0:0:0:
461,232,128304,1,2,0:0:0:0:
244,309,128424,6,0,P|194:301|149:258,1,100,14|0,0:0|0:0,0:0:0:0:
0,69,128666,2,0,P|38:37|87:30,1,100,6|0,0:0|0:0,0:0:0:0:
107,372,128909,6,0,P|66:342|46:276,1,100,2|0,0:0|3:0,3:0:0:0:
100,0,129152,2,2,P|146:17|168:181,1,200,10|0,0:0|0:0,0:0:0:0:
110,205,129517,1,8,0:2:0:0:
301,95,129638,2,0,P|345:117|396:129,1,100,8|0,0:2|0:0,0:0:0:0:
316,383,129881,6,2,P|282:290|274:191,1,200,10|0,0:0|0:0,0:0:0:0:
398,314,130240,2,0,P|448:215|520:148,1,200,2|0,0:0|0:0,0:0:0:0:
403,107,130599,2,0,L|368:14,1,100,10|0,0:0|0:0,0:0:0:0:
511,288,130839,2,0,L|475:381,1,100,2|0,0:0|0:0,0:0:0:0:
252,200,131078,2,0,L|155:175,1,100,2|0,0:0|0:0,0:0:0:0:
308,108,131318,6,0,P|359:228|379:343,1,200,14|0,0:2|0:0,0:0:0:0:
165,384,131677,2,0,P|179:340|193:246,1,100,2|0,0:0|0:0,0:0:0:0:
258,214,131916,1,8,0:2:0:0:
48,346,132036,2,0,P|7:255|76:157,1,200,8|0,0:0|0:0,0:0:0:0:
129,74,132401,2,0,P|110:30|61:-3,1,100,8|0,0:0|0:0,0:0:0:0:
41,84,132644,5,2,0:0:0:0:
231,117,132766,2,0,L|366:76,1,100,2|0,0:0|0:0,0:0:0:0:
370,7,133009,1,2,0:0:0:0:
359,193,133131,2,0,L|433:298,1,100,8|0,0:0|0:0,0:0:0:0:
512,319,133374,1,0,0:0:0:0:
257,245,133496,6,0,L|268:111,2,100,10|0|2,0:0|0:0|0:0,0:0:0:0:
130,358,133857,2,0,L|11:335,1,100,2|0,0:0|0:0,0:0:0:0:
171,53,134098,1,8,0:2:0:0:
167,278,134218,2,0,L|115:165,1,100,10|0,0:0|0:0,0:0:0:0:
252,0,134459,1,2,0:0:0:0:
211,139,134580,1,8,0:0:0:0:
86,84,134700,2,0,L|-29:16,1,100,2|0,0:0|0:0,0:0:0:0:
259,211,134941,6,0,P|302:333|364:397,1,200,2|2,0:0|0:0,0:0:0:0:
218,371,135293,1,8,0:2:0:0:
296,125,135411,2,0,P|309:81|315:27,1,100,8|0,0:2|0:0,0:0:0:0:
198,138,135646,6,0,P|130:181|119:344,1,239.999992675781,4|0,0:2|0:0,0:0:0:0:
196,283,136371,1,10,0:2:0:0:
197,92,136613,1,10,0:2:0:0:
0,8,136855,1,10,0:2:0:0:
335,273,137097,5,2,0:0:0:0:
305,130,137460,1,4,0:3:0:0:
470,295,137823,1,6,0:3:0:0:
488,279,138549,5,4,0:3:0:0:
399,158,138903,1,4,0:3:0:0:
219,384,139257,5,2,0:0:0:0:
309,108,139611,1,4,0:3:0:0:
361,355,139966,5,10,0:2:0:0:
208,195,140206,1,10,0:2:0:0:
24,331,140446,1,10,0:2:0:0:
57,134,140686,5,2,0:0:0:0:
0,58,141046,1,4,0:3:0:0:
19,217,141406,1,4,0:3:0:0:
147,120,141766,1,2,0:2:0:0:
430,202,142126,5,10,0:2:0:0:
244,21,142366,1,10,0:2:0:0:
403,96,142606,1,10,0:2:0:0:
317,375,142846,5,2,0:0:0:0:
271,210,143206,1,4,0:3:0:0:
409,357,143566,1,4,0:3:0:0:
246,301,143926,1,8,0:2:0:0:
430,97,144166,6,0,P|422:63|419:29,1,69.9999978637696,8|0,0:2|0:0,0:0:0:0:
341,114,144405,1,4,0:3:0:0:
489,186,144643,1,4,0:3:0:0:
331,320,144881,5,8,0:2:0:0:
253,300,145000,2,0,L|164:280,1,69.9999978637696,4|4,0:3|0:3,0:0:0:0:
98,361,145238,6,0,B|80:337|80:337|109:240,1,110.000003356934,2|0,0:0|0:0,0:0:0:0:
231,102,145476,2,0,B|219:129|219:129|120:152,1,110.000003356934,2|0,0:0|0:0,0:0:0:0:
16,222,145714,2,0,B|-11:184|-11:184|40:14,1,200,2|0,0:0|0:0,0:0:0:0:
122,0,146072,1,8,0:2:0:0:
431,129,146311,5,8,0:2:0:0:
340,108,146431,2,0,P|340:160|395:214,1,100,10|0,0:0|0:0,0:0:0:0:
452,294,146670,2,0,P|451:346|397:400,1,100,2|0,0:0|0:0,0:0:0:0:
363,315,146909,1,4,0:3:0:0:
500,207,147028,1,4,0:3:0:0:
289,259,147148,6,0,L|30:293,1,239.999992675781,12|0,0:2|0:0,0:0:0:0:
237,142,147506,2,0,L|-22:176,1,239.999992675781,4|0,0:2|0:0,0:0:0:0:
216,15,147865,6,0,B|257:13|257:13|324:97,1,139.999995727539,14|0,0:2|0:0,0:0:0:0:
495,333,148104,2,0,B|475:296|475:296|369:280,1,139.999995727539,12|0,0:2|0:0,0:0:0:0:
159,358,148343,2,0,B|200:352|200:352|251:258,1,139.999995727539,12|0,0:2|0:0,0:0:0:0:
332,84,148582,6,0,B|190:60|227:209|31:185,2,279.999991455078,10|8|8,0:0|0:2|0:2,0:0:0:0:
481,175,149180,1,0,0:0:0:0:
359,309,149299,2,0,P|346:240|351:170,1,139.999995727539,12|0,0:2|0:0,0:0:0:0:
145,75,149538,2,0,P|198:29|260:0,1,139.999995727539,6|0,0:2|0:0,0:0:0:0:
139,328,149777,2,0,P|73:304|15:265,1,139.999995727539,6|0,0:2|0:0,0:0:0:0:
246,159,150016,6,0,L|230:376,1,200,10|0,0:0|0:0,0:0:0:0:
433,248,150389,1,8,0:0:0:0:
373,384,150513,2,0,L|314:275,1,100,8|0,0:2|0:0,0:0:0:0:
289,43,150753,6,0,B|324:27|324:27|441:87,1,139.999995727539,2|0,0:0|0:0,0:0:0:0:
512,137,150993,1,10,0:2:0:0:
337,209,151113,1,8,0:0:0:0:
512,384,151233,2,0,B|477:367|477:367|448:239,1,139.999995727539,2|0,0:0|0:0,0:0:0:0:
209,175,151473,6,0,B|145:200|145:200|111:290,1,139.999995727539,14|0,0:2|0:0,0:0:0:0:
369,357,151713,2,0,B|298:368|298:368|244:326,1,139.999995727539,12|0,0:2|0:0,0:0:0:0:
252,5,151953,2,0,B|297:60|297:60|287:128,1,139.999995727539,12|0,0:2|0:0,0:0:0:0:
64,350,152193,6,2,P|-7:211|63:100,1,279.999991455078,10|0,0:0|0:0,0:0:0:0:
140,36,152553,2,0,P|147:104|201:146,1,139.999995727539,8|0,0:2|0:0,0:0:0:0:
405,220,152793,1,8,0:2:0:0:
329,39,152913,6,0,P|301:76|288:158,1,100,8|0,0:0|0:0,0:0:0:0:
391,326,153155,1,8,0:2:0:0:
206,259,153277,2,0,P|249:254|350:271,1,100,8|0,0:0|0:0,0:0:0:0:
481,281,153520,1,0,0:0:0:0:
464,0,153641,6,0,B|426:33|426:33|438:142,1,139.999995727539,14|0,0:2|0:0,0:0:0:0:
503,384,153882,2,0,B|493:334|493:334|411:298,1,139.999995727539,12|0,0:2|0:0,0:0:0:0:
127,260,154123,2,0,B|177:259|177:259|226:184,1,139.999995727539,12|0,0:2|0:0,0:0:0:0:
464,0,154365,6,2,P|496:129|401:224,1,279.999991455078,10|0,0:0|0:0,0:0:0:0:
244,174,154725,2,0,P|141:227|136:394,1,279.999991455078,8|0,0:0|0:0,0:0:0:0:
223,384,155085,6,0,P|217:342|248:232,1,119.999996337891,2|0,0:0|0:0,0:0:0:0:
323,88,155325,1,8,0:2:0:0:
108,124,155445,2,0,P|37:100|-18:61,2,119.999996337891,8|2|0,0:0|0:2|0:0,0:0:0:0:
234,36,155805,5,10,0:0:0:0:
321,196,155924,2,0,L|332:275,1,80,4|0,0:3|0:0,0:0:0:0:
420,262,156163,2,0,L|409:183,1,80,4|0,0:3|0:0,0:0:0:0:
222,255,156402,1,4,0:3:0:0:
337,109,156522,2,0,L|355:-11,1,110.000003356934,12|0,0:3|0:0,0:0:0:0:
202,276,156761,6,0,B|246:295|246:295|278:416,1,139.999995727539,14|0,0:2|0:0,0:0:0:0:
19,321,157000,2,0,B|13:273|13:273|78:208,1,139.999995727539,12|0,0:2|0:0,0:0:0:0:
229,0,157239,2,0,B|257:38|257:38|233:127,1,139.999995727539,12|0,0:2|0:0,0:0:0:0:
114,297,157482,1,2,0:0:0:0:
158,54,157604,1,8,0:2:0:0:
8,153,157726,2,0,B|-17:125|-17:125|7:8,1,139.999995727539,2|0,0:0|0:0,0:0:0:0:
273,214,157970,6,0,B|416:219|373:90|526:93,2,279.999991455078,10|2|2,0:0|0:0|0:0,0:0:0:0:
484,379,158687,6,2,B|485:360|499:341|499:341|474:327|474:327|493:305|486:279,1,120,6|0,0:0|0:0,0:0:0:0:
486,280,168036,6,2,B|492:304|473:326|473:326|498:340|498:340|484:359|483:378,1,120,2|0,0:0|0:0,0:0:0:0:
39,301,168996,6,0,B|64:329|64:329|192:320,1,119.999996337891,2|0,0:0|0:0,0:0:0:0:
320,376,169236,2,0,B|290:368|290:368|248:266,1,100,2|0,0:0|0:0,0:0:0:0:
113,136,169475,6,0,P|103:216|115:244,1,80,2|0,0:0|0:0,0:0:0:0:
214,178,169715,2,0,P|288:146|300:124,1,80,2|0,0:2|0:0,0:0:0:0:
155,41,169955,2,0,P|195:61|210:79,1,59.9999981689454,2|0,0:2|0:0,0:0:0:0:
474,382,170221,6,0,L|487:262,1,100,12|0,0:2|0:0,0:0:0:0:
372,99,170456,2,0,L|361:198,1,100,8|0,0:2|0:0,0:0:0:0:
483,73,170691,2,0,L|494:177,1,100,2|0,0:2|0:0,0:0:0:0:
395,283,170926,6,0,P|306:295|264:288,1,100,8|0,0:0|0:0,0:0:0:0:
101,343,171159,2,0,P|150:343|199:354,1,100,10|0,0:2|0:0,0:0:0:0:
57,238,171393,2,0,P|106:238|155:227,1,100,2|0,0:2|0:0,0:0:0:0:
269,198,171628,5,8,0:0:0:0:
218,0,171867,1,8,0:2:0:0:
131,132,172106,1,2,0:2:0:0:
438,73,172360,6,0,P|370:70|340:130,1,100,10|0,0:0|0:0,0:0:0:0:
303,281,172600,2,0,P|255:291|214:264,1,100,10|0,0:2|0:0,0:0:0:0:
96,140,172840,2,0,P|143:129|184:156,1,100,2|0,0:2|0:0,0:0:0:0:
272,0,173080,6,0,L|260:99,1,100,10|0,0:0|0:0,0:0:0:0:
402,267,173311,2,0,L|389:167,1,100,2|0,0:0|0:0,0:0:0:0:
200,276,173543,2,0,L|212:375,1,100,2|0,0:0|0:0,0:0:0:0:
15,197,173777,6,0,P|115:132|187:158,1,200,10|0,0:0|0:0,0:0:0:0:
357,146,174135,1,8,0:2:0:0:
312,282,174255,2,0,P|295:221|260:148,1,100,8|0,0:2|0:0,0:0:0:0:
164,39,174494,5,4,0:3:0:0:
286,74,174623,1,4,0:3:0:0:
201,258,174753,1,6,0:3:0:0:
163,162,174872,1,4,0:3:0:0:
57,288,174992,2,0,P|73:335|82:384,1,100,6|0,0:3|0:0,0:0:0:0:
0,206,175231,6,0,P|43:98|130:60,1,200,10|0,0:0|0:0,0:0:0:0:
233,131,175589,1,4,0:3:0:0:
180,263,175709,2,0,P|205:318|265:359,1,100,6|0,0:3|0:0,0:0:0:0:
350,139,175948,6,0,L|251:153,1,100,8|0,0:0|0:0,0:0:0:0:
414,266,176188,2,0,L|512:251,1,100,10|0,0:2|0:0,0:0:0:0:
463,94,176428,2,0,L|364:108,1,100,2|0,0:2|0:0,0:0:0:0:
280,260,176668,5,8,0:0:0:0:
302,0,176908,1,8,0:2:0:0:
512,167,177148,1,2,0:2:0:0:
151,200,177388,6,0,P|168:89|166:73,1,100,8|0,0:0|0:0,0:0:0:0:
8,281,177628,2,0,P|11:330|25:378,1,100,10|0,0:2|0:0,0:0:0:0:
62,156,177868,2,0,P|58:111|26:34,1,100,2|0,0:2|0:0,0:0:0:0:
174,304,178108,6,0,L|297:328,1,100,10|0,0:0|0:0,0:0:0:0:
403,371,178348,2,0,L|501:351,1,100,2|0,0:0|0:0,0:0:0:0:
151,209,178588,2,0,L|249:228,1,100,2|0,0:0|0:0,0:0:0:0:
431,32,178828,6,0,P|329:35|259:163,1,239.999992675781,4|0,0:0|0:0,0:0:0:0:
381,153,179547,1,8,0:0:0:0:
393,132,180027,1,2,0:2:0:0:
278,378,180267,6,0,P|269:339|273:294,1,59.9999981689454,8|0,0:2|0:0,0:0:0:0:
148,247,180507,1,2,0:2:0:0:
158,266,180627,2,0,P|147:308|152:393,1,119.999996337891,10|0,0:2|0:0,0:0:0:0:
84,172,180987,5,8,0:0:0:0:
241,4,181107,2,2,B|320:91|215:173|215:173|295:211|295:211|186:306|263:406,1,479.999985351563,2|0,0:0|0:0,0:0:0:0:
512,255,181707,6,0,P|489:182|342:142,1,239.999992675781,12|0,0:2|0:0,0:0:0:0:
174,240,182098,2,0,P|78:227|35:142,1,200,4|0,0:2|0:0,0:0:0:0:
130,28,182450,2,0,P|132:77|112:123,1,100,10|0,0:0|0:0,0:0:0:0:
22,383,182690,2,0,P|1:335|8:255,1,100,8|0,0:0|0:0,0:0:0:0:
189,243,182930,2,0,P|242:239|304:222,1,100,2|0,0:0|0:0,0:0:0:0:
512,225,183170,6,0,P|406:271|382:384,1,239.999992675781,12|0,0:2|0:0,0:0:0:0:
367,184,183552,2,0,P|375:104|347:48,1,100,4|0,0:2|0:0,0:0:0:0:
281,128,183789,1,8,0:2:0:0:
452,42,183907,2,0,P|414:5|375:-3,1,69.9999978637696,2|0,0:0|0:0,0:0:0:0:
283,38,184141,2,0,P|232:52|205:81,1,69.9999978637696,2|0,0:0|0:0,0:0:0:0:
473,141,184377,5,8,0:0:0:0:
260,371,184604,1,8,0:2:0:0:
99,116,184861,1,8,0:2:0:0:
424,359,185098,5,8,0:0:0:0:
208,260,185338,1,8,0:2:0:0:
147,346,185458,2,0,L|13:365,2,100,8|8|8,0:2|0:2|0:2,0:0:0:0:
212,152,185818,6,0,P|200:200|206:249,1,100,10|0,0:0|0:0,0:0:0:0:
189,67,186055,2,0,P|238:62|287:50,1,100,2|0,0:0|0:0,0:0:0:0:
396,0,186292,1,8,0:2:0:0:
462,201,186410,1,8,0:2:0:0:
483,78,186529,6,0,P|406:102|341:236,1,200,2|8,0:0|0:2,0:0:0:0:
394,280,186885,1,8,0:0:0:0:
287,383,187003,2,0,P|239:368|199:339,1,100,2|0,0:2|0:0,0:0:0:0:
37,146,187224,6,0,L|65:384,1,239.999992675781,12|0,0:2|0:0,0:0:0:0:
207,217,187599,2,0,L|6:160,1,200,4|0,0:2|0:0,0:0:0:0:
199,107,187954,6,0,P|226:65|249:-1,1,100,10|0,0:0|0:0,0:0:0:0:
311,286,188192,2,0,P|308:335|295:384,1,100,8|0,0:0|0:0,0:0:0:0:
454,197,188430,2,0,P|404:203|354:199,1,100,2|0,0:0|0:0,0:0:0:0:
188,384,188668,6,0,P|179:267|274:189,1,239.999992675781,12|0,0:2|0:0,0:0:0:0:
463,223,189030,2,0,P|519:145|488:53,1,200,4|0,0:2|0:0,0:0:0:0:
361,0,189393,2,0,P|374:42|380:88,1,80,2|0,0:0|0:0,0:0:0:0:
115,105,189635,2,0,P|154:100|193:90,1,80,2|0,0:0|0:0,0:0:0:0:
267,2,189877,5,8,0:0:0:0:
279,280,190116,1,8,0:2:0:0:
0,333,190355,1,8,0:2:0:0:
353,150,190594,5,8,0:0:0:0:
92,188,190833,1,8,0:2:0:0:
104,292,190953,2,0,L|141:384,2,100,8|8|8,0:2|0:2|0:2,0:0:0:0:
182,183,191311,6,0,P|278:212|305:341,2,239.999992675781,10|8|0,0:0|0:2|0:0,0:0:0:0:
110,130,191908,1,8,0:0:0:0:
119,261,192028,1,8,0:2:0:0:
0,110,192147,1,8,0:0:0:0:
184,50,192267,2,0,P|229:64|294:67,1,100,4|4,0:3|0:3,0:0:0:0:
372,122,192506,1,4,0:3:0:0:
284,200,192626,1,4,0:3:0:0:
408,246,192745,6,0,P|460:190|437:14,1,239.999992675781,12|0,0:2|0:0,0:0:0:0:
300,208,193104,2,0,P|307:331|314:347,1,100,4|0,0:2|0:0,0:0:0:0:
370,361,193343,1,0,0:0:0:0:
116,384,193462,2,0,P|117:335|139:286,1,100,10|0,0:0|0:0,0:0:0:0:
276,116,193701,2,0,P|223:115|177:99,1,100,8|0,0:0|0:0,0:0:0:0:
25,243,193940,2,0,P|5:200|1:130,1,100,2|0,0:0|0:0,0:0:0:0:
158,0,194179,6,0,P|102:61|97:190,1,200,12|0,0:2|0:0,0:0:0:0:
117,340,194546,2,0,P|171:311|203:264,1,100,4|0,0:2|0:0,0:0:0:0:
280,273,194791,1,0,0:0:0:0:
18,374,194913,6,0,P|18:326|3:236,1,100,10|0,0:0|0:0,0:0:0:0:
280,68,195158,2,0,P|273:117|273:167,1,100,2|0,0:0|0:0,0:0:0:0:
314,384,195403,6,0,P|388:318|484:298,1,200,14|0,0:2|0:0,0:0:0:0:
244,180,195761,2,0,P|173:154|64:46,1,200,12|0,0:2|0:0,0:0:0:0:
377,131,196120,2,0,P|374:181|367:231,1,100,8|0,0:0|0:0,0:0:0:0:
209,384,196359,2,0,P|184:341|153:302,1,100,8|0,0:3|0:0,0:0:0:0:
50,278,196598,2,0,L|37:377,1,100,8|0,0:0|0:0,0:0:0:0:
12,105,196837,6,0,P|169:113|219:205,1,239.999992675781,12|0,0:2|0:0,0:0:0:0:
314,319,197195,2,0,P|301:216|377:142,1,200,12|0,0:2|0:0,0:0:0:0:
273,0,197554,2,0,P|273:53|277:103,1,100,10|0,0:0|0:0,0:0:0:0:
406,251,197789,2,0,P|458:249|512:237,1,100,10|0,0:2|0:0,0:0:0:0:
307,330,198025,2,0,P|257:331|208:341,1,100,8|0,0:2|0:0,0:0:0:0:
82,358,198261,6,0,P|63:318|64:255,1,100,4|0,0:2|0:0,0:0:0:0:
223,176,198502,2,0,P|179:200|150:240,1,100,8|0,0:2|0:0,0:0:0:0:
290,239,198744,2,0,P|339:244|382:269,1,100,8|0,0:2|0:0,0:0:0:0:
148,114,198986,6,0,L|136:-2,1,100,8|0,0:0|0:0,0:0:0:0:
359,61,199228,2,0,L|348:160,1,100,8|0,0:2|0:0,0:0:0:0:
291,361,199470,2,0,L|279:245,1,100,8|0,0:2|0:0,0:0:0:0:
439,191,199712,6,0,P|468:230|512:254,1,100,8|0,0:0|0:0,0:0:0:0:
382,384,199952,2,0,P|400:338|397:289,1,100,8|0,0:2|0:0,0:0:0:0:
257,161,200193,2,0,P|239:114|241:65,1,100,8|0,0:2|0:0,0:0:0:0:
489,58,200434,6,0,L|390:73,1,100,8|0,0:0|0:0,0:0:0:0:
145,183,200675,2,0,L|46:167,1,100,2|0,0:0|0:0,0:0:0:0:
284,246,200916,2,0,L|299:360,1,100,2|0,0:0|0:0,0:0:0:0:
214,380,201157,5,6,0:2:0:0:
132,60,201409,1,8,0:2:0:0:
161,304,201679,5,4,0:2:0:0:
232,49,201967,1,8,0:2:0:0:
189,216,202265,5,2,0:2:0:0:
340,67,202552,1,8,0:2:0:0:
6,177,202853,5,4,0:0:0:0:
192,131,203162,1,8,0:2:0:0:
506,292,203489,5,4,0:0:0:0:
374,257,203822,1,8,0:2:0:0:
186,237,204174,5,10,0:2:0:0:
291,209,204561,1,8,0:2:0:0:
45,376,205041,5,6,0:2:0:0:
256,192,205161,12,0,209060,0:0:0:0:
256,192,209201,5,4,0:2:0:0:
237,359,209434,1,4,0:2:0:0:
307,115,209667,1,4,0:2:0:0:
141,9,209901,1,4,0:2:0:0:
346,194,210134,1,4,0:2:0:0:
509,25,210368,1,4,0:2:0:0:
256,192,210601,6,0,P|168:179|110:58,1,200,10|0,0:0|0:0,0:0:0:0:
335,282,210952,2,0,P|437:304|467:425,1,200,8|0,0:0|0:0,0:0:0:0:
437,200,211304,2,0,P|435:150|409:81,1,100,2|0,0:0|0:0,0:0:0:0:
305,277,211538,2,0,P|328:249|347:179,1,100,2|0,0:0|0:0,0:0:0:0:
262,105,211772,1,8,0:3:0:0:
239,195,211890,1,4,0:3:0:0:
171,253,212007,6,0,P|103:275|57:417,1,200,10|0,0:0|0:0,0:0:0:0:
99,141,212358,2,0,P|167:87|175:40,1,100,10|0,0:0|0:0,0:0:0:0:
78,51,212593,1,2,0:0:0:0:
0,190,212710,2,0,P|3:133|-2:82,1,100,2|0,0:0|0:0,0:0:0:0:
258,0,212940,2,0,P|254:49|257:99,1,100,2|0,0:0|0:0,0:0:0:0:
372,137,213171,2,0,P|375:87|371:37,1,100,10|0,0:2|0:0,0:0:0:0:
377,224,213402,6,0,P|454:181|429:47,1,200,10|0,0:0|0:0,0:0:0:0:
399,345,213748,2,0,P|290:277|285:180,1,200,8|0,0:0|0:0,0:0:0:0:
180,140,214094,2,0,L|77:129,1,100,2|0,0:0|0:0,0:0:0:0:
0,321,214325,1,8,0:3:0:0:
62,253,214440,1,4,0:3:0:0:
152,285,214556,2,0,L|165:392,1,100,10|0,0:2|0:0,0:0:0:0:
0,236,214786,6,0,P|100:216|187:159,1,200,10|0,0:0|0:0,0:0:0:0:
336,182,215129,2,0,P|271:50|266:-19,1,200,10|0,0:0|0:0,0:0:0:0:
488,114,215473,1,10,0:0:0:0:
435,184,215587,1,4,0:3:0:0:
419,275,215702,2,0,P|371:287|322:296,1,100,10|0,0:3|0:0,0:0:0:0:
96,348,215931,2,0,P|143:353|231:376,1,100,10|0,0:2|0:0,0:0:0:0:
99,177,216160,6,0,P|46:118|63:-5,1,200,10|0,0:0|0:0,0:0:0:0:
224,185,216506,2,0,P|251:260|224:312,1,100,10|0,0:0|0:0,0:0:0:0:
166,248,216736,1,2,0:0:0:0:
293,139,216852,2,0,P|352:139|416:128,1,100,10|0,0:0|0:0,0:0:0:0:
512,136,217083,1,10,0:0:0:0:
510,222,217198,1,6,0:3:0:0:
437,275,217313,2,0,P|441:321|438:384,1,100,2|0,0:0|0:0,0:0:0:0:
276,117,217544,6,0,P|316:27|433:6,1,200,10|0,0:0|0:0,0:0:0:0:
482,55,217890,1,0,0:0:0:0:
486,173,218006,2,0,P|440:178|354:166,1,100,8|0,0:2|0:0,0:0:0:0:
326,258,218236,2,0,P|339:307|343:356,1,100,10|0,0:0|0:0,0:0:0:0:
46,260,218467,2,0,P|99:258|190:239,1,100,10|0,0:0|0:0,0:0:0:0:
84,65,218698,2,0,P|97:120|102:193,1,100,2|0,0:0|0:0,0:0:0:0:
152,380,218929,6,0,P|216:328|231:215,1,200,10|0,0:0|0:0,0:0:0:0:
304,41,219275,2,0,P|295:95|313:137,1,100,8|0,0:0|0:0,0:0:0:0:
394,179,219468,1,4,0:3:0:0:
210,128,219582,2,0,P|159:138|94:148,1,100,8|0,0:0|0:0,0:0:0:0:
316,260,219811,2,0,P|329:319|350:378,1,100,8|0,0:0|0:0,0:0:0:0:
443,258,220040,1,8,0:0:0:0:
447,384,220155,1,4,0:3:0:0:
472,251,220269,6,2,P|479:183|436:30,1,200,10|0,0:0|0:0,0:0:0:0:
271,169,220615,2,2,P|353:60|366:-9,1,200,10|0,0:0|0:0,0:0:0:0:
112,49,220961,2,2,P|176:42|248:8,1,100,2|0,0:0|0:0,0:0:0:0:
106,147,221190,1,10,0:2:0:0:
91,234,221304,1,10,0:2:0:0:
113,324,221419,2,0,P|57:342|16:345,1,100,8|0,0:0|0:0,0:0:0:0:
205,136,221648,6,0,B|351:119|303:260|469:239,1,259.999988098145,14|0,0:2|0:0,0:0:0:0:
497,56,221994,2,0,P|449:139|439:187,1,100,8|0,0:0|0:0,0:0:0:0:
512,263,222224,1,8,0:2:0:0:
369,102,222340,6,0,P|355:49|369:-25,1,100,10|0,0:0|0:0,0:0:0:0:
238,234,222571,2,0,P|249:271|245:357,1,100,2|0,0:0|0:0,0:0:0:0:
161,297,222801,1,4,0:3:0:0:
315,383,222917,1,4,0:3:0:0:
160,191,223032,6,0,P|176:34|210:13,1,200,10|0,0:0|0:0,0:0:0:0:
37,194,223378,2,0,P|70:271|44:406,1,200,10|0,0:0|0:0,0:0:0:0:
238,234,223724,2,0,P|271:246|340:252,1,100,2|0,0:0|0:0,0:0:0:0:
421,274,223955,1,6,0:3:0:0:
365,101,224071,1,4,0:3:0:0:
477,349,224186,2,0,P|511:290|505:228,1,100,2|0,0:0|0:0,0:0:0:0:
341,120,224417,6,0,P|395:127|512:50,1,200,8|0,0:0|0:0,0:0:0:0:
257,59,224765,2,0,P|199:135|200:182,1,100,8|0,0:0|0:0,0:0:0:0:
229,223,224998,1,4,0:3:0:0:
141,332,225114,2,0,P|101:331|34:291,1,100,10|0,0:0|0:0,0:0:0:0:
73,116,225347,2,0,P|74:165|96:210,1,100,2|0,0:0|0:0,0:0:0:0:
240,384,225579,2,0,P|282:357|309:316,1,100,2|0,0:0|0:0,0:0:0:0:
383,88,225812,6,0,P|396:186|480:323,2,239.999992675781,2|2|2,0:0|0:0|0:0,0:0:0:0:
437,1,226388,1,4,0:3:0:0:
299,224,226504,2,0,P|261:196|218:144,1,100,10|0,0:0|0:0,0:0:0:0:
504,216,226735,2,0,P|498:262|475:326,1,100,8|0,0:0|0:0,0:0:0:0:
302,103,226965,2,0,P|285:55|279:6,1,100,8|0,0:0|0:0,0:0:0:0:
195,240,227196,6,0,P|158:331|-5:359,1,239.999992675781,12|0,0:2|0:0,0:0:0:0:
4,66,227543,2,0,P|94:158|84:279,1,239.999992675781,8|0,0:0|0:0,0:0:0:0:
293,383,227890,2,0,P|278:331|271:251,1,100,10|0,0:0|0:0,0:0:0:0:
488,329,228122,2,0,P|433:335|388:332,1,100,2|0,0:0|0:0,0:0:0:0:
267,82,228354,2,0,P|284:127|297:207,1,100,2|0,0:0|0:0,0:0:0:0:
512,247,228585,6,0,P|421:195|382:87,1,200,10|0,0:0|0:0,0:0:0:0:
194,0,228929,2,0,P|170:77|36:144,1,200,8|0,0:0|0:0,0:0:0:0:
2,86,229274,1,8,0:0:0:0:
35,258,229389,1,8,0:2:0:0:
90,98,229504,2,0,P|92:45|80:-6,1,100,10|0,0:0|0:0,0:0:0:0:
129,289,229734,2,0,P|171:330|217:352,1,100,10|0,0:0|0:0,0:0:0:0:
355,383,229964,5,6,0:3:0:0:
319,217,230077,2,2,P|317:166|456:88,1,200,2|0,0:0|0:0,0:0:0:0:
463,160,230418,1,4,0:3:0:0:
345,0,230532,1,4,0:3:0:0:
212,203,230645,6,0,P|133:199|57:69,1,200,10|0,0:0|0:0,0:0:0:0:
158,15,230986,2,0,P|162:62|157:135,1,100,4|0,0:3|0:0,0:0:0:0:
192,241,231213,1,8,0:2:0:0:
403,75,231327,2,0,P|354:84|304:87,1,100,10|0,0:0|0:0,0:0:0:0:
426,202,231557,2,4,P|439:251|441:325,2,100,4|4|4,0:3|0:3|0:3,0:3:0:0:
344,162,231903,1,4,0:3:0:0:
236,362,232019,6,0,B|264:352|264:352|284:328|284:328|313:342|313:342|343:330|343:330|368:334,1,149.999995422363
485,275,232733,6,0,P|498:213|463:160,1,129.999994049073,4|0,0:0|0:0,0:0:0:0:
412,88,232970,1,2,0:0:0:0:
242,251,233088,2,0,P|163:225|163:47,1,259.999988098145,2|0,0:0|0:0,0:0:0:0:
234,156,233444,2,0,P|232:111|237:36,1,100,10|0,0:0|0:0,0:0:0:0:
50,276,233674,2,0,P|48:321|53:396,1,100,2|0,0:0|0:0,0:0:0:0:
225,360,233905,2,0,P|179:347|122:310,1,100,10|0,0:0|0:0,0:0:0:0:
335,252,234136,6,0,P|324:315|339:379,1,129.999994049073,4|0,0:0|0:0,0:0:0:0:
321,167,234366,1,10,0:0:0:0:
454,306,234482,2,0,P|505:261|470:90,1,259.999988098145,2|0,0:0|0:0,0:0:0:0:
307,12,234828,2,0,P|366:10|441:-18,1,100,10|0,0:0|0:0,0:0:0:0:
194,129,235059,2,0,P|225:179|286:230,1,100,2|0,0:0|0:0,0:0:0:0:
440,285,235289,2,0,P|432:334|436:384,1,100,10|0,0:0|0:0,0:0:0:0:
327,134,235520,6,0,P|290:87|276:10,1,129.999994049073,4|0,0:0|0:0,0:0:0:0:
335,252,235751,1,10,0:0:0:0:
191,42,235866,2,0,P|101:90|92:265,1,259.999988098145,2|0,0:0|0:0,0:0:0:0:
220,366,236212,2,0,P|202:316|199:246,1,100,10|0,0:0|0:0,0:0:0:0:
45,384,236443,2,0,P|73:347|133:299,1,100,2|0,0:0|0:0,0:0:0:0:
337,348,236674,2,0,P|378:369|452:387,1,100,10|0,0:0|0:0,0:0:0:0:
358,122,236905,6,0,P|322:175|318:240,1,129.999994049073,2|0,0:2|0:0,0:0:0:0:
512,348,237135,2,0,P|476:294|471:230,1,129.999994049073,2|0,0:2|0:0,0:0:0:0:
380,17,237366,2,0,P|318:34|273:80,1,129.999994049073,2|0,0:2|0:0,0:0:0:0:
212,384,237597,2,2,P|191:212|74:108,1,300,2|0,0:0|0:0,0:0:0:0:
82,158,238001,1,8,0:2:0:0:
82,158,238059,2,0,P|80:207|72:257,1,100,8|0,0:2|0:0,0:0:0:0:
289,61,238289,6,0,P|229:85|160:59,1,129.999994049073,4|0,0:0|0:0,0:0:0:0:
125,0,238520,1,10,0:0:0:0:
299,239,238635,2,0,P|385:204|376:32,1,259.999988098145,2|0,0:0|0:0,0:0:0:0:
492,286,238982,2,0,P|502:239|488:151,1,100,10|0,0:0|0:0,0:0:0:0:
287,54,239208,2,0,P|332:78|422:71,1,100,2|0,0:0|0:0,0:0:0:0:
233,128,239434,2,0,P|202:89|188:41,1,100,10|0,0:0|0:0,0:0:0:0:
203,244,239661,6,0,P|222:327|216:394,1,129.999994049073,4|4,0:0|0:3,0:0:0:0:
153,171,239891,1,10,0:0:0:0:
10,371,240007,2,0,P|164:323|224:230,1,259.999988098145,2|0,0:0|0:0,0:0:0:0:
356,244,240353,2,0,P|321:193|307:114,1,100,10|0,0:0|0:0,0:0:0:0:
470,69,240584,2,0,P|437:106|417:152,1,100,2|0,0:0|0:0,0:0:0:0:
468,340,240814,2,0,P|462:290|471:241,1,100,10|0,0:0|0:0,0:0:0:0:
236,0,241045,6,0,P|208:57|217:121,1,129.999994049073,4|0,0:0|0:0,0:0:0:0:
309,157,241276,1,10,0:0:0:0:
123,15,241391,2,0,P|131:143|222:242,1,259.999988098145,2|0,0:0|0:0,0:0:0:0:
20,100,241727,2,0,P|34:150|39:226,1,100,10|0,0:0|0:0,0:0:0:0:
108,321,241961,2,0,P|57:324|-17:315,1,100,2|0,0:0|0:0,0:0:0:0:
213,362,242195,2,0,P|264:365|338:356,1,100,10|0,0:0|0:0,0:0:0:0:
345,141,242430,6,0,P|324:193|338:279,1,100,6|8,0:0|0:0,0:0:0:0:
512,384,242660,1,10,0:2:0:0:
407,255,242776,1,8,0:0:0:0:
512,250,242891,1,10,0:2:0:0:
432,343,243007,1,8,0:0:0:0:
512,152,243122,2,0,P|489:107|329:53,1,200,6|0,0:0|0:0,0:0:0:0:
282,97,243408,5,8,0:2:0:0:
224,93,243489,1,8,0:2:0:0:
193,55,243570,2,0,P|204:24|259:-7,2,66.6666666666667,8|8|8,0:0|0:0|0:0,0:0:0:0:
179,273,243814,6,0,P|163:210|118:164,1,129.999994049073,2|0,0:0|0:0,0:0:0:0:
102,73,244045,1,8,0:0:0:0:
243,383,244160,2,0,P|273:315|248:127,1,259.999988098145,10|0,0:2|0:0,0:0:0:0:
512,225,244507,6,0,P|454:124|320:68,1,239.999992675781,14|0,0:2|0:0,0:0:0:0:
277,6,244849,1,8,0:2:0:0:
395,195,244963,2,0,P|384:258|351:321,1,119.999996337891,8|0,0:0|0:0,0:0:0:0:
72,272,245191,6,0,P|120:285|201:282,1,100,12|0,0:2|0:0,0:0:0:0:
271,238,245421,1,8,0:0:0:0:
0,199,245537,2,0,P|92:174|218:76,1,239.999992675781,10|0,0:2|0:0,0:0:0:0:
221,384,245883,6,0,P|200:350|192:269,1,119.999996337891,10|0,0:0|0:0,0:0:0:0:
298,32,246114,2,0,P|295:91|268:144,1,119.999996337891,2|0,0:0|0:0,0:0:0:0:
75,53,246344,2,0,L|227:76,1,119.999996337891,8|0,0:0|0:0,0:0:0:0:
438,220,246575,5,8,0:2:0:0:
353,157,246691,1,12,0:2:0:0:
328,337,246807,2,0,L|472:312,2,119.999996337891,8|2|0,0:0|0:0|0:0,0:0:0:0:
191,271,247156,1,8,0:2:0:0:
376,144,247272,6,0,P|421:148|480:208,1,119.999996337891,10|0,0:0|0:0,0:0:0:0:
293,27,247505,2,0,P|211:94|167:89,1,119.999996337891,2|0,0:0|0:0,0:0:0:0:
103,213,247737,2,0,P|3:175|-13:134,1,119.999996337891,10|0,0:0|0:0,0:0:0:0:
162,366,247970,6,2,B|300:377|256:232|448:304,2,259.999988098145,10|10|0,0:0|0:0|0:0,0:0:0:0:
72,306,248551,1,8,0:2:0:0:
255,166,248668,6,0,P|373:206|426:316,1,239.999992675781,6|0,0:2|0:0,0:0:0:0:
349,381,249016,1,8,0:2:0:0:
510,255,249133,2,0,P|519:313|502:371,1,119.999996337891,8|0,0:0|0:0,0:0:0:0:
385,112,249365,6,0,P|434:111|481:94,1,100,12|0,0:2|0:0,0:0:0:0:
507,10,249584,1,8,0:2:0:0:
328,191,249699,2,0,P|285:117|295:61,1,119.999996337891,2|0,0:0|0:0,0:0:0:0:
331,1,249930,1,8,0:2:0:0:
268,265,250045,6,0,P|263:323|272:404,1,119.999996337891,10|0,0:0|0:0,0:0:0:0:
351,322,250276,1,8,0:2:0:0:
152,323,250389,2,0,P|100:354|42:369,2,100,8|8|0,0:2|0:0|0:2,0:0:0:0:
245,166,250730,6,0,P|232:99|282:15,1,119.999996337891,6|0,0:2|0:0,0:0:0:0:
342,11,250965,1,8,0:0:0:0:
361,222,251082,2,0,P|342:162|330:99,2,119.999996337891,8|2|8,0:2|0:2|0:2,0:0:0:0:
454,306,251435,6,0,P|502:226|432:61,1,239.999992675781,10|0,0:0|0:0,0:0:0:0:
470,0,251788,1,8,0:2:0:0:
330,106,251906,2,0,P|288:101|180:66,1,119.999996337891,8|0,0:0|0:0,0:0:0:0:
117,175,252132,6,0,P|113:236|134:303,1,100,12|0,0:2|0:0,0:0:0:0:
85,98,252363,1,8,0:0:0:0:
16,355,252479,2,0,P|196:321|224:263,1,239.999992675781,10|0,0:2|0:0,0:0:0:0:
333,379,252826,6,0,P|339:319|329:261,1,119.999996337891,10|0,0:0|0:0,0:0:0:0:
399,175,253058,2,0,P|459:188|517:230,1,119.999996337891,8|0,0:2|0:0,0:0:0:0:
204,179,253290,2,0,L|218:14,1,119.999996337891,8|0,0:0|0:0,0:0:0:0:
383,21,253521,6,2,P|465:57|504:223,2,239.999992675781,10|2|0,0:0|0:0|0:0,0:0:0:0:
305,69,254109,1,10,0:2:0:0:
399,175,254226,2,0,P|398:224|387:273,1,100,14|0,0:2|0:0,0:0:0:0:
275,384,254449,5,8,0:0:0:0:
217,166,254561,1,8,0:2:0:0:
192,294,254673,1,8,0:0:0:0:
308,216,254777,1,8,0:2:0:0:
140,90,254882,6,0,P|122:176|127:253,1,129.999994049073,10|0,0:0|0:0,0:0:0:0:
192,384,255126,1,10,0:0:0:0:
9,249,255240,2,0,P|1:128|106:17,1,259.999988098145,2|0,0:0|0:0,0:0:0:0:
271,27,255584,2,0,B|284:62|284:62|403:89,1,129.999994049073,10|0,0:0|0:0,0:0:0:0:
498,242,255813,2,0,B|469:227|469:227|346:280,1,129.999994049073,2|0,0:0|0:0,0:0:0:0:
192,384,256042,2,0,B|228:363|228:363|262:237,1,129.999994049073,10|0,0:0|0:0,0:0:0:0:
502,128,256271,6,0,P|436:213|430:391,1,259.999988098145,4|8,0:0|0:0,0:0:0:0:
215,159,256614,2,0,P|214:217|257:282,1,129.999994049073,2|0,0:0|0:0,0:0:0:0:
305,381,256843,1,0,0:0:0:0:
326,170,256958,2,0,P|324:105|357:35,1,129.999994049073,10|0,0:0|0:0,0:0:0:0:
118,211,257187,2,0,P|62:245|-14:251,1,129.999994049073,2|0,0:0|0:0,0:0:0:0:
90,97,257416,2,0,P|156:108|224:149,1,129.999994049073,10|0,0:0|0:0,0:0:0:0:
462,19,257645,6,0,B|343:-22|365:81|218:44,1,239.999992675781,4|8,0:0|0:0,0:0:0:0:
439,135,257995,2,0,P|460:219|459:292,1,119.999996337891,2|0,0:0|0:0,0:0:0:0:
389,381,258228,1,2,0:0:0:0:
312,131,258345,2,0,P|290:198|309:297,1,119.999996337891,10|0,0:0|0:0,0:0:0:0:
111,352,258578,2,0,P|189:353|249:326,1,119.999996337891,2|0,0:0|0:0,0:0:0:0:
377,273,258812,2,0,P|409:342|405:414,1,119.999996337891,2|0,0:0|0:0,0:0:0:0:
132,186,259045,6,0,L|-38:215,1,129.999994049073,12|0,0:2|0:0,0:0:0:0:
343,136,259275,2,0,L|513:189,1,129.999994049073,12|0,0:2|0:0,0:0:0:0:
221,375,259506,2,0,L|208:245,1,129.999994049073,12|0,0:2|0:0,0:0:0:0:
313,30,259737,2,0,P|214:26|118:0,1,200,12|0,0:0|0:0,0:0:0:0:
410,18,260083,1,8,0:2:0:0:
455,284,260198,2,0,P|487:225|490:161,1,100,8|0,0:0|0:0,0:0:0:0:
314,149,260429,6,0,P|339:241|343:313,1,119.999996337891,4|0,0:0|0:0,0:0:0:0:
310,370,260660,1,8,0:0:0:0:
80,272,260775,2,0,P|136:265|210:233,2,119.999996337891,2|8|0,0:0|0:2|0:0,0:0:0:0:
36,373,261121,2,0,P|50:309|54:238,1,119.999996337891,10|0,0:0|0:0,0:0:0:0:
127,127,261352,2,0,P|74:149|1:170,1,119.999996337891,2|0,0:0|0:0,0:0:0:0:
175,8,261583,2,0,P|212:65|240:141,1,119.999996337891,10|0,0:0|0:0,0:0:0:0:
357,268,261814,6,0,P|438:233|446:62,1,259.999988098145,4|8,0:0|0:0,0:0:0:0:
349,175,262157,2,0,P|358:127|356:43,1,129.999994049073,2|0,0:0|0:0,0:0:0:0:
286,7,262386,1,8,0:2:0:0:
244,229,262501,2,0,B|270:262|270:262|274:387,1,129.999994049073,10|0,0:0|0:0,0:0:0:0:
0,244,262730,2,0,B|41:250|41:250|151:190,1,129.999994049073,2|0,0:0|0:0,0:0:0:0:
204,0,262959,2,0,B|176:36|176:36|187:148,1,129.999994049073,10|0,0:0|0:0,0:0:0:0:
357,268,263188,6,0,P|430:222|475:224,1,100,4|0,0:0|0:0,0:0:0:0:
510,277,263418,1,8,0:0:0:0:
331,62,263534,2,0,P|437:68|512:173,1,239.999992675781,2|0,0:0|0:0,0:0:0:0:
331,251,263880,2,0,B|304:226|304:226|172:256,1,119.999996337891,10|0,0:0|0:0,0:0:0:0:
120,384,264111,2,0,L|126:244,1,119.999996337891,2|0,0:0|0:0,0:0:0:0:
285,138,264341,2,0,L|152:103,1,119.999996337891,10|0,0:0|0:0,0:0:0:0:
18,245,264572,6,0,P|52:183|92:161,1,100,4|0,0:2|0:0,0:0:0:0:
130,21,264803,2,0,P|200:19|239:43,1,100,4|0,0:2|0:0,0:0:0:0:
506,366,265034,2,0,P|472:304|432:282,1,100,4|0,0:2|0:0,0:0:0:0:
380,127,265265,6,0,P|309:125|231:226,1,200,12|0,0:0|0:0,0:0:0:0:
276,336,265572,1,8,0:2:0:0:
316,327,265649,1,8,0:2:0:0:
350,288,265726,1,8,0:0:0:0:
400,245,265803,1,8,0:0:0:0:
461,238,265880,1,8,0:0:0:0:
509,278,265957,1,14,0:0:0:0:
