osu file format v14

[General]
AudioFilename: audio.mp3
AudioLeadIn: 0
PreviewTime: 141251
Countdown: 0
SampleSet: Drum
StackLeniency: 0.7
Mode: 2
LetterboxInBreaks: 0
WidescreenStoryboard: 1

[Editor]
Bookmarks: 196,12468,24704,32873,53317,72697,80867,89049,101307,122742,139081,155417,171770,196290,204488
DistanceSpacing: 0.9
BeatDivisor: 2
GridSize: 4
TimelineZoom: 1.6

[Metadata]
Title:Dark Days
TitleUnicode:Dark Days
Artist:PUP
ArtistUnicode:PUP
Creator:JBHyperion
Version:Silver Lining
Source:osu!
Tags:Pathetic Use of Potential Topanga Royal Mountain SideOneDummy Records english punk rock indie featured artist FA Mappers Guild
BeatmapID:2419060
BeatmapSetID:1158124

[Difficulty]
HPDrainRate:6
CircleSize:4
OverallDifficulty:9.4
ApproachRate:9.4
SliderMultiplier:1.6
SliderTickRate:1

[Events]
//Background and Video events
0,0,"tree-nature-forest-snow-winter-light-99031-pxhere.com.jpg",0,0
//Break Periods
//Storyboard Layer 0 (Background)
//Storyboard Layer 1 (Fail)
//Storyboard Layer 2 (Pass)
//Storyboard Layer 3 (Foreground)
//Storyboard Layer 4 (Overlay)
//Storyboard Sound Samples

[TimingPoints]
196,246.913580246913,4,3,1,50,1,0
442,251.046025104602,4,3,1,50,1,0
944,255.31914893617,4,3,1,50,1,0
1199,255.31914893617,4,3,1,50,1,0
3752,259.74025974026,4,3,1,50,1,0
4271,256.410256410256,4,3,1,50,1,0
7347,255.31914893617,4,3,1,50,1,0
8112,251.046025104602,4,3,1,50,1,0
8363,255.31914893617,4,3,1,60,1,0
9001,-100,4,3,1,20,0,0
9384,266.666666666666,4,3,1,60,1,0
9784,255.31914893617,4,3,1,60,1,0
10039,-100,4,3,1,20,0,0
10422,255.863539445629,4,3,1,60,1,0
11061,-100,4,2,1,60,0,0
11445,-100,4,3,1,60,0,0
12213,-100,4,3,1,70,0,0
12468,253.164556962025,4,3,2,60,1,0
16518,260.869565217391,4,3,2,60,1,0
17561,256.410256410256,4,3,2,60,1,0
19612,254.237288135593,4,3,7,80,1,0
19739,-100,4,3,2,60,0,0
19993,-100,4,3,0,50,0,0
20374,-100,4,3,2,60,0,0
20628,-100,4,3,2,70,0,0
23679,256.410256410256,4,3,2,70,1,0
26755,255.31914893617,4,3,1,60,1,0
31861,253.164556962025,4,3,1,60,1,0
33126,279.06976744186,4,3,1,60,1,0
33684,238.095238095238,4,3,1,60,1,0
34160,255.31914893617,4,3,1,60,1,0
34925,255.31914893617,4,3,1,60,1,0
35946,262.008733624454,4,3,1,60,1,0
36470,255.31914893617,4,3,1,60,1,0
36980,252.100840336134,4,3,1,60,1,0
37988,255.31914893617,4,3,1,60,1,0
40030,-100,4,3,7,80,0,0
40157,-100,4,3,2,60,0,0
40411,-100,4,3,0,50,0,0
40792,-100,4,3,2,60,0,0
41051,-100,4,3,2,70,0,0
45136,-100,4,3,2,60,0,0
51264,-100,4,3,7,80,0,0
51392,-100,4,3,2,60,0,0
52285,-100,4,3,7,80,0,0
52413,-100,4,3,2,60,0,0
53051,266.666666666666,4,3,2,60,1,0
53317,250,4,3,1,50,1,0
54067,240,4,3,1,50,1,0
54307,256.410256410256,4,3,1,50,1,0
55332,260.869565217391,4,3,1,50,1,0
56375,258.064516129032,4,3,1,50,1,0
57407,244.897959183673,4,3,1,50,1,0
57651,252.100840336134,4,3,1,50,1,0
58407,256.95931477516,4,3,1,50,1,0
59434,254.237288135593,4,3,1,50,1,0
63501,256.410256410256,4,3,0,40,1,0
63757,-100,4,3,1,50,0,0
66321,-99.7864569820584,4,3,1,50,0,0
66577,255.31914893617,4,3,1,50,1,0
67598,-100,4,3,2,60,0,0
68364,266.666666666666,4,3,2,60,1,0
68630,255.31914893617,4,3,2,60,1,0
70417,-100,4,2,1,20,0,0
70672,-100,4,3,2,40,0,0
71183,250,4,3,2,50,1,0
71683,-100,4,3,2,60,0,0
72183,-100,4,3,2,70,0,0
72433,264.900662251655,4,3,2,70,1,0
73757,251.572327044025,4,3,2,60,1,0
74763,254.777070063694,4,3,2,60,1,0
75782,255.31914893617,4,3,2,60,1,0
79867,249.999999999999,4,3,2,60,1,0
80867,256.410256410255,4,2,1,70,1,0
81123,-100,4,2,2,70,0,0
81251,-100,4,2,1,70,0,0
81892,255.319148936169,4,2,1,70,1,0
82147,-100,4,2,2,70,0,0
82275,-100,4,2,1,70,0,0
82657,-100,4,2,2,70,0,0
82913,266.666666666665,4,2,1,70,1,0
83420,272.727272727271,4,2,1,70,1,0
83556,-100,4,2,2,70,0,0
83829,-100,4,2,1,70,0,0
83965,244.897959183672,4,2,1,70,1,0
84209,253.164556962024,4,2,1,70,1,0
84588,-100,4,2,2,70,0,0
84841,-100,4,2,1,70,0,0
84968,255.319148936169,4,2,1,70,1,0
85223,-100,4,2,2,70,0,0
85350,-100,4,2,1,70,0,0
85733,-100,4,2,2,70,0,0
85989,-100,4,2,1,70,0,0
86755,-100,4,2,2,70,0,0
87010,-100,4,2,1,70,0,0
87138,-100,4,2,2,70,0,0
87393,-100,4,2,1,70,0,0
87648,-100,4,2,2,70,0,0
87904,-100,4,2,1,70,0,0
88027,247.93388429752,4,1,1,80,1,0
88398,-100,4,1,1,70,0,0
88770,279.069767441859,4,1,1,60,1,0
89049,255.319148936169,4,3,2,70,1,0
90070,253.164556962024,4,3,2,70,1,0
91082,255.319148936169,4,3,2,70,1,0
92103,-100,4,3,2,80,0,0
93124,-100,4,3,1,60,0,0
93379,253.164556962024,4,3,1,60,1,0
94391,256.410256410255,4,3,1,60,1,0
95160,256.136606189967,4,3,1,60,1,0
100287,-100,4,3,7,80,0,0
100414,-100,4,3,2,60,0,0
100668,-100,4,3,0,50,0,0
101049,-100,4,3,2,60,0,0
101307,256.410256410255,4,3,2,70,1,1
104383,253.164556962024,4,3,2,70,1,1
106408,255.863539445628,4,3,2,70,1,1
108454,256.959314775159,4,3,2,70,1,1
109481,255.319148936168,4,3,2,70,1,1
116360,255.319148936168,4,3,2,70,1,1
117636,255.319148936168,4,3,2,70,1,1
121734,255.319148936168,4,3,2,70,1,1
122742,255.863539445627,4,3,1,60,1,0
125556,-100,4,2,1,60,0,0
126835,-100,4,3,1,60,0,0
129650,-100,4,2,1,60,0,0
130918,256.045519203778,4,3,1,60,1,0
133734,-100,4,2,1,60,0,0
135014,-100,4,3,1,60,0,0
137831,-100,4,2,1,60,0,0
139081,255.31914893617,4,3,2,70,1,1
139081,-90.9090909090909,4,3,2,70,0,1
141634,-66.6666666666667,4,3,2,70,0,1
142144,256.95931477516,4,3,2,70,1,1
142144,-90.9090909090909,4,3,2,70,0,1
142657,-66.6666666666667,4,3,2,70,0,1
142914,-90.9090909090909,4,3,2,70,0,1
145227,253.699788583509,4,3,2,70,1,1
145227,-90.9090909090909,4,3,2,70,0,1
146241,255.31914893617,4,3,2,70,1,1
146241,-90.9090909090909,4,3,2,70,0,1
147517,-66.6666666666667,4,3,2,70,0,1
147900,-90.9090909090909,4,3,2,70,0,1
150326,-66.6666666666667,4,3,2,70,0,1
150581,-90.9090909090909,4,3,2,70,0,1
152368,253.164556962025,4,3,2,70,1,1
152368,-90.9090909090909,4,3,2,70,0,1
153886,255.31914893617,4,3,2,70,1,1
153886,-90.9090909090909,4,3,2,70,0,1
154396,255.31914893617,4,3,2,70,1,1
154396,-90.9090909090909,4,3,2,70,0,1
155417,265.486725663717,4,2,1,60,1,0
155417,-100,4,2,1,60,0,0
156478,248.96265560166,4,2,1,60,1,0
157473,254.237288135594,4,2,1,60,1,0
158489,255.319148936171,4,2,1,60,1,0
161537,260.303687635575,4,2,1,60,1,0
163359,242.914979757085,4,2,1,60,1,0
163601,254.237288135593,4,2,1,60,1,0
165634,255.31914893617,4,2,1,60,1,0
169719,-100,4,2,1,65,0,0
170740,257.510729613733,4,2,1,70,1,0
171255,-100,4,2,1,75,0,0
171770,-100,4,3,2,80,0,1
172800,255.319148936169,4,3,2,80,1,1
178927,-44.4444444444445,4,3,2,90,0,1
179182,-100,4,3,2,90,0,1
179948,-100,4,3,2,80,0,1
181991,-80,4,3,2,80,0,1
182246,-100,4,3,2,80,0,1
184016,257.510729613732,4,3,2,80,1,1
185046,253.164556962023,4,3,2,80,1,1
186058,255.863539445627,4,3,2,80,1,1
186825,269.058295964123,4,3,2,80,1,1
187094,248.962655601658,4,3,2,80,1,1
187591,257.510729613731,4,3,2,80,1,1
189136,257.510729613731,4,3,2,80,1,1
190423,255.319148936167,4,3,2,80,1,1
191954,-100,4,3,1,80,0,1
192210,254.23728813559,4,3,2,80,1,1
192210,-44.4444444444445,4,3,2,80,0,1
192464,-100,4,3,2,80,0,1
192718,-100,4,3,1,80,0,1
192972,-44.4444444444445,4,3,2,80,0,1
193226,-100,4,3,2,80,0,1
193481,-100,4,3,1,80,0,1
193735,-100,4,3,2,80,0,1
194243,-100,4,3,1,80,0,1
194498,-100,4,3,2,80,0,1
194752,-100,4,3,1,60,0,0
195006,-100,4,3,1,40,0,0
195260,257.51072961373,4,3,1,50,1,0
195775,-100,4,3,1,60,0,0
196032,-100,4,2,1,5,0,0
196290,252.100840336131,4,3,1,60,1,0
197802,255.319148936167,4,3,1,60,1,0
198312,257.51072961373,4,3,1,60,1,0
198827,262.00873362445,4,3,1,60,1,0
199351,255.319148936166,4,3,1,60,1,0
200116,242.914979757082,4,3,1,60,1,0
200358,263.157894736838,4,3,1,60,1,0
200621,255.319148936166,4,3,1,60,1,0
201386,254.237288135589,4,3,1,60,1,0
202402,260.869565217387,4,3,1,70,1,0
202402,-66.6666666666667,4,3,1,70,0,0
203054,-66.6666666666667,4,3,1,30,0,0
203445,-66.6666666666667,4,3,1,70,0,0
203706,-66.6666666666667,4,3,1,30,0,0
203836,-66.6666666666667,4,3,1,70,0,0
204228,-66.6666666666667,4,3,1,30,0,0

[Colours]
Combo1 : 150,255,150
Combo2 : 150,255,255
Combo3 : 150,150,255
Combo4 : 255,255,150

[HitObjects]
172,192,196,6,0,P|123:139|172:84,1,160,2|8,0:0|0:0,0:0:0:0:
244,84,567,1,8,0:0:0:0:
116,84,693,2,0,L|112:168,1,80,2|2,0:0|0:0,0:0:0:0:
336,192,944,2,0,L|420:192,1,80,8|0,0:0|0:0,0:0:0:0:
320,192,1199,1,2,0:0:0:0:
256,144,1326,1,2,0:0:0:0:
256,64,1454,1,8,0:0:0:0:
328,28,1581,1,8,0:0:0:0:
456,32,1709,2,0,L|460:192,1,160,2|8,0:0|0:0,0:0:0:0:
88,336,2220,6,0,P|56:272|84:192,1,160,2|8,0:0|0:0,0:0:0:0:
164,192,2603,1,8,0:0:0:0:
244,192,2730,2,0,L|248:112,1,80,2|2,0:0|0:0,0:0:0:0:
112,120,2986,2,0,L|108:32,1,80,8|8,0:0|0:0,0:0:0:0:
340,84,3241,2,0,P|392:136|340:192,1,160,2|8,0:0|0:0,0:0:0:0:
272,192,3624,1,2,0:0:0:0:
216,192,3752,1,0,0:0:0:0:
272,192,3881,1,2,0:0:0:0:
192,192,4011,1,8,0:0:0:0:
120,192,4141,1,8,0:0:0:0:
364,84,4271,6,0,P|388:156|368:236,1,160,2|8,0:0|0:0,0:0:0:0:
296,236,4655,1,8,0:0:0:0:
168,192,4783,2,0,L|164:272,1,80,2|2,0:0|0:0,0:0:0:0:
375,315,5040,2,0,L|367:227,1,80,8|0,0:0|0:0,0:0:0:0:
240,236,5296,1,2,0:0:0:0:
242,165,5424,1,2,0:0:0:0:
287,110,5553,1,8,0:0:0:0:
356,93,5681,1,8,0:0:0:0:
501,160,5809,2,0,L|350:90,1,160,2|8,0:0|0:0,0:0:0:0:
148,280,6322,6,0,P|108:212|152:156,1,160,2|8,0:0|0:0,0:0:0:0:
232,156,6706,1,8,0:0:0:0:
304,148,6835,1,2,0:0:0:0:
232,136,6963,1,2,0:0:0:0:
104,136,7091,2,0,L|108:52,1,80,8|8,0:0|0:0,0:0:0:0:
360,136,7347,2,0,P|356:64|280:36,1,160,2|8,0:0|0:0,0:0:0:0:
212,36,7729,1,8,0:0:0:0:
292,36,7857,2,0,L|380:36,1,80,2|2,0:0|0:0,0:0:0:0:
384,116,8112,1,8,0:0:0:0:
68,36,8363,6,0,P|24:92|52:172,1,160,12|0,0:0|0:0,0:0:0:0:
292,192,8745,2,0,L|452:192,1,160,2|0,0:0|0:0,0:0:0:0:
176,192,9384,2,0,B|176:112|176:112|256:112,1,160,12|0,0:0|0:0,0:0:0:0:
16,112,9784,2,0,L|184:112,1,160,2|0,0:0|0:0,0:0:0:0:
448,192,10422,6,0,L|284:192,1,160,12|0,0:0|0:0,0:0:0:0:
48,192,10805,2,0,P|24:120|88:80,1,160,2|0,0:0|0:0,0:0:0:0:
4,80,11189,2,0,L|88:80,1,80,2|2,0:0|0:0,0:0:0:0:
312,80,11445,1,12,0:0:0:0:
384,80,11573,1,2,0:0:0:0:
456,80,11701,1,2,0:0:0:0:
232,192,11829,2,0,L|320:192,2,80,8|2|2,0:0|0:0|0:0,0:0:0:0:
392,272,12213,2,0,L|384:192,1,80,8|8,0:0|0:0,0:0:0:0:
120,88,12468,6,0,P|68:136|116:192,1,160,6|8,0:0|0:0,0:0:0:0:
196,192,12847,2,0,B|276:192|276:192|324:260,1,160,2|2,0:0|0:0,0:0:0:0:
180,192,13227,2,0,L|176:280,1,80,8|0,0:0|0:0,0:0:0:0:
444,328,13480,2,0,B|444:248|444:248|364:248,1,160,2|8,0:0|0:0,0:0:0:0:
217,311,13860,2,0,L|365:247,1,160,2|2,0:0|0:0,0:0:0:0:
217,311,14240,2,0,L|212:224,1,80,8|8,0:0|0:0,0:0:0:0:
300,232,14493,6,0,L|368:184,2,80,2|2|8,0:0|0:0|0:0,0:0:0:0:
217,311,14873,2,0,L|57:311,1,160,2|2,0:0|0:0,0:0:0:0:
200,192,15252,2,0,L|116:192,1,80,8|0,0:0|0:0,0:0:0:0:
365,193,15505,1,2,0:0:0:0:
412,124,15632,1,2,0:0:0:0:
332,84,15759,1,8,0:0:0:0:
108,84,15885,1,0,0:0:0:0:
188,84,16012,1,2,0:0:0:0:
268,84,16138,1,2,0:0:0:0:
44,84,16265,2,0,L|40:168,1,80,8|2,0:0|0:0,0:0:0:0:
332,84,16518,6,0,P|384:112|380:204,1,160,6|8,0:0|0:0,0:0:0:0:
300,204,16909,2,0,P|236:244|272:304,1,160,2|2,0:0|0:0,0:0:0:0:
416,204,17300,2,0,L|420:292,1,80,8|0,0:0|0:0,0:0:0:0:
172,192,17561,2,0,B|12:192,1,160,2|8,0:0|0:0,0:0:0:0:
156,112,17945,2,0,P|231:137|242:231,1,160,2|2,0:0|0:0,0:0:0:0:
24,272,18330,2,0,L|32:184,1,80,8|0,0:0|0:0,0:0:0:0:
160,192,18586,5,2,0:0:0:0:
236,172,18714,1,2,0:0:0:0:
160,192,18843,1,8,0:0:0:0:
236,172,18971,1,8,0:0:0:0:
380,172,19099,2,0,L|384:80,1,80,2|2,0:0|0:0,0:0:0:0:
248,68,19355,2,0,L|168:52,1,80,8|8,0:0|0:0,0:0:0:0:
464,12,19612,2,0,B|463:92|463:92|371:92,1,160,8|2,0:0|0:0,0:0:0:0:
303,92,19993,2,0,L|387:92,2,80,8|8|4,0:0|0:0|0:0,0:0:0:0:
448,96,20374,2,0,L|452:180,1,80,8|0,0:0|0:0,0:0:0:0:
160,272,20628,6,0,L|156:180,1,80,6|0,0:0|0:0,0:0:0:0:
304,192,20883,2,0,L|216:192,1,80,8|0,0:0|0:0,0:0:0:0:
312,192,21137,2,0,L|316:104,1,80,2|2,0:0|0:0,0:0:0:0:
108,112,21391,2,0,L|28:112,1,80,8|0,0:0|0:0,0:0:0:0:
264,192,21645,6,0,L|176:192,1,80,2|2,0:0|0:0,0:0:0:0:
96,192,21900,1,8,0:0:0:0:
328,280,22027,2,0,L|240:280,1,80,2|0,0:0|0:0,0:0:0:0:
160,280,22281,1,2,0:0:0:0:
396,280,22408,2,0,L|488:280,1,80,8|0,0:0|0:0,0:0:0:0:
204,284,22662,6,0,P|152:236|204:180,1,160,2|8,0:0|0:0,0:0:0:0:
288,180,23044,1,0,0:0:0:0:
56,180,23171,2,0,L|52:92,1,80,2|2,0:0|0:0,0:0:0:0:
192,100,23425,2,0,L|276:100,1,80,8|0,0:0|0:0,0:0:0:0:
492,100,23679,6,0,L|400:100,1,80,8|2,0:0|0:0,0:0:0:0:
324,100,23935,1,2,0:0:0:0:
92,192,24063,2,0,L|260:192,1,160,8|2,0:0|0:0,0:0:0:0:
20,100,24448,2,0,L|108:100,1,80,8|0,0:0|0:0,0:0:0:0:
360,100,24704,6,0,P|412:140|360:196,1,160,6|8,0:0|0:0,0:0:0:0:
280,196,25089,1,2,0:0:0:0:
144,196,25217,2,0,L|140:284,1,80,2|2,0:0|0:0,0:0:0:0:
348,340,25473,2,0,L|428:340,1,80,8|0,0:0|0:0,0:0:0:0:
284,340,25730,2,0,B|204:340|204:340|204:256,1,160,2|8,0:0|0:0,0:0:0:0:
284,260,26114,1,0,0:0:0:0:
196,260,26243,2,0,L|120:228,2,80,2|2|8,0:0|0:0|0:0,0:0:0:0:
456,260,26755,6,0,P|472:180|428:120,1,160,2|8,0:0|0:0,0:0:0:0:
356,120,27137,1,2,0:0:0:0:
284,120,27265,2,0,L|368:120,1,80,2|2,0:0|0:0,0:0:0:0:
224,120,27520,2,0,L|136:120,1,80,8|0,0:0|0:0,0:0:0:0:
372,40,27776,2,0,B|452:40|452:40|452:120,1,160,2|8,0:0|0:0,0:0:0:0:
372,120,28159,2,0,L|228:192,1,160,2|2,0:0|0:0,0:0:0:0:
376,192,28542,2,0,L|288:236,1,80,8|0,0:0|0:0,0:0:0:0:
88,228,28797,6,0,P|32:280|80:336,1,160,2|8,0:0|0:0,0:0:0:0:
156,336,29180,1,0,0:0:0:0:
20,336,29308,2,0,L|16:240,1,80,2|2,0:0|0:0,0:0:0:0:
256,116,29563,2,0,L|264:200,1,80,8|0,0:0|0:0,0:0:0:0:
408,192,29818,2,0,P|452:144|396:88,1,160,2|8,0:0|0:0,0:0:0:0:
316,88,30201,1,8,0:0:0:0:
413,88,30329,1,2,0:0:0:0:
334,102,30457,1,2,0:0:0:0:
255,116,30584,1,8,0:0:0:0:
16,116,30840,6,0,P|0:204|52:248,1,160,2|8,0:0|0:0,0:0:0:0:
120,248,31223,1,2,0:0:0:0:
200,248,31350,2,0,L|120:248,1,80,2|2,0:0|0:0,0:0:0:0:
260,248,31606,2,0,L|340:248,1,80,8|0,0:0|0:0,0:0:0:0:
96,56,31861,6,0,B|84:136|84:136|160:156,1,160,2|8,0:0|0:0,0:0:0:0:
240,156,32240,2,0,L|84:192,1,160,2|2,0:0|0:0,0:0:0:0:
228,228,32620,2,0,L|128:252,1,80,8|2,0:0|0:0,0:0:0:0:
376,192,32873,6,0,L|472:192,1,80,6|0,0:0|0:0,0:0:0:0:
228,228,33126,1,8,0:0:0:0:
456,192,33265,2,0,P|504:144|448:88,1,160,6|2,0:0|0:0,0:0:0:0:
284,88,33684,2,0,L|192:88,1,80,8|0,0:0|0:0,0:0:0:0:
451,88,33922,6,0,B|452:168|452:168|372:168,1,160,2|8,0:0|0:0,0:0:0:0:
228,168,34287,2,0,P|176:216|228:268,1,160,2|2,0:0|0:0,0:0:0:0:
372,268,34670,2,0,L|292:268,1,80,8|0,0:0|0:0,0:0:0:0:
140,268,34925,6,0,L|300:268,1,160,2|8,0:0|0:0,0:0:0:0:
212,268,35307,2,0,L|372:268,1,160,2|2,0:0|0:0,0:0:0:0:
228,268,35690,2,0,L|224:356,1,80,8|0,0:0|0:0,0:0:0:0:
456,268,35946,6,0,P|500:220|440:168,1,160,2|8,0:0|0:0,0:0:0:0:
300,168,36339,1,0,0:0:0:0:
216,168,36470,2,0,L|212:88,1,80,2|2,0:0|0:0,0:0:0:0:
352,92,36725,2,0,L|432:92,1,80,8|0,0:0|0:0,0:0:0:0:
160,88,36980,6,0,P|100:120|144:188,1,160,2|8,0:0|0:0,0:0:0:0:
276,192,37358,2,0,L|436:192,1,160,2|2,0:0|0:0,0:0:0:0:
292,120,37736,2,0,L|376:120,1,80,8|0,0:0|0:0,0:0:0:0:
152,188,37988,6,0,B|72:188|72:188|72:108,1,160,2|8,0:0|0:0,0:0:0:0:
212,108,38370,2,0,L|132:108,2,80,2|2|2,0:0|0:0|0:0,0:0:0:0:
356,120,38753,2,0,L|360:28,1,80,8|0,0:0|0:0,0:0:0:0:
120,32,39009,6,0,L|40:32,2,80,2|2|8,0:0|0:0|0:0,0:0:0:0:
260,120,39392,2,0,L|344:120,1,80,8|2,0:0|0:0,0:0:0:0:
116,120,39647,2,0,L|112:200,1,80,2|8,0:0|0:0,0:0:0:0:
200,200,39902,1,0,0:0:0:0:
440,200,40030,6,0,L|360:200,2,80,8|2|2,0:0|0:0|0:0,0:0:0:0:
288,200,40413,1,8,0:0:0:0:
388,200,40541,1,8,0:0:0:0:
488,200,40668,1,4,0:0:0:0:
228,200,40796,2,0,L|224:288,1,80,8|0,0:0|0:0,0:0:0:0:
464,200,41051,6,0,L|468:112,1,80,6|0,0:0|0:0,0:0:0:0:
336,196,41307,2,0,L|332:112,1,80,8|0,0:0|0:0,0:0:0:0:
204,200,41562,2,0,L|208:120,1,80,2|2,0:0|0:0,0:0:0:0:
416,120,41817,2,0,L|496:120,1,80,8|0,0:0|0:0,0:0:0:0:
204,200,42073,6,0,L|44:192,1,160,2|8,0:0|0:0,0:0:0:0:
132,192,42456,1,2,0:0:0:0:
412,199,42583,2,0,L|416:103,1,80,2|2,0:0|0:0,0:0:0:0:
204,200,42839,2,0,L|208:280,1,80,8|0,0:0|0:0,0:0:0:0:
352,200,43094,6,0,L|272:200,1,80,2|2,0:0|0:0,0:0:0:0:
412,199,43349,2,0,L|416:115,1,80,8|0,0:0|0:0,0:0:0:0:
156,112,43605,2,0,L|160:192,1,80,2|2,0:0|0:0,0:0:0:0:
304,112,43860,2,0,L|388:112,1,80,8|2,0:0|0:0,0:0:0:0:
160,192,44115,6,0,B|80:192|80:192|164:192,1,160,8|2,0:0|0:0,0:0:0:0:
380,188,44498,2,0,L|292:188,1,80,2|2,0:0|0:0,0:0:0:0:
388,188,44753,1,2,0:0:0:0:
148,192,44881,2,0,L|64:192,1,80,8|0,0:0|0:0,0:0:0:0:
316,264,45136,6,0,L|476:264,1,160,6|8,0:0|0:0,0:0:0:0:
220,264,45519,2,0,P|168:240|216:172,1,160,2|2,0:0|0:0,0:0:0:0:
348,172,45902,1,8,0:0:0:0:
28,288,46158,2,0,P|4:212|64:172,1,160,2|8,0:0|0:0,0:0:0:0:
312,172,46541,2,0,L|152:172,1,160,2|2,0:0|0:0,0:0:0:0:
16,172,46924,2,0,L|12:92,1,80,8|8,0:0|0:0,0:0:0:0:
236,92,47179,6,0,B|320:92|320:92|320:12,1,160,2|8,0:0|0:0,0:0:0:0:
240,16,47562,1,8,0:0:0:0:
480,20,47690,2,0,L|400:20,1,80,2|2,0:0|0:0,0:0:0:0:
170,56,47945,2,0,L|242:14,1,80,8|0,0:0|0:0,0:0:0:0:
448,96,48200,1,2,0:0:0:0:
368,96,48328,1,2,0:0:0:0:
288,96,48456,1,8,0:0:0:0:
368,96,48583,1,0,0:0:0:0:
224,96,48711,1,2,0:0:0:0:
464,96,48966,1,8,0:0:0:0:
112,96,49222,5,6,0:0:0:0:
256,96,49477,1,8,0:0:0:0:
48,96,49605,2,0,P|12:156|60:220,1,160,2|2,0:0|0:0,0:0:0:0:
200,224,49987,1,8,0:0:0:0:
408,296,50243,2,0,L|248:296,1,160,2|8,0:0|0:0,0:0:0:0:
24,296,50626,2,0,L|184:296,1,160,2|2,0:0|0:0,0:0:0:0:
44,296,51009,2,0,L|40:216,1,80,8|2,0:0|0:0,0:0:0:0:
320,192,51264,5,8,0:0:0:0:
64,192,51519,2,0,L|60:112,1,80,2|8,0:0|0:0,0:0:0:0:
344,36,51775,2,0,L|424:36,1,80,2|2,0:0|0:0,0:0:0:0:
144,192,52030,2,0,L|64:192,1,80,8|0,0:0|0:0,0:0:0:0:
424,36,52285,2,0,P|476:88|421:139,1,160,8|2,0:0|0:0,0:0:0:0:
348,140,52668,1,8,0:0:0:0:
124,140,52796,1,2,0:0:0:0:
368,140,53051,1,2,0:0:0:0:
24,140,53317,5,6,0:0:0:0:
184,232,53567,2,0,L|188:144,1,80,8|8,0:0|0:0,0:0:0:0:
100,152,53817,2,0,L|96:-12,1,160,2|8,0:0|0:0,0:0:0:0:
336,0,54307,2,0,L|332:172,1,160,2|8,0:0|0:0,0:0:0:0:
252,160,54691,1,2,0:0:0:0:
172,160,54819,1,2,0:0:0:0:
412,160,55076,1,8,0:0:0:0:
88,160,55332,6,0,P|36:224|84:264,1,160,2|8,0:0|0:0,0:0:0:0:
156,264,55723,1,2,0:0:0:0:
228,264,55853,2,0,L|84:192,1,160,2|8,0:0|0:0,0:0:0:0:
344,192,56375,2,0,P|392:156|332:104,1,160,2|8,0:0|0:0,0:0:0:0:
260,104,56762,1,8,0:0:0:0:
333,103,56891,1,2,0:0:0:0:
76,104,57149,2,0,L|68:16,1,80,8|0,0:0|0:0,0:0:0:0:
296,24,57407,6,0,B|376:24|376:24|424:96,1,160,2|8,0:0|0:0,0:0:0:0:
333,103,57777,1,2,0:0:0:0:
188,104,57903,2,0,L|180:272,1,160,2|8,0:0|0:0,0:0:0:0:
432,264,58407,2,0,L|288:192,1,160,2|8,0:0|0:0,0:0:0:0:
128,192,58920,1,2,0:0:0:0:
368,192,59177,1,8,0:0:0:0:
28,192,59434,6,0,P|8:248|72:320,1,160,2|8,0:0|0:0,0:0:0:0:
204,320,59815,1,2,0:0:0:0:
340,192,59942,2,0,P|368:264|360:348,1,160,2|8,0:0|0:0,0:0:0:0:
92,320,60450,2,0,L|88:128,1,160,2|8,0:0|0:0,0:0:0:0:
264,160,60959,2,0,L|428:160,1,160,2|8,0:0|0:0,0:0:0:0:
88,160,61467,6,0,P|32:112|88:72,1,160,2|8,0:0|0:0,0:0:0:0:
164,72,61849,2,0,L|324:72,1,160,2|2,0:0|0:0,0:0:0:0:
180,72,62230,2,0,L|176:172,1,80,8|2,0:0|0:0,0:0:0:0:
400,72,62484,2,0,B|480:72|480:72|480:160,1,160,2|8,0:0|0:0,0:0:0:0:
400,152,62866,1,8,0:0:0:0:
176,152,62993,2,0,L|104:192,1,80,2|2,0:0|0:0,0:0:0:0:
376,228,63247,6,0,B|456:228|456:228|372:228,1,160,8|8,0:0|0:0,0:0:0:0:
288,228,63629,1,8,0:0:0:0:
368,228,63757,1,8,0:0:0:0:
280,228,63885,2,0,P|208:268|184:340,1,160,2|2,0:0|0:0,0:0:0:0:
328,336,64270,2,0,L|344:256,1,80,8|0,0:0|0:0,0:0:0:0:
264,256,64526,2,0,B|184:256|184:256|136:192,1,160,2|8,0:0|0:0,0:0:0:0:
216,192,64911,1,2,0:0:0:0:
72,192,65039,2,0,P|32:152|96:96,1,160,2|8,0:0|0:0,0:0:0:0:
168,96,65424,1,2,0:0:0:0:
392,96,65552,6,0,P|448:64|388:20,1,160,2|8,0:0|0:0,0:0:0:0:
320,16,65936,1,2,0:0:0:0:
393,18,66065,2,0,L|460:60,1,80,2|0,0:0|0:0,0:0:0:0:
312,16,66321,2,0,L|308:116,1,80.1712030007929,8|0,0:0|0:0,0:0:0:0:
389,96,66577,2,0,L|461:60,2,80,2|2|8,0:0|0:0|0:0,0:0:0:0:
308,96,66959,1,2,0:0:0:0:
168,96,67087,2,0,L|156:12,1,80,2|2,0:0|0:0,0:0:0:0:
16,16,67342,1,8,0:0:0:0:
400,16,67598,5,12,0:0:0:0:
192,16,67853,2,0,L|188:176,1,160,8|0,0:0|0:0,0:0:0:0:
468,16,68364,1,12,0:0:0:0:
76,16,68630,2,0,L|72:192,1,160,8|0,0:0|0:0,0:0:0:0:
424,176,69140,5,12,0:0:0:0:
210,255,69395,2,0,L|72:175,1,160,8|0,0:0|0:0,0:0:0:0:
408,176,69906,1,12,0:0:0:0:
32,176,70161,2,0,L|28:16,1,160,8|0,0:0|0:0,0:0:0:0:
228,192,70672,5,2,0:0:0:0:
286,169,70800,1,2,0:0:0:0:
286,106,70927,1,2,0:0:0:0:
228,83,71055,1,2,0:0:0:0:
144,164,71183,2,0,L|140:80,1,80,2|2,0:0|0:0,0:0:0:0:
228,192,71433,2,0,L|232:108,1,80,2|2,0:0|0:0,0:0:0:0:
104,164,71683,2,0,L|58:93,1,80,8|8,0:0|0:0,0:0:0:0:
204,192,71933,2,0,L|249:121,1,80,8|8,0:0|0:0,0:0:0:0:
24,164,72183,2,0,L|112:164,1,80,10|10,0:0|0:0,0:0:0:0:
344,192,72433,2,0,L|264:192,1,80,10|10,0:0|0:0,0:0:0:0:
488,192,72697,6,0,P|500:112|440:60,1,160,6|8,0:0|0:0,0:0:0:0:
220,64,73227,1,2,0:0:0:0:
484,64,73492,1,8,0:0:0:0:
112,64,73757,2,0,L|104:240,1,160,2|8,0:0|0:0,0:0:0:0:
264,224,74260,2,0,L|100:224,1,160,2|8,0:0|0:0,0:0:0:0:
436,224,74763,6,0,L|272:224,1,160,2|8,0:0|0:0,0:0:0:0:
116,224,75272,1,2,0:0:0:0:
356,224,75527,1,8,0:0:0:0:
36,224,75782,2,0,P|20:172|76:88,1,160,2|8,0:0|0:0,0:0:0:0:
152,88,76164,2,0,L|312:88,1,160,2|2,0:0|0:0,0:0:0:0:
176,88,76547,2,0,L|168:8,1,80,8|8,0:0|0:0,0:0:0:0:
396,8,76803,6,0,L|400:172,1,160,2|8,0:0|0:0,0:0:0:0:
224,168,77313,1,2,0:0:0:0:
312,168,77441,1,2,0:0:0:0:
400,168,77569,1,8,0:0:0:0:
128,168,77824,2,0,L|124:-8,1,160,2|10,0:0|0:0,0:0:0:0:
404,8,78335,2,0,L|408:184,1,160,2|8,0:0|0:0,0:0:0:0:
56,168,78845,5,2,0:0:0:0:
272,168,79101,1,8,0:0:0:0:
80,168,79356,1,2,0:0:0:0:
344,168,79611,1,8,0:0:0:0:
24,168,79867,2,0,P|16:248|72:320,1,160,2|8,0:0|0:0,0:0:0:0:
148,312,80242,1,2,0:0:0:0:
160,312,80492,1,2,0:0:0:0:
16,312,80617,1,8,0:0:0:0:
344,312,80867,5,6,0:0:0:0:
432,312,80995,1,0,0:0:0:0:
496,252,81123,1,0,0:0:0:0:
500,164,81251,1,8,0:0:0:0:
356,164,81508,1,2,0:0:0:0:
500,164,81636,2,0,L|504:56,1,80,2|0,0:0|0:0,0:0:0:0:
276,84,81892,1,8,0:0:0:0:
204,84,82019,1,0,0:0:0:0:
132,84,82147,1,0,0:0:0:0:
276,4,82274,1,8,0:0:0:0:
204,4,82402,1,0,0:0:0:0:
132,4,82530,1,0,0:0:0:0:
276,4,82657,2,0,L|276:92,1,80
132,84,82913,6,0,L|72:156,3,80,8|0|0|8,0:0|0:0|0:0|0:0,0:0:0:0:
208,144,83556,1,0,0:0:0:0:
64,144,83692,2,0,L|56:252,1,80
304,224,83965,1,8,0:0:0:0:
384,224,84087,1,2,0:0:0:0:
464,224,84209,1,2,0:0:0:0:
320,144,84335,2,0,L|160:144,1,160,8|0,0:0|0:0,0:0:0:0:
304,144,84715,2,0,L|308:52,1,80
84,64,84968,5,8,0:0:0:0:
156,64,85095,1,2,0:0:0:0:
228,64,85223,1,0,0:0:0:0:
300,64,85350,1,8,0:0:0:0:
172,64,85606,1,2,0:0:0:0:
316,64,85733,2,0,L|396:64,1,80
168,64,85989,2,0,P|120:108|168:176,1,160,8|0,0:0|0:0,0:0:0:0:
308,176,86372,2,0,L|228:192,2,80,8|2|2,0:0|0:0|0:0,0:0:0:0:
165,175,86755,2,0,L|161:271,1,80
388,256,87010,5,8,0:0:0:0:
468,256,87138,1,0,0:0:0:0:
468,336,87265,1,0,0:0:0:0:
388,336,87393,2,0,L|224:336,1,160,8|0,0:0|0:0,0:0:0:0:
308,336,87776,2,0,L|392:336,1,80
100,192,88027,1,4,0:0:0:0:
436,192,88398,1,4,0:0:0:0:
136,192,88770,1,4,0:0:0:0:
484,192,89049,6,0,L|488:92,1,80,6|0,0:0|0:0,0:0:0:0:
344,112,89304,2,0,L|340:24,1,80,8|0,0:0|0:0,0:0:0:0:
420,32,89559,2,0,L|340:32,1,80,2|2,0:0|0:0,0:0:0:0:
196,32,89814,2,0,L|192:112,1,80,8|0,0:0|0:0,0:0:0:0:
436,112,90070,2,0,L|352:112,2,80,2|2|8,0:0|0:0|0:0,0:0:0:0:
196,192,90449,1,2,0:0:0:0:
124,192,90576,1,0,0:0:0:0:
52,192,90702,1,2,0:0:0:0:
308,192,90829,2,0,L|404:192,1,80,8|0,0:0|0:0,0:0:0:0:
84,192,91082,6,0,L|80:280,1,80,2|2,0:0|0:0,0:0:0:0:
220,344,91337,2,0,L|224:260,1,80,8|8,0:0|0:0,0:0:0:0:
364,192,91592,2,0,L|360:280,1,80,2|2,0:0|0:0,0:0:0:0:
143,264,91847,2,0,L|239:264,1,80,8|8,0:0|0:0,0:0:0:0:
16,192,92103,2,0,L|184:192,1,160,2|2,0:0|0:0,0:0:0:0:
400,192,92486,2,0,L|408:88,1,80,8|2,0:0|0:0,0:0:0:0:
84,192,92869,2,0,L|76:112,1,80,8|2,0:0|0:0,0:0:0:0:
316,112,93124,6,0,L|488:112,1,160,6|8,0:0|0:0,0:0:0:0:
188,36,93505,2,0,L|360:36,1,160,2|2,0:0|0:0,0:0:0:0:
480,36,93885,2,0,L|389:36,1,80,8|8,0:0|0:0,0:0:0:0:
176,192,94138,2,0,L|4:192,1,160,2|8,0:0|0:0,0:0:0:0:
304,116,94519,2,0,L|132:116,1,160,2|2,0:0|0:0,0:0:0:0:
284,116,94903,2,0,L|280:200,1,80,8|8,0:0|0:0,0:0:0:0:
48,196,95160,6,0,P|4:256|56:308,1,160,2|8,0:0|0:0,0:0:0:0:
128,308,95544,1,8,0:0:0:0:
352,308,95672,1,2,0:0:0:0:
112,308,95928,1,8,0:0:0:0:
456,308,96184,2,0,L|460:216,1,80,2|2,0:0|0:0,0:0:0:0:
324,228,96440,2,0,L|408:228,1,80,8|8,0:0|0:0,0:0:0:0:
180,228,96696,2,0,L|176:136,1,80,2|2,0:0|0:0,0:0:0:0:
316,307,96952,2,0,L|324:228,1,80,8|0,0:0|0:0,0:0:0:0:
100,224,97209,6,0,L|12:224,1,80,2|0,0:0|0:0,0:0:0:0:
240,228,97465,1,8,0:0:0:0:
460,228,97593,2,0,P|496:184|432:128,1,160,2|2,0:0|0:0,0:0:0:0:
288,128,97977,2,0,L|376:128,1,80,8|8,0:0|0:0,0:0:0:0:
128,128,98233,2,0,L|36:128,2,80,2|2|8,0:0|0:0|0:0,0:0:0:0:
352,44,98617,2,0,L|188:44,1,160,2|2,0:0|0:0,0:0:0:0:
336,44,99002,1,8,0:0:0:0:
96,48,99258,6,0,L|92:148,1,80,2|2,0:0|0:0,0:0:0:0:
416,44,99514,2,0,L|420:140,1,80,8|0,0:0|0:0,0:0:0:0:
172,127,99770,2,0,L|92:127,1,80,2|2,0:0|0:0,0:0:0:0:
332,192,100026,2,0,L|232:192,1,80,8|0,0:0|0:0,0:0:0:0:
492,192,100282,2,0,B|492:272|492:272|412:272,1,160,8|2,0:0|0:0,0:0:0:0:
340,272,100666,1,10,0:0:0:0:
420,272,100795,2,0,L|424:188,1,80,8|4,0:0|0:0,0:0:0:0:
164,192,101051,1,8,0:0:0:0:
484,192,101307,6,0,P|492:120|408:60,1,160,6|8,0:0|0:0,0:0:0:0:
352,64,101691,1,8,0:0:0:0:
272,63,101819,2,0,L|432:63,1,160,2|8,0:0|0:0,0:0:0:0:
72,64,102332,2,0,L|64:252,1,160,2|8,0:0|0:0,0:0:0:0:
152,224,102717,1,8,0:0:0:0:
240,224,102845,2,0,L|152:224,1,80,2|2,0:0|0:0,0:0:0:0:
16,224,103101,1,8,0:0:0:0:
336,224,103358,5,2,0:0:0:0:
248,224,103486,1,2,0:0:0:0:
344,224,103614,1,8,0:0:0:0:
256,224,103742,2,0,L|100:192,1,160,2|2,0:0|0:0,0:0:0:0:
177,206,104127,2,0,L|99:191,1,80,8|0,0:0|0:0,0:0:0:0:
360,108,104383,2,0,L|200:108,1,160,2|8,0:0|0:0,0:0:0:0:
60,108,104762,2,0,B|60:28|60:28|140:28,1,160,2|2,0:0|0:0,0:0:0:0:
284,28,105142,2,0,L|288:116,1,80,8|0,0:0|0:0,0:0:0:0:
60,108,105395,6,0,P|12:168|56:224,1,160,2|8,0:0|0:0,0:0:0:0:
136,224,105775,1,0,0:0:0:0:
276,224,105901,2,0,L|280:320,1,80,2|2,0:0|0:0,0:0:0:0:
200,304,106155,2,0,L|120:304,1,80,8|0,0:0|0:0,0:0:0:0:
344,224,106408,2,0,B|424:224|424:224|424:308,1,160,2|8,0:0|0:0,0:0:0:0:
344,304,106791,1,8,0:0:0:0:
264,304,106919,2,0,L|424:304,1,160,2|8,0:0|0:0,0:0:0:0:
104,192,107431,6,0,L|280:192,1,160,2|8,0:0|0:0,0:0:0:0:
344,192,107815,1,8,0:0:0:0:
200,192,107943,2,0,B|120:192|120:192|120:100,1,160,2|8,0:0|0:0,0:0:0:0:
440,32,108454,2,0,L|280:32,1,160,2|8,0:0|0:0,0:0:0:0:
120,32,108967,1,2,0:0:0:0:
376,32,109224,2,0,L|384:128,1,80,8|8,0:0|0:0,0:0:0:0:
124,108,109481,6,0,P|68:164|124:204,1,160,2|8,0:0|0:0,0:0:0:0:
196,204,109863,1,2,0:0:0:0:
60,108,109991,2,0,L|52:272,1,160,2|8,0:0|0:0,0:0:0:0:
436,268,110502,2,0,L|288:204,1,160,2|8,0:0|0:0,0:0:0:0:
368,204,110885,1,8,0:0:0:0:
140,204,111012,2,0,L|52:192,1,80,2|2,0:0|0:0,0:0:0:0:
344,112,111268,2,0,L|440:84,1,80,8|0,0:0|0:0,0:0:0:0:
140,24,111523,6,0,P|88:64|140:128,1,160,2|8,0:0|0:0,0:0:0:0:
376,192,111906,2,0,P|428:232|376:296,1,160,2|2,0:0|0:0,0:0:0:0:
236,296,112289,1,8,0:0:0:0:
476,192,112544,2,0,B|476:112|476:112|392:112,1,160,2|8,0:0|0:0,0:0:0:0:
316,112,112927,1,2,0:0:0:0:
176,112,113055,2,0,L|16:112,1,160,2|8,0:0|0:0,0:0:0:0:
400,112,113566,6,0,P|452:72|396:24,1,160,2|8,0:0|0:0,0:0:0:0:
316,24,113949,1,8,0:0:0:0:
396,24,114076,1,2,0:0:0:0:
140,24,114332,1,8,0:0:0:0:
348,24,114587,1,2,0:0:0:0:
92,24,114842,2,0,L|88:116,1,80,8|0,0:0|0:0,0:0:0:0:
176,144,115098,2,0,L|336:144,1,160,2|8,0:0|0:0,0:0:0:0:
16,24,115608,5,12,0:0:0:0:
328,24,115863,2,0,L|492:24,1,160,8|0,0:0|0:0,0:0:0:0:
36,24,116360,1,12,0:0:0:0:
348,24,116615,2,0,L|512:24,1,160,8|0,0:0|0:0,0:0:0:0:
68,24,117125,5,12,0:0:0:0:
324,24,117381,2,0,L|328:192,1,160,8|0,0:0|0:0,0:0:0:0:
72,184,117891,1,12,0:0:0:0:
336,184,118146,2,0,L|168:184,1,160,8|0,0:0|0:0,0:0:0:0:
496,184,118657,5,12,0:0:0:0:
184,184,118912,2,0,L|20:184,1,160,8|0,0:0|0:0,0:0:0:0:
476,184,119423,1,12,0:0:0:0:
164,184,119678,2,0,L|0:184,1,160,8|0,0:0|0:0,0:0:0:0:
423,343,120189,5,12,0:0:0:0:
167,343,120444,2,0,L|163:175,1,160,8|0,0:0|0:0,0:0:0:0:
419,183,120955,1,12,0:0:0:0:
155,183,121210,2,0,L|323:183,1,160,2|0,0:0|0:0,0:0:0:0:
80,108,121734,2,0,L|248:108,1,160,2|0,0:0|0:0,0:0:0:0:
20,32,122244,2,0,L|188:32,1,160,2|0,0:0|0:0,0:0:0:0:
492,32,122742,6,0,L|496:192,1,160,8|2,0:0|0:0,0:0:0:0:
256,124,123509,2,0,L|252:316,1,160,8|2,0:0|0:0,0:0:0:0:
16,284,124277,2,0,L|188:284,1,160,8|2,0:0|0:0,0:0:0:0:
432,192,125044,5,8,0:0:0:0:
176,192,125300,2,0,L|172:28,1,160,2|0,0:0|0:0,0:0:0:0:
332,12,125812,1,2,0:0:0:0:
76,192,126324,1,2,0:0:0:0:
492,192,126835,6,0,L|324:192,1,160,8|2,0:0|0:0,0:0:0:0:
72,192,127603,2,0,L|217:108,1,160,8|2,0:0|0:0,0:0:0:0:
468,192,128370,2,0,L|384:46,1,160,8|2,0:0|0:0,0:0:0:0:
132,52,129138,5,8,0:0:0:0:
372,52,129394,2,0,L|376:216,1,160,2|0,0:0|0:0,0:0:0:0:
216,212,129906,1,2,0:0:0:0:
120,144,130162,1,0,0:0:0:0:
216,212,130417,1,2,0:0:0:0:
344,308,130673,1,2,0:0:0:0:
16,216,130918,6,0,L|12:52,1,160,8|2,0:0|0:0,0:0:0:0:
256,148,131686,2,0,L|260:340,1,160,8|2,0:0|0:0,0:0:0:0:
496,308,132454,2,0,L|492:148,1,160,8|2,0:0|0:0,0:0:0:0:
232,192,133222,5,8,0:0:0:0:
488,192,133478,2,0,L|492:28,1,160,2|0,0:0|0:0,0:0:0:0:
332,12,133990,1,2,0:0:0:0:
104,8,134502,1,2,0:0:0:0:
484,192,135014,6,0,L|320:192,1,160,8|2,0:0|0:0,0:0:0:0:
68,192,135782,2,0,L|240:192,1,160,8|2,0:0|0:0,0:0:0:0:
484,192,136551,2,0,L|488:16,1,160,8|2,0:0|0:0,0:0:0:0:
276,192,137319,5,8,0:0:0:0:
20,356,137575,2,0,L|16:192,1,160,2|0,0:0|0:0,0:0:0:0:
176,196,138087,1,2,0:0:0:0:
280,104,138343,1,0,0:0:0:0:
196,0,138599,1,0,0:0:0:0:
36,0,138855,1,0,0:0:0:0:
364,0,139081,5,6,0:0:0:0:
156,0,139336,1,8,0:0:0:0:
248,0,139463,2,0,P|304:56|248:112,1,176.000005371094,2|2,0:0|0:0,0:0:0:0:
108,112,139846,2,0,L|104:220,1,88.000002685547,8|2,0:0|0:0,0:0:0:0:
360,228,140102,2,0,L|188:192,2,176.000005371094,2|8|2,0:0|0:0|0:0,0:0:0:0:
40,312,140868,6,0,L|32:128,1,176.000005371094,8|2,0:0|0:0,0:0:0:0:
136,116,141251,1,2,0:0:0:0:
400,192,141378,2,0,L|404:72,1,88.000002685547,8|0,0:0|0:0,0:0:0:0:
139,291,141634,2,0,L|360:192,1,240.000009155274,2|8,0:0|0:0,0:0:0:0:
16,292,142144,2,0,L|12:96,1,176.000005371094,2|8,0:0|0:0,0:0:0:0:
358,192,142657,2,0,L|137:93,1,240.000009155274,2|8,0:0|0:0,0:0:0:0:
492,92,143171,5,6,0:0:0:0:
160,92,143428,2,0,P|120:176|244:256,1,264.000008056641,8|2,0:0|0:0,0:0:0:0:
384,256,143942,1,8,0:0:0:0:
44,256,144199,2,0,L|208:192,1,176.000005371094,2|8,0:0|0:0,0:0:0:0:
16,192,144713,1,2,0:0:0:0:
368,192,144970,6,0,B|456:192|456:192|456:104,1,176.000005371094,8|2,0:0|0:0,0:0:0:0:
368,104,145353,1,2,0:0:0:0:
120,104,145480,2,0,L|28:104,1,88.000002685547,8|2,0:0|0:0,0:0:0:0:
304,192,145734,2,0,L|480:192,1,176.000005371094,2|8,0:0|0:0,0:0:0:0:
24,192,146241,5,2,0:0:0:0:
200,192,146496,1,8,0:0:0:0:
376,192,146751,1,2,0:0:0:0:
112,192,147006,1,8,0:0:0:0:
468,192,147262,5,6,0:0:0:0:
96,192,147517,2,0,L|460:192,1,360.000013732911,2|2,0:0|0:0,0:0:0:0:
368,192,148028,1,8,0:0:0:0:
28,92,148283,2,0,L|212:92,2,176.000005371094,2|8|2,0:0|0:0|0:0,0:0:0:0:
432,92,149049,6,0,L|440:272,1,176.000005371094,8|2,0:0|0:0,0:0:0:0:
104,268,149560,1,8,0:0:0:0:
488,280,149815,2,0,L|492:96,1,176.000005371094,2|8,0:0|0:0,0:0:0:0:
168,192,150326,2,0,L|392:104,1,240.000009155274,2|8,0:0|0:0,0:0:0:0:
76,192,150836,1,2,0:0:0:0:
352,192,151092,1,8,0:0:0:0:
20,192,151347,5,6,0:0:0:0:
360,28,151602,2,0,P|400:112|276:192,1,264.000008056641,2|2,0:0|0:0,0:0:0:0:
136,192,152113,1,8,0:0:0:0:
476,192,152368,2,0,L|312:128,1,176.000005371094,2|8,0:0|0:0,0:0:0:0:
504,128,152874,1,2,0:0:0:0:
152,128,153127,6,0,B|64:128|64:128|64:40,1,176.000005371094,2|0,0:0|0:0,0:0:0:0:
152,40,153507,1,0,0:0:0:0:
400,40,153633,2,0,L|492:40,1,88.000002685547,2|2,0:0|0:0,0:0:0:0:
216,128,153886,2,0,L|40:128,1,176.000005371094,2|8,0:0|0:0,0:0:0:0:
376,128,154396,1,2,0:0:0:0:
216,128,154651,1,8,0:0:0:0:
216,288,154906,1,2,0:0:0:0:
376,288,155161,1,8,0:0:0:0:
52,288,155417,6,0,L|40:204,1,80,6|0,0:0|0:0,0:0:0:0:
92,160,155682,1,0,0:0:0:0:
236,160,155947,2,0,L|244:0,1,160,0|2,0:0|0:0,0:0:0:0:
484,192,156478,2,0,L|328:160,1,160,8|2,0:0|0:0,0:0:0:0:
408,176,156851,1,8,0:0:0:0:
484,192,156975,1,2,0:0:0:0:
260,192,157224,1,2,0:0:0:0:
40,192,157473,6,0,P|4:132|48:52,1,160,8|2,0:0|0:0,0:0:0:0:
112,56,157854,2,0,L|256:128,1,160,2|8,0:0|0:0,0:0:0:0:
184,128,158235,1,2,0:0:0:0:
344,56,158489,2,0,L|252:56,2,80,8|0|8,0:0|0:0|0:0,0:0:0:0:
416,56,158871,2,0,P|468:112|416:156,1,160,2|8,0:0|0:0,0:0:0:0:
344,156,159254,2,0,L|424:156,1,80,2|0,0:0|0:0,0:0:0:0:
180,156,159510,5,8,0:0:0:0:
252,156,159637,1,0,0:0:0:0:
324,156,159765,1,2,0:0:0:0:
148,156,160020,2,0,L|140:316,1,160,0|2,0:0|0:0,0:0:0:0:
428,192,160531,2,0,P|468:264|416:312,1,160,8|2,0:0|0:0,0:0:0:0:
348,312,160914,1,2,0:0:0:0:
276,312,161042,2,0,L|192:312,2,80,8|0|2,0:0|0:0|0:0,0:0:0:0:
24,312,161537,6,0,L|20:148,1,160,8|2,0:0|0:0,0:0:0:0:
106,152,161927,1,2,0:0:0:0:
192,152,162057,2,0,L|196:320,1,160,0|2,0:0|0:0,0:0:0:0:
460,192,162578,2,0,L|276:192,1,160,8|2,0:0|0:0,0:0:0:0:
237,149,162968,1,0,0:0:0:0:
248,74,163098,1,8,0:0:0:0:
321,53,163228,1,0,0:0:0:0:
371,110,163359,1,2,0:0:0:0:
341,179,163480,1,2,0:0:0:0:
128,192,163601,6,0,B|48:192|48:192|48:272,1,160,8|0,0:0|0:0,0:0:0:0:
184,288,163982,2,0,L|264:288,2,80,8|2|0,0:0|0:0|0:0,0:0:0:0:
272,288,164363,2,0,L|352:288,1,80,2|0,0:0|0:0,0:0:0:0:
96,284,164617,2,0,P|60:216|112:160,1,160,8|2,0:0|0:0,0:0:0:0:
196,160,164999,1,2,0:0:0:0:
436,288,165126,2,0,L|440:200,1,80,8|0,0:0|0:0,0:0:0:0:
192,208,165380,2,0,L|112:192,1,80,2|0,0:0|0:0,0:0:0:0:
352,192,165634,5,8,0:0:0:0:
428,152,165761,1,0,0:0:0:0:
424,64,165889,1,2,0:0:0:0:
344,24,166016,1,2,0:0:0:0:
208,24,166144,2,0,L|48:24,1,160,8|2,0:0|0:0,0:0:0:0:
128,24,166527,1,0,0:0:0:0:
272,116,166655,1,8,0:0:0:0:
200,116,166782,1,0,0:0:0:0:
272,116,166910,1,2,0:0:0:0:
200,116,167038,1,2,0:0:0:0:
424,116,167165,2,0,B|504:116|504:116|504:200,1,160,8|2,0:0|0:0,0:0:0:0:
116,44,167676,6,0,P|64:96|112:148,1,160,8|2,0:0|0:0,0:0:0:0:
192,148,168059,1,0,0:0:0:0:
272,148,168187,2,0,L|276:240,1,80,8|0,0:0|0:0,0:0:0:0:
132,304,168442,2,0,L|136:216,1,80,2|2,0:0|0:0,0:0:0:0:
216,224,168697,1,8,0:0:0:0:
292,196,168825,1,0,0:0:0:0:
292,116,168953,1,2,0:0:0:0:
220,80,169080,1,0,0:0:0:0:
364,24,169208,2,0,L|284:24,1,80,8|0,0:0|0:0,0:0:0:0:
204,24,169463,2,0,L|120:24,1,80,2|0,0:0|0:0,0:0:0:0:
352,268,169719,6,0,L|376:192,1,80,8|0,0:0|0:0,0:0:0:0:
276,268,169974,2,0,L|300:192,1,80,2|0,0:0|0:0,0:0:0:0:
196,268,170229,2,0,L|220:192,1,80,8|0,0:0|0:0,0:0:0:0:
120,268,170485,2,0,L|144:192,1,80,2|0,0:0|0:0,0:0:0:0:
424,104,170740,6,0,L|328:104,1,80,8|0,0:0|0:0,0:0:0:0:
432,104,170997,2,0,L|340:104,1,80,2|0,0:0|0:0,0:0:0:0:
440,104,171255,1,8,0:0:0:0:
501,148,171383,1,8,0:0:0:0:
492,224,171512,1,2,0:0:0:0:
421,252,171641,1,0,0:0:0:0:
168,252,171770,6,0,L|4:252,1,160,6|8,0:0|0:0,0:0:0:0:
140,252,172156,1,0,0:0:0:0:
272,252,172285,2,0,L|276:356,1,80,2|2,0:0|0:0,0:0:0:0:
48,332,172542,2,0,L|140:332,1,80,8|0,0:0|0:0,0:0:0:0:
412,332,172800,2,0,P|456:304|400:236,1,160,2|8,0:0|0:0,0:0:0:0:
316,236,173182,1,0,0:0:0:0:
456,236,173310,2,0,L|464:144,1,80,2|2,0:0|0:0,0:0:0:0:
220,112,173565,2,0,L|132:112,1,80,8|0,0:0|0:0,0:0:0:0:
424,156,173821,6,0,L|432:64,1,80,2|0,0:0|0:0,0:0:0:0:
288,76,174076,2,0,L|280:168,1,80,8|8,0:0|0:0,0:0:0:0:
56,192,174331,2,0,L|152:192,1,80,2|2,0:0|0:0,0:0:0:0:
281,155,174587,2,0,L|201:155,1,80,8|0,0:0|0:0,0:0:0:0:
428,156,174842,2,0,P|480:112|424:68,1,160,2|8,0:0|0:0,0:0:0:0:
336,68,175225,1,0,0:0:0:0:
112,68,175353,2,0,L|20:68,1,80,2|2,0:0|0:0,0:0:0:0:
256,68,175608,1,8,0:0:0:0:
40,68,175736,1,0,0:0:0:0:
280,68,175863,6,0,L|440:68,1,160,2|8,0:0|0:0,0:0:0:0:
320,68,176246,1,0,0:0:0:0:
96,68,176374,2,0,L|92:164,1,80,2|2,0:0|0:0,0:0:0:0:
236,192,176629,2,0,L|152:192,1,80,8|0,0:0|0:0,0:0:0:0:
396,192,176885,2,0,L|220:192,1,160,0|8,0:0|0:0,0:0:0:0:
148,192,177268,1,0,0:0:0:0:
412,192,177395,2,0,L|416:284,1,80,2|2,0:0|0:0,0:0:0:0:
276,312,177651,2,0,L|196:312,1,80,8|8,0:0|0:0,0:0:0:0:
476,312,177906,6,0,B|476:232|476:232|404:192,1,160,2|8,0:0|0:0,0:0:0:0:
316,192,178289,1,2,0:0:0:0:
76,192,178417,2,0,L|100:108,1,80,2|0,0:0|0:0,0:0:0:0:
392,272,178672,2,0,L|368:188,1,80,8|0,0:0|0:0,0:0:0:0:
61,117,178927,2,0,L|427:117,1,360.000013732911,2|8,0:0|0:0,0:0:0:0:
180,116,179438,1,2,0:0:0:0:
496,116,179693,1,8,0:0:0:0:
84,118,179948,6,0,L|164:118,2,80,6|2|8,0:0|0:0|0:0,0:0:0:0:
324,120,180331,2,0,B|404:120|404:120|404:200,1,160,2|2,0:0|0:0,0:0:0:0:
164,200,180714,2,0,L|248:200,1,80,8|2,0:0|0:0,0:0:0:0:
25,120,180970,2,0,L|163:200,1,160,2|8,0:0|0:0,0:0:0:0:
252,200,181353,1,0,0:0:0:0:
484,200,181480,2,0,L|400:200,1,80,2|2,0:0|0:0,0:0:0:0:
136,200,181736,2,0,L|52:200,1,80,8|0,0:0|0:0,0:0:0:0:
376,200,181991,6,0,P|444:264|376:316,1,200,2|8,0:0|0:0,0:0:0:0:
292,316,182374,1,8,0:0:0:0:
68,316,182502,2,0,L|176:316,1,80,2|2,0:0|0:0,0:0:0:0:
388,192,182757,2,0,L|280:192,1,80,8|0,0:0|0:0,0:0:0:0:
48,192,183012,2,0,L|224:192,1,160,2|8,0:0|0:0,0:0:0:0:
120,192,183395,1,2,0:0:0:0:
344,96,183523,2,0,L|168:96,1,160,0|8,0:0|0:0,0:0:0:0:
488,96,184016,6,0,P|504:152|468:248,1,160,2|8,0:0|0:0,0:0:0:0:
384,248,184402,1,8,0:0:0:0:
240,248,184531,2,0,L|236:336,1,80,2|2,0:0|0:0,0:0:0:0:
476,340,184788,2,0,L|396:340,1,80,8|0,0:0|0:0,0:0:0:0:
128,340,185046,2,0,P|76:308|132:252,1,160,2|8,0:0|0:0,0:0:0:0:
368,192,185425,2,0,B|368:112|368:112|288:112,1,160,2|2,0:0|0:0,0:0:0:0:
48,112,185805,1,8,0:0:0:0:
380,112,186058,5,12,0:0:0:0:
28,112,186313,2,0,L|20:272,1,160,8|0,0:0|0:0,0:0:0:0:
100,272,186697,1,0,0:0:0:0:
352,276,186825,1,12,0:0:0:0:
24,272,187094,1,8,0:0:0:0:
184,272,187342,1,0,0:0:0:0:
264,272,187467,1,0,0:0:0:0:
488,272,187591,5,12,0:0:0:0:
232,272,187848,2,0,L|372:192,1,160,8|0,0:0|0:0,0:0:0:0:
452,192,188234,1,0,0:0:0:0:
172,192,188363,1,12,0:0:0:0:
496,192,188621,2,0,L|500:32,1,160,8|0,0:0|0:0,0:0:0:0:
420,32,189007,1,0,0:0:0:0:
164,32,189136,5,12,0:0:0:0:
488,32,189393,1,8,0:0:0:0:
328,32,189651,1,0,0:0:0:0:
408,32,189779,1,0,0:0:0:0:
140,32,189908,1,12,0:0:0:0:
468,32,190166,2,0,L|304:32,1,160,8|0,0:0|0:0,0:0:0:0:
388,32,190550,1,0,0:0:0:0:
132,32,190678,5,12,0:0:0:0:
368,32,190933,2,0,P|392:120|368:196,1,160,8|0,0:0|0:0,0:0:0:0:
296,184,191316,1,0,0:0:0:0:
52,184,191444,1,12,0:0:0:0:
388,184,191699,1,8,0:0:0:0:
148,184,191954,1,8,0:0:0:0:
268,184,192082,1,8,0:0:0:0:
44,80,192210,6,0,L|408:80,1,360.000013732911,12|8,0:0|0:0,0:0:0:0:
180,80,192718,1,8,0:0:0:0:
68,80,192845,1,8,0:0:0:0:
408,80,192972,6,0,L|20:80,1,360.000013732911,12|8,0:0|0:0,0:0:0:0:
248,80,193481,1,8,0:0:0:0:
136,80,193608,1,8,0:0:0:0:
392,80,193735,2,0,P|420:160|400:240,1,160,12|8,0:0|0:0,0:0:0:0:
164,232,194243,1,8,0:0:0:0:
292,232,194371,1,8,0:0:0:0:
32,232,194498,1,12,0:0:0:0:
432,232,194752,5,12,0:0:0:0:
256,192,195006,12,0,196032,0:0:0:0:
432,192,196290,6,0,P|480:136|424:88,1,160,6|8,0:0|0:0,0:0:0:0:
348,88,196668,1,2,0:0:0:0:
124,88,196794,2,0,L|120:188,1,80,2|2,0:0|0:0,0:0:0:0:
352,192,197046,2,0,L|432:192,1,80,8|2,0:0|0:0,0:0:0:0:
192,192,197298,1,2,0:0:0:0:
192,192,197424,1,2,0:0:0:0:
272,192,197550,1,8,0:0:0:0:
192,192,197676,1,2,0:0:0:0:
336,192,197802,1,0,0:0:0:0:
16,192,198057,1,8,0:0:0:0:
272,192,198312,5,2,0:0:0:0:
348,168,198440,1,2,0:0:0:0:
364,88,198569,1,8,0:0:0:0:
296,44,198698,1,8,0:0:0:0:
156,48,198827,2,0,L|152:136,1,80,2|2,0:0|0:0,0:0:0:0:
292,192,199089,2,0,L|288:112,1,80,8|2,0:0|0:0,0:0:0:0:
52,48,199351,2,0,L|48:132,1,80,2|0,0:0|0:0,0:0:0:0:
192,192,199606,1,8,0:0:0:0:
272,192,199733,1,2,0:0:0:0:
352,192,199861,1,2,0:0:0:0:
272,192,199989,1,0,0:0:0:0:
424,192,200116,2,0,L|432:296,1,80,8|0,0:0|0:0,0:0:0:0:
180,296,200358,6,0,L|80:296,1,80,2|2,0:0|0:0,0:0:0:0:
332,296,200621,1,8,0:0:0:0:
68,296,200748,2,0,L|64:212,1,80,2|0,0:0|0:0,0:0:0:0:
152,192,201003,1,2,0:0:0:0:
380,192,201131,2,0,L|296:192,1,80,8|0,0:0|0:0,0:0:0:0:
432,192,201386,2,0,L|436:104,1,80,2|2,0:0|0:0,0:0:0:0:
212,108,201640,2,0,L|300:108,1,80,8|2,0:0|0:0,0:0:0:0:
160,108,201894,2,0,L|156:28,1,80,2|2,0:0|0:0,0:0:0:0:
380,28,202148,2,0,L|464:28,1,80,8|2,0:0|0:0,0:0:0:0:
128,28,202402,6,0,P|60:88|144:184,1,240.000009155274,12|0,0:0|0:0,0:0:0:0:
424,184,202793,2,0,L|176:184,1,240.000009155274,8|0,0:0|0:0,0:0:0:0:
476,184,203445,2,0,L|236:184,1,240.000009155274,12|0,0:0|0:0,0:0:0:0:
48,184,203836,2,0,P|80:72|56:184,1,360.000013732911,8|0,0:0|0:0,0:0:0:0:
